osu file format v14

[General]
AudioFilename: audio.mp3
AudioLeadIn: 0
PreviewTime: 45412
Countdown: 0
SampleSet: Soft
StackLeniency: 0.7
Mode: 3
LetterboxInBreaks: 0
SpecialStyle: 0
WidescreenStoryboard: 1

[Editor]
Bookmarks: 17492,45521,73550,87565,101580,115594,117346
DistanceSpacing: 1.2
BeatDivisor: 4
GridSize: 16
TimelineZoom: 1.5

[Metadata]
Title:CHERRY DOLL
TitleUnicode:CHERRY DOLL
Artist:Colorful Sounds Port
ArtistUnicode:カラフル・サウンズ・ポート
Creator:DealerOfMelons
Version:Normal
Source:
Tags:Hugged BMS English CANDY STEP Electronic pupuly bubblegum dance
BeatmapID:3942973
BeatmapSetID:1850429

[Difficulty]
HPDrainRate:7
CircleSize:10
OverallDifficulty:7
ApproachRate:5
SliderMultiplier:1.4
SliderTickRate:1

[Events]
//Background and Video events
0,0,"Cherry Doll.jpg",0,0
//Break Periods
//Storyboard Layer 0 (Background)
//Storyboard Layer 1 (Fail)
//Storyboard Layer 2 (Pass)
//Storyboard Layer 3 (Foreground)
//Storyboard Layer 4 (Overlay)
//Storyboard Sound Samples

[TimingPoints]
1726,437.956204379562,4,2,1,50,1,0
45521,-100,4,2,1,50,0,1
73550,-100,4,2,1,50,0,0
87565,-100,4,2,1,50,0,1
101580,-100,4,2,1,50,0,0

[HitObjects]
128,192,1726,5,0,0:0:0:0:
384,192,1944,1,0,0:0:0:0:
384,192,2163,1,0,0:0:0:0:
128,192,2382,1,0,0:0:0:0:
384,192,2601,1,0,0:0:0:0:
128,192,2711,1,0,0:0:0:0:
384,192,2820,1,0,0:0:0:0:
128,192,2930,1,0,0:0:0:0:
281,192,3039,1,0,0:0:0:0:
435,192,3477,5,0,0:0:0:0:
332,192,3696,1,0,0:0:0:0:
230,192,3915,1,0,0:0:0:0:
25,192,3915,1,0,0:0:0:0:
128,192,4134,1,0,0:0:0:0:
332,192,4353,1,0,0:0:0:0:
179,192,4572,1,0,0:0:0:0:
486,192,4791,1,0,0:0:0:0:
281,192,4791,1,0,0:0:0:0:
435,192,5229,1,0,0:0:0:0:
179,192,5448,1,0,0:0:0:0:
128,192,5667,1,0,0:0:0:0:
384,192,5667,1,0,0:0:0:0:
332,192,5886,1,0,0:0:0:0:
76,192,6105,1,0,0:0:0:0:
179,192,6324,1,0,0:0:0:0:
281,192,6543,1,0,0:0:0:0:
486,192,6543,1,0,0:0:0:0:
384,192,6981,1,0,0:0:0:0:
128,192,7200,1,0,0:0:0:0:
25,192,7419,1,0,0:0:0:0:
230,192,7419,1,0,0:0:0:0:
281,192,7638,1,0,0:0:0:0:
486,192,7857,1,0,0:0:0:0:
230,192,8076,1,0,0:0:0:0:
128,192,8295,1,0,0:0:0:0:
384,192,8295,1,0,0:0:0:0:
25,192,8514,1,0,0:0:0:0:
435,192,8733,1,0,0:0:0:0:
332,192,8842,1,0,0:0:0:0:
76,192,8952,1,0,0:0:0:0:
179,192,9061,1,0,0:0:0:0:
281,192,9171,1,0,0:0:0:0:
486,192,9171,1,0,0:0:0:0:
128,192,9390,1,0,0:0:0:0:
384,192,9499,1,0,0:0:0:0:
128,192,9609,1,0,0:0:0:0:
230,192,9718,1,0,0:0:0:0:
25,192,9828,1,0,0:0:0:0:
486,192,9937,1,0,0:0:0:0:
281,192,10047,1,0,0:0:0:0:
230,192,10047,1,0,0:0:0:0:
332,192,10485,1,0,0:0:0:0:
76,192,10704,1,0,0:0:0:0:
179,192,10923,1,0,0:0:0:0:
435,192,10923,1,0,0:0:0:0:
332,192,11142,1,0,0:0:0:0:
25,192,11361,1,0,0:0:0:0:
281,192,11580,1,0,0:0:0:0:
230,192,11798,1,0,0:0:0:0:
25,192,11798,1,0,0:0:0:0:
384,192,12236,1,0,0:0:0:0:
281,192,12455,1,0,0:0:0:0:
486,192,12674,1,0,0:0:0:0:
128,192,12674,1,0,0:0:0:0:
230,192,12893,1,0,0:0:0:0:
435,192,13112,1,0,0:0:0:0:
332,192,13331,1,0,0:0:0:0:
179,192,13550,1,0,0:0:0:0:
76,192,13550,1,0,0:0:0:0:
486,192,13769,1,0,0:0:0:0:
128,192,13988,1,0,0:0:0:0:
332,192,14207,1,0,0:0:0:0:
76,192,14317,1,0,0:0:0:0:
332,192,14426,1,0,0:0:0:0:
435,192,14426,1,0,0:0:0:0:
179,192,14645,1,0,0:0:0:0:
384,192,14864,1,0,0:0:0:0:
230,192,14974,1,0,0:0:0:0:
486,192,15083,1,0,0:0:0:0:
281,192,15193,1,0,0:0:0:0:
230,192,15302,1,0,0:0:0:0:
25,192,15302,1,0,0:0:0:0:
384,192,15521,1,0,0:0:0:0:
76,192,15740,1,0,0:0:0:0:
179,192,15850,1,0,0:0:0:0:
435,192,15959,1,0,0:0:0:0:
332,192,16069,1,0,0:0:0:0:
230,192,16178,1,0,0:0:0:0:
128,192,16178,1,0,0:0:0:0:
435,192,16397,1,0,0:0:0:0:
332,192,16507,1,0,0:0:0:0:
25,192,16616,1,0,0:0:0:0:
230,192,16616,1,0,0:0:0:0:
128,192,16835,1,0,0:0:0:0:
384,192,16835,1,0,0:0:0:0:
486,192,17054,1,0,0:0:0:0:
281,192,17054,1,0,0:0:0:0:
230,192,17273,1,0,0:0:0:0:
435,192,17492,1,0,0:0:0:0:
179,192,17492,1,0,0:0:0:0:
384,192,17711,1,0,0:0:0:0:
332,192,17930,1,0,0:0:0:0:
76,192,17930,1,0,0:0:0:0:
128,192,18149,1,0,0:0:0:0:
486,192,18368,1,0,0:0:0:0:
281,192,18368,1,0,0:0:0:0:
230,192,18477,1,0,0:0:0:0:
384,192,18587,1,0,0:0:0:0:
25,192,18806,1,0,0:0:0:0:
230,192,18806,1,0,0:0:0:0:
128,192,19025,1,0,0:0:0:0:
435,192,19244,1,0,0:0:0:0:
332,192,19244,1,0,0:0:0:0:
179,192,19463,1,0,0:0:0:0:
76,192,19463,1,0,0:0:0:0:
435,192,19682,1,0,0:0:0:0:
332,192,19682,1,0,0:0:0:0:
179,192,19901,1,0,0:0:0:0:
76,192,19901,1,0,0:0:0:0:
486,192,20120,1,0,0:0:0:0:
281,192,20120,1,0,0:0:0:0:
128,192,20229,1,0,0:0:0:0:
179,192,20339,1,0,0:0:0:0:
384,192,20558,1,0,0:0:0:0:
128,192,20558,1,0,0:0:0:0:
128,192,20777,1,0,0:0:0:0:
435,192,20996,1,0,0:0:0:0:
179,192,20996,1,0,0:0:0:0:
332,192,21215,1,0,0:0:0:0:
332,192,21434,1,0,0:0:0:0:
76,192,21434,1,0,0:0:0:0:
179,192,21653,1,0,0:0:0:0:
230,192,21871,1,0,0:0:0:0:
25,192,21871,1,0,0:0:0:0:
332,192,21981,1,0,0:0:0:0:
384,192,22090,1,0,0:0:0:0:
486,192,22309,1,0,0:0:0:0:
281,192,22309,1,0,0:0:0:0:
128,192,22528,1,0,0:0:0:0:
384,192,22747,1,0,0:0:0:0:
128,192,22747,1,0,0:0:0:0:
25,192,22966,1,0,0:0:0:0:
76,192,23076,1,0,0:0:0:0:
128,192,23185,1,0,0:0:0:0:
332,192,23185,1,0,0:0:0:0:
230,192,23404,1,0,0:0:0:0:
281,192,23514,1,0,0:0:0:0:
332,192,23623,1,0,0:0:0:0:
486,192,23842,1,0,0:0:0:0:
435,192,23952,1,0,0:0:0:0:
384,192,24061,1,0,0:0:0:0:
179,192,24061,1,0,0:0:0:0:
332,192,24280,1,0,0:0:0:0:
281,192,24390,1,0,0:0:0:0:
230,192,24499,1,0,0:0:0:0:
25,192,24499,1,0,0:0:0:0:
384,192,24718,1,0,0:0:0:0:
486,192,24937,1,0,0:0:0:0:
281,192,24937,1,0,0:0:0:0:
384,192,25156,1,0,0:0:0:0:
230,192,25375,1,0,0:0:0:0:
25,192,25375,1,0,0:0:0:0:
281,192,25485,1,0,0:0:0:0:
128,192,25594,1,0,0:0:0:0:
25,192,25813,1,0,0:0:0:0:
230,192,25813,1,0,0:0:0:0:
384,192,26032,1,0,0:0:0:0:
128,192,26032,1,0,0:0:0:0:
435,192,26251,1,0,0:0:0:0:
179,192,26251,1,0,0:0:0:0:
76,192,26470,1,0,0:0:0:0:
332,192,26470,1,0,0:0:0:0:
179,192,26689,1,0,0:0:0:0:
435,192,26689,1,0,0:0:0:0:
486,192,26908,1,0,0:0:0:0:
281,192,26908,1,0,0:0:0:0:
230,192,27127,1,0,0:0:0:0:
25,192,27127,1,0,0:0:0:0:
384,192,27236,1,0,0:0:0:0:
332,192,27346,1,0,0:0:0:0:
486,192,27565,1,0,0:0:0:0:
281,192,27565,1,0,0:0:0:0:
179,192,27784,1,0,0:0:0:0:
76,192,28003,1,0,0:0:0:0:
435,192,28003,1,0,0:0:0:0:
332,192,28222,1,0,0:0:0:0:
384,192,28441,1,0,0:0:0:0:
128,192,28441,1,0,0:0:0:0:
230,192,28660,1,0,0:0:0:0:
486,192,28879,1,0,0:0:0:0:
281,192,28879,1,0,0:0:0:0:
179,192,28988,1,0,0:0:0:0:
332,192,29098,1,0,0:0:0:0:
230,192,29317,1,0,0:0:0:0:
25,192,29317,1,0,0:0:0:0:
179,192,29536,1,0,0:0:0:0:
384,192,29755,1,0,0:0:0:0:
128,192,29755,1,0,0:0:0:0:
230,192,29974,1,0,0:0:0:0:
281,192,29974,1,0,0:0:0:0:
384,192,30193,1,0,0:0:0:0:
128,192,30193,1,0,0:0:0:0:
25,192,30412,1,0,0:0:0:0:
486,192,30412,1,0,0:0:0:0:
384,192,30631,1,0,0:0:0:0:
128,192,30631,1,0,0:0:0:0:
435,192,30850,1,0,0:0:0:0:
332,192,30959,1,0,0:0:0:0:
179,192,31069,1,0,0:0:0:0:
76,192,31288,1,0,0:0:0:0:
179,192,31397,1,0,0:0:0:0:
332,192,31507,1,0,0:0:0:0:
435,192,31507,1,0,0:0:0:0:
128,192,31725,1,0,0:0:0:0:
76,192,31944,1,0,0:0:0:0:
332,192,31944,1,0,0:0:0:0:
384,192,32163,1,0,0:0:0:0:
179,192,32382,1,0,0:0:0:0:
76,192,32382,1,0,0:0:0:0:
281,192,32492,1,0,0:0:0:0:
384,192,32601,1,0,0:0:0:0:
435,192,32820,1,0,0:0:0:0:
179,192,32820,1,0,0:0:0:0:
281,192,33039,1,0,0:0:0:0:
25,192,33258,1,0,0:0:0:0:
230,192,33258,1,0,0:0:0:0:
281,192,33477,1,0,0:0:0:0:
486,192,33477,1,0,0:0:0:0:
179,192,33696,1,0,0:0:0:0:
76,192,33696,1,0,0:0:0:0:
332,192,33915,1,0,0:0:0:0:
435,192,33915,1,0,0:0:0:0:
384,192,34134,1,0,0:0:0:0:
128,192,34134,1,0,0:0:0:0:
179,192,34244,1,0,0:0:0:0:
332,192,34353,1,0,0:0:0:0:
486,192,34572,1,0,0:0:0:0:
230,192,34572,1,0,0:0:0:0:
281,192,34791,1,0,0:0:0:0:
384,192,35010,1,0,0:0:0:0:
128,192,35010,1,0,0:0:0:0:
25,192,35229,1,0,0:0:0:0:
128,192,35448,1,0,0:0:0:0:
384,192,35448,1,0,0:0:0:0:
230,192,35667,1,0,0:0:0:0:
486,192,35886,1,0,0:0:0:0:
281,192,35886,1,0,0:0:0:0:
128,192,35996,1,0,0:0:0:0:
384,192,36105,1,0,0:0:0:0:
435,192,36324,1,0,0:0:0:0:
179,192,36324,1,0,0:0:0:0:
332,192,36543,1,0,0:0:0:0:
179,192,36543,1,0,0:0:0:0:
76,192,36762,1,0,0:0:0:0:
332,192,36762,1,0,0:0:0:0:
486,192,36981,1,0,0:0:0:0:
384,192,37090,1,0,0:0:0:0:
281,192,37200,1,0,0:0:0:0:
179,192,37200,1,0,0:0:0:0:
25,192,37419,1,0,0:0:0:0:
128,192,37528,1,0,0:0:0:0:
230,192,37638,1,0,0:0:0:0:
435,192,37857,1,0,0:0:0:0:
384,192,37966,1,0,0:0:0:0:
332,192,38076,1,0,0:0:0:0:
179,192,38076,1,0,0:0:0:0:
435,192,38295,1,0,0:0:0:0:
332,192,38404,1,0,0:0:0:0:
230,192,38514,1,0,0:0:0:0:
25,192,38514,1,0,0:0:0:0:
281,192,38733,1,0,0:0:0:0:
486,192,38952,1,0,0:0:0:0:
281,192,38952,1,0,0:0:0:0:
230,192,39171,1,0,0:0:0:0:
76,192,39390,1,0,0:0:0:0:
332,192,39390,1,0,0:0:0:0:
281,192,39499,1,0,0:0:0:0:
128,192,39609,1,0,0:0:0:0:
179,192,39828,1,0,0:0:0:0:
435,192,39828,1,0,0:0:0:0:
384,192,40047,1,0,0:0:0:0:
25,192,40266,1,0,0:0:0:0:
230,192,40266,1,0,0:0:0:0:
128,192,40485,1,0,0:0:0:0:
384,192,40485,1,0,0:0:0:0:
486,192,40704,1,0,0:0:0:0:
281,192,40704,1,0,0:0:0:0:
384,192,40923,1,0,0:0:0:0:
128,192,40923,1,0,0:0:0:0:
128,192,41142,1,0,0:0:0:0:
384,192,41142,1,0,0:0:0:0:
230,192,41251,1,0,0:0:0:0:
281,192,41361,1,0,0:0:0:0:
435,192,41580,1,0,0:0:0:0:
179,192,41580,1,0,0:0:0:0:
332,192,41798,1,0,0:0:0:0:
384,192,42017,1,0,0:0:0:0:
128,192,42017,1,0,0:0:0:0:
230,192,42236,1,0,0:0:0:0:
281,192,42455,1,0,0:0:0:0:
486,192,42455,1,0,0:0:0:0:
128,192,42674,1,0,0:0:0:0:
25,192,42893,1,0,0:0:0:0:
230,192,42893,1,0,0:0:0:0:
435,192,43003,1,0,0:0:0:0:
384,192,43112,1,0,0:0:0:0:
486,192,43331,1,0,0:0:0:0:
281,192,43331,1,0,0:0:0:0:
128,192,43550,1,0,0:0:0:0:
230,192,43769,128,0,45083:0:0:0:0:
281,192,43769,128,0,45083:0:0:0:0:
76,192,43988,1,0,0:0:0:0:
179,192,44207,1,0,0:0:0:0:
435,192,44426,1,0,0:0:0:0:
332,192,44645,1,0,0:0:0:0:
25,192,45521,1,0,0:0:0:0:
230,192,45521,1,0,0:0:0:0:
128,192,45740,1,0,0:0:0:0:
384,192,45740,1,0,0:0:0:0:
281,192,45959,1,0,0:0:0:0:
486,192,45959,1,0,0:0:0:0:
332,192,46178,1,0,0:0:0:0:
25,192,46397,1,0,0:0:0:0:
230,192,46397,1,0,0:0:0:0:
128,192,46616,1,0,0:0:0:0:
384,192,46616,1,0,0:0:0:0:
486,192,46835,1,0,0:0:0:0:
281,192,46835,1,0,0:0:0:0:
179,192,47054,1,0,0:0:0:0:
435,192,47273,1,0,0:0:0:0:
332,192,47273,1,0,0:0:0:0:
179,192,47492,1,0,0:0:0:0:
435,192,47492,1,0,0:0:0:0:
332,192,47711,1,0,0:0:0:0:
179,192,47711,1,0,0:0:0:0:
76,192,47930,1,0,0:0:0:0:
332,192,47930,1,0,0:0:0:0:
76,192,48149,1,0,0:0:0:0:
179,192,48149,1,0,0:0:0:0:
230,192,48258,1,0,0:0:0:0:
486,192,48368,1,0,0:0:0:0:
281,192,48368,1,0,0:0:0:0:
384,192,48587,1,0,0:0:0:0:
281,192,48806,1,0,0:0:0:0:
435,192,49025,1,0,0:0:0:0:
179,192,49025,1,0,0:0:0:0:
332,192,49244,1,0,0:0:0:0:
76,192,49244,1,0,0:0:0:0:
179,192,49463,1,0,0:0:0:0:
435,192,49463,1,0,0:0:0:0:
281,192,49682,1,0,0:0:0:0:
76,192,49901,1,0,0:0:0:0:
332,192,49901,1,0,0:0:0:0:
435,192,50120,1,0,0:0:0:0:
179,192,50120,1,0,0:0:0:0:
76,192,50339,1,0,0:0:0:0:
332,192,50339,1,0,0:0:0:0:
230,192,50558,1,0,0:0:0:0:
486,192,50777,1,0,0:0:0:0:
281,192,50777,1,0,0:0:0:0:
384,192,50996,1,0,0:0:0:0:
230,192,51215,1,0,0:0:0:0:
25,192,51215,1,0,0:0:0:0:
179,192,51434,1,0,0:0:0:0:
230,192,51543,1,0,0:0:0:0:
435,192,51653,1,0,0:0:0:0:
384,192,51762,1,0,0:0:0:0:
179,192,51871,1,0,0:0:0:0:
486,192,52090,1,0,0:0:0:0:
281,192,52090,1,0,0:0:0:0:
332,192,52309,1,0,0:0:0:0:
76,192,52419,1,0,0:0:0:0:
486,192,52528,1,0,0:0:0:0:
281,192,52528,1,0,0:0:0:0:
128,192,52747,1,0,0:0:0:0:
384,192,52747,1,0,0:0:0:0:
25,192,52966,1,0,0:0:0:0:
230,192,52966,1,0,0:0:0:0:
332,192,53185,1,0,0:0:0:0:
384,192,53404,1,0,0:0:0:0:
128,192,53404,1,0,0:0:0:0:
230,192,53623,1,0,0:0:0:0:
25,192,53623,1,0,0:0:0:0:
281,192,53842,1,0,0:0:0:0:
486,192,53842,1,0,0:0:0:0:
128,192,54061,1,0,0:0:0:0:
76,192,54280,1,0,0:0:0:0:
332,192,54280,1,0,0:0:0:0:
179,192,54499,1,0,0:0:0:0:
435,192,54499,1,0,0:0:0:0:
76,192,54718,1,0,0:0:0:0:
332,192,54718,1,0,0:0:0:0:
179,192,54937,1,0,0:0:0:0:
435,192,54937,1,0,0:0:0:0:
128,192,55156,1,0,0:0:0:0:
179,192,55266,1,0,0:0:0:0:
486,192,55375,1,0,0:0:0:0:
281,192,55375,1,0,0:0:0:0:
384,192,55594,1,0,0:0:0:0:
128,192,55813,1,0,0:0:0:0:
435,192,56032,1,0,0:0:0:0:
179,192,56032,1,0,0:0:0:0:
179,192,56251,1,0,0:0:0:0:
435,192,56251,1,0,0:0:0:0:
332,192,56470,1,0,0:0:0:0:
76,192,56470,1,0,0:0:0:0:
128,192,56689,1,0,0:0:0:0:
486,192,56908,1,0,0:0:0:0:
281,192,56908,1,0,0:0:0:0:
486,192,57127,1,0,0:0:0:0:
281,192,57127,1,0,0:0:0:0:
25,192,57346,1,0,0:0:0:0:
230,192,57346,1,0,0:0:0:0:
332,192,57565,1,0,0:0:0:0:
76,192,57784,1,0,0:0:0:0:
179,192,57784,1,0,0:0:0:0:
230,192,58003,1,0,0:0:0:0:
435,192,58222,1,0,0:0:0:0:
179,192,58222,1,0,0:0:0:0:
384,192,58441,1,0,0:0:0:0:
332,192,58550,1,0,0:0:0:0:
25,192,58660,1,0,0:0:0:0:
128,192,58769,1,0,0:0:0:0:
281,192,58879,1,0,0:0:0:0:
179,192,59098,1,0,0:0:0:0:
435,192,59098,1,0,0:0:0:0:
76,192,59207,1,0,0:0:0:0:
332,192,59317,1,0,0:0:0:0:
76,192,59426,1,0,0:0:0:0:
486,192,59536,1,0,0:0:0:0:
281,192,59536,1,0,0:0:0:0:
384,192,59755,1,0,0:0:0:0:
128,192,59755,1,0,0:0:0:0:
230,192,59974,1,0,0:0:0:0:
25,192,59974,1,0,0:0:0:0:
179,192,60193,1,0,0:0:0:0:
486,192,60412,1,0,0:0:0:0:
281,192,60412,1,0,0:0:0:0:
384,192,60631,1,0,0:0:0:0:
128,192,60631,1,0,0:0:0:0:
25,192,60850,1,0,0:0:0:0:
230,192,60850,1,0,0:0:0:0:
332,192,61069,1,0,0:0:0:0:
76,192,61288,1,0,0:0:0:0:
179,192,61288,1,0,0:0:0:0:
332,192,61507,1,0,0:0:0:0:
76,192,61507,1,0,0:0:0:0:
179,192,61725,1,0,0:0:0:0:
332,192,61725,1,0,0:0:0:0:
435,192,61944,1,0,0:0:0:0:
179,192,61944,1,0,0:0:0:0:
435,192,62163,1,0,0:0:0:0:
332,192,62163,1,0,0:0:0:0:
281,192,62273,1,0,0:0:0:0:
25,192,62382,1,0,0:0:0:0:
230,192,62382,1,0,0:0:0:0:
128,192,62601,1,0,0:0:0:0:
230,192,62820,1,0,0:0:0:0:
76,192,63039,1,0,0:0:0:0:
332,192,63039,1,0,0:0:0:0:
179,192,63258,1,0,0:0:0:0:
435,192,63258,1,0,0:0:0:0:
332,192,63477,1,0,0:0:0:0:
76,192,63477,1,0,0:0:0:0:
230,192,63696,1,0,0:0:0:0:
435,192,63915,1,0,0:0:0:0:
179,192,63915,1,0,0:0:0:0:
76,192,64134,1,0,0:0:0:0:
332,192,64134,1,0,0:0:0:0:
435,192,64353,1,0,0:0:0:0:
179,192,64353,1,0,0:0:0:0:
281,192,64572,1,0,0:0:0:0:
25,192,64791,1,0,0:0:0:0:
230,192,64791,1,0,0:0:0:0:
128,192,65010,1,0,0:0:0:0:
281,192,65229,1,0,0:0:0:0:
486,192,65229,1,0,0:0:0:0:
332,192,65448,1,0,0:0:0:0:
281,192,65558,1,0,0:0:0:0:
76,192,65667,1,0,0:0:0:0:
128,192,65777,1,0,0:0:0:0:
332,192,65886,1,0,0:0:0:0:
25,192,66105,1,0,0:0:0:0:
230,192,66105,1,0,0:0:0:0:
128,192,66324,1,0,0:0:0:0:
384,192,66434,1,0,0:0:0:0:
25,192,66543,1,0,0:0:0:0:
230,192,66543,1,0,0:0:0:0:
384,192,66762,1,0,0:0:0:0:
128,192,66762,1,0,0:0:0:0:
486,192,66981,1,0,0:0:0:0:
281,192,66981,1,0,0:0:0:0:
179,192,67200,1,0,0:0:0:0:
128,192,67419,1,0,0:0:0:0:
384,192,67419,1,0,0:0:0:0:
281,192,67638,1,0,0:0:0:0:
486,192,67638,1,0,0:0:0:0:
230,192,67857,1,0,0:0:0:0:
25,192,67857,1,0,0:0:0:0:
384,192,68076,1,0,0:0:0:0:
435,192,68295,1,0,0:0:0:0:
179,192,68295,1,0,0:0:0:0:
332,192,68514,1,0,0:0:0:0:
76,192,68514,1,0,0:0:0:0:
435,192,68733,1,0,0:0:0:0:
179,192,68733,1,0,0:0:0:0:
332,192,68952,1,0,0:0:0:0:
76,192,68952,1,0,0:0:0:0:
384,192,69171,1,0,0:0:0:0:
332,192,69280,1,0,0:0:0:0:
25,192,69390,1,0,0:0:0:0:
230,192,69390,1,0,0:0:0:0:
128,192,69609,1,0,0:0:0:0:
384,192,69828,1,0,0:0:0:0:
76,192,70047,1,0,0:0:0:0:
332,192,70047,1,0,0:0:0:0:
332,192,70266,1,0,0:0:0:0:
76,192,70266,1,0,0:0:0:0:
179,192,70485,1,0,0:0:0:0:
435,192,70485,1,0,0:0:0:0:
384,192,70704,1,0,0:0:0:0:
25,192,70923,1,0,0:0:0:0:
230,192,70923,1,0,0:0:0:0:
25,192,71142,1,0,0:0:0:0:
230,192,71142,1,0,0:0:0:0:
486,192,71361,1,0,0:0:0:0:
281,192,71361,1,0,0:0:0:0:
179,192,71580,1,0,0:0:0:0:
435,192,71798,1,0,0:0:0:0:
332,192,71798,1,0,0:0:0:0:
281,192,72017,1,0,0:0:0:0:
76,192,72236,1,0,0:0:0:0:
332,192,72236,1,0,0:0:0:0:
128,192,72455,1,0,0:0:0:0:
179,192,72565,1,0,0:0:0:0:
486,192,72674,1,0,0:0:0:0:
384,192,72784,1,0,0:0:0:0:
230,192,72893,1,0,0:0:0:0:
332,192,73112,1,0,0:0:0:0:
76,192,73550,1,0,0:0:0:0:
179,192,73769,1,0,0:0:0:0:
332,192,73988,1,0,0:0:0:0:
179,192,74426,1,0,0:0:0:0:
332,192,74645,1,0,0:0:0:0:
435,192,74864,1,0,0:0:0:0:
486,192,75302,1,0,0:0:0:0:
128,192,75521,1,0,0:0:0:0:
230,192,75631,1,0,0:0:0:0:
332,192,75740,1,0,0:0:0:0:
281,192,75959,1,0,0:0:0:0:
281,192,76178,1,0,0:0:0:0:
179,192,76288,1,0,0:0:0:0:
25,192,76616,1,0,0:0:0:0:
128,192,76835,1,0,0:0:0:0:
230,192,77054,1,0,0:0:0:0:
435,192,77492,1,0,0:0:0:0:
179,192,77930,1,0,0:0:0:0:
128,192,78368,1,0,0:0:0:0:
281,192,78587,1,0,0:0:0:0:
384,192,78806,1,0,0:0:0:0:
25,192,79025,1,0,0:0:0:0:
128,192,79134,1,0,0:0:0:0:
230,192,79244,1,0,0:0:0:0:
486,192,79463,1,0,0:0:0:0:
230,192,79572,1,0,0:0:0:0:
435,192,79682,1,0,0:0:0:0:
384,192,79791,1,0,0:0:0:0:
332,192,79901,1,0,0:0:0:0:
281,192,80120,1,0,0:0:0:0:
179,192,80339,1,0,0:0:0:0:
25,192,80558,1,0,0:0:0:0:
128,192,80777,1,0,0:0:0:0:
230,192,80996,1,0,0:0:0:0:
281,192,81434,1,0,0:0:0:0:
384,192,81653,1,0,0:0:0:0:
486,192,81871,1,0,0:0:0:0:
435,192,82309,1,0,0:0:0:0:
281,192,82747,1,0,0:0:0:0:
128,192,83185,1,0,0:0:0:0:
179,192,83295,1,0,0:0:0:0:
384,192,83404,1,0,0:0:0:0:
332,192,83623,1,0,0:0:0:0:
281,192,83842,1,0,0:0:0:0:
25,192,84061,1,0,0:0:0:0:
128,192,84499,1,0,0:0:0:0:
435,192,84937,1,0,0:0:0:0:
384,192,85047,1,0,0:0:0:0:
230,192,85156,1,0,0:0:0:0:
128,192,85375,1,0,0:0:0:0:
281,192,85594,1,0,0:0:0:0:
230,192,85704,1,0,0:0:0:0:
281,192,85813,1,0,0:0:0:0:
486,192,85813,1,0,0:0:0:0:
128,192,86251,1,0,0:0:0:0:
384,192,86251,1,0,0:0:0:0:
25,192,86689,1,0,0:0:0:0:
230,192,86689,1,0,0:0:0:0:
128,192,86908,1,0,0:0:0:0:
384,192,86908,1,0,0:0:0:0:
281,192,87127,1,0,0:0:0:0:
486,192,87127,1,0,0:0:0:0:
384,192,87565,1,0,0:0:0:0:
128,192,87565,1,0,0:0:0:0:
486,192,87784,1,0,0:0:0:0:
281,192,87784,1,0,0:0:0:0:
25,192,88003,1,0,0:0:0:0:
230,192,88003,1,0,0:0:0:0:
435,192,88222,1,0,0:0:0:0:
384,192,88441,1,0,0:0:0:0:
128,192,88441,1,0,0:0:0:0:
230,192,88660,1,0,0:0:0:0:
281,192,88660,1,0,0:0:0:0:
128,192,88879,1,0,0:0:0:0:
384,192,88879,1,0,0:0:0:0:
76,192,89098,1,0,0:0:0:0:
435,192,89317,1,0,0:0:0:0:
332,192,89317,1,0,0:0:0:0:
76,192,89536,1,0,0:0:0:0:
179,192,89536,1,0,0:0:0:0:
435,192,89755,1,0,0:0:0:0:
332,192,89755,1,0,0:0:0:0:
179,192,89974,1,0,0:0:0:0:
76,192,89974,1,0,0:0:0:0:
25,192,90193,1,0,0:0:0:0:
230,192,90193,1,0,0:0:0:0:
281,192,90302,1,0,0:0:0:0:
486,192,90412,1,0,0:0:0:0:
384,192,90631,1,0,0:0:0:0:
128,192,90631,1,0,0:0:0:0:
332,192,90850,1,0,0:0:0:0:
76,192,91069,1,0,0:0:0:0:
435,192,91069,1,0,0:0:0:0:
179,192,91288,1,0,0:0:0:0:
332,192,91288,1,0,0:0:0:0:
435,192,91507,1,0,0:0:0:0:
179,192,91507,1,0,0:0:0:0:
281,192,91725,1,0,0:0:0:0:
76,192,91944,1,0,0:0:0:0:
332,192,91944,1,0,0:0:0:0:
435,192,92163,1,0,0:0:0:0:
179,192,92163,1,0,0:0:0:0:
76,192,92382,1,0,0:0:0:0:
332,192,92382,1,0,0:0:0:0:
230,192,92601,1,0,0:0:0:0:
486,192,92820,1,0,0:0:0:0:
281,192,92820,1,0,0:0:0:0:
332,192,93039,1,0,0:0:0:0:
230,192,93258,1,0,0:0:0:0:
25,192,93258,1,0,0:0:0:0:
128,192,93477,1,0,0:0:0:0:
179,192,93587,1,0,0:0:0:0:
435,192,93696,1,0,0:0:0:0:
332,192,93806,1,0,0:0:0:0:
179,192,93915,1,0,0:0:0:0:
25,192,94134,1,0,0:0:0:0:
230,192,94134,1,0,0:0:0:0:
332,192,94353,1,0,0:0:0:0:
76,192,94463,1,0,0:0:0:0:
384,192,94572,1,0,0:0:0:0:
281,192,94572,1,0,0:0:0:0:
25,192,94791,1,0,0:0:0:0:
230,192,94791,1,0,0:0:0:0:
486,192,95010,1,0,0:0:0:0:
281,192,95010,1,0,0:0:0:0:
76,192,95229,1,0,0:0:0:0:
128,192,95448,1,0,0:0:0:0:
384,192,95448,1,0,0:0:0:0:
281,192,95667,1,0,0:0:0:0:
230,192,95667,1,0,0:0:0:0:
384,192,95886,1,0,0:0:0:0:
128,192,95886,1,0,0:0:0:0:
435,192,96105,1,0,0:0:0:0:
76,192,96324,1,0,0:0:0:0:
179,192,96324,1,0,0:0:0:0:
435,192,96543,1,0,0:0:0:0:
332,192,96543,1,0,0:0:0:0:
76,192,96762,1,0,0:0:0:0:
179,192,96762,1,0,0:0:0:0:
332,192,96981,1,0,0:0:0:0:
435,192,96981,1,0,0:0:0:0:
486,192,97200,1,0,0:0:0:0:
281,192,97200,1,0,0:0:0:0:
230,192,97309,1,0,0:0:0:0:
25,192,97419,1,0,0:0:0:0:
128,192,97638,1,0,0:0:0:0:
384,192,97638,1,0,0:0:0:0:
179,192,97857,1,0,0:0:0:0:
435,192,98076,1,0,0:0:0:0:
76,192,98076,1,0,0:0:0:0:
332,192,98295,1,0,0:0:0:0:
179,192,98295,1,0,0:0:0:0:
76,192,98514,1,0,0:0:0:0:
332,192,98514,1,0,0:0:0:0:
230,192,98733,1,0,0:0:0:0:
435,192,98952,1,0,0:0:0:0:
179,192,98952,1,0,0:0:0:0:
76,192,99171,1,0,0:0:0:0:
332,192,99171,1,0,0:0:0:0:
435,192,99390,1,0,0:0:0:0:
179,192,99390,1,0,0:0:0:0:
281,192,99609,1,0,0:0:0:0:
25,192,99828,1,0,0:0:0:0:
230,192,99828,1,0,0:0:0:0:
179,192,100047,1,0,0:0:0:0:
281,192,100266,1,0,0:0:0:0:
486,192,100266,1,0,0:0:0:0:
384,192,100485,1,0,0:0:0:0:
332,192,100594,1,0,0:0:0:0:
76,192,100704,1,0,0:0:0:0:
179,192,100813,1,0,0:0:0:0:
332,192,100923,1,0,0:0:0:0:
486,192,101142,1,0,0:0:0:0:
281,192,101142,1,0,0:0:0:0:
128,192,101361,1,0,0:0:0:0:
76,192,101580,5,0,0:0:0:0:
179,192,101798,1,0,0:0:0:0:
486,192,102017,1,0,0:0:0:0:
281,192,102017,1,0,0:0:0:0:
384,192,102236,1,0,0:0:0:0:
179,192,102455,1,0,0:0:0:0:
332,192,102674,1,0,0:0:0:0:
230,192,102893,1,0,0:0:0:0:
25,192,102893,1,0,0:0:0:0:
76,192,103331,1,0,0:0:0:0:
332,192,103550,1,0,0:0:0:0:
128,192,103769,1,0,0:0:0:0:
384,192,103769,1,0,0:0:0:0:
179,192,103988,1,0,0:0:0:0:
435,192,104207,1,0,0:0:0:0:
332,192,104426,1,0,0:0:0:0:
25,192,104645,1,0,0:0:0:0:
230,192,104645,1,0,0:0:0:0:
128,192,105083,1,0,0:0:0:0:
384,192,105302,1,0,0:0:0:0:
281,192,105521,1,0,0:0:0:0:
486,192,105521,1,0,0:0:0:0:
230,192,105740,1,0,0:0:0:0:
25,192,105959,1,0,0:0:0:0:
281,192,106178,1,0,0:0:0:0:
128,192,106397,1,0,0:0:0:0:
384,192,106397,1,0,0:0:0:0:
486,192,106616,1,0,0:0:0:0:
76,192,106835,1,0,0:0:0:0:
179,192,106944,1,0,0:0:0:0:
435,192,107054,1,0,0:0:0:0:
332,192,107163,1,0,0:0:0:0:
25,192,107273,1,0,0:0:0:0:
230,192,107273,1,0,0:0:0:0:
384,192,107492,1,0,0:0:0:0:
128,192,107601,1,0,0:0:0:0:
384,192,107711,1,0,0:0:0:0:
281,192,107820,1,0,0:0:0:0:
486,192,107930,1,0,0:0:0:0:
25,192,108039,1,0,0:0:0:0:
281,192,108149,1,0,0:0:0:0:
230,192,108149,1,0,0:0:0:0:
179,192,108587,1,0,0:0:0:0:
435,192,108806,1,0,0:0:0:0:
76,192,109025,1,0,0:0:0:0:
332,192,109025,1,0,0:0:0:0:
179,192,109244,1,0,0:0:0:0:
486,192,109463,1,0,0:0:0:0:
230,192,109682,1,0,0:0:0:0:
486,192,109901,1,0,0:0:0:0:
281,192,109901,1,0,0:0:0:0:
128,192,110339,1,0,0:0:0:0:
230,192,110558,1,0,0:0:0:0:
384,192,110777,1,0,0:0:0:0:
25,192,110777,1,0,0:0:0:0:
281,192,110996,1,0,0:0:0:0:
76,192,111215,1,0,0:0:0:0:
179,192,111434,1,0,0:0:0:0:
435,192,111653,1,0,0:0:0:0:
332,192,111653,1,0,0:0:0:0:
25,192,111871,1,0,0:0:0:0:
384,192,112090,1,0,0:0:0:0:
179,192,112309,1,0,0:0:0:0:
435,192,112419,1,0,0:0:0:0:
179,192,112528,1,0,0:0:0:0:
76,192,112528,1,0,0:0:0:0:
332,192,112747,1,0,0:0:0:0:
128,192,112966,1,0,0:0:0:0:
281,192,113076,1,0,0:0:0:0:
25,192,113185,1,0,0:0:0:0:
230,192,113295,1,0,0:0:0:0:
281,192,113404,1,0,0:0:0:0:
486,192,113404,1,0,0:0:0:0:
128,192,113623,1,0,0:0:0:0:
230,192,113733,1,0,0:0:0:0:
435,192,113842,1,0,0:0:0:0:
332,192,113952,1,0,0:0:0:0:
76,192,114061,1,0,0:0:0:0:
179,192,114171,1,0,0:0:0:0:
435,192,114280,1,0,0:0:0:0:
76,192,114499,1,0,0:0:0:0:
281,192,114718,1,0,0:0:0:0:
486,192,114718,1,0,0:0:0:0:
128,192,114937,1,0,0:0:0:0:
384,192,114937,1,0,0:0:0:0:
230,192,115156,1,0,0:0:0:0:
25,192,115156,1,0,0:0:0:0:
281,192,115375,1,0,0:0:0:0:
435,192,115594,1,0,0:0:0:0:
332,192,115594,1,0,0:0:0:0:
486,192,115813,1,0,0:0:0:0:
281,192,115923,1,0,0:0:0:0:
230,192,116032,1,0,0:0:0:0:
25,192,116032,1,0,0:0:0:0:
128,192,116251,1,0,0:0:0:0:
384,192,116251,1,0,0:0:0:0:
281,192,116361,1,0,0:0:0:0:
435,192,116580,1,0,0:0:0:0:
179,192,116580,1,0,0:0:0:0:
332,192,116689,1,0,0:0:0:0:
281,192,116908,1,0,0:0:0:0:
486,192,116908,1,0,0:0:0:0:
128,192,117017,1,0,0:0:0:0:
384,192,117127,1,0,0:0:0:0:
230,192,117236,1,0,0:0:0:0:
332,192,117346,1,0,0:0:0:0:
76,192,117346,1,0,0:0:0:0:
