osu file format v14

[General]
AudioFilename: virtual
AudioLeadIn: 0
PreviewTime: 0
Countdown: 0
SampleSet: Soft
StackLeniency: 0.7
Mode: 3
LetterboxInBreaks: 0
SpecialStyle: 0
WidescreenStoryboard: 1

[Editor]
DistanceSpacing: 0.8
BeatDivisor: 4
GridSize: 32
TimelineZoom: 1.800006

[Metadata]
Title:Piano Beatmap Set
TitleUnicode:Piano Beatmap Set
Artist:Collection
ArtistUnicode:Collection
Creator:CircusGalop
Version:William Tell - 7K EX
Source:BMS
Tags:
BeatmapID:823121
BeatmapSetID:332673

[Difficulty]
HPDrainRate:8
CircleSize:7
OverallDifficulty:5
ApproachRate:5
SliderMultiplier:1.4
SliderTickRate:1

[Events]
//Background and Video events
0,0,"CircusGalop.jpg",0,0
//Break Periods
//Storyboard Layer 0 (Background)
//Storyboard Layer 1 (Fail)
//Storyboard Layer 2 (Pass)
//Storyboard Layer 3 (Foreground)
//Storyboard Sound Samples
Sample,16000,0,"s_043.ogg",100
Sample,16200,0,"s_045.ogg",100
Sample,16400,0,"s_047.ogg",100
Sample,17200,0,"s_043.ogg",100
Sample,17400,0,"s_047.ogg",100
Sample,17500,0,"s_047.ogg",100
Sample,17600,0,"s_045.ogg",100
Sample,17600,0,"s_014.ogg",100
Sample,17800,0,"s_014.ogg",100
Sample,17800,0,"s_042.ogg",100
Sample,18000,0,"s_014.ogg",100
Sample,19200,0,"s_043.ogg",100
Sample,19400,0,"s_045.ogg",100
Sample,19600,0,"s_047.ogg",100
Sample,19800,0,"s_019.ogg",100
Sample,19900,0,"s_019.ogg",100
Sample,19900,0,"s_043.ogg",100
Sample,20000,0,"s_026.ogg",100
Sample,20000,0,"s_014.ogg",100
Sample,20200,0,"s_026.ogg",100
Sample,20200,0,"s_014.ogg",100
Sample,20300,0,"s_026.ogg",100
Sample,20300,0,"s_014.ogg",100
Sample,20400,0,"s_014.ogg",100
Sample,20400,0,"s_026.ogg",100
Sample,20600,0,"s_042.ogg",100
Sample,20600,0,"s_033.ogg",100
Sample,20700,0,"s_033.ogg",100
Sample,20700,0,"s_042.ogg",100
Sample,21000,0,"s_031.ogg",100
Sample,21400,0,"s_019.ogg",100
Sample,21400,0,"s_035.ogg",100
Sample,21400,0,"s_050.ogg",100
Sample,21500,0,"s_019.ogg",100
Sample,21500,0,"s_035.ogg",100
Sample,21500,0,"s_050.ogg",100
Sample,21600,0,"s_047.ogg",100
Sample,21600,0,"s_031.ogg",100
Sample,21600,0,"s_019.ogg",100
Sample,21800,0,"s_019.ogg",100
Sample,21800,0,"s_050.ogg",100
Sample,21800,0,"s_035.ogg",100
Sample,21900,0,"s_050.ogg",100
Sample,21900,0,"s_035.ogg",100
Sample,21900,0,"s_019.ogg",100
Sample,22000,0,"s_047.ogg",100
Sample,22000,0,"s_031.ogg",100
Sample,22000,0,"s_019.ogg",100
Sample,22200,0,"s_019.ogg",100
Sample,22200,0,"s_035.ogg",100
Sample,22200,0,"s_050.ogg",100
Sample,22300,0,"s_035.ogg",100
Sample,22300,0,"s_050.ogg",100
Sample,22300,0,"s_019.ogg",100
Sample,22400,0,"s_067.ogg",100
Sample,22400,0,"s_019.ogg",100
Sample,22400,0,"s_043.ogg",100
Sample,22600,0,"s_043.ogg",100
Sample,22600,0,"s_045.ogg",100
Sample,22600,0,"s_069.ogg",100
Sample,22600,0,"s_019.ogg",100
Sample,22800,0,"s_019.ogg",100
Sample,22800,0,"s_071.ogg",100
Sample,22800,0,"s_043.ogg",100
Sample,23000,0,"s_031.ogg",100
Sample,23000,0,"s_019.ogg",100
Sample,23000,0,"s_047.ogg",100
Sample,23100,0,"s_031.ogg",100
Sample,23100,0,"s_019.ogg",100
Sample,23100,0,"s_047.ogg",100
Sample,23200,0,"s_019.ogg",100
Sample,23200,0,"s_038.ogg",100
Sample,23200,0,"s_043.ogg",100
Sample,23400,0,"s_047.ogg",100
Sample,23400,0,"s_019.ogg",100
Sample,23400,0,"s_031.ogg",100
Sample,23500,0,"s_047.ogg",100
Sample,23500,0,"s_031.ogg",100
Sample,23500,0,"s_019.ogg",100
Sample,23600,0,"s_019.ogg",100
Sample,23600,0,"s_043.ogg",100
Sample,23600,0,"s_067.ogg",100
Sample,23800,0,"s_047.ogg",100
Sample,23800,0,"s_055.ogg",100
Sample,23800,0,"s_019.ogg",100
Sample,23800,0,"s_031.ogg",100
Sample,23900,0,"s_055.ogg",100
Sample,23900,0,"s_031.ogg",100
Sample,23900,0,"s_047.ogg",100
Sample,23900,0,"s_019.ogg",100
Sample,24000,0,"s_069.ogg",100
Sample,24000,0,"s_054.ogg",100
Sample,24000,0,"s_045.ogg",100
Sample,24000,0,"s_033.ogg",100
Sample,24000,0,"s_050.ogg",100
Sample,24200,0,"s_033.ogg",100
Sample,24200,0,"s_042.ogg",100
Sample,24200,0,"s_050.ogg",100
Sample,24200,0,"s_066.ogg",100
Sample,24400,0,"s_026.ogg",100
Sample,24400,0,"s_038.ogg",100
Sample,24600,0,"s_031.ogg",100
Sample,24600,0,"s_019.ogg",100
Sample,24600,0,"s_047.ogg",100
Sample,24700,0,"s_047.ogg",100
Sample,24700,0,"s_031.ogg",100
Sample,24700,0,"s_019.ogg",100
Sample,24800,0,"s_038.ogg",100
Sample,24800,0,"s_019.ogg",100
Sample,24800,0,"s_043.ogg",100
Sample,25000,0,"s_047.ogg",100
Sample,25000,0,"s_031.ogg",100
Sample,25000,0,"s_019.ogg",100
Sample,25100,0,"s_047.ogg",100
Sample,25100,0,"s_031.ogg",100
Sample,25100,0,"s_019.ogg",100
Sample,25200,0,"s_038.ogg",100
Sample,25200,0,"s_019.ogg",100
Sample,25200,0,"s_043.ogg",100
Sample,25400,0,"s_019.ogg",100
Sample,25400,0,"s_031.ogg",100
Sample,25400,0,"s_047.ogg",100
Sample,25500,0,"s_019.ogg",100
Sample,25500,0,"s_047.ogg",100
Sample,25500,0,"s_031.ogg",100
Sample,25600,0,"s_031.ogg",100
Sample,25600,0,"s_067.ogg",100
Sample,25600,0,"s_043.ogg",100
Sample,25800,0,"s_043.ogg",100
Sample,25800,0,"s_045.ogg",100
Sample,25800,0,"s_069.ogg",100
Sample,25800,0,"s_031.ogg",100
Sample,26000,0,"s_043.ogg",100
Sample,26000,0,"s_031.ogg",100
Sample,26000,0,"s_071.ogg",100
Sample,26200,0,"s_047.ogg",100
Sample,26200,0,"s_031.ogg",100
Sample,26200,0,"s_019.ogg",100
Sample,26300,0,"s_031.ogg",100
Sample,26300,0,"s_019.ogg",100
Sample,26300,0,"s_043.ogg",100
Sample,26400,0,"s_036.ogg",100
Sample,26400,0,"s_033.ogg",100
Sample,26400,0,"s_026.ogg",100
Sample,26400,0,"s_042.ogg",100
Sample,26600,0,"s_026.ogg",100
Sample,26600,0,"s_036.ogg",100
Sample,26600,0,"s_033.ogg",100
Sample,26600,0,"s_050.ogg",100
Sample,26700,0,"s_050.ogg",100
Sample,26700,0,"s_036.ogg",100
Sample,26700,0,"s_033.ogg",100
Sample,26700,0,"s_026.ogg",100
Sample,26800,0,"s_026.ogg",100
Sample,26800,0,"s_033.ogg",100
Sample,26800,0,"s_036.ogg",100
Sample,26800,0,"s_050.ogg",100
Sample,26900,0,"s_048.ogg",100
Sample,27000,0,"s_050.ogg",100
Sample,27000,0,"s_059.ogg",100
Sample,27000,0,"s_047.ogg",100
Sample,27000,0,"s_036.ogg",100
Sample,27000,0,"s_033.ogg",100
Sample,27100,0,"s_057.ogg",100
Sample,27100,0,"s_033.ogg",100
Sample,27100,0,"s_050.ogg",100
Sample,27100,0,"s_045.ogg",100
Sample,27100,0,"s_036.ogg",100
Sample,27200,0,"s_035.ogg",100
Sample,27200,0,"s_067.ogg",100
Sample,27200,0,"s_047.ogg",100
Sample,27400,0,"s_035.ogg",100
Sample,27400,0,"s_059.ogg",100
Sample,27400,0,"s_038.ogg",100
Sample,27600,0,"s_035.ogg",100
Sample,27600,0,"s_067.ogg",100
Sample,27600,0,"s_047.ogg",100
Sample,27800,0,"s_047.ogg",100
Sample,27800,0,"s_059.ogg",100
Sample,27800,0,"s_055.ogg",100
Sample,27900,0,"s_047.ogg",100
Sample,27900,0,"s_028.ogg",100
Sample,27900,0,"s_071.ogg",100
Sample,28000,0,"s_016.ogg",100
Sample,28000,0,"s_043.ogg",100
Sample,28000,0,"s_047.ogg",100
Sample,28000,0,"s_055.ogg",100
Sample,28200,0,"s_047.ogg",100
Sample,28200,0,"s_028.ogg",100
Sample,28200,0,"s_071.ogg",100
Sample,28300,0,"s_071.ogg",100
Sample,28300,0,"s_047.ogg",100
Sample,28300,0,"s_028.ogg",100
Sample,28400,0,"s_016.ogg",100
Sample,28400,0,"s_047.ogg",100
Sample,28400,0,"s_055.ogg",100
Sample,28400,0,"s_043.ogg",100
Sample,28600,0,"s_071.ogg",100
Sample,28600,0,"s_028.ogg",100
Sample,28600,0,"s_047.ogg",100
Sample,28700,0,"s_028.ogg",100
Sample,28700,0,"s_047.ogg",100
Sample,28700,0,"s_071.ogg",100
Sample,28800,0,"s_016.ogg",100
Sample,28800,0,"s_047.ogg",100
Sample,28800,0,"s_055.ogg",100
Sample,28800,0,"s_043.ogg",100
Sample,29000,0,"s_064.ogg",100
Sample,29000,0,"s_052.ogg",100
Sample,29200,0,"s_016.ogg",100
Sample,29200,0,"s_043.ogg",100
Sample,29200,0,"s_055.ogg",100
Sample,29200,0,"s_047.ogg",100
Sample,29400,0,"s_052.ogg",100
Sample,29400,0,"s_064.ogg",100
Sample,29600,0,"s_055.ogg",100
Sample,29600,0,"s_016.ogg",100
Sample,29600,0,"s_047.ogg",100
Sample,29600,0,"s_043.ogg",100
Sample,29800,0,"s_052.ogg",100
Sample,29800,0,"s_064.ogg",100
Sample,30000,0,"s_043.ogg",100
Sample,30000,0,"s_035.ogg",100
Sample,30000,0,"s_047.ogg",100
Sample,30000,0,"s_023.ogg",100
Sample,30000,0,"s_055.ogg",100
Sample,30200,0,"s_011.ogg",100
Sample,30200,0,"s_045.ogg",100
Sample,30200,0,"s_042.ogg",100
Sample,30200,0,"s_054.ogg",100
Sample,30200,0,"s_047.ogg",100
Sample,30200,0,"s_057.ogg",100
Sample,30400,0,"s_052.ogg",100
Sample,30400,0,"s_035.ogg",100
Sample,30400,0,"s_055.ogg",100
Sample,30400,0,"s_016.ogg",100
Sample,30400,0,"s_043.ogg",100
Sample,30600,0,"s_035.ogg",100
Sample,30600,0,"s_028.ogg",100
Sample,30600,0,"s_048.ogg",100
Sample,30600,0,"s_016.ogg",100
Sample,30600,0,"s_045.ogg",100
Sample,30600,0,"s_051.ogg",100
Sample,30600,0,"s_055.ogg",100
Sample,30800,0,"s_055.ogg",100
Sample,30800,0,"s_016.ogg",100
Sample,30800,0,"s_052.ogg",100
Sample,30800,0,"s_043.ogg",100
Sample,31000,0,"s_047.ogg",100
Sample,31000,0,"s_028.ogg",100
Sample,31000,0,"s_071.ogg",100
Sample,31100,0,"s_071.ogg",100
Sample,31100,0,"s_047.ogg",100
Sample,31100,0,"s_028.ogg",100
Sample,31200,0,"s_055.ogg",100
Sample,31200,0,"s_047.ogg",100
Sample,31200,0,"s_043.ogg",100
Sample,31200,0,"s_016.ogg",100
Sample,31400,0,"s_047.ogg",100
Sample,31400,0,"s_028.ogg",100
Sample,31400,0,"s_071.ogg",100
Sample,31500,0,"s_028.ogg",100
Sample,31500,0,"s_047.ogg",100
Sample,31500,0,"s_071.ogg",100
Sample,31600,0,"s_055.ogg",100
Sample,31600,0,"s_047.ogg",100
Sample,31600,0,"s_043.ogg",100
Sample,31600,0,"s_016.ogg",100
Sample,31800,0,"s_028.ogg",100
Sample,31800,0,"s_071.ogg",100
Sample,31800,0,"s_047.ogg",100
Sample,31900,0,"s_071.ogg",100
Sample,31900,0,"s_028.ogg",100
Sample,31900,0,"s_047.ogg",100
Sample,32000,0,"s_055.ogg",100
Sample,32000,0,"s_043.ogg",100
Sample,32000,0,"s_047.ogg",100
Sample,32000,0,"s_016.ogg",100
Sample,32200,0,"s_052.ogg",100
Sample,32200,0,"s_064.ogg",100
Sample,32400,0,"s_071.ogg",100
Sample,32400,0,"s_059.ogg",100
Sample,32400,0,"s_016.ogg",100
Sample,32400,0,"s_043.ogg",100
Sample,32600,0,"s_064.ogg",100
Sample,32600,0,"s_052.ogg",100
Sample,32800,0,"s_071.ogg",100
Sample,32800,0,"s_043.ogg",100
Sample,32800,0,"s_059.ogg",100
Sample,32800,0,"s_016.ogg",100
Sample,33000,0,"s_052.ogg",100
Sample,33000,0,"s_064.ogg",100
Sample,33200,0,"s_057.ogg",100
Sample,33200,0,"s_021.ogg",100
Sample,33200,0,"s_054.ogg",100
Sample,33200,0,"s_038.ogg",100
Sample,33200,0,"s_045.ogg",100
Sample,33400,0,"s_064.ogg",100
Sample,33400,0,"s_045.ogg",100
Sample,33400,0,"s_055.ogg",100
Sample,33400,0,"s_009.ogg",100
Sample,33400,0,"s_033.ogg",100
Sample,33600,0,"s_026.ogg",100
Sample,33600,0,"s_014.ogg",100
Sample,33600,0,"s_062.ogg",100
Sample,33800,0,"s_014.ogg",100
Sample,33800,0,"s_055.ogg",100
Sample,33800,0,"s_061.ogg",100
Sample,33800,0,"s_026.ogg",100
Sample,33800,0,"s_046.ogg",100
Sample,34000,0,"s_014.ogg",100
Sample,34000,0,"s_038.ogg",100
Sample,34000,0,"s_062.ogg",100
Sample,34200,0,"s_047.ogg",100
Sample,34200,0,"s_071.ogg",100
Sample,34200,0,"s_028.ogg",100
Sample,34300,0,"s_071.ogg",100
Sample,34300,0,"s_047.ogg",100
Sample,34300,0,"s_028.ogg",100
Sample,34400,0,"s_047.ogg",100
Sample,34400,0,"s_055.ogg",100
Sample,34400,0,"s_043.ogg",100
Sample,34400,0,"s_016.ogg",100
Sample,34600,0,"s_071.ogg",100
Sample,34600,0,"s_028.ogg",100
Sample,34600,0,"s_047.ogg",100
Sample,34700,0,"s_047.ogg",100
Sample,34700,0,"s_071.ogg",100
Sample,34700,0,"s_028.ogg",100
Sample,34800,0,"s_055.ogg",100
Sample,34800,0,"s_016.ogg",100
Sample,34800,0,"s_047.ogg",100
Sample,34800,0,"s_043.ogg",100
Sample,35000,0,"s_071.ogg",100
Sample,35000,0,"s_047.ogg",100
Sample,35000,0,"s_028.ogg",100
Sample,35100,0,"s_028.ogg",100
Sample,35100,0,"s_047.ogg",100
Sample,35100,0,"s_071.ogg",100
Sample,35200,0,"s_055.ogg",100
Sample,35200,0,"s_016.ogg",100
Sample,35200,0,"s_047.ogg",100
Sample,35200,0,"s_043.ogg",100
Sample,35400,0,"s_052.ogg",100
Sample,35400,0,"s_064.ogg",100
Sample,35600,0,"s_016.ogg",100
Sample,35600,0,"s_043.ogg",100
Sample,35600,0,"s_047.ogg",100
Sample,35600,0,"s_055.ogg",100
Sample,35800,0,"s_064.ogg",100
Sample,35800,0,"s_052.ogg",100
Sample,36000,0,"s_055.ogg",100
Sample,36000,0,"s_016.ogg",100
Sample,36000,0,"s_047.ogg",100
Sample,36000,0,"s_043.ogg",100
Sample,36200,0,"s_064.ogg",100
Sample,36200,0,"s_052.ogg",100
Sample,36400,0,"s_043.ogg",100
Sample,36400,0,"s_035.ogg",100
Sample,36400,0,"s_055.ogg",100
Sample,36400,0,"s_047.ogg",100
Sample,36400,0,"s_023.ogg",100
Sample,36600,0,"s_054.ogg",100
Sample,36600,0,"s_045.ogg",100
Sample,36600,0,"s_042.ogg",100
Sample,36600,0,"s_011.ogg",100
Sample,36600,0,"s_047.ogg",100
Sample,36600,0,"s_057.ogg",100
Sample,36800,0,"s_055.ogg",100
Sample,36800,0,"s_035.ogg",100
Sample,36800,0,"s_052.ogg",100
Sample,36800,0,"s_016.ogg",100
Sample,36800,0,"s_043.ogg",100
Sample,37000,0,"s_035.ogg",100
Sample,37000,0,"s_051.ogg",100
Sample,37000,0,"s_048.ogg",100
Sample,37000,0,"s_016.ogg",100
Sample,37000,0,"s_045.ogg",100
Sample,37000,0,"s_028.ogg",100
Sample,37000,0,"s_055.ogg",100
Sample,37200,0,"s_016.ogg",100
Sample,37200,0,"s_043.ogg",100
Sample,37200,0,"s_052.ogg",100
Sample,37200,0,"s_055.ogg",100
Sample,37400,0,"s_047.ogg",100
Sample,37400,0,"s_028.ogg",100
Sample,37400,0,"s_071.ogg",100
Sample,37500,0,"s_071.ogg",100
Sample,37500,0,"s_047.ogg",100
Sample,37500,0,"s_028.ogg",100
Sample,37600,0,"s_016.ogg",100
Sample,37600,0,"s_055.ogg",100
Sample,37600,0,"s_043.ogg",100
Sample,37600,0,"s_047.ogg",100
Sample,37800,0,"s_047.ogg",100
Sample,37800,0,"s_071.ogg",100
Sample,37800,0,"s_028.ogg",100
Sample,37900,0,"s_071.ogg",100
Sample,37900,0,"s_028.ogg",100
Sample,37900,0,"s_047.ogg",100
Sample,38000,0,"s_043.ogg",100
Sample,38000,0,"s_047.ogg",100
Sample,38000,0,"s_055.ogg",100
Sample,38000,0,"s_016.ogg",100
Sample,38200,0,"s_047.ogg",100
Sample,38200,0,"s_071.ogg",100
Sample,38200,0,"s_028.ogg",100
Sample,38300,0,"s_071.ogg",100
Sample,38300,0,"s_028.ogg",100
Sample,38300,0,"s_047.ogg",100
Sample,38400,0,"s_055.ogg",100
Sample,38400,0,"s_043.ogg",100
Sample,38400,0,"s_047.ogg",100
Sample,38400,0,"s_016.ogg",100
Sample,38600,0,"s_076.ogg",100
Sample,38600,0,"s_040.ogg",100
Sample,38800,0,"s_047.ogg",100
Sample,38800,0,"s_055.ogg",100
Sample,38800,0,"s_016.ogg",100
Sample,38800,0,"s_043.ogg",100
Sample,39000,0,"s_064.ogg",100
Sample,39000,0,"s_052.ogg",100
Sample,39200,0,"s_055.ogg",100
Sample,39200,0,"s_043.ogg",100
Sample,39200,0,"s_047.ogg",100
Sample,39200,0,"s_016.ogg",100
Sample,39400,0,"s_064.ogg",100
Sample,39400,0,"s_052.ogg",100
Sample,39600,0,"s_062.ogg",100
Sample,39600,0,"s_021.ogg",100
Sample,39600,0,"s_074.ogg",100
Sample,39600,0,"s_038.ogg",100
Sample,39600,0,"s_045.ogg",100
Sample,39800,0,"s_021.ogg",100
Sample,39800,0,"s_045.ogg",100
Sample,39800,0,"s_009.ogg",100
Sample,39800,0,"s_061.ogg",100
Sample,39800,0,"s_033.ogg",100
Sample,40000,0,"s_062.ogg",100
Sample,40000,0,"s_014.ogg",100
Sample,40000,0,"s_026.ogg",100
Sample,41800,0,"s_026.ogg",100
Sample,41800,0,"s_064.ogg",100
Sample,42000,0,"s_062.ogg",100
Sample,42000,0,"s_028.ogg",100
Sample,42200,0,"s_045.ogg",100
Sample,42200,0,"s_048.ogg",100
Sample,42400,0,"s_047.ogg",100
Sample,42400,0,"s_043.ogg",100
Sample,42600,0,"s_033.ogg",100
Sample,42600,0,"s_064.ogg",100
Sample,42800,0,"s_062.ogg",100
Sample,42800,0,"s_035.ogg",100
Sample,43000,0,"s_036.ogg",100
Sample,43000,0,"s_043.ogg",100
Sample,43000,0,"s_047.ogg",100
Sample,43200,0,"s_062.ogg",100
Sample,43200,0,"s_042.ogg",100
Sample,43400,0,"s_052.ogg",100
Sample,43400,0,"s_064.ogg",100
Sample,43400,0,"s_045.ogg",100
Sample,43600,0,"s_050.ogg",100
Sample,43600,0,"s_062.ogg",100
Sample,43800,0,"s_064.ogg",100
Sample,43800,0,"s_050.ogg",100
Sample,43900,0,"s_061.ogg",100
Sample,43900,0,"s_050.ogg",100
Sample,44000,0,"s_062.ogg",100
Sample,44200,0,"s_057.ogg",100
Sample,44200,0,"s_045.ogg",100
Sample,44300,0,"s_045.ogg",100
Sample,44300,0,"s_061.ogg",100
Sample,44400,0,"s_045.ogg",100
Sample,44600,0,"s_055.ogg",100
Sample,44600,0,"s_064.ogg",100
Sample,44600,0,"s_050.ogg",100
Sample,44600,0,"s_059.ogg",100
Sample,44700,0,"s_050.ogg",100
Sample,44700,0,"s_061.ogg",100
Sample,44800,0,"s_057.ogg",100
Sample,44800,0,"s_062.ogg",100
Sample,44800,0,"s_038.ogg",100
Sample,45000,0,"s_064.ogg",100
Sample,45000,0,"m_050.ogg",100
Sample,45000,0,"m_057.ogg",100
Sample,45000,0,"s_026.ogg",100
Sample,45200,0,"s_062.ogg",100
Sample,45200,0,"s_028.ogg",100
Sample,45400,0,"s_030.ogg",100
Sample,45400,0,"s_050.ogg",100
Sample,45400,0,"s_057.ogg",100
Sample,45400,0,"s_052.ogg",100
Sample,45400,0,"s_064.ogg",100
Sample,45400,0,"s_045.ogg",100
Sample,45500,0,"s_061.ogg",100
Sample,45500,0,"s_050.ogg",100
Sample,45600,0,"s_055.ogg",100
Sample,45600,0,"s_062.ogg",100
Sample,45600,0,"s_050.ogg",100
Sample,45600,0,"s_047.ogg",100
Sample,45600,0,"s_031.ogg",100
Sample,45800,0,"m_055.ogg",100
Sample,45800,0,"s_033.ogg",100
Sample,45800,0,"s_064.ogg",100
Sample,45800,0,"m_035.ogg",100
Sample,46000,0,"s_035.ogg",100
Sample,46000,0,"s_062.ogg",100
Sample,46200,0,"s_059.ogg",100
Sample,46200,0,"s_036.ogg",100
Sample,46200,0,"s_047.ogg",100
Sample,46200,0,"s_055.ogg",100
Sample,46200,0,"s_052.ogg",100
Sample,46200,0,"s_064.ogg",100
Sample,46200,0,"s_037.ogg",100
Sample,46300,0,"s_050.ogg",100
Sample,46300,0,"s_061.ogg",100
Sample,46400,0,"s_038.ogg",100
Sample,46400,0,"s_057.ogg",100
Sample,46400,0,"s_045.ogg",100
Sample,46400,0,"s_026.ogg",100
Sample,48000,0,"s_019.ogg",100
Sample,48200,0,"s_019.ogg",100
Sample,48400,0,"s_019.ogg",100
Sample,49200,0,"s_038.ogg",100
Sample,49400,0,"s_038.ogg",100
Sample,49500,0,"s_038.ogg",100
Sample,49600,0,"s_033.ogg",100
Sample,49600,0,"s_014.ogg",100
Sample,49800,0,"s_014.ogg",100
Sample,49800,0,"s_038.ogg",100
Sample,50000,0,"s_014.ogg",100
Sample,51200,0,"s_019.ogg",100
Sample,51400,0,"s_019.ogg",100
Sample,51600,0,"s_019.ogg",100
Sample,51800,0,"s_019.ogg",100
Sample,51900,0,"s_019.ogg",100
Sample,51900,0,"s_043.ogg",100
Sample,52000,0,"s_026.ogg",100
Sample,52000,0,"s_036.ogg",100
Sample,52000,0,"s_014.ogg",100
Sample,52200,0,"s_036.ogg",100
Sample,52200,0,"s_014.ogg",100
Sample,52200,0,"s_026.ogg",100
Sample,52300,0,"s_026.ogg",100
Sample,52300,0,"s_036.ogg",100
Sample,52300,0,"s_014.ogg",100
Sample,52400,0,"s_014.ogg",100
Sample,52400,0,"s_036.ogg",100
Sample,52400,0,"s_026.ogg",100
Sample,52600,0,"s_042.ogg",100
Sample,52600,0,"s_038.ogg",100
Sample,52600,0,"s_014.ogg",100
Sample,52700,0,"s_038.ogg",100
Sample,52700,0,"s_014.ogg",100
Sample,52700,0,"s_042.ogg",100
Sample,52800,0,"s_043.ogg",100
Sample,53000,0,"s_059.ogg",100
Sample,53000,0,"s_038.ogg",100
Sample,53200,0,"s_038.ogg",100
Sample,53200,0,"m_052.ogg",100
Sample,54000,0,"s_033.ogg",100
Sample,54400,0,"m_043.ogg",100
Sample,55200,0,"m_039.ogg",100
Sample,57200,0,"s_048.ogg",100
Sample,58400,0,"s_043.ogg",100
Sample,60000,0,"m_054.ogg",100
Sample,60000,0,"s_039.ogg",100
Sample,60600,0,"s_052.ogg",100
Sample,60800,0,"s_042.ogg",100
Sample,61400,0,"s_052.ogg",100
Sample,61600,0,"s_038.ogg",100
Sample,61600,0,"s_035.ogg",100
Sample,61600,0,"m_050.ogg",100
Sample,62000,0,"m_049.ogg",100
Sample,62000,0,"s_040.ogg",100
Sample,62000,0,"s_034.ogg",100
Sample,62400,0,"s_047.ogg",100
Sample,64000,0,"s_035.ogg",100
Sample,64800,0,"s_035.ogg",100
Sample,64800,0,"s_038.ogg",100
Sample,65200,0,"s_054.ogg",100
Sample,65200,0,"s_040.ogg",100
Sample,65600,0,"m_050.ogg",100
Sample,66000,0,"s_031.ogg",100
Sample,66400,0,"m_045.ogg",100
Sample,66400,0,"m_038.ogg",100
Sample,66800,0,"s_026.ogg",100
Sample,67600,0,"s_050.ogg",100
Sample,68000,0,"s_024.ogg",100
Sample,68800,0,"s_038.ogg",100
Sample,71200,0,"s_031.ogg",100
Sample,71600,0,"m_049.ogg",100
Sample,71600,0,"m_046.ogg",100
Sample,72000,0,"m_047.ogg",100
Sample,72400,0,"s_031.ogg",100
Sample,72800,0,"m_045.ogg",100
Sample,73200,0,"s_026.ogg",100
Sample,74000,0,"s_031.ogg",100
Sample,74400,0,"m_036.ogg",100
Sample,74800,0,"m_038.ogg",100
Sample,74800,0,"m_042.ogg",100
Sample,75200,0,"s_035.ogg",100
Sample,75200,0,"s_031.ogg",100
Sample,76000,0,"l_031.ogg",100
Sample,76000,0,"s_019.ogg",100
Sample,76000,0,"m_047.ogg",100
Sample,76000,0,"l_043.ogg",100
Sample,76200,0,"s_067.ogg",100
Sample,76200,0,"s_031.ogg",100
Sample,76200,0,"s_079.ogg",100
Sample,76300,0,"s_055.ogg",100
Sample,76400,0,"s_031.ogg",100
Sample,76400,0,"s_067.ogg",100
Sample,76400,0,"s_079.ogg",100
Sample,76600,0,"s_019.ogg",100
Sample,76600,0,"s_067.ogg",100
Sample,76600,0,"s_031.ogg",100
Sample,76800,0,"m_071.ogg",100
Sample,76800,0,"m_043.ogg",100
Sample,76800,0,"m_051.ogg",100
Sample,76800,0,"s_019.ogg",100
Sample,76800,0,"m_039.ogg",100
Sample,76900,0,"s_039.ogg",100
Sample,76900,0,"s_059.ogg",100
Sample,77000,0,"s_051.ogg",100
Sample,77000,0,"s_031.ogg",100
Sample,77000,0,"s_059.ogg",100
Sample,77000,0,"s_071.ogg",100
Sample,77100,0,"s_039.ogg",100
Sample,77100,0,"s_059.ogg",100
Sample,77200,0,"s_031.ogg",100
Sample,77200,0,"s_019.ogg",100
Sample,77200,0,"s_051.ogg",100
Sample,77200,0,"s_071.ogg",100
Sample,77300,0,"s_039.ogg",100
Sample,77300,0,"s_059.ogg",100
Sample,77400,0,"s_039.ogg",100
Sample,77400,0,"s_031.ogg",100
Sample,77500,0,"s_057.ogg",100
Sample,77500,0,"s_039.ogg",100
Sample,77600,0,"s_019.ogg",100
Sample,77600,0,"m_048.ogg",100
Sample,77600,0,"s_055.ogg",100
Sample,77600,0,"s_079.ogg",100
Sample,77700,0,"s_052.ogg",100
Sample,77800,0,"s_051.ogg",100
Sample,77800,0,"s_054.ogg",100
Sample,77800,0,"s_043.ogg",100
Sample,77800,0,"s_019.ogg",100
Sample,77800,0,"s_066.ogg",100
Sample,77900,0,"s_051.ogg",100
Sample,78000,0,"s_052.ogg",100
Sample,78000,0,"s_055.ogg",100
Sample,78000,0,"s_040.ogg",100
Sample,78000,0,"s_043.ogg",100
Sample,78100,0,"s_067.ogg",100
Sample,78200,0,"s_036.ogg",100
Sample,78200,0,"s_048.ogg",100
Sample,78200,0,"s_043.ogg",100
Sample,78200,0,"s_052.ogg",100
Sample,78200,0,"s_064.ogg",100
Sample,78300,0,"s_064.ogg",100
Sample,78400,0,"s_062.ogg",100
Sample,78400,0,"s_050.ogg",100
Sample,78400,0,"s_074.ogg",100
Sample,78400,0,"s_038.ogg",100
Sample,78400,0,"s_019.ogg",100
Sample,78800,0,"s_019.ogg",100
Sample,78800,0,"s_031.ogg",100
Sample,78800,0,"s_062.ogg",100
Sample,78800,0,"s_035.ogg",100
Sample,78800,0,"s_055.ogg",100
Sample,78800,0,"s_059.ogg",100
Sample,79200,0,"s_045.ogg",100
Sample,79200,0,"s_072.ogg",100
Sample,79200,0,"s_060.ogg",100
Sample,79200,0,"s_069.ogg",100
Sample,79200,0,"s_030.ogg",100
Sample,79200,0,"s_057.ogg",100
Sample,79600,0,"s_072.ogg",100
Sample,79600,0,"s_057.ogg",100
Sample,79600,0,"s_030.ogg",100
Sample,79600,0,"s_069.ogg",100
Sample,79600,0,"s_038.ogg",100
Sample,79600,0,"s_060.ogg",100
Sample,80000,0,"s_055.ogg",100
Sample,80000,0,"s_031.ogg",100
Sample,80000,0,"s_059.ogg",100
Sample,80000,0,"s_071.ogg",100
Sample,80000,0,"s_047.ogg",100
Sample,80000,0,"s_067.ogg",100
Sample,80400,0,"s_067.ogg",100
Sample,80400,0,"s_047.ogg",100
Sample,80400,0,"s_055.ogg",100
Sample,80400,0,"s_031.ogg",100
Sample,80400,0,"s_071.ogg",100
Sample,80400,0,"s_059.ogg",100
Sample,80800,0,"s_057.ogg",100
Sample,80800,0,"s_069.ogg",100
Sample,80800,0,"s_024.ogg",100
Sample,80800,0,"s_043.ogg",100
Sample,80800,0,"s_052.ogg",100
Sample,81200,0,"s_069.ogg",100
Sample,81200,0,"s_067.ogg",100
Sample,81200,0,"s_055.ogg",100
Sample,81200,0,"s_052.ogg",100
Sample,81200,0,"s_043.ogg",100
Sample,81200,0,"s_024.ogg",100
Sample,81600,0,"s_014.ogg",100
Sample,81600,0,"s_054.ogg",100
Sample,81600,0,"s_069.ogg",100
Sample,81600,0,"s_026.ogg",100
Sample,81600,0,"s_050.ogg",100
Sample,82000,0,"s_050.ogg",100
Sample,82100,0,"s_074.ogg",100
Sample,82200,0,"s_052.ogg",100
Sample,82300,0,"s_054.ogg",100
Sample,82400,0,"l_031.ogg",100
Sample,82400,0,"m_055.ogg",100
Sample,82400,0,"s_067.ogg",100
Sample,82400,0,"l_043.ogg",100
Sample,82600,0,"s_031.ogg",100
Sample,82600,0,"s_079.ogg",100
Sample,82600,0,"s_038.ogg",100
Sample,82700,0,"s_043.ogg",100
Sample,82800,0,"s_038.ogg",100
Sample,82800,0,"s_031.ogg",100
Sample,82800,0,"s_079.ogg",100
Sample,83000,0,"s_055.ogg",100
Sample,83000,0,"s_031.ogg",100
Sample,83000,0,"s_079.ogg",100
Sample,83200,0,"m_059.ogg",100
Sample,83200,0,"s_019.ogg",100
Sample,83200,0,"m_047.ogg",100
Sample,83200,0,"m_071.ogg",100
Sample,83200,0,"m_055.ogg",100
Sample,83300,0,"s_039.ogg",100
Sample,83300,0,"s_059.ogg",100
Sample,83400,0,"s_031.ogg",100
Sample,83400,0,"s_051.ogg",100
Sample,83400,0,"s_071.ogg",100
Sample,83400,0,"s_019.ogg",100
Sample,83500,0,"s_039.ogg",100
Sample,83500,0,"s_059.ogg",100
Sample,83600,0,"s_071.ogg",100
Sample,83600,0,"s_031.ogg",100
Sample,83600,0,"s_019.ogg",100
Sample,83600,0,"s_051.ogg",100
Sample,83700,0,"s_059.ogg",100
Sample,83700,0,"s_039.ogg",100
Sample,83800,0,"s_031.ogg",100
Sample,83800,0,"s_019.ogg",100
Sample,83900,0,"s_057.ogg",100
Sample,83900,0,"s_039.ogg",100
Sample,84000,0,"s_019.ogg",100
Sample,84000,0,"s_052.ogg",100
Sample,84000,0,"s_079.ogg",100
Sample,84000,0,"m_043.ogg",100
Sample,84100,0,"s_052.ogg",100
Sample,84200,0,"s_055.ogg",100
Sample,84200,0,"s_031.ogg",100
Sample,84200,0,"s_043.ogg",100
Sample,84200,0,"s_078.ogg",100
Sample,84200,0,"s_066.ogg",100
Sample,84300,0,"s_051.ogg",100
Sample,84400,0,"s_079.ogg",100
Sample,84400,0,"s_055.ogg",100
Sample,84400,0,"s_067.ogg",100
Sample,84400,0,"s_031.ogg",100
Sample,84500,0,"s_052.ogg",100
Sample,84600,0,"s_076.ogg",100
Sample,84600,0,"s_031.ogg",100
Sample,84600,0,"s_043.ogg",100
Sample,84600,0,"s_055.ogg",100
Sample,84600,0,"s_064.ogg",100
Sample,84700,0,"s_048.ogg",100
Sample,84800,0,"s_035.ogg",100
Sample,84800,0,"s_019.ogg",100
Sample,84800,0,"s_050.ogg",100
Sample,84800,0,"s_047.ogg",100
Sample,84800,0,"s_031.ogg",100
Sample,85200,0,"s_055.ogg",100
Sample,85200,0,"s_031.ogg",100
Sample,85200,0,"s_074.ogg",100
Sample,85200,0,"s_043.ogg",100
Sample,85200,0,"s_047.ogg",100
Sample,85200,0,"s_059.ogg",100
Sample,85600,0,"s_038.ogg",100
Sample,85600,0,"s_057.ogg",100
Sample,85600,0,"s_060.ogg",100
Sample,85600,0,"s_072.ogg",100
Sample,85600,0,"s_030.ogg",100
Sample,85600,0,"s_069.ogg",100
Sample,86000,0,"s_018.ogg",100
Sample,86000,0,"s_038.ogg",100
Sample,86000,0,"s_030.ogg",100
Sample,86000,0,"s_057.ogg",100
Sample,86000,0,"s_069.ogg",100
Sample,86000,0,"s_060.ogg",100
Sample,86400,0,"s_055.ogg",100
Sample,86400,0,"s_031.ogg",100
Sample,86400,0,"s_059.ogg",100
Sample,86400,0,"s_047.ogg",100
Sample,86400,0,"s_071.ogg",100
Sample,86400,0,"s_067.ogg",100
Sample,86800,0,"s_071.ogg",100
Sample,86800,0,"s_047.ogg",100
Sample,86800,0,"s_055.ogg",100
Sample,86800,0,"s_031.ogg",100
Sample,86800,0,"s_019.ogg",100
Sample,86800,0,"s_059.ogg",100
Sample,87200,0,"s_045.ogg",100
Sample,87200,0,"s_057.ogg",100
Sample,87200,0,"s_055.ogg",100
Sample,87200,0,"s_024.ogg",100
Sample,87200,0,"s_064.ogg",100
Sample,87200,0,"s_043.ogg",100
Sample,87200,0,"s_069.ogg",100
Sample,87600,0,"s_074.ogg",100
Sample,87600,0,"s_050.ogg",100
Sample,87600,0,"s_014.ogg",100
Sample,87600,0,"s_026.ogg",100
Sample,87600,0,"s_057.ogg",100
Sample,88000,0,"s_055.ogg",100
Sample,88000,0,"s_047.ogg",100
Sample,88000,0,"s_019.ogg",100
Sample,88000,0,"s_050.ogg",100
Sample,88200,0,"s_062.ogg",100
Sample,88200,0,"s_035.ogg",100
Sample,88200,0,"s_047.ogg",100
Sample,88200,0,"s_019.ogg",100
Sample,88200,0,"s_055.ogg",100
Sample,88400,0,"s_019.ogg",100
Sample,88400,0,"s_055.ogg",100
Sample,88400,0,"s_047.ogg",100
Sample,88400,0,"s_050.ogg",100
Sample,88600,0,"s_071.ogg",100
Sample,88600,0,"s_055.ogg",100
Sample,88600,0,"s_047.ogg",100
Sample,88700,0,"s_055.ogg",100
Sample,88700,0,"s_047.ogg",100
Sample,88700,0,"s_071.ogg",100
Sample,88800,0,"s_043.ogg",100
Sample,88800,0,"s_055.ogg",100
Sample,88800,0,"s_016.ogg",100
Sample,88800,0,"s_028.ogg",100
Sample,89000,0,"s_047.ogg",100
Sample,89000,0,"s_071.ogg",100
Sample,89000,0,"s_055.ogg",100
Sample,89100,0,"s_047.ogg",100
Sample,89100,0,"s_055.ogg",100
Sample,89100,0,"s_071.ogg",100
Sample,89200,0,"s_055.ogg",100
Sample,89200,0,"s_028.ogg",100
Sample,89200,0,"s_016.ogg",100
Sample,89200,0,"s_043.ogg",100
Sample,89400,0,"s_071.ogg",100
Sample,89400,0,"s_047.ogg",100
Sample,89400,0,"s_055.ogg",100
Sample,89500,0,"s_055.ogg",100
Sample,89500,0,"s_047.ogg",100
Sample,89500,0,"s_071.ogg",100
Sample,89600,0,"s_055.ogg",100
Sample,89600,0,"s_043.ogg",100
Sample,89600,0,"s_028.ogg",100
Sample,89600,0,"s_016.ogg",100
Sample,89800,0,"s_064.ogg",100
Sample,89800,0,"s_052.ogg",100
Sample,90000,0,"s_067.ogg",100
Sample,90000,0,"s_047.ogg",100
Sample,90000,0,"s_016.ogg",100
Sample,90000,0,"s_043.ogg",100
Sample,90200,0,"s_064.ogg",100
Sample,90200,0,"s_052.ogg",100
Sample,90400,0,"s_016.ogg",100
Sample,90400,0,"s_043.ogg",100
Sample,90400,0,"s_047.ogg",100
Sample,90400,0,"s_067.ogg",100
Sample,90600,0,"s_064.ogg",100
Sample,90600,0,"s_052.ogg",100
Sample,90800,0,"s_023.ogg",100
Sample,90800,0,"s_067.ogg",100
Sample,90800,0,"s_040.ogg",100
Sample,90800,0,"s_043.ogg",100
Sample,90800,0,"s_035.ogg",100
Sample,91000,0,"s_011.ogg",100
Sample,91000,0,"s_047.ogg",100
Sample,91000,0,"s_057.ogg",100
Sample,91000,0,"s_054.ogg",100
Sample,91000,0,"s_045.ogg",100
Sample,91000,0,"s_042.ogg",100
Sample,91200,0,"s_052.ogg",100
Sample,91200,0,"s_043.ogg",100
Sample,91200,0,"s_016.ogg",100
Sample,91200,0,"s_055.ogg",100
Sample,91200,0,"s_035.ogg",100
Sample,91400,0,"s_028.ogg",100
Sample,91400,0,"s_045.ogg",100
Sample,91400,0,"s_055.ogg",100
Sample,91400,0,"s_016.ogg",100
Sample,91400,0,"s_035.ogg",100
Sample,91400,0,"s_051.ogg",100
Sample,91400,0,"s_048.ogg",100
Sample,91600,0,"s_043.ogg",100
Sample,91600,0,"s_055.ogg",100
Sample,91600,0,"s_016.ogg",100
Sample,91600,0,"s_052.ogg",100
Sample,91800,0,"s_071.ogg",100
Sample,91800,0,"s_047.ogg",100
Sample,91800,0,"s_028.ogg",100
Sample,91900,0,"s_047.ogg",100
Sample,91900,0,"s_071.ogg",100
Sample,91900,0,"s_028.ogg",100
Sample,92000,0,"s_043.ogg",100
Sample,92000,0,"s_016.ogg",100
Sample,92000,0,"s_047.ogg",100
Sample,92000,0,"s_055.ogg",100
Sample,92200,0,"s_028.ogg",100
Sample,92200,0,"s_071.ogg",100
Sample,92200,0,"s_047.ogg",100
Sample,92300,0,"s_071.ogg",100
Sample,92300,0,"s_028.ogg",100
Sample,92300,0,"s_047.ogg",100
Sample,92400,0,"s_043.ogg",100
Sample,92400,0,"s_047.ogg",100
Sample,92400,0,"s_016.ogg",100
Sample,92400,0,"s_055.ogg",100
Sample,92600,0,"s_028.ogg",100
Sample,92600,0,"s_071.ogg",100
Sample,92600,0,"s_047.ogg",100
Sample,92700,0,"s_047.ogg",100
Sample,92700,0,"s_028.ogg",100
Sample,92700,0,"s_071.ogg",100
Sample,92800,0,"s_055.ogg",100
Sample,92800,0,"s_047.ogg",100
Sample,92800,0,"s_016.ogg",100
Sample,92800,0,"s_043.ogg",100
Sample,93000,0,"s_064.ogg",100
Sample,93000,0,"s_052.ogg",100
Sample,93200,0,"s_016.ogg",100
Sample,93200,0,"s_043.ogg",100
Sample,93200,0,"s_067.ogg",100
Sample,93200,0,"s_040.ogg",100
Sample,93400,0,"s_052.ogg",100
Sample,93400,0,"s_064.ogg",100
Sample,93600,0,"s_016.ogg",100
Sample,93600,0,"s_040.ogg",100
Sample,93600,0,"s_067.ogg",100
Sample,93600,0,"s_043.ogg",100
Sample,93800,0,"s_052.ogg",100
Sample,93800,0,"s_064.ogg",100
Sample,94000,0,"s_038.ogg",100
Sample,94000,0,"s_045.ogg",100
Sample,94000,0,"s_033.ogg",100
Sample,94000,0,"s_021.ogg",100
Sample,94000,0,"s_066.ogg",100
Sample,94200,0,"s_061.ogg",100
Sample,94200,0,"s_033.ogg",100
Sample,94200,0,"s_009.ogg",100
Sample,94200,0,"s_021.ogg",100
Sample,94200,0,"s_045.ogg",100
Sample,94400,0,"s_026.ogg",100
Sample,94400,0,"s_014.ogg",100
Sample,94400,0,"s_062.ogg",100
Sample,95000,0,"s_062.ogg",100
Sample,95100,0,"s_062.ogg",100
Sample,95200,0,"s_038.ogg",100
Sample,95200,0,"s_047.ogg",100
Sample,95200,0,"s_050.ogg",100
Sample,95200,0,"s_031.ogg",100
Sample,95300,0,"s_031.ogg",100
Sample,95400,0,"s_050.ogg",100
Sample,95400,0,"s_047.ogg",100
Sample,95400,0,"s_031.ogg",100
Sample,95500,0,"s_031.ogg",100
Sample,95500,0,"s_038.ogg",100
Sample,95500,0,"s_050.ogg",100
Sample,95600,0,"s_050.ogg",100
Sample,95600,0,"s_031.ogg",100
Sample,95600,0,"s_038.ogg",100
Sample,95600,0,"s_047.ogg",100
Sample,95700,0,"s_031.ogg",100
Sample,95800,0,"s_050.ogg",100
Sample,95800,0,"s_031.ogg",100
Sample,95800,0,"s_047.ogg",100
Sample,95900,0,"s_038.ogg",100
Sample,95900,0,"s_050.ogg",100
Sample,95900,0,"s_031.ogg",100
Sample,96000,0,"s_055.ogg",100
Sample,96000,0,"s_035.ogg",100
Sample,96000,0,"s_047.ogg",100
Sample,96000,0,"s_031.ogg",100
Sample,96100,0,"s_031.ogg",100
Sample,96200,0,"s_035.ogg",100
Sample,96200,0,"s_031.ogg",100
Sample,96200,0,"s_057.ogg",100
Sample,96200,0,"s_047.ogg",100
Sample,96300,0,"s_031.ogg",100
Sample,96400,0,"s_035.ogg",100
Sample,96400,0,"s_047.ogg",100
Sample,96400,0,"s_059.ogg",100
Sample,96400,0,"s_031.ogg",100
Sample,96500,0,"s_031.ogg",100
Sample,96600,0,"s_050.ogg",100
Sample,96600,0,"s_047.ogg",100
Sample,96600,0,"s_031.ogg",100
Sample,96700,0,"s_038.ogg",100
Sample,96700,0,"s_050.ogg",100
Sample,96700,0,"s_031.ogg",100
Sample,96800,0,"s_050.ogg",100
Sample,96800,0,"s_031.ogg",100
Sample,96800,0,"s_047.ogg",100
Sample,96800,0,"s_038.ogg",100
Sample,96900,0,"s_031.ogg",100
Sample,97000,0,"s_047.ogg",100
Sample,97000,0,"s_050.ogg",100
Sample,97000,0,"s_031.ogg",100
Sample,97100,0,"s_031.ogg",100
Sample,97100,0,"s_050.ogg",100
Sample,97100,0,"s_038.ogg",100
Sample,97200,0,"s_055.ogg",100
Sample,97200,0,"s_047.ogg",100
Sample,97200,0,"s_035.ogg",100
Sample,97200,0,"s_031.ogg",100
Sample,97300,0,"s_031.ogg",100
Sample,97400,0,"s_059.ogg",100
Sample,97400,0,"s_031.ogg",100
Sample,97400,0,"s_035.ogg",100
Sample,97400,0,"s_047.ogg",100
Sample,97500,0,"s_031.ogg",100
Sample,97500,0,"s_083.ogg",100
Sample,97500,0,"s_038.ogg",100
Sample,97600,0,"s_045.ogg",100
Sample,97600,0,"s_042.ogg",100
Sample,97600,0,"s_057.ogg",100
Sample,97800,0,"s_054.ogg",100
Sample,97800,0,"s_045.ogg",100
Sample,97800,0,"s_026.ogg",100
Sample,98000,0,"s_062.ogg",100
Sample,98000,0,"s_045.ogg",100
Sample,98000,0,"s_050.ogg",100
Sample,98200,0,"s_047.ogg",100
Sample,98200,0,"s_045.ogg",100
Sample,98200,0,"s_038.ogg",100
Sample,98300,0,"s_047.ogg",100
Sample,98300,0,"s_074.ogg",100
Sample,98300,0,"s_045.ogg",100
Sample,98400,0,"s_050.ogg",100
Sample,98400,0,"s_031.ogg",100
Sample,98400,0,"s_038.ogg",100
Sample,98400,0,"s_047.ogg",100
Sample,98500,0,"s_031.ogg",100
Sample,98600,0,"s_031.ogg",100
Sample,98600,0,"s_047.ogg",100
Sample,98600,0,"s_050.ogg",100
Sample,98700,0,"s_050.ogg",100
Sample,98700,0,"s_038.ogg",100
Sample,98700,0,"s_031.ogg",100
Sample,98800,0,"s_047.ogg",100
Sample,98800,0,"s_038.ogg",100
Sample,98800,0,"s_050.ogg",100
Sample,98800,0,"s_031.ogg",100
Sample,98900,0,"s_031.ogg",100
Sample,99000,0,"s_050.ogg",100
Sample,99000,0,"s_031.ogg",100
Sample,99000,0,"s_047.ogg",100
Sample,99100,0,"s_031.ogg",100
Sample,99100,0,"s_050.ogg",100
Sample,99100,0,"s_038.ogg",100
Sample,99200,0,"s_067.ogg",100
Sample,99200,0,"s_031.ogg",100
Sample,99200,0,"s_055.ogg",100
Sample,99200,0,"s_047.ogg",100
Sample,99300,0,"s_031.ogg",100
Sample,99400,0,"s_047.ogg",100
Sample,99400,0,"s_057.ogg",100
Sample,99400,0,"s_069.ogg",100
Sample,99400,0,"s_031.ogg",100
Sample,99500,0,"s_031.ogg",100
Sample,99600,0,"s_059.ogg",100
Sample,99600,0,"s_031.ogg",100
Sample,99600,0,"s_071.ogg",100
Sample,99600,0,"s_047.ogg",100
Sample,99700,0,"s_031.ogg",100
Sample,99800,0,"s_031.ogg",100
Sample,99800,0,"s_047.ogg",100
Sample,99800,0,"s_035.ogg",100
Sample,99900,0,"s_031.ogg",100
Sample,99900,0,"s_047.ogg",100
Sample,100000,0,"s_033.ogg",100
Sample,100000,0,"m_062.ogg",100
Sample,100000,0,"s_042.ogg",100
Sample,100000,0,"s_026.ogg",100
Sample,100100,0,"s_038.ogg",100
Sample,100200,0,"s_038.ogg",100
Sample,100200,0,"s_033.ogg",100
Sample,100300,0,"s_038.ogg",100
Sample,100300,0,"s_050.ogg",100
Sample,100400,0,"s_045.ogg",100
Sample,100400,0,"s_026.ogg",100
Sample,100400,0,"s_038.ogg",100
Sample,100400,0,"s_033.ogg",100
Sample,100500,0,"s_038.ogg",100
Sample,100500,0,"s_072.ogg",100
Sample,100600,0,"s_050.ogg",100
Sample,100600,0,"s_033.ogg",100
Sample,100600,0,"s_071.ogg",100
Sample,100700,0,"s_050.ogg",100
Sample,100800,0,"s_050.ogg",100
Sample,100800,0,"m_067.ogg",100
Sample,100800,0,"m_031.ogg",100
Sample,100800,0,"m_043.ogg",100
Sample,100800,0,"m_059.ogg",100
Sample,100900,0,"s_043.ogg",100
Sample,101100,0,"s_038.ogg",100
Sample,101100,0,"s_060.ogg",100
Sample,101100,0,"s_048.ogg",100
Sample,101100,0,"s_050.ogg",100
Sample,101100,0,"s_072.ogg",100
Sample,101200,0,"m_031.ogg",100
Sample,101200,0,"m_050.ogg",100
Sample,101200,0,"m_038.ogg",100
Sample,101200,0,"m_043.ogg",100
Sample,101300,0,"s_043.ogg",100
Sample,101400,0,"s_043.ogg",100
Sample,101500,0,"s_052.ogg",100
Sample,101500,0,"s_043.ogg",100
Sample,101600,0,"s_043.ogg",100
Sample,101600,0,"s_074.ogg",100
Sample,101700,0,"s_043.ogg",100
Sample,101700,0,"s_052.ogg",100
Sample,101800,0,"s_038.ogg",100
Sample,101800,0,"s_054.ogg",100
Sample,101800,0,"s_050.ogg",100
Sample,101800,0,"s_066.ogg",100
Sample,101800,0,"s_043.ogg",100
Sample,101900,0,"s_055.ogg",100
Sample,101900,0,"s_043.ogg",100
Sample,102000,0,"s_043.ogg",100
Sample,102000,0,"s_066.ogg",100
Sample,102000,0,"s_038.ogg",100
Sample,102000,0,"s_054.ogg",100
Sample,102000,0,"s_050.ogg",100
Sample,102000,0,"s_035.ogg",100
Sample,102100,0,"s_043.ogg",100
Sample,102100,0,"s_055.ogg",100
Sample,102200,0,"s_050.ogg",100
Sample,102200,0,"s_043.ogg",100
Sample,102200,0,"s_031.ogg",100
Sample,102200,0,"s_038.ogg",100
Sample,102200,0,"s_057.ogg",100
Sample,102200,0,"s_069.ogg",100
Sample,102300,0,"s_059.ogg",100
Sample,102300,0,"s_043.ogg",100
Sample,102400,0,"s_026.ogg",100
Sample,102400,0,"s_060.ogg",100
Sample,102400,0,"s_057.ogg",100
Sample,102400,0,"s_038.ogg",100
Sample,102400,0,"m_045.ogg",100
Sample,102500,0,"s_045.ogg",100
Sample,102600,0,"m_057.ogg",100
Sample,102600,0,"m_060.ogg",100
Sample,102600,0,"m_048.ogg",100
Sample,102600,0,"s_027.ogg",100
Sample,102700,0,"s_045.ogg",100
Sample,102800,0,"s_040.ogg",100
Sample,102800,0,"s_057.ogg",100
Sample,102800,0,"m_048.ogg",100
Sample,102800,0,"m_045.ogg",100
Sample,102900,0,"s_045.ogg",100
Sample,103000,0,"m_057.ogg",100
Sample,103000,0,"s_029.ogg",100
Sample,103000,0,"m_060.ogg",100
Sample,103000,0,"m_048.ogg",100
Sample,103100,0,"s_045.ogg",100
Sample,103200,0,"m_048.ogg",100
Sample,103200,0,"m_045.ogg",100
Sample,103200,0,"s_057.ogg",100
Sample,103200,0,"s_042.ogg",100
Sample,103300,0,"s_045.ogg",100
Sample,103400,0,"m_048.ogg",100
Sample,103400,0,"m_060.ogg",100
Sample,103400,0,"m_057.ogg",100
Sample,103500,0,"s_045.ogg",100
Sample,103600,0,"s_072.ogg",100
Sample,103600,0,"m_048.ogg",100
Sample,103600,0,"m_045.ogg",100
Sample,103700,0,"s_045.ogg",100
Sample,103800,0,"s_072.ogg",100
Sample,103800,0,"s_038.ogg",100
Sample,103800,0,"s_060.ogg",100
Sample,103800,0,"s_045.ogg",100
Sample,103900,0,"s_045.ogg",100
Sample,104000,0,"m_055.ogg",100
Sample,104000,0,"m_047.ogg",100
Sample,104000,0,"m_031.ogg",100
Sample,104000,0,"m_059.ogg",100
Sample,104000,0,"m_067.ogg",100
Sample,104100,0,"s_043.ogg",100
Sample,104300,0,"s_048.ogg",100
Sample,104300,0,"s_043.ogg",100
Sample,104300,0,"s_038.ogg",100
Sample,104300,0,"s_050.ogg",100
Sample,104300,0,"s_060.ogg",100
Sample,104400,0,"m_047.ogg",100
Sample,104400,0,"m_043.ogg",100
Sample,104400,0,"m_031.ogg",100
Sample,104400,0,"m_038.ogg",100
Sample,104500,0,"s_043.ogg",100
Sample,104600,0,"s_043.ogg",100
Sample,104700,0,"s_052.ogg",100
Sample,104700,0,"s_043.ogg",100
Sample,104800,0,"s_050.ogg",100
Sample,104800,0,"s_043.ogg",100
Sample,104900,0,"s_052.ogg",100
Sample,104900,0,"s_043.ogg",100
Sample,105000,0,"s_050.ogg",100
Sample,105000,0,"s_038.ogg",100
Sample,105000,0,"s_054.ogg",100
Sample,105000,0,"s_066.ogg",100
Sample,105000,0,"s_043.ogg",100
Sample,105100,0,"s_055.ogg",100
Sample,105100,0,"s_043.ogg",100
Sample,105200,0,"s_038.ogg",100
Sample,105200,0,"s_043.ogg",100
Sample,105200,0,"s_066.ogg",100
Sample,105200,0,"s_035.ogg",100
Sample,105200,0,"s_054.ogg",100
Sample,105200,0,"s_050.ogg",100
Sample,105300,0,"s_043.ogg",100
Sample,105300,0,"s_055.ogg",100
Sample,105400,0,"s_038.ogg",100
Sample,105400,0,"s_057.ogg",100
Sample,105400,0,"s_069.ogg",100
Sample,105400,0,"s_031.ogg",100
Sample,105400,0,"s_050.ogg",100
Sample,105400,0,"s_043.ogg",100
Sample,105500,0,"s_043.ogg",100
Sample,105500,0,"s_059.ogg",100
Sample,105600,0,"s_014.ogg",100
Sample,105600,0,"m_045.ogg",100
Sample,105600,0,"s_026.ogg",100
Sample,105600,0,"s_060.ogg",100
Sample,105600,0,"s_038.ogg",100
Sample,105700,0,"s_045.ogg",100
Sample,105800,0,"s_072.ogg",100
Sample,105800,0,"m_060.ogg",100
Sample,105800,0,"s_027.ogg",100
Sample,105800,0,"m_048.ogg",100
Sample,105900,0,"s_045.ogg",100
Sample,106000,0,"s_072.ogg",100
Sample,106000,0,"m_045.ogg",100
Sample,106000,0,"s_057.ogg",100
Sample,106000,0,"s_040.ogg",100
Sample,106100,0,"s_045.ogg",100
Sample,106200,0,"m_060.ogg",100
Sample,106200,0,"s_072.ogg",100
Sample,106200,0,"s_029.ogg",100
Sample,106200,0,"m_048.ogg",100
Sample,106300,0,"s_045.ogg",100
Sample,106400,0,"s_057.ogg",100
Sample,106400,0,"s_042.ogg",100
Sample,106400,0,"m_045.ogg",100
Sample,106400,0,"s_072.ogg",100
Sample,106500,0,"s_045.ogg",100
Sample,106600,0,"m_048.ogg",100
Sample,106600,0,"m_060.ogg",100
Sample,106600,0,"s_072.ogg",100
Sample,106700,0,"s_045.ogg",100
Sample,106800,0,"s_072.ogg",100
Sample,106800,0,"s_057.ogg",100
Sample,106800,0,"m_045.ogg",100
Sample,106900,0,"s_045.ogg",100
Sample,107000,0,"s_048.ogg",100
Sample,107000,0,"s_038.ogg",100
Sample,107000,0,"s_072.ogg",100
Sample,107000,0,"s_045.ogg",100
Sample,107100,0,"s_045.ogg",100
Sample,107200,0,"s_055.ogg",100
Sample,107200,0,"s_019.ogg",100
Sample,107200,0,"s_071.ogg",100
Sample,107600,0,"s_066.ogg",100
Sample,107600,0,"s_014.ogg",100
Sample,107600,0,"s_045.ogg",100
Sample,107600,0,"s_051.ogg",100
Sample,107600,0,"s_035.ogg",100
Sample,107600,0,"s_071.ogg",100
Sample,107600,0,"s_026.ogg",100
Sample,107700,0,"s_054.ogg",100
Sample,107700,0,"s_047.ogg",100
Sample,107800,0,"s_054.ogg",100
Sample,107800,0,"s_047.ogg",100
Sample,107900,0,"s_047.ogg",100
Sample,107900,0,"s_054.ogg",100
Sample,108000,0,"s_016.ogg",100
Sample,108000,0,"s_047.ogg",100
Sample,108000,0,"s_052.ogg",100
Sample,108000,0,"s_054.ogg",100
Sample,108000,0,"s_043.ogg",100
Sample,108000,0,"s_066.ogg",100
Sample,108400,0,"s_081.ogg",100
Sample,108400,0,"s_054.ogg",100
Sample,108400,0,"s_050.ogg",100
Sample,108400,0,"s_026.ogg",100
Sample,108400,0,"s_057.ogg",100
Sample,108400,0,"s_062.ogg",100
Sample,108400,0,"s_066.ogg",100
Sample,108400,0,"s_067.ogg",100
Sample,108500,0,"s_042.ogg",100
Sample,108500,0,"s_057.ogg",100
Sample,108600,0,"s_057.ogg",100
Sample,108600,0,"s_042.ogg",100
Sample,108700,0,"s_042.ogg",100
Sample,108700,0,"s_057.ogg",100
Sample,108800,0,"s_083.ogg",100
Sample,108800,0,"s_067.ogg",100
Sample,108800,0,"s_019.ogg",100
Sample,108800,0,"s_055.ogg",100
Sample,108800,0,"s_031.ogg",100
Sample,109200,0,"s_047.ogg",100
Sample,109200,0,"s_059.ogg",100
Sample,109200,0,"s_071.ogg",100
Sample,109200,0,"s_054.ogg",100
Sample,109200,0,"s_078.ogg",100
Sample,109200,0,"s_023.ogg",100
Sample,109300,0,"s_054.ogg",100
Sample,109300,0,"s_047.ogg",100
Sample,109400,0,"s_054.ogg",100
Sample,109400,0,"s_047.ogg",100
Sample,109500,0,"s_054.ogg",100
Sample,109500,0,"s_047.ogg",100
Sample,109600,0,"s_055.ogg",100
Sample,109600,0,"s_040.ogg",100
Sample,109600,0,"s_028.ogg",100
Sample,109600,0,"s_066.ogg",100
Sample,109600,0,"s_079.ogg",100
Sample,109600,0,"s_067.ogg",100
Sample,110000,0,"s_038.ogg",100
Sample,110000,0,"s_066.ogg",100
Sample,110000,0,"s_057.ogg",100
Sample,110000,0,"s_067.ogg",100
Sample,110000,0,"s_062.ogg",100
Sample,110000,0,"s_026.ogg",100
Sample,110000,0,"s_081.ogg",100
Sample,110000,0,"s_050.ogg",100
Sample,110100,0,"s_042.ogg",100
Sample,110100,0,"s_057.ogg",100
Sample,110200,0,"s_042.ogg",100
Sample,110200,0,"s_057.ogg",100
Sample,110300,0,"s_057.ogg",100
Sample,110300,0,"s_042.ogg",100
Sample,110400,0,"m_031.ogg",100
Sample,110400,0,"m_082.ogg",100
Sample,110400,0,"m_043.ogg",100
Sample,110400,0,"m_051.ogg",100
Sample,110400,0,"s_039.ogg",100
Sample,110400,0,"m_034.ogg",100
Sample,110400,0,"m_046.ogg",100
Sample,110400,0,"m_055.ogg",100
Sample,110500,0,"s_051.ogg",100
Sample,110600,0,"s_051.ogg",100
Sample,110600,0,"s_039.ogg",100
Sample,110700,0,"s_051.ogg",100
Sample,110800,0,"s_039.ogg",100
Sample,110800,0,"s_051.ogg",100
Sample,110900,0,"s_051.ogg",100
Sample,111000,0,"s_051.ogg",100
Sample,111000,0,"s_039.ogg",100
Sample,111100,0,"s_051.ogg",100
Sample,111200,0,"s_039.ogg",100
Sample,111200,0,"s_051.ogg",100
Sample,111300,0,"s_058.ogg",100
Sample,111300,0,"s_070.ogg",100
Sample,111400,0,"s_067.ogg",100
Sample,111500,0,"s_055.ogg",100
Sample,111600,0,"s_063.ogg",100
Sample,111800,0,"s_067.ogg",100
Sample,112000,0,"m_031.ogg",100
Sample,112000,0,"m_047.ogg",100
Sample,112000,0,"m_059.ogg",100
Sample,112000,0,"m_019.ogg",100
Sample,112000,0,"m_083.ogg",100
Sample,112000,0,"m_050.ogg",100
Sample,112000,0,"m_043.ogg",100
Sample,112100,0,"s_050.ogg",100
Sample,112200,0,"s_038.ogg",100
Sample,112200,0,"s_050.ogg",100
Sample,112300,0,"s_050.ogg",100
Sample,112400,0,"s_050.ogg",100
Sample,112400,0,"s_038.ogg",100
Sample,112500,0,"s_050.ogg",100
Sample,112600,0,"s_050.ogg",100
Sample,112600,0,"s_038.ogg",100
Sample,112700,0,"s_050.ogg",100
Sample,112800,0,"s_050.ogg",100
Sample,112800,0,"s_038.ogg",100
Sample,112900,0,"s_071.ogg",100
Sample,112900,0,"s_059.ogg",100
Sample,113000,0,"s_067.ogg",100
Sample,113100,0,"s_067.ogg",100
Sample,113200,0,"s_062.ogg",100
Sample,113400,0,"s_067.ogg",100
Sample,113600,0,"m_071.ogg",100
Sample,113600,0,"m_056.ogg",100
Sample,113600,0,"m_047.ogg",100
Sample,113600,0,"m_028.ogg",100
Sample,113600,0,"s_016.ogg",100
Sample,113600,0,"s_052.ogg",100
Sample,113600,0,"m_040.ogg",100
Sample,113700,0,"s_052.ogg",100
Sample,113800,0,"s_052.ogg",100
Sample,113800,0,"s_040.ogg",100
Sample,113900,0,"s_052.ogg",100
Sample,114000,0,"s_040.ogg",100
Sample,114000,0,"s_052.ogg",100
Sample,114100,0,"s_052.ogg",100
Sample,114200,0,"s_040.ogg",100
Sample,114200,0,"s_052.ogg",100
Sample,114300,0,"s_052.ogg",100
Sample,114400,0,"s_040.ogg",100
Sample,114400,0,"s_052.ogg",100
Sample,114500,0,"s_071.ogg",100
Sample,114500,0,"s_059.ogg",100
Sample,114600,0,"s_068.ogg",100
Sample,114700,0,"s_056.ogg",100
Sample,114800,0,"s_064.ogg",100
Sample,115000,0,"s_068.ogg",100
Sample,115200,0,"m_027.ogg",100
Sample,115200,0,"m_049.ogg",100
Sample,115200,0,"m_073.ogg",100
Sample,115200,0,"m_046.ogg",100
Sample,115200,0,"s_015.ogg",100
Sample,115200,0,"m_058.ogg",100
Sample,115200,0,"m_061.ogg",100
Sample,115200,0,"m_085.ogg",100
Sample,115400,0,"s_055.ogg",100
Sample,115400,0,"s_027.ogg",100
Sample,115600,0,"s_055.ogg",100
Sample,115600,0,"s_027.ogg",100
Sample,115800,0,"s_055.ogg",100
Sample,115800,0,"s_027.ogg",100
Sample,116000,0,"s_055.ogg",100
Sample,116000,0,"s_027.ogg",100
Sample,116100,0,"s_061.ogg",100
Sample,116100,0,"s_073.ogg",100
Sample,116200,0,"s_070.ogg",100
Sample,116200,0,"s_058.ogg",100
Sample,116300,0,"s_058.ogg",100
Sample,116300,0,"s_070.ogg",100
Sample,116400,0,"s_055.ogg",100
Sample,116400,0,"s_067.ogg",100
Sample,116600,0,"s_058.ogg",100
Sample,116600,0,"s_070.ogg",100
Sample,116800,0,"m_026.ogg",100
Sample,116800,0,"m_050.ogg",100
Sample,116800,0,"m_047.ogg",100
Sample,116800,0,"m_038.ogg",100
Sample,116800,0,"m_062.ogg",100
Sample,116800,0,"m_059.ogg",100
Sample,116800,0,"m_055.ogg",100
Sample,116900,0,"s_047.ogg",100
Sample,117000,0,"s_055.ogg",100
Sample,117000,0,"s_061.ogg",100
Sample,117000,0,"s_073.ogg",100
Sample,117000,0,"s_047.ogg",100
Sample,117100,0,"s_047.ogg",100
Sample,117200,0,"s_072.ogg",100
Sample,117200,0,"s_055.ogg",100
Sample,117200,0,"s_047.ogg",100
Sample,117200,0,"s_084.ogg",100
Sample,117300,0,"s_047.ogg",100
Sample,117400,0,"s_055.ogg",100
Sample,117400,0,"s_071.ogg",100
Sample,117400,0,"s_083.ogg",100
Sample,117400,0,"s_047.ogg",100
Sample,117500,0,"s_047.ogg",100
Sample,117600,0,"s_069.ogg",100
Sample,117600,0,"m_059.ogg",100
Sample,117600,0,"m_055.ogg",100
Sample,117600,0,"s_047.ogg",100
Sample,117600,0,"s_026.ogg",100
Sample,117700,0,"s_047.ogg",100
Sample,117800,0,"s_079.ogg",100
Sample,117800,0,"s_055.ogg",100
Sample,117800,0,"s_067.ogg",100
Sample,118000,0,"s_078.ogg",100
Sample,118000,0,"s_066.ogg",100
Sample,118000,0,"s_047.ogg",100
Sample,118000,0,"s_055.ogg",100
Sample,118100,0,"s_047.ogg",100
Sample,118200,0,"s_076.ogg",100
Sample,118200,0,"s_047.ogg",100
Sample,118200,0,"s_055.ogg",100
Sample,118200,0,"s_064.ogg",100
Sample,118300,0,"s_047.ogg",100
Sample,118400,0,"m_060.ogg",100
Sample,118400,0,"m_026.ogg",100
Sample,118400,0,"m_054.ogg",100
Sample,118400,0,"m_045.ogg",100
Sample,118400,0,"s_074.ogg",100
Sample,118400,0,"m_038.ogg",100
Sample,118400,0,"m_050.ogg",100
Sample,118400,0,"m_048.ogg",100
Sample,118400,0,"m_057.ogg",100
Sample,118600,0,"s_073.ogg",100
Sample,118600,0,"s_085.ogg",100
Sample,118600,0,"s_050.ogg",100
Sample,118600,0,"s_042.ogg",100
Sample,118600,0,"s_061.ogg",100
Sample,118700,0,"s_042.ogg",100
Sample,118800,0,"s_084.ogg",100
Sample,118800,0,"s_072.ogg",100
Sample,118800,0,"s_060.ogg",100
Sample,118800,0,"s_042.ogg",100
Sample,118800,0,"s_050.ogg",100
Sample,118900,0,"s_042.ogg",100
Sample,119000,0,"s_042.ogg",100
Sample,119000,0,"s_083.ogg",100
Sample,119000,0,"s_071.ogg",100
Sample,119000,0,"s_050.ogg",100
Sample,119000,0,"s_059.ogg",100
Sample,119100,0,"s_042.ogg",100
Sample,119200,0,"s_069.ogg",100
Sample,119200,0,"s_050.ogg",100
Sample,119200,0,"m_054.ogg",100
Sample,119200,0,"s_026.ogg",100
Sample,119200,0,"m_057.ogg",100
Sample,119200,0,"s_045.ogg",100
Sample,119300,0,"s_042.ogg",100
Sample,119400,0,"s_067.ogg",100
Sample,119400,0,"s_055.ogg",100
Sample,119400,0,"s_050.ogg",100
Sample,119400,0,"s_042.ogg",100
Sample,119400,0,"s_079.ogg",100
Sample,119500,0,"s_042.ogg",100
Sample,119600,0,"s_066.ogg",100
Sample,119600,0,"s_050.ogg",100
Sample,119600,0,"s_078.ogg",100
Sample,119600,0,"s_054.ogg",100
Sample,119800,0,"s_069.ogg",100
Sample,119800,0,"s_050.ogg",100
Sample,119800,0,"s_042.ogg",100
Sample,119800,0,"s_057.ogg",100
Sample,119800,0,"s_081.ogg",100
Sample,119900,0,"s_042.ogg",100
Sample,120000,0,"m_019.ogg",100
Sample,120000,0,"s_067.ogg",100
Sample,120000,0,"s_079.ogg",100
Sample,120000,0,"m_055.ogg",100
Sample,120000,0,"m_031.ogg",100
Sample,120000,0,"m_050.ogg",100
Sample,120000,0,"m_043.ogg",100
Sample,120100,0,"s_042.ogg",100
Sample,120100,0,"s_047.ogg",100
Sample,120100,0,"s_066.ogg",100
Sample,120200,0,"s_047.ogg",100
Sample,120300,0,"s_066.ogg",100
Sample,120300,0,"s_042.ogg",100
Sample,120300,0,"s_047.ogg",100
Sample,120400,0,"s_079.ogg",100
Sample,120600,0,"s_062.ogg",100
Sample,120700,0,"s_062.ogg",100
Sample,120800,0,"s_062.ogg",100
Sample,121000,0,"s_062.ogg",100
Sample,121100,0,"s_062.ogg",100
Sample,121200,0,"s_062.ogg",100
Sample,121400,0,"s_062.ogg",100
Sample,121500,0,"s_062.ogg",100
Sample,121600,0,"s_043.ogg",100
Sample,121800,0,"s_045.ogg",100
Sample,122000,0,"s_047.ogg",100
Sample,122200,0,"s_050.ogg",100
Sample,122300,0,"s_050.ogg",100
Sample,122400,0,"s_050.ogg",100
Sample,122600,0,"s_050.ogg",100
Sample,122700,0,"s_050.ogg",100
Sample,122800,0,"s_050.ogg",100
Sample,123000,0,"s_050.ogg",100
Sample,123100,0,"s_050.ogg",100
Sample,124000,0,"s_055.ogg",100
Sample,124200,0,"s_057.ogg",100
Sample,124400,0,"s_059.ogg",100
Sample,124800,0,"s_071.ogg",100
Sample,125000,0,"s_072.ogg",100
Sample,125200,0,"s_074.ogg",100
Sample,126400,0,"m_054.ogg",100
Sample,126400,0,"m_045.ogg",100
Sample,126400,0,"m_057.ogg",100
Sample,126400,0,"m_066.ogg",100
Sample,126400,0,"m_042.ogg",100
Sample,126400,0,"m_062.ogg",100
Sample,126400,0,"m_050.ogg",100
Sample,126400,0,"m_038.ogg",100
Sample,126600,0,"s_040.ogg",100
Sample,126600,0,"s_026.ogg",100
Sample,126800,0,"s_026.ogg",100
Sample,126800,0,"s_042.ogg",100
Sample,127000,0,"s_044.ogg",100
Sample,127000,0,"s_026.ogg",100
Sample,127200,0,"s_026.ogg",100
Sample,127200,0,"s_046.ogg",100
Sample,127200,0,"m_048.ogg",100
Sample,127200,0,"m_045.ogg",100
Sample,127400,0,"s_026.ogg",100
Sample,127400,0,"s_048.ogg",100
Sample,127600,0,"s_050.ogg",100
Sample,127600,0,"s_026.ogg",100
Sample,127800,0,"s_052.ogg",100
Sample,127800,0,"s_026.ogg",100
Sample,128000,0,"s_067.ogg",100
Sample,128000,0,"s_043.ogg",100
Sample,128000,0,"s_050.ogg",100
Sample,128000,0,"s_059.ogg",100
Sample,128000,0,"s_079.ogg",100
Sample,128000,0,"s_047.ogg",100
Sample,128100,0,"s_066.ogg",100
Sample,128200,0,"s_060.ogg",100
Sample,128200,0,"s_045.ogg",100
Sample,128200,0,"s_066.ogg",100
Sample,128200,0,"s_050.ogg",100
Sample,128200,0,"s_078.ogg",100
Sample,128200,0,"s_048.ogg",100
Sample,128200,0,"s_062.ogg",100
Sample,128200,0,"s_057.ogg",100
Sample,128200,0,"s_069.ogg",100
Sample,128300,0,"s_066.ogg",100
Sample,128400,0,"s_043.ogg",100
Sample,128400,0,"s_059.ogg",100
Sample,128400,0,"s_079.ogg",100
Sample,128400,0,"s_067.ogg",100
Sample,128400,0,"s_047.ogg",100
Sample,128400,0,"s_050.ogg",100
Sample,128500,0,"s_066.ogg",100
Sample,128600,0,"s_060.ogg",100
Sample,128600,0,"s_069.ogg",100
Sample,128600,0,"s_050.ogg",100
Sample,128600,0,"s_045.ogg",100
Sample,128600,0,"s_078.ogg",100
Sample,128600,0,"s_062.ogg",100
Sample,128600,0,"s_066.ogg",100
Sample,128600,0,"s_048.ogg",100
Sample,128600,0,"s_057.ogg",100
Sample,128700,0,"s_066.ogg",100
Sample,128800,0,"s_043.ogg",100
Sample,128800,0,"s_059.ogg",100
Sample,128800,0,"s_050.ogg",100
Sample,128800,0,"s_047.ogg",100
Sample,128800,0,"s_079.ogg",100
Sample,128800,0,"s_067.ogg",100
Sample,128900,0,"s_066.ogg",100
Sample,129000,0,"s_078.ogg",100
Sample,129000,0,"s_062.ogg",100
Sample,129000,0,"s_066.ogg",100
Sample,129000,0,"s_048.ogg",100
Sample,129000,0,"s_060.ogg",100
Sample,129000,0,"s_069.ogg",100
Sample,129000,0,"s_045.ogg",100
Sample,129000,0,"s_057.ogg",100
Sample,129000,0,"s_050.ogg",100
Sample,129100,0,"s_066.ogg",100
Sample,129200,0,"s_050.ogg",100
Sample,129200,0,"s_047.ogg",100
Sample,129200,0,"s_079.ogg",100
Sample,129200,0,"s_067.ogg",100
Sample,129200,0,"s_043.ogg",100
Sample,129200,0,"s_059.ogg",100
Sample,129300,0,"s_066.ogg",100
Sample,129400,0,"s_048.ogg",100
Sample,129400,0,"s_050.ogg",100
Sample,129400,0,"s_066.ogg",100
Sample,129400,0,"s_078.ogg",100
Sample,129400,0,"s_069.ogg",100
Sample,129400,0,"s_060.ogg",100
Sample,129400,0,"s_062.ogg",100
Sample,129400,0,"s_045.ogg",100
Sample,129400,0,"s_057.ogg",100
Sample,129500,0,"s_066.ogg",100
Sample,129600,0,"s_067.ogg",100
Sample,129600,0,"s_043.ogg",100
Sample,129600,0,"s_050.ogg",100
Sample,129600,0,"s_059.ogg",100
Sample,129600,0,"s_079.ogg",100
Sample,129600,0,"s_047.ogg",100
Sample,129700,0,"s_066.ogg",100
Sample,129800,0,"s_066.ogg",100
Sample,129800,0,"s_062.ogg",100
Sample,129800,0,"s_060.ogg",100
Sample,129800,0,"s_050.ogg",100
Sample,129800,0,"s_045.ogg",100
Sample,129800,0,"s_048.ogg",100
Sample,129800,0,"s_078.ogg",100
Sample,129800,0,"s_057.ogg",100
Sample,129800,0,"s_069.ogg",100
Sample,129900,0,"s_066.ogg",100
Sample,130000,0,"s_043.ogg",100
Sample,130000,0,"s_059.ogg",100
Sample,130000,0,"s_047.ogg",100
Sample,130000,0,"s_067.ogg",100
Sample,130000,0,"s_079.ogg",100
Sample,130000,0,"s_050.ogg",100
Sample,130100,0,"s_066.ogg",100
Sample,130200,0,"s_062.ogg",100
Sample,130200,0,"s_045.ogg",100
Sample,130200,0,"s_066.ogg",100
Sample,130200,0,"s_060.ogg",100
Sample,130200,0,"s_069.ogg",100
Sample,130200,0,"s_050.ogg",100
Sample,130200,0,"s_078.ogg",100
Sample,130200,0,"s_048.ogg",100
Sample,130200,0,"s_057.ogg",100
Sample,130300,0,"s_066.ogg",100
Sample,130400,0,"s_043.ogg",100
Sample,130400,0,"s_047.ogg",100
Sample,130400,0,"s_067.ogg",100
Sample,130400,0,"s_050.ogg",100
Sample,130400,0,"s_059.ogg",100
Sample,130400,0,"s_079.ogg",100
Sample,130500,0,"s_066.ogg",100
Sample,130600,0,"s_062.ogg",100
Sample,130600,0,"s_050.ogg",100
Sample,130600,0,"s_069.ogg",100
Sample,130600,0,"s_048.ogg",100
Sample,130600,0,"s_066.ogg",100
Sample,130600,0,"s_060.ogg",100
Sample,130600,0,"s_045.ogg",100
Sample,130600,0,"s_057.ogg",100
Sample,130600,0,"s_078.ogg",100
Sample,130700,0,"s_066.ogg",100
Sample,130800,0,"s_050.ogg",100
Sample,130800,0,"s_047.ogg",100
Sample,130800,0,"s_059.ogg",100
Sample,130800,0,"s_079.ogg",100
Sample,130800,0,"s_067.ogg",100
Sample,130800,0,"s_043.ogg",100
Sample,130900,0,"s_066.ogg",100
Sample,131000,0,"s_048.ogg",100
Sample,131000,0,"s_050.ogg",100
Sample,131000,0,"s_078.ogg",100
Sample,131000,0,"s_062.ogg",100
Sample,131000,0,"s_069.ogg",100
Sample,131000,0,"s_066.ogg",100
Sample,131000,0,"s_045.ogg",100
Sample,131000,0,"s_060.ogg",100
Sample,131000,0,"s_057.ogg",100
Sample,131100,0,"s_066.ogg",100
Sample,131200,0,"l_019.ogg",100
Sample,131200,0,"l_059.ogg",100
Sample,131200,0,"l_050.ogg",100
Sample,131200,0,"l_031.ogg",100
Sample,131200,0,"l_055.ogg",100
Sample,131400,0,"m_038.ogg",100
Sample,131400,0,"m_031.ogg",100
Sample,131400,0,"m_050.ogg",100
Sample,131400,0,"s_043.ogg",100
Sample,131400,0,"m_047.ogg",100
Sample,131500,0,"s_079.ogg",100
Sample,131500,0,"s_047.ogg",100
Sample,131600,0,"s_055.ogg",100
Sample,131600,0,"s_043.ogg",100
Sample,131600,0,"s_050.ogg",100
Sample,131600,0,"s_031.ogg",100
Sample,131700,0,"s_043.ogg",100
Sample,131800,0,"s_050.ogg",100
Sample,131800,0,"s_031.ogg",100
Sample,131800,0,"s_055.ogg",100
Sample,131800,0,"s_043.ogg",100
Sample,131900,0,"s_043.ogg",100
Sample,132000,0,"s_043.ogg",100
Sample,132000,0,"s_055.ogg",100
Sample,132000,0,"s_031.ogg",100
Sample,132000,0,"s_050.ogg",100
Sample,132200,0,"m_038.ogg",100
Sample,132200,0,"m_031.ogg",100
Sample,132200,0,"m_047.ogg",100
Sample,132200,0,"s_043.ogg",100
Sample,132200,0,"m_050.ogg",100
Sample,132300,0,"s_043.ogg",100
Sample,132300,0,"s_047.ogg",100
Sample,132400,0,"s_050.ogg",100
Sample,132400,0,"s_043.ogg",100
Sample,132400,0,"s_062.ogg",100
Sample,132400,0,"s_031.ogg",100
Sample,132500,0,"s_043.ogg",100
Sample,132600,0,"s_031.ogg",100
Sample,132600,0,"s_062.ogg",100
Sample,132600,0,"s_050.ogg",100
Sample,132600,0,"s_043.ogg",100
Sample,132700,0,"s_043.ogg",100
Sample,132800,0,"s_043.ogg",100
Sample,132800,0,"s_031.ogg",100
Sample,132800,0,"s_050.ogg",100
Sample,132800,0,"s_062.ogg",100
Sample,133000,0,"m_031.ogg",100
Sample,133000,0,"s_043.ogg",100
Sample,133000,0,"m_038.ogg",100
Sample,133000,0,"m_050.ogg",100
Sample,133000,0,"m_047.ogg",100
Sample,133100,0,"s_071.ogg",100
Sample,133100,0,"s_047.ogg",100
Sample,133200,0,"s_043.ogg",100
Sample,133200,0,"s_050.ogg",100
Sample,133200,0,"s_055.ogg",100
Sample,133200,0,"s_031.ogg",100
Sample,133300,0,"s_043.ogg",100
Sample,133400,0,"s_031.ogg",100
Sample,133400,0,"s_043.ogg",100
Sample,133400,0,"s_050.ogg",100
Sample,133400,0,"s_055.ogg",100
Sample,133500,0,"s_043.ogg",100
Sample,133600,0,"s_043.ogg",100
Sample,133600,0,"s_055.ogg",100
Sample,133600,0,"s_050.ogg",100
Sample,133600,0,"s_031.ogg",100
Sample,133800,0,"m_055.ogg",100
Sample,133800,0,"m_047.ogg",100
Sample,133800,0,"m_031.ogg",100
Sample,133800,0,"m_038.ogg",100
Sample,133900,0,"s_043.ogg",100
Sample,134000,0,"s_043.ogg",100
Sample,134000,0,"s_055.ogg",100
Sample,134000,0,"s_031.ogg",100
Sample,134200,0,"s_031.ogg",100
Sample,134200,0,"s_043.ogg",100
Sample,134200,0,"s_055.ogg",100
Sample,134400,0,"s_047.ogg",100
Sample,134400,0,"s_043.ogg",100
Sample,134400,0,"s_031.ogg",100
Sample,134600,0,"m_055.ogg",100
Sample,134600,0,"m_047.ogg",100
Sample,134600,0,"s_067.ogg",100
Sample,134600,0,"m_043.ogg",100
Sample,134700,0,"s_038.ogg",100
Sample,134700,0,"s_043.ogg",100
Sample,134700,0,"s_031.ogg",100
Sample,134800,0,"s_043.ogg",100
Sample,134800,0,"s_055.ogg",100
Sample,134800,0,"s_031.ogg",100
Sample,134900,0,"s_031.ogg",100
Sample,135000,0,"s_043.ogg",100
Sample,135000,0,"s_031.ogg",100
Sample,135000,0,"s_055.ogg",100
Sample,135100,0,"s_031.ogg",100
Sample,135200,0,"s_043.ogg",100
Sample,135200,0,"s_055.ogg",100
Sample,135200,0,"s_031.ogg",100
Sample,135400,0,"m_031.ogg",100
Sample,135400,0,"m_055.ogg",100
Sample,135400,0,"m_038.ogg",100
Sample,135400,0,"s_074.ogg",100
Sample,135400,0,"m_047.ogg",100
Sample,135500,0,"s_031.ogg",100
Sample,135500,0,"s_062.ogg",100
Sample,135500,0,"s_038.ogg",100
Sample,135600,0,"s_074.ogg",100
Sample,135600,0,"s_050.ogg",100
Sample,135600,0,"s_043.ogg",100
Sample,135600,0,"s_031.ogg",100
Sample,135700,0,"s_031.ogg",100
Sample,135800,0,"s_074.ogg",100
Sample,135800,0,"s_043.ogg",100
Sample,135800,0,"s_031.ogg",100
Sample,135800,0,"s_050.ogg",100
Sample,135900,0,"s_050.ogg",100
Sample,136000,0,"s_043.ogg",100
Sample,136000,0,"s_031.ogg",100
Sample,136000,0,"s_074.ogg",100
Sample,136000,0,"s_050.ogg",100
Sample,136200,0,"m_050.ogg",100
Sample,136200,0,"s_043.ogg",100
Sample,136200,0,"m_031.ogg",100
Sample,136200,0,"m_035.ogg",100
Sample,136200,0,"m_055.ogg",100
Sample,136200,0,"m_047.ogg",100
Sample,136300,0,"s_038.ogg",100
Sample,136300,0,"s_043.ogg",100
Sample,136400,0,"s_023.ogg",100
Sample,136400,0,"s_031.ogg",100
Sample,136400,0,"s_043.ogg",100
Sample,136400,0,"s_035.ogg",100
Sample,136600,0,"s_023.ogg",100
Sample,136600,0,"s_031.ogg",100
Sample,136600,0,"s_043.ogg",100
Sample,136600,0,"s_035.ogg",100
Sample,136800,0,"s_043.ogg",100
Sample,136800,0,"s_031.ogg",100
Sample,136800,0,"s_035.ogg",100
Sample,136800,0,"s_023.ogg",100
Sample,137000,0,"m_047.ogg",100
Sample,137000,0,"s_043.ogg",100
Sample,137000,0,"m_055.ogg",100
Sample,137000,0,"m_019.ogg",100
Sample,137100,0,"s_038.ogg",100
Sample,137100,0,"s_043.ogg",100
Sample,137200,0,"s_019.ogg",100
Sample,137200,0,"s_043.ogg",100
Sample,137200,0,"s_031.ogg",100
Sample,137400,0,"s_043.ogg",100
Sample,137400,0,"s_019.ogg",100
Sample,137400,0,"s_031.ogg",100
Sample,137600,0,"s_031.ogg",100
Sample,137600,0,"s_019.ogg",100
Sample,137600,0,"s_043.ogg",100
Sample,141400,0,"s_050.ogg",100
Sample,141400,0,"s_031.ogg",100
Sample,141500,0,"s_031.ogg",100
Sample,141500,0,"s_050.ogg",100
Sample,141600,0,"s_059.ogg",100
Sample,141600,0,"s_031.ogg",100
Sample,141600,0,"s_067.ogg",100
Sample,141600,0,"s_055.ogg",100
Sample,141800,0,"s_059.ogg",100
Sample,141800,0,"s_055.ogg",100
Sample,141800,0,"s_043.ogg",100
Sample,141800,0,"s_038.ogg",100
Sample,142000,0,"s_023.ogg",100
Sample,142000,0,"s_050.ogg",100
Sample,142000,0,"s_067.ogg",100
Sample,142000,0,"s_043.ogg",100
Sample,142000,0,"s_055.ogg",100
Sample,142200,0,"s_043.ogg",100
Sample,142200,0,"s_038.ogg",100
Sample,142200,0,"s_059.ogg",100
Sample,142200,0,"s_055.ogg",100
Sample,142400,0,"m_050.ogg",100
Sample,142400,0,"m_043.ogg",100
Sample,142400,0,"m_067.ogg",100
Sample,142400,0,"m_019.ogg",100
Sample,142400,0,"m_055.ogg",100
Sample,143100,0,"s_019.ogg",100
Sample,143100,0,"s_038.ogg",100
Sample,143100,0,"s_031.ogg",100
Sample,143200,0,"m_031.ogg",100
Sample,143200,0,"m_059.ogg",100
Sample,143200,0,"m_019.ogg",100
Sample,143900,0,"s_031.ogg",100
Sample,143900,0,"s_019.ogg",100
Sample,144000,0,"l_031.ogg",100
Sample,144000,0,"l_019.ogg",100

[TimingPoints]
0,400.000000000003,4,2,0,100,1,0

[HitObjects]
402,192,800,128,0,1200:0:0:0:0:m_050.ogg
402,192,1400,1,0,0:0:0:0:s_050.ogg
402,192,1500,1,0,0:0:0:0:s_050.ogg
402,192,1600,128,0,2000:0:0:0:0:m_050.ogg
402,192,2200,1,0,0:0:0:0:s_050.ogg
402,192,2300,1,0,0:0:0:0:s_050.ogg
402,192,2400,1,0,0:0:0:0:s_050.ogg
329,192,2600,1,0,0:0:0:0:s_047.ogg
256,192,2800,1,0,0:0:0:0:s_043.ogg
329,192,3000,1,0,0:0:0:0:s_047.ogg
402,192,3200,1,0,0:0:0:0:s_050.ogg
329,192,3400,1,0,0:0:0:0:s_047.ogg
402,192,3600,1,0,0:0:0:0:s_050.ogg
475,192,3800,1,0,0:0:0:0:s_055.ogg
402,192,4000,1,0,0:0:0:0:s_050.ogg
182,192,4000,128,0,4400:0:0:0:0:m_043.ogg
36,192,4000,128,0,4400:0:0:0:0:m_047.ogg
329,192,4200,1,0,0:0:0:0:s_047.ogg
256,192,4400,1,0,0:0:0:0:s_043.ogg
36,192,4600,1,0,0:0:0:0:s_047.ogg
182,192,4600,1,0,0:0:0:0:s_043.ogg
36,192,4700,1,0,0:0:0:0:s_047.ogg
182,192,4700,1,0,0:0:0:0:s_043.ogg
329,192,4800,1,0,0:0:0:0:s_050.ogg
182,192,4800,128,0,5200:0:0:0:0:m_043.ogg
36,192,4800,128,0,5200:0:0:0:0:m_047.ogg
256,192,5000,1,0,0:0:0:0:s_047.ogg
329,192,5200,1,0,0:0:0:0:s_050.ogg
36,192,5400,1,0,0:0:0:0:s_047.ogg
182,192,5400,1,0,0:0:0:0:s_043.ogg
402,192,5400,1,0,0:0:0:0:s_055.ogg
36,192,5500,1,0,0:0:0:0:s_047.ogg
182,192,5500,1,0,0:0:0:0:s_043.ogg
36,192,5600,1,0,0:0:0:0:s_047.ogg
182,192,5600,1,0,0:0:0:0:s_043.ogg
475,192,5600,128,0,6000:0:0:0:0:m_050.ogg
109,192,5800,1,0,0:0:0:0:s_045.ogg
329,192,5800,1,0,0:0:0:0:s_038.ogg
36,192,6000,1,0,0:0:0:0:s_043.ogg
256,192,6000,1,0,0:0:0:0:s_035.ogg
109,192,6200,1,0,0:0:0:0:s_050.ogg
329,192,6200,1,0,0:0:0:0:s_045.ogg
475,192,6200,1,0,0:0:0:0:s_038.ogg
475,192,6300,1,0,0:0:0:0:s_050.ogg
182,192,6400,1,0,0:0:0:0:s_047.ogg
256,192,6400,1,0,0:0:0:0:s_043.ogg
475,192,6400,128,0,6800:0:0:0:0:m_050.ogg
182,192,6600,1,0,0:0:0:0:s_050.ogg
329,192,6600,1,0,0:0:0:0:s_047.ogg
109,192,6800,1,0,0:0:0:0:s_048.ogg
256,192,6800,1,0,0:0:0:0:s_045.ogg
36,192,7000,1,0,0:0:0:0:s_050.ogg
182,192,7000,1,0,0:0:0:0:s_047.ogg
475,192,7000,1,0,0:0:0:0:s_043.ogg
475,192,7100,1,0,0:0:0:0:s_050.ogg
36,192,7200,1,0,0:0:0:0:s_045.ogg
475,192,7200,128,0,7600:0:0:0:0:m_050.ogg
329,192,7200,128,0,7600:0:0:0:0:m_038.ogg
109,192,7400,1,0,0:0:0:0:s_047.ogg
256,192,7400,1,0,0:0:0:0:s_043.ogg
36,192,7600,1,0,0:0:0:0:s_045.ogg
402,192,7600,1,0,0:0:0:0:s_038.ogg
182,192,7800,1,0,0:0:0:0:s_050.ogg
256,192,7800,1,0,0:0:0:0:s_045.ogg
329,192,7800,1,0,0:0:0:0:s_038.ogg
475,192,7800,1,0,0:0:0:0:s_048.ogg
329,192,7900,1,0,0:0:0:0:s_050.ogg
475,192,7900,1,0,0:0:0:0:s_038.ogg
109,192,8000,1,0,0:0:0:0:s_047.ogg
256,192,8000,1,0,0:0:0:0:s_043.ogg
475,192,8000,128,0,8400:0:0:0:0:m_038.ogg
329,192,8000,128,0,8400:0:0:0:0:m_050.ogg
36,192,8200,1,0,0:0:0:0:s_045.ogg
182,192,8200,1,0,0:0:0:0:s_038.ogg
109,192,8400,1,0,0:0:0:0:s_035.ogg
402,192,8400,1,0,0:0:0:0:s_043.ogg
109,192,8600,1,0,0:0:0:0:s_038.ogg
256,192,8600,1,0,0:0:0:0:s_047.ogg
329,192,8600,1,0,0:0:0:0:s_050.ogg
475,192,8600,1,0,0:0:0:0:s_043.ogg
329,192,8700,1,0,0:0:0:0:s_050.ogg
475,192,8700,1,0,0:0:0:0:s_038.ogg
36,192,8800,1,0,0:0:0:0:s_042.ogg
182,192,8800,1,0,0:0:0:0:s_050.ogg
329,192,8800,1,0,0:0:0:0:s_038.ogg
475,192,8800,1,0,0:0:0:0:s_045.ogg
36,192,9000,1,0,0:0:0:0:s_042.ogg
182,192,9000,1,0,0:0:0:0:s_050.ogg
329,192,9000,1,0,0:0:0:0:s_038.ogg
475,192,9000,1,0,0:0:0:0:s_045.ogg
36,192,9100,1,0,0:0:0:0:s_042.ogg
182,192,9100,1,0,0:0:0:0:s_050.ogg
329,192,9100,1,0,0:0:0:0:s_038.ogg
475,192,9100,1,0,0:0:0:0:s_045.ogg
36,192,9200,1,0,0:0:0:0:s_042.ogg
182,192,9200,1,0,0:0:0:0:s_050.ogg
329,192,9200,1,0,0:0:0:0:s_038.ogg
475,192,9200,1,0,0:0:0:0:s_045.ogg
36,192,9400,1,0,0:0:0:0:s_042.ogg
182,192,9400,1,0,0:0:0:0:s_050.ogg
329,192,9400,1,0,0:0:0:0:s_038.ogg
475,192,9400,1,0,0:0:0:0:s_045.ogg
36,192,9600,1,0,0:0:0:0:s_042.ogg
182,192,9600,1,0,0:0:0:0:s_050.ogg
329,192,9600,1,0,0:0:0:0:s_038.ogg
475,192,9600,1,0,0:0:0:0:s_045.ogg
36,192,9800,1,0,0:0:0:0:s_042.ogg
182,192,9800,1,0,0:0:0:0:s_050.ogg
329,192,9800,1,0,0:0:0:0:s_038.ogg
475,192,9800,1,0,0:0:0:0:s_045.ogg
36,192,9900,1,0,0:0:0:0:s_042.ogg
182,192,9900,1,0,0:0:0:0:s_050.ogg
329,192,9900,1,0,0:0:0:0:s_038.ogg
475,192,9900,1,0,0:0:0:0:s_045.ogg
36,192,10000,1,0,0:0:0:0:s_042.ogg
182,192,10000,1,0,0:0:0:0:s_050.ogg
329,192,10000,1,0,0:0:0:0:s_038.ogg
475,192,10000,1,0,0:0:0:0:s_045.ogg
36,192,10200,1,0,0:0:0:0:s_042.ogg
182,192,10200,1,0,0:0:0:0:s_050.ogg
329,192,10200,1,0,0:0:0:0:s_038.ogg
475,192,10200,1,0,0:0:0:0:s_045.ogg
36,192,10400,1,0,0:0:0:0:s_042.ogg
182,192,10400,1,0,0:0:0:0:s_050.ogg
329,192,10400,1,0,0:0:0:0:s_038.ogg
475,192,10400,1,0,0:0:0:0:s_045.ogg
36,192,10600,1,0,0:0:0:0:s_042.ogg
182,192,10600,1,0,0:0:0:0:s_050.ogg
329,192,10600,1,0,0:0:0:0:s_038.ogg
475,192,10600,1,0,0:0:0:0:s_045.ogg
36,192,10700,1,0,0:0:0:0:s_042.ogg
182,192,10700,1,0,0:0:0:0:s_050.ogg
329,192,10700,1,0,0:0:0:0:s_038.ogg
475,192,10700,1,0,0:0:0:0:s_045.ogg
36,192,10800,1,0,0:0:0:0:s_042.ogg
182,192,10800,1,0,0:0:0:0:s_050.ogg
329,192,10800,1,0,0:0:0:0:s_038.ogg
475,192,10800,1,0,0:0:0:0:s_045.ogg
36,192,11000,1,0,0:0:0:0:s_042.ogg
182,192,11000,1,0,0:0:0:0:s_050.ogg
329,192,11000,1,0,0:0:0:0:s_038.ogg
475,192,11000,1,0,0:0:0:0:s_045.ogg
36,192,11200,1,0,0:0:0:0:s_042.ogg
182,192,11200,1,0,0:0:0:0:s_050.ogg
329,192,11200,1,0,0:0:0:0:s_038.ogg
475,192,11200,1,0,0:0:0:0:s_045.ogg
36,192,11400,1,0,0:0:0:0:s_042.ogg
182,192,11400,1,0,0:0:0:0:s_050.ogg
329,192,11400,1,0,0:0:0:0:s_038.ogg
475,192,11400,1,0,0:0:0:0:s_045.ogg
36,192,11500,1,0,0:0:0:0:s_042.ogg
182,192,11500,1,0,0:0:0:0:s_050.ogg
329,192,11500,1,0,0:0:0:0:s_038.ogg
475,192,11500,1,0,0:0:0:0:s_045.ogg
36,192,11600,1,0,0:0:0:0:s_042.ogg
182,192,11600,1,0,0:0:0:0:s_050.ogg
329,192,11600,1,0,0:0:0:0:s_038.ogg
475,192,11600,1,0,0:0:0:0:s_045.ogg
36,192,11800,1,0,0:0:0:0:s_042.ogg
182,192,11800,1,0,0:0:0:0:s_050.ogg
329,192,11800,1,0,0:0:0:0:s_038.ogg
475,192,11800,1,0,0:0:0:0:s_045.ogg
475,192,12000,128,0,14400:0:0:0:0:l_045.ogg
329,192,12000,128,0,14400:0:0:0:0:l_042.ogg
256,192,12000,128,0,14400:0:0:0:0:l_026.ogg
182,192,12000,128,0,14400:0:0:0:0:l_050.ogg
36,192,12000,128,0,14400:0:0:0:0:l_038.ogg
36,192,15000,1,0,0:0:0:0:s_019.ogg
256,192,15000,1,0,0:0:0:0:s_038.ogg
402,192,15000,1,0,0:0:0:0:s_031.ogg
475,192,15000,1,0,0:0:0:0:s_035.ogg
109,192,15100,1,0,0:0:0:0:s_019.ogg
256,192,15100,1,0,0:0:0:0:s_038.ogg
402,192,15100,1,0,0:0:0:0:s_031.ogg
475,192,15100,1,0,0:0:0:0:s_035.ogg
182,192,15200,1,0,0:0:0:0:s_019.ogg
256,192,15200,1,0,0:0:0:0:s_038.ogg
402,192,15200,1,0,0:0:0:0:s_031.ogg
475,192,15200,1,0,0:0:0:0:s_035.ogg
36,192,15400,1,0,0:0:0:0:s_019.ogg
109,192,15400,1,0,0:0:0:0:s_038.ogg
256,192,15400,1,0,0:0:0:0:s_031.ogg
475,192,15400,1,0,0:0:0:0:s_035.ogg
36,192,15500,1,0,0:0:0:0:s_019.ogg
109,192,15500,1,0,0:0:0:0:s_038.ogg
256,192,15500,1,0,0:0:0:0:s_031.ogg
402,192,15500,1,0,0:0:0:0:s_035.ogg
36,192,15600,1,0,0:0:0:0:s_019.ogg
109,192,15600,1,0,0:0:0:0:s_038.ogg
256,192,15600,1,0,0:0:0:0:s_031.ogg
329,192,15600,1,0,0:0:0:0:s_035.ogg
36,192,15800,1,0,0:0:0:0:s_019.ogg
182,192,15800,1,0,0:0:0:0:s_038.ogg
329,192,15800,1,0,0:0:0:0:s_031.ogg
475,192,15800,1,0,0:0:0:0:s_035.ogg
36,192,15900,1,0,0:0:0:0:s_019.ogg
182,192,15900,1,0,0:0:0:0:s_038.ogg
329,192,15900,1,0,0:0:0:0:s_031.ogg
475,192,15900,1,0,0:0:0:0:s_035.ogg
36,192,16000,1,0,0:0:0:0:s_019.ogg
109,192,16000,1,0,0:0:0:0:s_035.ogg
256,192,16000,1,0,0:0:0:0:s_038.ogg
402,192,16000,1,0,0:0:0:0:s_031.ogg
182,192,16200,1,0,0:0:0:0:s_019.ogg
109,192,16200,1,0,0:0:0:0:s_035.ogg
329,192,16200,1,0,0:0:0:0:s_038.ogg
402,192,16200,1,0,0:0:0:0:s_031.ogg
475,192,16400,1,0,0:0:0:0:s_019.ogg
109,192,16400,1,0,0:0:0:0:s_035.ogg
256,192,16400,1,0,0:0:0:0:s_038.ogg
402,192,16400,1,0,0:0:0:0:s_031.ogg
36,192,16600,1,0,0:0:0:0:s_019.ogg
182,192,16600,1,0,0:0:0:0:s_038.ogg
256,192,16600,1,0,0:0:0:0:s_031.ogg
329,192,16600,1,0,0:0:0:0:s_035.ogg
36,192,16700,1,0,0:0:0:0:s_019.ogg
182,192,16700,1,0,0:0:0:0:s_038.ogg
256,192,16700,1,0,0:0:0:0:s_031.ogg
402,192,16700,1,0,0:0:0:0:s_035.ogg
36,192,16800,1,0,0:0:0:0:s_019.ogg
182,192,16800,1,0,0:0:0:0:s_038.ogg
256,192,16800,1,0,0:0:0:0:s_031.ogg
475,192,16800,1,0,0:0:0:0:s_035.ogg
182,192,17000,1,0,0:0:0:0:s_019.ogg
256,192,17000,1,0,0:0:0:0:s_038.ogg
329,192,17000,1,0,0:0:0:0:s_031.ogg
475,192,17000,1,0,0:0:0:0:s_035.ogg
109,192,17100,1,0,0:0:0:0:s_019.ogg
256,192,17100,1,0,0:0:0:0:s_038.ogg
329,192,17100,1,0,0:0:0:0:s_031.ogg
475,192,17100,1,0,0:0:0:0:s_035.ogg
36,192,17200,1,0,0:0:0:0:s_019.ogg
256,192,17200,1,0,0:0:0:0:s_035.ogg
329,192,17200,1,0,0:0:0:0:s_038.ogg
475,192,17200,1,0,0:0:0:0:s_031.ogg
329,192,17400,1,0,0:0:0:0:s_019.ogg
109,192,17400,1,0,0:0:0:0:s_035.ogg
182,192,17400,1,0,0:0:0:0:s_038.ogg
402,192,17400,1,0,0:0:0:0:s_031.ogg
329,192,17500,1,0,0:0:0:0:s_019.ogg
109,192,17500,1,0,0:0:0:0:s_035.ogg
182,192,17500,1,0,0:0:0:0:s_038.ogg
402,192,17500,1,0,0:0:0:0:s_031.ogg
36,192,17600,1,0,0:0:0:0:s_030.ogg
256,192,17600,1,0,0:0:0:0:s_038.ogg
402,192,17600,1,0,0:0:0:0:s_026.ogg
475,192,17600,1,0,0:0:0:0:s_033.ogg
36,192,17800,1,0,0:0:0:0:s_030.ogg
182,192,17800,1,0,0:0:0:0:s_033.ogg
329,192,17800,1,0,0:0:0:0:s_026.ogg
475,192,17800,1,0,0:0:0:0:s_038.ogg
36,192,18000,1,0,0:0:0:0:s_030.ogg
109,192,18000,1,0,0:0:0:0:s_033.ogg
256,192,18000,1,0,0:0:0:0:s_026.ogg
475,192,18000,1,0,0:0:0:0:s_038.ogg
36,192,18200,1,0,0:0:0:0:s_038.ogg
182,192,18200,1,0,0:0:0:0:s_031.ogg
256,192,18200,1,0,0:0:0:0:s_035.ogg
329,192,18200,1,0,0:0:0:0:s_019.ogg
36,192,18300,1,0,0:0:0:0:s_038.ogg
182,192,18300,1,0,0:0:0:0:s_031.ogg
256,192,18300,1,0,0:0:0:0:s_035.ogg
402,192,18300,1,0,0:0:0:0:s_019.ogg
36,192,18400,1,0,0:0:0:0:s_038.ogg
182,192,18400,1,0,0:0:0:0:s_031.ogg
256,192,18400,1,0,0:0:0:0:s_035.ogg
475,192,18400,1,0,0:0:0:0:s_019.ogg
182,192,18600,1,0,0:0:0:0:s_038.ogg
256,192,18600,1,0,0:0:0:0:s_031.ogg
329,192,18600,1,0,0:0:0:0:s_035.ogg
475,192,18600,1,0,0:0:0:0:s_019.ogg
109,192,18700,1,0,0:0:0:0:s_038.ogg
256,192,18700,1,0,0:0:0:0:s_031.ogg
329,192,18700,1,0,0:0:0:0:s_035.ogg
475,192,18700,1,0,0:0:0:0:s_019.ogg
36,192,18800,1,0,0:0:0:0:s_038.ogg
256,192,18800,1,0,0:0:0:0:s_031.ogg
329,192,18800,1,0,0:0:0:0:s_035.ogg
475,192,18800,1,0,0:0:0:0:s_019.ogg
109,192,19000,1,0,0:0:0:0:s_038.ogg
182,192,19000,1,0,0:0:0:0:s_031.ogg
329,192,19000,1,0,0:0:0:0:s_035.ogg
402,192,19000,1,0,0:0:0:0:s_019.ogg
109,192,19100,1,0,0:0:0:0:s_038.ogg
182,192,19100,1,0,0:0:0:0:s_031.ogg
329,192,19100,1,0,0:0:0:0:s_035.ogg
402,192,19100,1,0,0:0:0:0:s_019.ogg
36,192,19200,1,0,0:0:0:0:s_019.ogg
256,192,19200,1,0,0:0:0:0:s_035.ogg
329,192,19200,1,0,0:0:0:0:s_038.ogg
475,192,19200,1,0,0:0:0:0:s_031.ogg
109,192,19400,1,0,0:0:0:0:s_019.ogg
182,192,19400,1,0,0:0:0:0:s_035.ogg
256,192,19400,1,0,0:0:0:0:s_038.ogg
402,192,19400,1,0,0:0:0:0:s_031.ogg
36,192,19600,1,0,0:0:0:0:s_019.ogg
256,192,19600,1,0,0:0:0:0:s_035.ogg
329,192,19600,1,0,0:0:0:0:s_038.ogg
475,192,19600,1,0,0:0:0:0:s_031.ogg
36,192,19800,1,0,0:0:0:0:s_035.ogg
109,192,19800,1,0,0:0:0:0:s_038.ogg
182,192,19800,1,0,0:0:0:0:s_043.ogg
329,192,19800,1,0,0:0:0:0:s_031.ogg
36,192,19900,1,0,0:0:0:0:s_035.ogg
109,192,19900,1,0,0:0:0:0:s_038.ogg
256,192,19900,1,0,0:0:0:0:s_047.ogg
402,192,19900,1,0,0:0:0:0:s_031.ogg
109,192,20000,1,0,0:0:0:0:s_042.ogg
182,192,20000,1,0,0:0:0:0:s_033.ogg
329,192,20000,1,0,0:0:0:0:s_036.ogg
475,192,20000,128,0,20400:0:0:0:0:m_050.ogg
109,192,20200,1,0,0:0:0:0:s_042.ogg
182,192,20200,1,0,0:0:0:0:s_033.ogg
402,192,20200,1,0,0:0:0:0:s_036.ogg
109,192,20300,1,0,0:0:0:0:s_042.ogg
182,192,20300,1,0,0:0:0:0:s_033.ogg
329,192,20300,1,0,0:0:0:0:s_036.ogg
109,192,20400,1,0,0:0:0:0:s_042.ogg
182,192,20400,1,0,0:0:0:0:s_033.ogg
256,192,20400,1,0,0:0:0:0:s_036.ogg
475,192,20500,1,0,0:0:0:0:s_048.ogg
256,192,20600,1,0,0:0:0:0:s_036.ogg
109,192,20600,1,0,0:0:0:0:s_026.ogg
182,192,20600,1,0,0:0:0:0:s_047.ogg
402,192,20600,1,0,0:0:0:0:s_014.ogg
36,192,20700,1,0,0:0:0:0:s_036.ogg
109,192,20700,1,0,0:0:0:0:s_026.ogg
182,192,20700,1,0,0:0:0:0:s_045.ogg
329,192,20700,1,0,0:0:0:0:s_014.ogg
36,192,20800,1,0,0:0:0:0:s_019.ogg
109,192,20800,1,0,0:0:0:0:s_035.ogg
256,192,20800,1,0,0:0:0:0:s_043.ogg
402,192,20800,1,0,0:0:0:0:s_031.ogg
475,192,20800,1,0,0:0:0:0:s_038.ogg
36,192,21000,1,0,0:0:0:0:s_019.ogg
182,192,21000,1,0,0:0:0:0:s_035.ogg
329,192,21000,1,0,0:0:0:0:s_038.ogg
402,192,21000,1,0,0:0:0:0:s_047.ogg
475,192,21000,1,0,0:0:0:0:s_043.ogg
36,192,21200,1,0,0:0:0:0:s_019.ogg
109,192,21200,1,0,0:0:0:0:s_035.ogg
256,192,21200,1,0,0:0:0:0:s_038.ogg
402,192,21200,1,0,0:0:0:0:s_043.ogg
475,192,21200,1,0,0:0:0:0:s_031.ogg
36,192,21400,1,0,0:0:0:0:s_062.ogg
109,192,21400,1,0,0:0:0:0:s_043.ogg
182,192,21400,1,0,0:0:0:0:s_038.ogg
256,192,21400,1,0,0:0:0:0:s_047.ogg
329,192,21400,1,0,0:0:0:0:s_031.ogg
36,192,21500,1,0,0:0:0:0:s_062.ogg
109,192,21500,1,0,0:0:0:0:s_043.ogg
182,192,21500,1,0,0:0:0:0:s_038.ogg
256,192,21500,1,0,0:0:0:0:s_047.ogg
402,192,21500,1,0,0:0:0:0:s_031.ogg
36,192,21600,1,0,0:0:0:0:s_050.ogg
109,192,21600,1,0,0:0:0:0:s_035.ogg
182,192,21600,1,0,0:0:0:0:s_062.ogg
256,192,21600,1,0,0:0:0:0:s_043.ogg
475,192,21600,1,0,0:0:0:0:s_038.ogg
182,192,21800,1,0,0:0:0:0:s_062.ogg
256,192,21800,1,0,0:0:0:0:s_043.ogg
329,192,21800,1,0,0:0:0:0:s_038.ogg
402,192,21800,1,0,0:0:0:0:s_047.ogg
475,192,21800,1,0,0:0:0:0:s_031.ogg
109,192,21900,1,0,0:0:0:0:s_062.ogg
256,192,21900,1,0,0:0:0:0:s_043.ogg
329,192,21900,1,0,0:0:0:0:s_038.ogg
402,192,21900,1,0,0:0:0:0:s_047.ogg
475,192,21900,1,0,0:0:0:0:s_031.ogg
36,192,22000,1,0,0:0:0:0:s_050.ogg
256,192,22000,1,0,0:0:0:0:s_035.ogg
329,192,22000,1,0,0:0:0:0:s_062.ogg
402,192,22000,1,0,0:0:0:0:s_043.ogg
475,192,22000,1,0,0:0:0:0:s_038.ogg
36,192,22200,1,0,0:0:0:0:s_062.ogg
109,192,22200,1,0,0:0:0:0:s_043.ogg
182,192,22200,1,0,0:0:0:0:s_038.ogg
256,192,22200,1,0,0:0:0:0:s_047.ogg
402,192,22200,1,0,0:0:0:0:s_031.ogg
36,192,22300,1,0,0:0:0:0:s_062.ogg
109,192,22300,1,0,0:0:0:0:s_043.ogg
182,192,22300,1,0,0:0:0:0:s_038.ogg
256,192,22300,1,0,0:0:0:0:s_047.ogg
402,192,22300,1,0,0:0:0:0:s_031.ogg
36,192,22400,1,0,0:0:0:0:s_038.ogg
109,192,22400,1,0,0:0:0:0:s_047.ogg
182,192,22400,1,0,0:0:0:0:s_031.ogg
256,192,22400,1,0,0:0:0:0:s_055.ogg
329,192,22400,1,0,0:0:0:0:s_035.ogg
36,192,22600,1,0,0:0:0:0:s_038.ogg
109,192,22600,1,0,0:0:0:0:s_047.ogg
182,192,22600,1,0,0:0:0:0:s_031.ogg
329,192,22600,1,0,0:0:0:0:s_057.ogg
402,192,22600,1,0,0:0:0:0:s_035.ogg
36,192,22800,1,0,0:0:0:0:s_038.ogg
109,192,22800,1,0,0:0:0:0:s_047.ogg
182,192,22800,1,0,0:0:0:0:s_031.ogg
402,192,22800,1,0,0:0:0:0:s_059.ogg
475,192,22800,1,0,0:0:0:0:s_035.ogg
36,192,23000,1,0,0:0:0:0:s_062.ogg
256,192,23000,1,0,0:0:0:0:s_043.ogg
329,192,23000,1,0,0:0:0:0:s_038.ogg
402,192,23000,1,0,0:0:0:0:s_050.ogg
475,192,23000,1,0,0:0:0:0:s_035.ogg
109,192,23100,1,0,0:0:0:0:s_062.ogg
256,192,23100,1,0,0:0:0:0:s_043.ogg
329,192,23100,1,0,0:0:0:0:s_038.ogg
402,192,23100,1,0,0:0:0:0:s_050.ogg
475,192,23100,1,0,0:0:0:0:s_035.ogg
182,192,23200,1,0,0:0:0:0:s_050.ogg
256,192,23200,1,0,0:0:0:0:s_035.ogg
329,192,23200,1,0,0:0:0:0:s_062.ogg
402,192,23200,1,0,0:0:0:0:s_047.ogg
475,192,23200,1,0,0:0:0:0:s_031.ogg
36,192,23400,1,0,0:0:0:0:s_062.ogg
109,192,23400,1,0,0:0:0:0:s_043.ogg
182,192,23400,1,0,0:0:0:0:s_038.ogg
256,192,23400,1,0,0:0:0:0:s_050.ogg
475,192,23400,1,0,0:0:0:0:s_035.ogg
36,192,23500,1,0,0:0:0:0:s_062.ogg
109,192,23500,1,0,0:0:0:0:s_043.ogg
182,192,23500,1,0,0:0:0:0:s_038.ogg
256,192,23500,1,0,0:0:0:0:s_050.ogg
402,192,23500,1,0,0:0:0:0:s_035.ogg
36,192,23600,1,0,0:0:0:0:s_031.ogg
109,192,23600,1,0,0:0:0:0:s_055.ogg
182,192,23600,1,0,0:0:0:0:s_035.ogg
256,192,23600,1,0,0:0:0:0:s_038.ogg
329,192,23600,1,0,0:0:0:0:s_047.ogg
182,192,23800,1,0,0:0:0:0:s_035.ogg
256,192,23800,1,0,0:0:0:0:s_071.ogg
329,192,23800,1,0,0:0:0:0:s_043.ogg
402,192,23800,1,0,0:0:0:0:s_038.ogg
475,192,23800,1,0,0:0:0:0:s_059.ogg
182,192,23900,1,0,0:0:0:0:s_035.ogg
256,192,23900,1,0,0:0:0:0:s_071.ogg
329,192,23900,1,0,0:0:0:0:s_043.ogg
402,192,23900,1,0,0:0:0:0:s_038.ogg
475,192,23900,1,0,0:0:0:0:s_059.ogg
36,192,24000,1,0,0:0:0:0:s_014.ogg
109,192,24000,1,0,0:0:0:0:s_026.ogg
182,192,24000,1,0,0:0:0:0:s_038.ogg
402,192,24000,1,0,0:0:0:0:s_057.ogg
475,192,24000,1,0,0:0:0:0:s_030.ogg
36,192,24200,1,0,0:0:0:0:s_014.ogg
109,192,24200,1,0,0:0:0:0:s_026.ogg
182,192,24200,1,0,0:0:0:0:s_038.ogg
329,192,24200,1,0,0:0:0:0:s_054.ogg
402,192,24200,1,0,0:0:0:0:s_030.ogg
36,192,24400,1,0,0:0:0:0:s_014.ogg
109,192,24400,1,0,0:0:0:0:s_033.ogg
182,192,24400,1,0,0:0:0:0:s_050.ogg
256,192,24400,1,0,0:0:0:0:s_062.ogg
329,192,24400,1,0,0:0:0:0:s_030.ogg
36,192,24600,1,0,0:0:0:0:s_062.ogg
256,192,24600,1,0,0:0:0:0:s_043.ogg
329,192,24600,1,0,0:0:0:0:s_038.ogg
402,192,24600,1,0,0:0:0:0:s_050.ogg
475,192,24600,1,0,0:0:0:0:s_035.ogg
109,192,24700,1,0,0:0:0:0:s_062.ogg
256,192,24700,1,0,0:0:0:0:s_043.ogg
329,192,24700,1,0,0:0:0:0:s_038.ogg
402,192,24700,1,0,0:0:0:0:s_050.ogg
475,192,24700,1,0,0:0:0:0:s_035.ogg
182,192,24800,1,0,0:0:0:0:s_050.ogg
256,192,24800,1,0,0:0:0:0:s_035.ogg
329,192,24800,1,0,0:0:0:0:s_062.ogg
402,192,24800,1,0,0:0:0:0:s_047.ogg
475,192,24800,1,0,0:0:0:0:s_031.ogg
36,192,25000,1,0,0:0:0:0:s_062.ogg
109,192,25000,1,0,0:0:0:0:s_043.ogg
182,192,25000,1,0,0:0:0:0:s_038.ogg
256,192,25000,1,0,0:0:0:0:s_050.ogg
475,192,25000,1,0,0:0:0:0:s_035.ogg
36,192,25100,1,0,0:0:0:0:s_062.ogg
109,192,25100,1,0,0:0:0:0:s_043.ogg
182,192,25100,1,0,0:0:0:0:s_038.ogg
256,192,25100,1,0,0:0:0:0:s_050.ogg
402,192,25100,1,0,0:0:0:0:s_035.ogg
36,192,25200,1,0,0:0:0:0:s_050.ogg
109,192,25200,1,0,0:0:0:0:s_035.ogg
182,192,25200,1,0,0:0:0:0:s_062.ogg
256,192,25200,1,0,0:0:0:0:s_047.ogg
329,192,25200,1,0,0:0:0:0:s_031.ogg
36,192,25400,1,0,0:0:0:0:s_062.ogg
182,192,25400,1,0,0:0:0:0:s_043.ogg
329,192,25400,1,0,0:0:0:0:s_038.ogg
402,192,25400,1,0,0:0:0:0:s_050.ogg
475,192,25400,1,0,0:0:0:0:s_035.ogg
36,192,25500,1,0,0:0:0:0:s_062.ogg
182,192,25500,1,0,0:0:0:0:s_043.ogg
329,192,25500,1,0,0:0:0:0:s_038.ogg
402,192,25500,1,0,0:0:0:0:s_050.ogg
475,192,25500,1,0,0:0:0:0:s_035.ogg
36,192,25600,1,0,0:0:0:0:s_019.ogg
109,192,25600,1,0,0:0:0:0:s_038.ogg
182,192,25600,1,0,0:0:0:0:s_047.ogg
256,192,25600,1,0,0:0:0:0:s_035.ogg
329,192,25600,1,0,0:0:0:0:s_055.ogg
36,192,25800,1,0,0:0:0:0:s_019.ogg
109,192,25800,1,0,0:0:0:0:s_038.ogg
182,192,25800,1,0,0:0:0:0:s_047.ogg
256,192,25800,1,0,0:0:0:0:s_057.ogg
402,192,25800,1,0,0:0:0:0:s_035.ogg
36,192,26000,1,0,0:0:0:0:s_019.ogg
109,192,26000,1,0,0:0:0:0:s_038.ogg
182,192,26000,1,0,0:0:0:0:s_047.ogg
256,192,26000,1,0,0:0:0:0:s_059.ogg
475,192,26000,1,0,0:0:0:0:s_035.ogg
36,192,26200,1,0,0:0:0:0:s_038.ogg
109,192,26200,1,0,0:0:0:0:s_067.ogg
182,192,26200,1,0,0:0:0:0:s_043.ogg
256,192,26200,1,0,0:0:0:0:s_035.ogg
329,192,26200,1,0,0:0:0:0:s_055.ogg
36,192,26300,1,0,0:0:0:0:s_038.ogg
109,192,26300,1,0,0:0:0:0:s_071.ogg
182,192,26300,1,0,0:0:0:0:s_047.ogg
329,192,26300,1,0,0:0:0:0:s_035.ogg
402,192,26300,1,0,0:0:0:0:s_059.ogg
109,192,26400,1,0,0:0:0:0:s_014.ogg
182,192,26400,1,0,0:0:0:0:s_038.ogg
256,192,26400,1,0,0:0:0:0:m_050.ogg
475,192,26400,128,0,26800:0:0:0:0:m_074.ogg
402,192,26400,128,0,26800:0:0:0:0:m_062.ogg
36,192,26600,1,0,0:0:0:0:s_014.ogg
182,192,26600,1,0,0:0:0:0:s_042.ogg
256,192,26600,1,0,0:0:0:0:s_038.ogg
109,192,26700,1,0,0:0:0:0:s_014.ogg
182,192,26700,1,0,0:0:0:0:s_042.ogg
256,192,26700,1,0,0:0:0:0:s_038.ogg
36,192,26800,1,0,0:0:0:0:s_014.ogg
182,192,26800,1,0,0:0:0:0:s_038.ogg
256,192,26800,1,0,0:0:0:0:s_042.ogg
402,192,26900,1,0,0:0:0:0:s_060.ogg
475,192,26900,1,0,0:0:0:0:s_072.ogg
109,192,27000,1,0,0:0:0:0:s_014.ogg
182,192,27000,1,0,0:0:0:0:s_038.ogg
256,192,27000,1,0,0:0:0:0:s_071.ogg
329,192,27000,1,0,0:0:0:0:s_026.ogg
475,192,27000,1,0,0:0:0:0:s_042.ogg
36,192,27100,1,0,0:0:0:0:s_014.ogg
182,192,27100,1,0,0:0:0:0:s_038.ogg
256,192,27100,1,0,0:0:0:0:s_069.ogg
329,192,27100,1,0,0:0:0:0:s_026.ogg
402,192,27100,1,0,0:0:0:0:s_042.ogg
36,192,27200,1,0,0:0:0:0:s_031.ogg
109,192,27200,1,0,0:0:0:0:s_055.ogg
182,192,27200,1,0,0:0:0:0:s_019.ogg
256,192,27200,1,0,0:0:0:0:s_043.ogg
329,192,27200,1,0,0:0:0:0:s_038.ogg
182,192,27400,1,0,0:0:0:0:s_071.ogg
256,192,27400,1,0,0:0:0:0:s_031.ogg
329,192,27400,1,0,0:0:0:0:s_019.ogg
402,192,27400,1,0,0:0:0:0:s_043.ogg
475,192,27400,1,0,0:0:0:0:s_047.ogg
36,192,27600,1,0,0:0:0:0:s_031.ogg
109,192,27600,1,0,0:0:0:0:s_055.ogg
182,192,27600,1,0,0:0:0:0:s_019.ogg
256,192,27600,1,0,0:0:0:0:s_043.ogg
329,192,27600,1,0,0:0:0:0:s_038.ogg
36,192,27800,1,0,0:0:0:0:s_071.ogg
182,192,27800,1,0,0:0:0:0:s_067.ogg
256,192,27800,1,0,0:0:0:0:s_043.ogg
329,192,27800,1,0,0:0:0:0:s_028.ogg
475,192,27800,1,0,0:0:0:0:s_040.ogg
36,192,27900,1,0,0:0:0:0:s_055.ogg
182,192,27900,1,0,0:0:0:0:s_059.ogg
256,192,27900,1,0,0:0:0:0:s_067.ogg
329,192,27900,1,0,0:0:0:0:s_040.ogg
475,192,27900,1,0,0:0:0:0:s_043.ogg
36,192,28000,1,0,0:0:0:0:s_028.ogg
182,192,28000,1,0,0:0:0:0:s_059.ogg
256,192,28000,1,0,0:0:0:0:s_071.ogg
329,192,28000,1,0,0:0:0:0:s_067.ogg
475,192,28000,1,0,0:0:0:0:s_040.ogg
36,192,28200,1,0,0:0:0:0:s_055.ogg
182,192,28200,1,0,0:0:0:0:s_059.ogg
256,192,28200,1,0,0:0:0:0:s_067.ogg
329,192,28200,1,0,0:0:0:0:s_040.ogg
475,192,28200,1,0,0:0:0:0:s_043.ogg
36,192,28300,1,0,0:0:0:0:s_055.ogg
182,192,28300,1,0,0:0:0:0:s_059.ogg
256,192,28300,1,0,0:0:0:0:s_067.ogg
329,192,28300,1,0,0:0:0:0:s_040.ogg
475,192,28300,1,0,0:0:0:0:s_043.ogg
36,192,28400,1,0,0:0:0:0:s_028.ogg
182,192,28400,1,0,0:0:0:0:s_059.ogg
256,192,28400,1,0,0:0:0:0:s_071.ogg
329,192,28400,1,0,0:0:0:0:s_067.ogg
475,192,28400,1,0,0:0:0:0:s_040.ogg
36,192,28600,1,0,0:0:0:0:s_055.ogg
182,192,28600,1,0,0:0:0:0:s_059.ogg
256,192,28600,1,0,0:0:0:0:s_067.ogg
329,192,28600,1,0,0:0:0:0:s_040.ogg
475,192,28600,1,0,0:0:0:0:s_043.ogg
36,192,28700,1,0,0:0:0:0:s_055.ogg
182,192,28700,1,0,0:0:0:0:s_059.ogg
256,192,28700,1,0,0:0:0:0:s_067.ogg
329,192,28700,1,0,0:0:0:0:s_040.ogg
475,192,28700,1,0,0:0:0:0:s_043.ogg
36,192,28800,1,0,0:0:0:0:s_028.ogg
182,192,28800,1,0,0:0:0:0:s_059.ogg
256,192,28800,1,0,0:0:0:0:s_071.ogg
329,192,28800,1,0,0:0:0:0:s_067.ogg
475,192,28800,1,0,0:0:0:0:s_040.ogg
109,192,29000,1,0,0:0:0:0:s_040.ogg
402,192,29000,1,0,0:0:0:0:s_076.ogg
36,192,29200,1,0,0:0:0:0:s_028.ogg
182,192,29200,1,0,0:0:0:0:s_059.ogg
256,192,29200,1,0,0:0:0:0:s_071.ogg
329,192,29200,1,0,0:0:0:0:s_067.ogg
475,192,29200,1,0,0:0:0:0:s_040.ogg
109,192,29400,1,0,0:0:0:0:s_040.ogg
402,192,29400,1,0,0:0:0:0:s_076.ogg
36,192,29600,1,0,0:0:0:0:s_028.ogg
182,192,29600,1,0,0:0:0:0:s_059.ogg
256,192,29600,1,0,0:0:0:0:s_071.ogg
329,192,29600,1,0,0:0:0:0:s_067.ogg
475,192,29600,1,0,0:0:0:0:s_040.ogg
109,192,29800,1,0,0:0:0:0:s_040.ogg
402,192,29800,1,0,0:0:0:0:s_076.ogg
36,192,30000,1,0,0:0:0:0:s_028.ogg
182,192,30000,1,0,0:0:0:0:s_059.ogg
256,192,30000,1,0,0:0:0:0:s_071.ogg
329,192,30000,1,0,0:0:0:0:s_067.ogg
475,192,30000,1,0,0:0:0:0:s_040.ogg
109,192,30200,1,0,0:0:0:0:s_035.ogg
182,192,30200,1,0,0:0:0:0:s_069.ogg
256,192,30200,1,0,0:0:0:0:s_051.ogg
402,192,30200,1,0,0:0:0:0:s_023.ogg
475,192,30200,1,0,0:0:0:0:s_066.ogg
36,192,30400,1,0,0:0:0:0:s_040.ogg
109,192,30400,1,0,0:0:0:0:s_028.ogg
182,192,30400,1,0,0:0:0:0:s_067.ogg
329,192,30400,1,0,0:0:0:0:s_064.ogg
402,192,30400,1,0,0:0:0:0:s_047.ogg
36,192,30600,1,0,0:0:0:0:s_054.ogg
109,192,30600,1,0,0:0:0:0:s_066.ogg
256,192,30600,1,0,0:0:0:0:s_047.ogg
329,192,30600,1,0,0:0:0:0:s_063.ogg
475,192,30600,1,0,0:0:0:0:s_040.ogg
36,192,30800,1,0,0:0:0:0:s_040.ogg
182,192,30800,1,0,0:0:0:0:s_028.ogg
256,192,30800,1,0,0:0:0:0:s_035.ogg
402,192,30800,1,0,0:0:0:0:s_047.ogg
475,192,30800,1,0,0:0:0:0:s_064.ogg
36,192,31000,1,0,0:0:0:0:s_043.ogg
109,192,31000,1,0,0:0:0:0:s_055.ogg
256,192,31000,1,0,0:0:0:0:s_059.ogg
329,192,31000,1,0,0:0:0:0:s_067.ogg
402,192,31000,1,0,0:0:0:0:s_040.ogg
36,192,31100,1,0,0:0:0:0:s_043.ogg
109,192,31100,1,0,0:0:0:0:s_055.ogg
256,192,31100,1,0,0:0:0:0:s_059.ogg
329,192,31100,1,0,0:0:0:0:s_067.ogg
402,192,31100,1,0,0:0:0:0:s_040.ogg
36,192,31200,1,0,0:0:0:0:s_040.ogg
109,192,31200,1,0,0:0:0:0:s_028.ogg
256,192,31200,1,0,0:0:0:0:s_059.ogg
329,192,31200,1,0,0:0:0:0:s_071.ogg
402,192,31200,1,0,0:0:0:0:s_067.ogg
36,192,31400,1,0,0:0:0:0:s_043.ogg
109,192,31400,1,0,0:0:0:0:s_055.ogg
256,192,31400,1,0,0:0:0:0:s_059.ogg
329,192,31400,1,0,0:0:0:0:s_067.ogg
402,192,31400,1,0,0:0:0:0:s_040.ogg
36,192,31500,1,0,0:0:0:0:s_043.ogg
109,192,31500,1,0,0:0:0:0:s_055.ogg
256,192,31500,1,0,0:0:0:0:s_059.ogg
329,192,31500,1,0,0:0:0:0:s_067.ogg
402,192,31500,1,0,0:0:0:0:s_040.ogg
36,192,31600,1,0,0:0:0:0:s_040.ogg
109,192,31600,1,0,0:0:0:0:s_028.ogg
256,192,31600,1,0,0:0:0:0:s_059.ogg
329,192,31600,1,0,0:0:0:0:s_071.ogg
402,192,31600,1,0,0:0:0:0:s_067.ogg
36,192,31800,1,0,0:0:0:0:s_043.ogg
109,192,31800,1,0,0:0:0:0:s_055.ogg
256,192,31800,1,0,0:0:0:0:s_059.ogg
329,192,31800,1,0,0:0:0:0:s_067.ogg
402,192,31800,1,0,0:0:0:0:s_040.ogg
36,192,31900,1,0,0:0:0:0:s_043.ogg
109,192,31900,1,0,0:0:0:0:s_055.ogg
256,192,31900,1,0,0:0:0:0:s_059.ogg
329,192,31900,1,0,0:0:0:0:s_067.ogg
402,192,31900,1,0,0:0:0:0:s_040.ogg
36,192,32000,1,0,0:0:0:0:s_040.ogg
109,192,32000,1,0,0:0:0:0:s_028.ogg
256,192,32000,1,0,0:0:0:0:s_059.ogg
329,192,32000,1,0,0:0:0:0:s_071.ogg
402,192,32000,1,0,0:0:0:0:s_067.ogg
182,192,32200,1,0,0:0:0:0:s_076.ogg
475,192,32200,1,0,0:0:0:0:s_040.ogg
36,192,32400,1,0,0:0:0:0:s_028.ogg
109,192,32400,1,0,0:0:0:0:s_047.ogg
256,192,32400,1,0,0:0:0:0:s_067.ogg
329,192,32400,1,0,0:0:0:0:s_040.ogg
402,192,32400,1,0,0:0:0:0:s_055.ogg
182,192,32600,1,0,0:0:0:0:s_076.ogg
475,192,32600,1,0,0:0:0:0:s_040.ogg
36,192,32800,1,0,0:0:0:0:s_028.ogg
109,192,32800,1,0,0:0:0:0:s_047.ogg
256,192,32800,1,0,0:0:0:0:s_067.ogg
329,192,32800,1,0,0:0:0:0:s_040.ogg
402,192,32800,1,0,0:0:0:0:s_055.ogg
182,192,33000,1,0,0:0:0:0:s_076.ogg
475,192,33000,1,0,0:0:0:0:s_040.ogg
36,192,33200,1,0,0:0:0:0:s_050.ogg
109,192,33200,1,0,0:0:0:0:s_062.ogg
256,192,33200,1,0,0:0:0:0:s_066.ogg
329,192,33200,1,0,0:0:0:0:s_033.ogg
402,192,33200,1,0,0:0:0:0:s_074.ogg
36,192,33400,1,0,0:0:0:0:s_043.ogg
109,192,33400,1,0,0:0:0:0:s_052.ogg
182,192,33400,1,0,0:0:0:0:s_021.ogg
329,192,33400,1,0,0:0:0:0:s_061.ogg
475,192,33400,1,0,0:0:0:0:s_073.ogg
36,192,33600,1,0,0:0:0:0:s_074.ogg
109,192,33600,1,0,0:0:0:0:s_045.ogg
256,192,33600,1,0,0:0:0:0:s_050.ogg
329,192,33600,1,0,0:0:0:0:s_054.ogg
402,192,33600,1,0,0:0:0:0:s_038.ogg
36,192,33800,1,0,0:0:0:0:s_073.ogg
109,192,33800,1,0,0:0:0:0:s_043.ogg
182,192,33800,1,0,0:0:0:0:s_049.ogg
329,192,33800,1,0,0:0:0:0:s_052.ogg
475,192,33800,1,0,0:0:0:0:s_038.ogg
36,192,34000,1,0,0:0:0:0:s_074.ogg
109,192,34000,1,0,0:0:0:0:s_045.ogg
256,192,34000,1,0,0:0:0:0:s_050.ogg
329,192,34000,1,0,0:0:0:0:s_026.ogg
402,192,34000,1,0,0:0:0:0:s_054.ogg
109,192,34200,1,0,0:0:0:0:s_055.ogg
182,192,34200,1,0,0:0:0:0:s_059.ogg
329,192,34200,1,0,0:0:0:0:s_067.ogg
402,192,34200,1,0,0:0:0:0:s_040.ogg
475,192,34200,1,0,0:0:0:0:s_043.ogg
109,192,34300,1,0,0:0:0:0:s_055.ogg
182,192,34300,1,0,0:0:0:0:s_059.ogg
329,192,34300,1,0,0:0:0:0:s_067.ogg
402,192,34300,1,0,0:0:0:0:s_040.ogg
475,192,34300,1,0,0:0:0:0:s_043.ogg
109,192,34400,1,0,0:0:0:0:s_028.ogg
182,192,34400,1,0,0:0:0:0:s_059.ogg
329,192,34400,1,0,0:0:0:0:s_071.ogg
402,192,34400,1,0,0:0:0:0:s_067.ogg
475,192,34400,1,0,0:0:0:0:s_040.ogg
109,192,34600,1,0,0:0:0:0:s_055.ogg
182,192,34600,1,0,0:0:0:0:s_059.ogg
329,192,34600,1,0,0:0:0:0:s_067.ogg
402,192,34600,1,0,0:0:0:0:s_040.ogg
475,192,34600,1,0,0:0:0:0:s_043.ogg
109,192,34700,1,0,0:0:0:0:s_055.ogg
182,192,34700,1,0,0:0:0:0:s_059.ogg
329,192,34700,1,0,0:0:0:0:s_067.ogg
402,192,34700,1,0,0:0:0:0:s_040.ogg
475,192,34700,1,0,0:0:0:0:s_043.ogg
109,192,34800,1,0,0:0:0:0:s_028.ogg
182,192,34800,1,0,0:0:0:0:s_059.ogg
329,192,34800,1,0,0:0:0:0:s_071.ogg
402,192,34800,1,0,0:0:0:0:s_067.ogg
475,192,34800,1,0,0:0:0:0:s_040.ogg
109,192,35000,1,0,0:0:0:0:s_055.ogg
182,192,35000,1,0,0:0:0:0:s_059.ogg
329,192,35000,1,0,0:0:0:0:s_067.ogg
402,192,35000,1,0,0:0:0:0:s_040.ogg
475,192,35000,1,0,0:0:0:0:s_043.ogg
109,192,35100,1,0,0:0:0:0:s_055.ogg
182,192,35100,1,0,0:0:0:0:s_059.ogg
329,192,35100,1,0,0:0:0:0:s_067.ogg
402,192,35100,1,0,0:0:0:0:s_040.ogg
475,192,35100,1,0,0:0:0:0:s_043.ogg
109,192,35200,1,0,0:0:0:0:s_028.ogg
182,192,35200,1,0,0:0:0:0:s_059.ogg
329,192,35200,1,0,0:0:0:0:s_071.ogg
402,192,35200,1,0,0:0:0:0:s_067.ogg
475,192,35200,1,0,0:0:0:0:s_040.ogg
36,192,35400,1,0,0:0:0:0:s_040.ogg
256,192,35400,1,0,0:0:0:0:s_076.ogg
109,192,35600,1,0,0:0:0:0:s_071.ogg
182,192,35600,1,0,0:0:0:0:s_059.ogg
329,192,35600,1,0,0:0:0:0:s_028.ogg
402,192,35600,1,0,0:0:0:0:s_067.ogg
475,192,35600,1,0,0:0:0:0:s_040.ogg
36,192,35800,1,0,0:0:0:0:s_040.ogg
256,192,35800,1,0,0:0:0:0:s_076.ogg
109,192,36000,1,0,0:0:0:0:s_028.ogg
182,192,36000,1,0,0:0:0:0:s_059.ogg
329,192,36000,1,0,0:0:0:0:s_071.ogg
402,192,36000,1,0,0:0:0:0:s_067.ogg
475,192,36000,1,0,0:0:0:0:s_040.ogg
36,192,36200,1,0,0:0:0:0:s_076.ogg
256,192,36200,1,0,0:0:0:0:s_040.ogg
109,192,36400,1,0,0:0:0:0:s_028.ogg
182,192,36400,1,0,0:0:0:0:s_059.ogg
329,192,36400,1,0,0:0:0:0:s_071.ogg
402,192,36400,1,0,0:0:0:0:s_067.ogg
475,192,36400,1,0,0:0:0:0:s_040.ogg
36,192,36600,1,0,0:0:0:0:s_035.ogg
109,192,36600,1,0,0:0:0:0:s_069.ogg
256,192,36600,1,0,0:0:0:0:s_051.ogg
329,192,36600,1,0,0:0:0:0:s_023.ogg
402,192,36600,1,0,0:0:0:0:s_066.ogg
36,192,36800,1,0,0:0:0:0:s_040.ogg
182,192,36800,1,0,0:0:0:0:s_067.ogg
256,192,36800,1,0,0:0:0:0:s_028.ogg
329,192,36800,1,0,0:0:0:0:s_064.ogg
475,192,36800,1,0,0:0:0:0:s_047.ogg
109,192,37000,1,0,0:0:0:0:s_066.ogg
182,192,37000,1,0,0:0:0:0:s_047.ogg
256,192,37000,1,0,0:0:0:0:s_063.ogg
402,192,37000,1,0,0:0:0:0:s_040.ogg
475,192,37000,1,0,0:0:0:0:s_054.ogg
36,192,37200,1,0,0:0:0:0:s_064.ogg
109,192,37200,1,0,0:0:0:0:s_047.ogg
182,192,37200,1,0,0:0:0:0:s_040.ogg
329,192,37200,1,0,0:0:0:0:s_028.ogg
402,192,37200,1,0,0:0:0:0:s_035.ogg
36,192,37400,1,0,0:0:0:0:s_055.ogg
182,192,37400,1,0,0:0:0:0:s_059.ogg
256,192,37400,1,0,0:0:0:0:s_067.ogg
402,192,37400,1,0,0:0:0:0:s_040.ogg
475,192,37400,1,0,0:0:0:0:s_043.ogg
36,192,37500,1,0,0:0:0:0:s_055.ogg
182,192,37500,1,0,0:0:0:0:s_059.ogg
256,192,37500,1,0,0:0:0:0:s_067.ogg
402,192,37500,1,0,0:0:0:0:s_040.ogg
475,192,37500,1,0,0:0:0:0:s_043.ogg
36,192,37600,1,0,0:0:0:0:s_028.ogg
182,192,37600,1,0,0:0:0:0:s_059.ogg
256,192,37600,1,0,0:0:0:0:s_071.ogg
402,192,37600,1,0,0:0:0:0:s_067.ogg
475,192,37600,1,0,0:0:0:0:s_040.ogg
36,192,37800,1,0,0:0:0:0:s_055.ogg
182,192,37800,1,0,0:0:0:0:s_059.ogg
256,192,37800,1,0,0:0:0:0:s_067.ogg
402,192,37800,1,0,0:0:0:0:s_040.ogg
475,192,37800,1,0,0:0:0:0:s_043.ogg
36,192,37900,1,0,0:0:0:0:s_055.ogg
182,192,37900,1,0,0:0:0:0:s_059.ogg
256,192,37900,1,0,0:0:0:0:s_067.ogg
402,192,37900,1,0,0:0:0:0:s_040.ogg
475,192,37900,1,0,0:0:0:0:s_043.ogg
36,192,38000,1,0,0:0:0:0:s_028.ogg
182,192,38000,1,0,0:0:0:0:s_059.ogg
256,192,38000,1,0,0:0:0:0:s_071.ogg
402,192,38000,1,0,0:0:0:0:s_067.ogg
475,192,38000,1,0,0:0:0:0:s_040.ogg
36,192,38200,1,0,0:0:0:0:s_055.ogg
182,192,38200,1,0,0:0:0:0:s_059.ogg
256,192,38200,1,0,0:0:0:0:s_067.ogg
402,192,38200,1,0,0:0:0:0:s_040.ogg
475,192,38200,1,0,0:0:0:0:s_043.ogg
36,192,38300,1,0,0:0:0:0:s_055.ogg
182,192,38300,1,0,0:0:0:0:s_059.ogg
256,192,38300,1,0,0:0:0:0:s_067.ogg
402,192,38300,1,0,0:0:0:0:s_040.ogg
475,192,38300,1,0,0:0:0:0:s_043.ogg
36,192,38400,1,0,0:0:0:0:s_028.ogg
182,192,38400,1,0,0:0:0:0:s_059.ogg
256,192,38400,1,0,0:0:0:0:s_071.ogg
402,192,38400,1,0,0:0:0:0:s_067.ogg
475,192,38400,1,0,0:0:0:0:s_040.ogg
109,192,38600,1,0,0:0:0:0:s_064.ogg
329,192,38600,1,0,0:0:0:0:s_052.ogg
36,192,38800,1,0,0:0:0:0:s_028.ogg
182,192,38800,1,0,0:0:0:0:s_059.ogg
256,192,38800,1,0,0:0:0:0:s_071.ogg
402,192,38800,1,0,0:0:0:0:s_067.ogg
475,192,38800,1,0,0:0:0:0:s_040.ogg
109,192,39000,1,0,0:0:0:0:s_040.ogg
329,192,39000,1,0,0:0:0:0:s_076.ogg
36,192,39200,1,0,0:0:0:0:s_028.ogg
182,192,39200,1,0,0:0:0:0:s_059.ogg
256,192,39200,1,0,0:0:0:0:s_071.ogg
402,192,39200,1,0,0:0:0:0:s_067.ogg
475,192,39200,1,0,0:0:0:0:s_040.ogg
109,192,39400,1,0,0:0:0:0:s_040.ogg
329,192,39400,1,0,0:0:0:0:s_076.ogg
36,192,39600,1,0,0:0:0:0:s_050.ogg
182,192,39600,1,0,0:0:0:0:s_054.ogg
256,192,39600,1,0,0:0:0:0:s_057.ogg
402,192,39600,1,0,0:0:0:0:s_066.ogg
475,192,39600,1,0,0:0:0:0:s_033.ogg
36,192,39800,1,0,0:0:0:0:s_043.ogg
109,192,39800,1,0,0:0:0:0:s_052.ogg
256,192,39800,1,0,0:0:0:0:s_073.ogg
329,192,39800,1,0,0:0:0:0:s_064.ogg
402,192,39800,1,0,0:0:0:0:s_055.ogg
36,192,40000,1,0,0:0:0:0:s_074.ogg
182,192,40000,1,0,0:0:0:0:s_050.ogg
329,192,40000,1,0,0:0:0:0:s_054.ogg
402,192,40000,1,0,0:0:0:0:s_038.ogg
475,192,40000,1,0,0:0:0:0:s_045.ogg
256,192,40100,1,0,0:0:0:0:s_061.ogg
402,192,40200,1,0,0:0:0:0:s_064.ogg
256,192,40300,1,0,0:0:0:0:s_061.ogg
329,192,40400,1,0,0:0:0:0:s_062.ogg
256,192,40500,1,0,0:0:0:0:s_061.ogg
36,192,40600,1,0,0:0:0:0:s_045.ogg
182,192,40600,1,0,0:0:0:0:s_038.ogg
402,192,40600,1,0,0:0:0:0:s_064.ogg
475,192,40600,1,0,0:0:0:0:s_050.ogg
36,192,40700,1,0,0:0:0:0:s_045.ogg
182,192,40700,1,0,0:0:0:0:s_038.ogg
256,192,40700,1,0,0:0:0:0:s_061.ogg
475,192,40700,1,0,0:0:0:0:s_050.ogg
36,192,40800,1,0,0:0:0:0:s_045.ogg
182,192,40800,1,0,0:0:0:0:s_038.ogg
329,192,40800,1,0,0:0:0:0:s_062.ogg
475,192,40800,1,0,0:0:0:0:s_050.ogg
256,192,40900,1,0,0:0:0:0:s_061.ogg
36,192,41000,1,0,0:0:0:0:s_038.ogg
182,192,41000,1,0,0:0:0:0:s_045.ogg
402,192,41000,1,0,0:0:0:0:s_064.ogg
36,192,41100,1,0,0:0:0:0:s_038.ogg
182,192,41100,1,0,0:0:0:0:s_045.ogg
256,192,41100,1,0,0:0:0:0:s_061.ogg
36,192,41200,1,0,0:0:0:0:s_038.ogg
182,192,41200,1,0,0:0:0:0:s_045.ogg
329,192,41200,1,0,0:0:0:0:s_062.ogg
256,192,41300,1,0,0:0:0:0:s_061.ogg
36,192,41400,1,0,0:0:0:0:s_047.ogg
109,192,41400,1,0,0:0:0:0:s_043.ogg
402,192,41400,1,0,0:0:0:0:s_064.ogg
475,192,41400,1,0,0:0:0:0:s_050.ogg
256,192,41500,1,0,0:0:0:0:s_061.ogg
475,192,41500,1,0,0:0:0:0:s_050.ogg
109,192,41600,1,0,0:0:0:0:s_048.ogg
182,192,41600,1,0,0:0:0:0:s_045.ogg
329,192,41600,1,0,0:0:0:0:s_062.ogg
475,192,41600,1,0,0:0:0:0:s_050.ogg
256,192,41700,1,0,0:0:0:0:s_061.ogg
402,192,41800,1,0,0:0:0:0:s_014.ogg
109,192,41800,128,0,42100:0:0:0:0:m_038.ogg
36,192,41800,128,0,42100:0:0:0:0:m_045.ogg
256,192,41900,1,0,0:0:0:0:s_061.ogg
329,192,42000,1,0,0:0:0:0:s_016.ogg
256,192,42100,1,0,0:0:0:0:s_061.ogg
109,192,42200,1,0,0:0:0:0:s_064.ogg
182,192,42200,1,0,0:0:0:0:s_030.ogg
402,192,42200,1,0,0:0:0:0:s_018.ogg
475,192,42200,1,0,0:0:0:0:s_050.ogg
256,192,42300,1,0,0:0:0:0:s_061.ogg
475,192,42300,1,0,0:0:0:0:s_050.ogg
36,192,42400,1,0,0:0:0:0:s_062.ogg
109,192,42400,1,0,0:0:0:0:s_031.ogg
329,192,42400,1,0,0:0:0:0:s_019.ogg
475,192,42400,1,0,0:0:0:0:s_050.ogg
256,192,42500,1,0,0:0:0:0:s_061.ogg
402,192,42600,1,0,0:0:0:0:s_021.ogg
182,192,42600,128,0,42900:0:0:0:0:m_035.ogg
36,192,42600,128,0,42900:0:0:0:0:m_043.ogg
256,192,42700,1,0,0:0:0:0:s_061.ogg
329,192,42800,1,0,0:0:0:0:s_023.ogg
256,192,42900,1,0,0:0:0:0:s_061.ogg
109,192,43000,1,0,0:0:0:0:s_064.ogg
182,192,43000,1,0,0:0:0:0:s_037.ogg
402,192,43000,1,0,0:0:0:0:s_025.ogg
475,192,43000,1,0,0:0:0:0:s_050.ogg
256,192,43100,1,0,0:0:0:0:s_061.ogg
475,192,43100,1,0,0:0:0:0:s_050.ogg
182,192,43200,1,0,0:0:0:0:s_038.ogg
329,192,43200,1,0,0:0:0:0:s_026.ogg
475,192,43200,1,0,0:0:0:0:s_045.ogg
36,192,43200,1,0,0:0:0:0:s_050.ogg
109,192,43300,1,0,0:0:0:0:s_061.ogg
256,192,43300,1,0,0:0:0:0:s_049.ogg
182,192,43400,1,0,0:0:0:0:s_026.ogg
402,192,43400,1,0,0:0:0:0:s_014.ogg
475,192,43400,1,0,0:0:0:0:s_038.ogg
36,192,43400,1,0,0:0:0:0:s_042.ogg
109,192,43500,1,0,0:0:0:0:s_061.ogg
256,192,43500,1,0,0:0:0:0:s_049.ogg
182,192,43600,1,0,0:0:0:0:s_042.ogg
329,192,43600,1,0,0:0:0:0:s_026.ogg
475,192,43600,1,0,0:0:0:0:s_045.ogg
36,192,43600,1,0,0:0:0:0:s_038.ogg
109,192,43700,1,0,0:0:0:0:s_061.ogg
256,192,43700,1,0,0:0:0:0:s_049.ogg
182,192,43800,1,0,0:0:0:0:s_038.ogg
402,192,43800,1,0,0:0:0:0:s_052.ogg
475,192,43800,1,0,0:0:0:0:s_045.ogg
36,192,43800,1,0,0:0:0:0:s_057.ogg
109,192,43900,1,0,0:0:0:0:s_038.ogg
256,192,43900,1,0,0:0:0:0:s_049.ogg
475,192,43900,1,0,0:0:0:0:s_045.ogg
36,192,43900,1,0,0:0:0:0:s_057.ogg
182,192,44000,1,0,0:0:0:0:s_038.ogg
329,192,44000,1,0,0:0:0:0:s_050.ogg
475,192,44000,1,0,0:0:0:0:s_045.ogg
36,192,44000,1,0,0:0:0:0:s_057.ogg
109,192,44100,1,0,0:0:0:0:s_061.ogg
256,192,44100,1,0,0:0:0:0:s_049.ogg
182,192,44200,1,0,0:0:0:0:s_050.ogg
402,192,44200,1,0,0:0:0:0:s_052.ogg
475,192,44200,1,0,0:0:0:0:s_038.ogg
36,192,44200,1,0,0:0:0:0:s_064.ogg
109,192,44300,1,0,0:0:0:0:s_050.ogg
256,192,44300,1,0,0:0:0:0:s_049.ogg
475,192,44300,1,0,0:0:0:0:s_038.ogg
36,192,44300,1,0,0:0:0:0:s_057.ogg
182,192,44400,1,0,0:0:0:0:s_038.ogg
329,192,44400,1,0,0:0:0:0:s_050.ogg
475,192,44400,1,0,0:0:0:0:s_057.ogg
36,192,44400,1,0,0:0:0:0:s_062.ogg
109,192,44500,1,0,0:0:0:0:s_061.ogg
256,192,44500,1,0,0:0:0:0:s_049.ogg
182,192,44600,1,0,0:0:0:0:s_043.ogg
402,192,44600,1,0,0:0:0:0:s_052.ogg
475,192,44600,1,0,0:0:0:0:s_047.ogg
36,192,44600,1,0,0:0:0:0:s_038.ogg
109,192,44700,1,0,0:0:0:0:s_038.ogg
256,192,44700,1,0,0:0:0:0:s_049.ogg
182,192,44800,1,0,0:0:0:0:s_045.ogg
329,192,44800,1,0,0:0:0:0:s_050.ogg
475,192,44800,1,0,0:0:0:0:s_048.ogg
36,192,44800,1,0,0:0:0:0:s_060.ogg
109,192,44900,1,0,0:0:0:0:s_061.ogg
256,192,44900,1,0,0:0:0:0:s_049.ogg
182,192,45000,1,0,0:0:0:0:s_052.ogg
402,192,45000,1,0,0:0:0:0:s_014.ogg
475,192,45000,128,0,45300:0:0:0:0:m_045.ogg
36,192,45000,128,0,45300:0:0:0:0:m_038.ogg
109,192,45100,1,0,0:0:0:0:s_061.ogg
256,192,45100,1,0,0:0:0:0:s_049.ogg
182,192,45200,1,0,0:0:0:0:s_050.ogg
329,192,45200,1,0,0:0:0:0:s_016.ogg
109,192,45300,1,0,0:0:0:0:s_061.ogg
256,192,45300,1,0,0:0:0:0:s_049.ogg
182,192,45400,1,0,0:0:0:0:s_038.ogg
402,192,45400,1,0,0:0:0:0:s_018.ogg
475,192,45400,1,0,0:0:0:0:s_060.ogg
36,192,45400,1,0,0:0:0:0:s_048.ogg
109,192,45500,1,0,0:0:0:0:s_038.ogg
256,192,45500,1,0,0:0:0:0:s_049.ogg
182,192,45600,1,0,0:0:0:0:s_038.ogg
329,192,45600,1,0,0:0:0:0:s_019.ogg
475,192,45600,1,0,0:0:0:0:s_059.ogg
36,192,45600,1,0,0:0:0:0:s_043.ogg
109,192,45700,1,0,0:0:0:0:s_061.ogg
256,192,45700,1,0,0:0:0:0:s_049.ogg
182,192,45800,1,0,0:0:0:0:s_052.ogg
475,192,45800,1,0,0:0:0:0:s_021.ogg
402,192,45800,128,0,46100:0:0:0:0:m_043.ogg
36,192,45800,128,0,46100:0:0:0:0:m_050.ogg
109,192,45900,1,0,0:0:0:0:s_061.ogg
256,192,45900,1,0,0:0:0:0:s_049.ogg
182,192,46000,1,0,0:0:0:0:s_050.ogg
329,192,46000,1,0,0:0:0:0:s_023.ogg
109,192,46100,1,0,0:0:0:0:s_061.ogg
256,192,46100,1,0,0:0:0:0:s_049.ogg
182,192,46200,1,0,0:0:0:0:s_038.ogg
402,192,46200,1,0,0:0:0:0:s_025.ogg
475,192,46200,1,0,0:0:0:0:s_043.ogg
36,192,46200,1,0,0:0:0:0:s_050.ogg
109,192,46300,1,0,0:0:0:0:s_038.ogg
256,192,46300,1,0,0:0:0:0:s_049.ogg
182,192,46400,1,0,0:0:0:0:s_050.ogg
329,192,46400,1,0,0:0:0:0:s_054.ogg
475,192,46400,1,0,0:0:0:0:s_042.ogg
36,192,46400,1,0,0:0:0:0:s_062.ogg
402,192,46600,1,0,0:0:0:0:s_050.ogg
402,192,46700,1,0,0:0:0:0:s_050.ogg
402,192,46800,1,0,0:0:0:0:s_050.ogg
36,192,47000,1,0,0:0:0:0:s_038.ogg
109,192,47000,1,0,0:0:0:0:s_031.ogg
182,192,47000,1,0,0:0:0:0:s_035.ogg
256,192,47000,1,0,0:0:0:0:s_019.ogg
36,192,47100,1,0,0:0:0:0:s_038.ogg
109,192,47100,1,0,0:0:0:0:s_031.ogg
182,192,47100,1,0,0:0:0:0:s_035.ogg
329,192,47100,1,0,0:0:0:0:s_019.ogg
36,192,47200,1,0,0:0:0:0:s_038.ogg
109,192,47200,1,0,0:0:0:0:s_031.ogg
182,192,47200,1,0,0:0:0:0:s_035.ogg
402,192,47200,1,0,0:0:0:0:s_019.ogg
256,192,47400,1,0,0:0:0:0:s_038.ogg
329,192,47400,1,0,0:0:0:0:s_031.ogg
402,192,47400,1,0,0:0:0:0:s_035.ogg
475,192,47400,1,0,0:0:0:0:s_019.ogg
182,192,47500,1,0,0:0:0:0:s_038.ogg
329,192,47500,1,0,0:0:0:0:s_031.ogg
402,192,47500,1,0,0:0:0:0:s_035.ogg
475,192,47500,1,0,0:0:0:0:s_019.ogg
109,192,47600,1,0,0:0:0:0:s_038.ogg
329,192,47600,1,0,0:0:0:0:s_031.ogg
402,192,47600,1,0,0:0:0:0:s_035.ogg
475,192,47600,1,0,0:0:0:0:s_019.ogg
36,192,47800,1,0,0:0:0:0:s_038.ogg
109,192,47800,1,0,0:0:0:0:s_031.ogg
182,192,47800,1,0,0:0:0:0:s_035.ogg
256,192,47800,1,0,0:0:0:0:s_019.ogg
36,192,47900,1,0,0:0:0:0:s_038.ogg
109,192,47900,1,0,0:0:0:0:s_031.ogg
182,192,47900,1,0,0:0:0:0:s_035.ogg
256,192,47900,1,0,0:0:0:0:s_019.ogg
109,192,48000,1,0,0:0:0:0:s_035.ogg
182,192,48000,1,0,0:0:0:0:s_038.ogg
329,192,48000,1,0,0:0:0:0:s_043.ogg
402,192,48000,1,0,0:0:0:0:s_031.ogg
109,192,48200,1,0,0:0:0:0:s_035.ogg
182,192,48200,1,0,0:0:0:0:s_038.ogg
475,192,48200,1,0,0:0:0:0:s_045.ogg
329,192,48200,1,0,0:0:0:0:s_031.ogg
109,192,48400,1,0,0:0:0:0:s_035.ogg
182,192,48400,1,0,0:0:0:0:s_038.ogg
475,192,48400,1,0,0:0:0:0:s_047.ogg
402,192,48400,1,0,0:0:0:0:s_031.ogg
36,192,48600,1,0,0:0:0:0:s_038.ogg
109,192,48600,1,0,0:0:0:0:s_031.ogg
182,192,48600,1,0,0:0:0:0:s_035.ogg
256,192,48600,1,0,0:0:0:0:s_019.ogg
36,192,48700,1,0,0:0:0:0:s_038.ogg
109,192,48700,1,0,0:0:0:0:s_031.ogg
182,192,48700,1,0,0:0:0:0:s_035.ogg
329,192,48700,1,0,0:0:0:0:s_019.ogg
36,192,48800,1,0,0:0:0:0:s_038.ogg
109,192,48800,1,0,0:0:0:0:s_031.ogg
182,192,48800,1,0,0:0:0:0:s_035.ogg
402,192,48800,1,0,0:0:0:0:s_019.ogg
256,192,49000,1,0,0:0:0:0:s_038.ogg
329,192,49000,1,0,0:0:0:0:s_031.ogg
402,192,49000,1,0,0:0:0:0:s_035.ogg
475,192,49000,1,0,0:0:0:0:s_019.ogg
182,192,49100,1,0,0:0:0:0:s_038.ogg
329,192,49100,1,0,0:0:0:0:s_031.ogg
402,192,49100,1,0,0:0:0:0:s_035.ogg
475,192,49100,1,0,0:0:0:0:s_019.ogg
36,192,49200,1,0,0:0:0:0:s_019.ogg
109,192,49200,1,0,0:0:0:0:s_035.ogg
402,192,49200,1,0,0:0:0:0:s_043.ogg
329,192,49200,1,0,0:0:0:0:s_031.ogg
182,192,49400,1,0,0:0:0:0:s_019.ogg
256,192,49400,1,0,0:0:0:0:s_035.ogg
329,192,49400,1,0,0:0:0:0:s_047.ogg
402,192,49400,1,0,0:0:0:0:s_031.ogg
182,192,49500,1,0,0:0:0:0:s_019.ogg
256,192,49500,1,0,0:0:0:0:s_035.ogg
329,192,49500,1,0,0:0:0:0:s_047.ogg
402,192,49500,1,0,0:0:0:0:s_031.ogg
36,192,49600,1,0,0:0:0:0:s_030.ogg
109,192,49600,1,0,0:0:0:0:s_038.ogg
256,192,49600,1,0,0:0:0:0:s_026.ogg
475,192,49600,1,0,0:0:0:0:s_045.ogg
36,192,49800,1,0,0:0:0:0:s_030.ogg
402,192,49800,1,0,0:0:0:0:s_033.ogg
182,192,49800,1,0,0:0:0:0:s_026.ogg
329,192,49800,1,0,0:0:0:0:s_042.ogg
36,192,50000,1,0,0:0:0:0:s_030.ogg
109,192,50000,1,0,0:0:0:0:s_033.ogg
475,192,50000,1,0,0:0:0:0:s_026.ogg
256,192,50000,1,0,0:0:0:0:s_038.ogg
109,192,50200,1,0,0:0:0:0:s_038.ogg
182,192,50200,1,0,0:0:0:0:s_031.ogg
256,192,50200,1,0,0:0:0:0:s_035.ogg
329,192,50200,1,0,0:0:0:0:s_019.ogg
109,192,50300,1,0,0:0:0:0:s_038.ogg
182,192,50300,1,0,0:0:0:0:s_031.ogg
256,192,50300,1,0,0:0:0:0:s_035.ogg
402,192,50300,1,0,0:0:0:0:s_019.ogg
109,192,50400,1,0,0:0:0:0:s_038.ogg
182,192,50400,1,0,0:0:0:0:s_031.ogg
256,192,50400,1,0,0:0:0:0:s_035.ogg
475,192,50400,1,0,0:0:0:0:s_019.ogg
256,192,50600,1,0,0:0:0:0:s_038.ogg
329,192,50600,1,0,0:0:0:0:s_031.ogg
402,192,50600,1,0,0:0:0:0:s_035.ogg
182,192,50600,1,0,0:0:0:0:s_019.ogg
256,192,50700,1,0,0:0:0:0:s_038.ogg
329,192,50700,1,0,0:0:0:0:s_031.ogg
402,192,50700,1,0,0:0:0:0:s_035.ogg
109,192,50700,1,0,0:0:0:0:s_019.ogg
256,192,50800,1,0,0:0:0:0:s_038.ogg
329,192,50800,1,0,0:0:0:0:s_031.ogg
402,192,50800,1,0,0:0:0:0:s_035.ogg
36,192,50800,1,0,0:0:0:0:s_019.ogg
109,192,51000,1,0,0:0:0:0:s_038.ogg
182,192,51000,1,0,0:0:0:0:s_031.ogg
402,192,51000,1,0,0:0:0:0:s_035.ogg
475,192,51000,1,0,0:0:0:0:s_019.ogg
109,192,51100,1,0,0:0:0:0:s_038.ogg
182,192,51100,1,0,0:0:0:0:s_031.ogg
402,192,51100,1,0,0:0:0:0:s_035.ogg
475,192,51100,1,0,0:0:0:0:s_019.ogg
36,192,51200,1,0,0:0:0:0:s_035.ogg
109,192,51200,1,0,0:0:0:0:s_038.ogg
256,192,51200,1,0,0:0:0:0:s_043.ogg
329,192,51200,1,0,0:0:0:0:s_031.ogg
36,192,51400,1,0,0:0:0:0:s_035.ogg
109,192,51400,1,0,0:0:0:0:s_038.ogg
402,192,51400,1,0,0:0:0:0:s_045.ogg
329,192,51400,1,0,0:0:0:0:s_031.ogg
36,192,51600,1,0,0:0:0:0:s_035.ogg
109,192,51600,1,0,0:0:0:0:s_038.ogg
475,192,51600,1,0,0:0:0:0:s_047.ogg
402,192,51600,1,0,0:0:0:0:s_031.ogg
36,192,51800,1,0,0:0:0:0:s_035.ogg
182,192,51800,1,0,0:0:0:0:s_038.ogg
256,192,51800,1,0,0:0:0:0:s_043.ogg
329,192,51800,1,0,0:0:0:0:s_031.ogg
36,192,51900,1,0,0:0:0:0:s_035.ogg
182,192,51900,1,0,0:0:0:0:s_038.ogg
256,192,51900,1,0,0:0:0:0:s_047.ogg
402,192,51900,1,0,0:0:0:0:s_031.ogg
36,192,52000,1,0,0:0:0:0:s_038.ogg
109,192,52000,1,0,0:0:0:0:s_033.ogg
329,192,52000,1,0,0:0:0:0:s_042.ogg
475,192,52000,128,0,52400:0:0:0:0:m_050.ogg
36,192,52200,1,0,0:0:0:0:s_038.ogg
109,192,52200,1,0,0:0:0:0:s_033.ogg
182,192,52200,1,0,0:0:0:0:s_042.ogg
36,192,52300,1,0,0:0:0:0:s_038.ogg
109,192,52300,1,0,0:0:0:0:s_033.ogg
256,192,52300,1,0,0:0:0:0:s_042.ogg
36,192,52400,1,0,0:0:0:0:s_038.ogg
109,192,52400,1,0,0:0:0:0:s_033.ogg
329,192,52400,1,0,0:0:0:0:s_042.ogg
402,192,52500,1,0,0:0:0:0:s_048.ogg
36,192,52600,1,0,0:0:0:0:s_033.ogg
109,192,52600,1,0,0:0:0:0:s_036.ogg
475,192,52600,1,0,0:0:0:0:s_047.ogg
329,192,52600,1,0,0:0:0:0:s_026.ogg
36,192,52700,1,0,0:0:0:0:s_033.ogg
109,192,52700,1,0,0:0:0:0:s_036.ogg
402,192,52700,1,0,0:0:0:0:s_045.ogg
256,192,52700,1,0,0:0:0:0:s_026.ogg
36,192,52800,1,0,0:0:0:0:s_019.ogg
109,192,52800,1,0,0:0:0:0:s_035.ogg
182,192,52800,1,0,0:0:0:0:s_031.ogg
329,192,52800,1,0,0:0:0:0:s_038.ogg
475,192,52800,1,0,0:0:0:0:s_055.ogg
36,192,53000,1,0,0:0:0:0:s_019.ogg
109,192,53000,1,0,0:0:0:0:s_035.ogg
256,192,53000,1,0,0:0:0:0:s_047.ogg
402,192,53000,1,0,0:0:0:0:s_043.ogg
475,192,53000,1,0,0:0:0:0:s_031.ogg
36,192,53200,1,0,0:0:0:0:s_019.ogg
109,192,53200,1,0,0:0:0:0:s_035.ogg
182,192,53200,1,0,0:0:0:0:s_043.ogg
329,192,53200,1,0,0:0:0:0:s_031.ogg
402,192,53200,1,0,0:0:0:0:s_055.ogg
36,192,53600,1,0,0:0:0:0:s_028.ogg
109,192,53600,1,0,0:0:0:0:s_043.ogg
182,192,53600,1,0,0:0:0:0:s_047.ogg
475,192,53600,1,0,0:0:0:0:s_040.ogg
256,192,53700,1,0,0:0:0:0:s_051.ogg
329,192,53800,1,0,0:0:0:0:s_052.ogg
256,192,53900,1,0,0:0:0:0:s_051.ogg
36,192,54000,1,0,0:0:0:0:s_048.ogg
109,192,54000,1,0,0:0:0:0:s_040.ogg
182,192,54000,1,0,0:0:0:0:s_054.ogg
402,192,54000,1,0,0:0:0:0:s_021.ogg
475,192,54000,1,0,0:0:0:0:s_045.ogg
329,192,54100,1,0,0:0:0:0:s_052.ogg
256,192,54200,1,0,0:0:0:0:s_050.ogg
182,192,54300,1,0,0:0:0:0:s_048.ogg
36,192,54400,1,0,0:0:0:0:s_048.ogg
109,192,54400,1,0,0:0:0:0:m_047.ogg
182,192,54400,1,0,0:0:0:0:s_016.ogg
329,192,54400,1,0,0:0:0:0:m_040.ogg
402,192,54400,1,0,0:0:0:0:s_028.ogg
475,192,54500,1,0,0:0:0:0:s_047.ogg
402,192,54600,1,0,0:0:0:0:s_043.ogg
329,192,54700,1,0,0:0:0:0:s_040.ogg
329,192,54800,1,0,0:0:0:0:s_040.ogg
329,192,54900,1,0,0:0:0:0:s_040.ogg
36,192,55000,1,0,0:0:0:0:s_035.ogg
109,192,55000,1,0,0:0:0:0:s_040.ogg
182,192,55000,1,0,0:0:0:0:s_028.ogg
329,192,55000,1,0,0:0:0:0:s_016.ogg
475,192,55000,1,0,0:0:0:0:s_043.ogg
329,192,55100,1,0,0:0:0:0:s_040.ogg
36,192,55200,1,0,0:0:0:0:s_043.ogg
109,192,55200,1,0,0:0:0:0:m_045.ogg
256,192,55200,1,0,0:0:0:0:s_023.ogg
402,192,55200,1,0,0:0:0:0:m_042.ogg
475,192,55200,1,0,0:0:0:0:m_035.ogg
182,192,55300,1,0,0:0:0:0:s_042.ogg
109,192,55400,1,0,0:0:0:0:s_039.ogg
36,192,55500,1,0,0:0:0:0:s_035.ogg
36,192,55600,1,0,0:0:0:0:s_035.ogg
36,192,55700,1,0,0:0:0:0:s_035.ogg
36,192,55800,1,0,0:0:0:0:s_011.ogg
182,192,55800,1,0,0:0:0:0:s_023.ogg
329,192,55800,1,0,0:0:0:0:s_039.ogg
402,192,55800,1,0,0:0:0:0:s_042.ogg
475,192,55800,1,0,0:0:0:0:s_035.ogg
36,192,55900,1,0,0:0:0:0:s_035.ogg
36,192,56000,1,0,0:0:0:0:s_016.ogg
256,192,56000,1,0,0:0:0:0:s_028.ogg
329,192,56000,1,0,0:0:0:0:s_035.ogg
402,192,56000,1,0,0:0:0:0:s_043.ogg
475,192,56000,1,0,0:0:0:0:s_040.ogg
109,192,56100,1,0,0:0:0:0:s_040.ogg
182,192,56200,1,0,0:0:0:0:s_043.ogg
256,192,56300,1,0,0:0:0:0:s_047.ogg
329,192,56400,1,0,0:0:0:0:s_052.ogg
329,192,56500,1,0,0:0:0:0:s_052.ogg
329,192,56600,1,0,0:0:0:0:s_052.ogg
329,192,56700,1,0,0:0:0:0:s_052.ogg
36,192,56800,1,0,0:0:0:0:s_047.ogg
109,192,56800,1,0,0:0:0:0:s_040.ogg
182,192,56800,1,0,0:0:0:0:s_043.ogg
256,192,56800,1,0,0:0:0:0:s_052.ogg
475,192,56800,1,0,0:0:0:0:s_028.ogg
402,192,56900,1,0,0:0:0:0:s_051.ogg
475,192,57000,1,0,0:0:0:0:s_052.ogg
402,192,57100,1,0,0:0:0:0:s_051.ogg
36,192,57200,1,0,0:0:0:0:s_054.ogg
109,192,57200,1,0,0:0:0:0:s_033.ogg
182,192,57200,1,0,0:0:0:0:s_045.ogg
256,192,57200,1,0,0:0:0:0:s_040.ogg
475,192,57200,1,0,0:0:0:0:s_021.ogg
402,192,57300,1,0,0:0:0:0:s_052.ogg
329,192,57400,1,0,0:0:0:0:s_050.ogg
256,192,57500,1,0,0:0:0:0:s_048.ogg
36,192,57600,1,0,0:0:0:0:m_047.ogg
109,192,57600,1,0,0:0:0:0:m_043.ogg
182,192,57600,1,0,0:0:0:0:s_016.ogg
329,192,57600,1,0,0:0:0:0:s_028.ogg
402,192,57600,1,0,0:0:0:0:m_040.ogg
475,192,57700,1,0,0:0:0:0:s_043.ogg
402,192,57800,1,0,0:0:0:0:s_040.ogg
402,192,57900,1,0,0:0:0:0:s_040.ogg
402,192,58000,1,0,0:0:0:0:s_040.ogg
402,192,58100,1,0,0:0:0:0:s_040.ogg
36,192,58200,1,0,0:0:0:0:s_035.ogg
109,192,58200,1,0,0:0:0:0:s_040.ogg
182,192,58200,1,0,0:0:0:0:s_028.ogg
256,192,58200,1,0,0:0:0:0:s_043.ogg
402,192,58200,1,0,0:0:0:0:s_016.ogg
402,192,58300,1,0,0:0:0:0:s_040.ogg
36,192,58400,1,0,0:0:0:0:m_039.ogg
109,192,58400,1,0,0:0:0:0:m_042.ogg
182,192,58400,1,0,0:0:0:0:m_045.ogg
329,192,58400,1,0,0:0:0:0:s_023.ogg
475,192,58400,1,0,0:0:0:0:m_035.ogg
256,192,58500,1,0,0:0:0:0:s_042.ogg
182,192,58600,1,0,0:0:0:0:s_039.ogg
109,192,58700,1,0,0:0:0:0:s_035.ogg
109,192,58800,1,0,0:0:0:0:s_035.ogg
109,192,58900,1,0,0:0:0:0:s_035.ogg
36,192,59000,1,0,0:0:0:0:s_039.ogg
109,192,59000,1,0,0:0:0:0:s_011.ogg
329,192,59000,1,0,0:0:0:0:s_035.ogg
402,192,59000,1,0,0:0:0:0:s_042.ogg
475,192,59000,1,0,0:0:0:0:s_023.ogg
109,192,59100,1,0,0:0:0:0:s_035.ogg
109,192,59200,1,0,0:0:0:0:s_016.ogg
256,192,59200,1,0,0:0:0:0:s_043.ogg
329,192,59200,1,0,0:0:0:0:s_028.ogg
402,192,59200,1,0,0:0:0:0:s_040.ogg
475,192,59200,1,0,0:0:0:0:s_035.ogg
182,192,59300,1,0,0:0:0:0:s_040.ogg
256,192,59400,1,0,0:0:0:0:s_043.ogg
329,192,59500,1,0,0:0:0:0:s_047.ogg
36,192,59600,1,0,0:0:0:0:s_052.ogg
182,192,59700,1,0,0:0:0:0:s_055.ogg
109,192,59800,1,0,0:0:0:0:s_054.ogg
36,192,59900,1,0,0:0:0:0:s_052.ogg
109,192,60000,1,0,0:0:0:0:s_042.ogg
182,192,60000,1,0,0:0:0:0:s_035.ogg
329,192,60000,1,0,0:0:0:0:s_023.ogg
402,192,60000,1,0,0:0:0:0:l_047.ogg
475,192,60000,1,0,0:0:0:0:m_051.ogg
256,192,60100,1,0,0:0:0:0:s_051.ogg
182,192,60200,1,0,0:0:0:0:s_047.ogg
182,192,60300,1,0,0:0:0:0:s_047.ogg
182,192,60400,1,0,0:0:0:0:s_047.ogg
475,192,60500,1,0,0:0:0:0:s_059.ogg
36,192,60600,1,0,0:0:0:0:s_035.ogg
109,192,60600,1,0,0:0:0:0:s_055.ogg
182,192,60600,1,0,0:0:0:0:s_043.ogg
256,192,60600,1,0,0:0:0:0:s_040.ogg
402,192,60600,1,0,0:0:0:0:s_023.ogg
329,192,60700,1,0,0:0:0:0:s_052.ogg
36,192,60800,1,0,0:0:0:0:s_035.ogg
109,192,60800,1,0,0:0:0:0:m_054.ogg
182,192,60800,1,0,0:0:0:0:m_051.ogg
402,192,60800,1,0,0:0:0:0:s_023.ogg
475,192,60800,1,0,0:0:0:0:s_039.ogg
329,192,60900,1,0,0:0:0:0:s_051.ogg
256,192,61000,1,0,0:0:0:0:s_047.ogg
256,192,61100,1,0,0:0:0:0:s_047.ogg
256,192,61200,1,0,0:0:0:0:s_047.ogg
475,192,61300,1,0,0:0:0:0:s_059.ogg
36,192,61400,1,0,0:0:0:0:s_055.ogg
109,192,61400,1,0,0:0:0:0:s_043.ogg
182,192,61400,1,0,0:0:0:0:s_040.ogg
256,192,61400,1,0,0:0:0:0:s_035.ogg
402,192,61400,1,0,0:0:0:0:s_023.ogg
329,192,61500,1,0,0:0:0:0:s_052.ogg
36,192,61600,1,0,0:0:0:0:s_030.ogg
109,192,61600,1,0,0:0:0:0:m_047.ogg
256,192,61600,1,0,0:0:0:0:s_018.ogg
402,192,61600,1,0,0:0:0:0:m_054.ogg
475,192,61600,1,0,0:0:0:0:m_042.ogg
182,192,61700,1,0,0:0:0:0:s_050.ogg
109,192,61800,1,0,0:0:0:0:s_047.ogg
109,192,61900,1,0,0:0:0:0:s_047.ogg
182,192,62000,1,0,0:0:0:0:s_018.ogg
256,192,62000,1,0,0:0:0:0:m_052.ogg
329,192,62000,1,0,0:0:0:0:m_046.ogg
402,192,62000,1,0,0:0:0:0:s_037.ogg
475,192,62000,1,0,0:0:0:0:m_030.ogg
109,192,62100,1,0,0:0:0:0:s_046.ogg
36,192,62200,1,0,0:0:0:0:s_042.ogg
36,192,62300,1,0,0:0:0:0:s_042.ogg
182,192,62400,1,0,0:0:0:0:s_023.ogg
256,192,62400,1,0,0:0:0:0:s_030.ogg
329,192,62400,1,0,0:0:0:0:s_038.ogg
402,192,62400,1,0,0:0:0:0:s_035.ogg
475,192,62400,1,0,0:0:0:0:s_050.ogg
109,192,62500,1,0,0:0:0:0:s_046.ogg
182,192,62600,1,0,0:0:0:0:s_047.ogg
109,192,62700,1,0,0:0:0:0:s_046.ogg
182,192,62800,1,0,0:0:0:0:s_047.ogg
256,192,62900,1,0,0:0:0:0:s_048.ogg
182,192,63000,1,0,0:0:0:0:s_047.ogg
109,192,63100,1,0,0:0:0:0:s_045.ogg
36,192,63200,1,0,0:0:0:0:s_031.ogg
182,192,63200,1,0,0:0:0:0:s_019.ogg
256,192,63200,1,0,0:0:0:0:m_043.ogg
402,192,63200,1,0,0:0:0:0:s_038.ogg
475,192,63200,1,0,0:0:0:0:m_035.ogg
329,192,63300,1,0,0:0:0:0:s_038.ogg
256,192,63400,1,0,0:0:0:0:s_037.ogg
329,192,63500,1,0,0:0:0:0:s_038.ogg
36,192,63600,1,0,0:0:0:0:s_043.ogg
402,192,63600,1,0,0:0:0:0:s_035.ogg
329,192,63700,1,0,0:0:0:0:s_038.ogg
109,192,63800,1,0,0:0:0:0:s_045.ogg
475,192,63800,1,0,0:0:0:0:s_038.ogg
329,192,63900,1,0,0:0:0:0:s_038.ogg
36,192,64000,1,0,0:0:0:0:s_031.ogg
109,192,64000,1,0,0:0:0:0:m_047.ogg
182,192,64000,1,0,0:0:0:0:m_043.ogg
402,192,64000,1,0,0:0:0:0:s_019.ogg
475,192,64000,1,0,0:0:0:0:s_038.ogg
256,192,64100,1,0,0:0:0:0:s_043.ogg
182,192,64200,1,0,0:0:0:0:s_042.ogg
256,192,64300,1,0,0:0:0:0:s_043.ogg
36,192,64400,1,0,0:0:0:0:s_047.ogg
402,192,64400,1,0,0:0:0:0:s_043.ogg
256,192,64500,1,0,0:0:0:0:s_043.ogg
109,192,64600,1,0,0:0:0:0:s_048.ogg
475,192,64600,1,0,0:0:0:0:s_045.ogg
329,192,64700,1,0,0:0:0:0:s_045.ogg
36,192,64800,1,0,0:0:0:0:m_047.ogg
109,192,64800,1,0,0:0:0:0:l_043.ogg
182,192,64800,1,0,0:0:0:0:m_050.ogg
256,192,64800,1,0,0:0:0:0:s_019.ogg
402,192,64800,1,0,0:0:0:0:s_031.ogg
329,192,64900,1,0,0:0:0:0:s_059.ogg
256,192,65000,1,0,0:0:0:0:s_057.ogg
182,192,65100,1,0,0:0:0:0:s_055.ogg
36,192,65200,1,0,0:0:0:0:s_031.ogg
109,192,65200,1,0,0:0:0:0:s_019.ogg
329,192,65200,1,0,0:0:0:0:m_046.ogg
402,192,65200,1,0,0:0:0:0:s_034.ogg
475,192,65200,1,0,0:0:0:0:m_049.ogg
256,192,65300,1,0,0:0:0:0:s_057.ogg
182,192,65400,1,0,0:0:0:0:s_055.ogg
109,192,65500,1,0,0:0:0:0:s_052.ogg
36,192,65600,1,0,0:0:0:0:s_019.ogg
256,192,65600,1,0,0:0:0:0:s_035.ogg
329,192,65600,1,0,0:0:0:0:m_047.ogg
402,192,65600,1,0,0:0:0:0:s_043.ogg
475,192,65600,1,0,0:0:0:0:s_031.ogg
109,192,65700,1,0,0:0:0:0:s_052.ogg
36,192,65800,1,0,0:0:0:0:s_050.ogg
109,192,65900,1,0,0:0:0:0:s_052.ogg
36,192,66000,1,0,0:0:0:0:s_054.ogg
182,192,66000,1,0,0:0:0:0:s_019.ogg
329,192,66000,1,0,0:0:0:0:s_043.ogg
402,192,66000,1,0,0:0:0:0:s_047.ogg
475,192,66000,1,0,0:0:0:0:s_038.ogg
256,192,66100,1,0,0:0:0:0:s_055.ogg
329,192,66200,1,0,0:0:0:0:s_057.ogg
36,192,66300,1,0,0:0:0:0:s_059.ogg
109,192,66400,1,0,0:0:0:0:s_026.ogg
182,192,66400,1,0,0:0:0:0:s_049.ogg
256,192,66400,1,0,0:0:0:0:s_014.ogg
402,192,66400,1,0,0:0:0:0:m_048.ogg
475,192,66400,1,0,0:0:0:0:m_042.ogg
329,192,66500,1,0,0:0:0:0:s_050.ogg
256,192,66600,1,0,0:0:0:0:s_049.ogg
329,192,66700,1,0,0:0:0:0:s_050.ogg
36,192,66800,1,0,0:0:0:0:s_048.ogg
109,192,66800,1,0,0:0:0:0:s_038.ogg
182,192,66800,1,0,0:0:0:0:s_014.ogg
402,192,66800,1,0,0:0:0:0:s_052.ogg
475,192,66800,1,0,0:0:0:0:s_045.ogg
256,192,66900,1,0,0:0:0:0:s_054.ogg
402,192,67000,1,0,0:0:0:0:s_055.ogg
475,192,67100,1,0,0:0:0:0:s_057.ogg
36,192,67200,1,0,0:0:0:0:s_038.ogg
109,192,67200,1,0,0:0:0:0:m_043.ogg
182,192,67200,1,0,0:0:0:0:m_047.ogg
256,192,67200,1,0,0:0:0:0:s_019.ogg
402,192,67200,1,0,0:0:0:0:s_031.ogg
329,192,67300,1,0,0:0:0:0:s_048.ogg
256,192,67400,1,0,0:0:0:0:s_047.ogg
329,192,67500,1,0,0:0:0:0:s_048.ogg
36,192,67600,1,0,0:0:0:0:s_047.ogg
109,192,67600,1,0,0:0:0:0:s_038.ogg
182,192,67600,1,0,0:0:0:0:s_043.ogg
256,192,67600,1,0,0:0:0:0:s_019.ogg
475,192,67600,1,0,0:0:0:0:s_031.ogg
329,192,67700,1,0,0:0:0:0:s_052.ogg
402,192,67800,1,0,0:0:0:0:s_054.ogg
475,192,67900,1,0,0:0:0:0:s_055.ogg
36,192,68000,1,0,0:0:0:0:m_045.ogg
109,192,68000,1,0,0:0:0:0:m_036.ogg
182,192,68000,1,0,0:0:0:0:s_012.ogg
329,192,68000,1,0,0:0:0:0:s_031.ogg
402,192,68000,1,0,0:0:0:0:m_040.ogg
256,192,68100,1,0,0:0:0:0:s_047.ogg
182,192,68200,1,0,0:0:0:0:s_045.ogg
256,192,68300,1,0,0:0:0:0:s_047.ogg
36,192,68400,1,0,0:0:0:0:s_045.ogg
109,192,68400,1,0,0:0:0:0:s_040.ogg
182,192,68400,1,0,0:0:0:0:s_012.ogg
402,192,68400,1,0,0:0:0:0:s_031.ogg
475,192,68400,1,0,0:0:0:0:s_024.ogg
256,192,68500,1,0,0:0:0:0:s_047.ogg
182,192,68600,1,0,0:0:0:0:s_045.ogg
256,192,68700,1,0,0:0:0:0:s_047.ogg
36,192,68800,1,0,0:0:0:0:s_042.ogg
182,192,68800,1,0,0:0:0:0:s_014.ogg
329,192,68800,1,0,0:0:0:0:s_026.ogg
402,192,68800,1,0,0:0:0:0:s_045.ogg
475,192,68800,1,0,0:0:0:0:s_033.ogg
256,192,68900,1,0,0:0:0:0:s_047.ogg
182,192,69000,1,0,0:0:0:0:s_045.ogg
109,192,69100,1,0,0:0:0:0:s_042.ogg
36,192,69200,1,0,0:0:0:0:s_038.ogg
109,192,69300,1,0,0:0:0:0:s_039.ogg
182,192,69400,1,0,0:0:0:0:s_040.ogg
329,192,69500,1,0,0:0:0:0:s_042.ogg
36,192,69600,1,0,0:0:0:0:m_043.ogg
109,192,69600,1,0,0:0:0:0:s_031.ogg
182,192,69600,1,0,0:0:0:0:m_035.ogg
402,192,69600,1,0,0:0:0:0:s_038.ogg
475,192,69600,1,0,0:0:0:0:s_019.ogg
329,192,69700,1,0,0:0:0:0:s_038.ogg
256,192,69800,1,0,0:0:0:0:s_037.ogg
329,192,69900,1,0,0:0:0:0:s_038.ogg
36,192,70000,1,0,0:0:0:0:s_043.ogg
402,192,70000,1,0,0:0:0:0:s_035.ogg
256,192,70100,1,0,0:0:0:0:s_038.ogg
109,192,70200,1,0,0:0:0:0:s_045.ogg
475,192,70200,1,0,0:0:0:0:s_038.ogg
256,192,70300,1,0,0:0:0:0:s_038.ogg
36,192,70400,1,0,0:0:0:0:s_031.ogg
109,192,70400,1,0,0:0:0:0:s_035.ogg
329,192,70400,1,0,0:0:0:0:s_019.ogg
402,192,70400,1,0,0:0:0:0:m_043.ogg
475,192,70400,1,0,0:0:0:0:m_047.ogg
256,192,70500,1,0,0:0:0:0:s_043.ogg
182,192,70600,1,0,0:0:0:0:s_042.ogg
256,192,70700,1,0,0:0:0:0:s_043.ogg
36,192,70800,1,0,0:0:0:0:s_047.ogg
329,192,70800,1,0,0:0:0:0:s_043.ogg
182,192,70900,1,0,0:0:0:0:s_043.ogg
109,192,71000,1,0,0:0:0:0:s_048.ogg
402,192,71000,1,0,0:0:0:0:s_045.ogg
256,192,71100,1,0,0:0:0:0:s_045.ogg
36,192,71200,1,0,0:0:0:0:l_043.ogg
109,192,71200,1,0,0:0:0:0:s_035.ogg
182,192,71200,1,0,0:0:0:0:s_019.ogg
402,192,71200,1,0,0:0:0:0:m_050.ogg
475,192,71200,1,0,0:0:0:0:m_047.ogg
329,192,71300,1,0,0:0:0:0:s_059.ogg
256,192,71400,1,0,0:0:0:0:s_057.ogg
182,192,71500,1,0,0:0:0:0:s_055.ogg
36,192,71600,1,0,0:0:0:0:s_034.ogg
109,192,71600,1,0,0:0:0:0:s_019.ogg
329,192,71600,1,0,0:0:0:0:s_031.ogg
402,192,71600,1,0,0:0:0:0:s_040.ogg
475,192,71600,1,0,0:0:0:0:s_054.ogg
256,192,71700,1,0,0:0:0:0:s_057.ogg
182,192,71800,1,0,0:0:0:0:s_055.ogg
109,192,71900,1,0,0:0:0:0:s_052.ogg
36,192,72000,1,0,0:0:0:0:s_019.ogg
256,192,72000,1,0,0:0:0:0:m_050.ogg
329,192,72000,1,0,0:0:0:0:s_031.ogg
402,192,72000,1,0,0:0:0:0:s_035.ogg
475,192,72000,1,0,0:0:0:0:s_043.ogg
109,192,72100,1,0,0:0:0:0:s_052.ogg
36,192,72200,1,0,0:0:0:0:s_050.ogg
109,192,72300,1,0,0:0:0:0:s_052.ogg
36,192,72400,1,0,0:0:0:0:s_054.ogg
182,192,72400,1,0,0:0:0:0:s_019.ogg
329,192,72400,1,0,0:0:0:0:s_043.ogg
402,192,72400,1,0,0:0:0:0:s_047.ogg
475,192,72400,1,0,0:0:0:0:s_038.ogg
256,192,72500,1,0,0:0:0:0:s_055.ogg
329,192,72600,1,0,0:0:0:0:s_057.ogg
36,192,72700,1,0,0:0:0:0:s_059.ogg
109,192,72800,1,0,0:0:0:0:s_026.ogg
182,192,72800,1,0,0:0:0:0:m_038.ogg
256,192,72800,1,0,0:0:0:0:s_014.ogg
402,192,72800,1,0,0:0:0:0:m_042.ogg
475,192,72800,1,0,0:0:0:0:m_048.ogg
329,192,72900,1,0,0:0:0:0:s_050.ogg
256,192,73000,1,0,0:0:0:0:s_048.ogg
329,192,73100,1,0,0:0:0:0:s_050.ogg
36,192,73200,1,0,0:0:0:0:s_048.ogg
109,192,73200,1,0,0:0:0:0:s_038.ogg
182,192,73200,1,0,0:0:0:0:s_014.ogg
402,192,73200,1,0,0:0:0:0:s_052.ogg
475,192,73200,1,0,0:0:0:0:s_045.ogg
256,192,73300,1,0,0:0:0:0:s_054.ogg
329,192,73400,1,0,0:0:0:0:s_055.ogg
402,192,73500,1,0,0:0:0:0:s_057.ogg
36,192,73600,1,0,0:0:0:0:s_031.ogg
109,192,73600,1,0,0:0:0:0:s_038.ogg
182,192,73600,1,0,0:0:0:0:s_019.ogg
329,192,73600,1,0,0:0:0:0:m_043.ogg
475,192,73600,1,0,0:0:0:0:m_047.ogg
256,192,73700,1,0,0:0:0:0:s_048.ogg
182,192,73800,1,0,0:0:0:0:s_047.ogg
256,192,73900,1,0,0:0:0:0:s_048.ogg
36,192,74000,1,0,0:0:0:0:s_047.ogg
109,192,74000,1,0,0:0:0:0:s_038.ogg
182,192,74000,1,0,0:0:0:0:s_050.ogg
329,192,74000,1,0,0:0:0:0:s_019.ogg
475,192,74000,1,0,0:0:0:0:s_043.ogg
402,192,74100,1,0,0:0:0:0:s_052.ogg
475,192,74200,1,0,0:0:0:0:s_054.ogg
329,192,74300,1,0,0:0:0:0:s_055.ogg
36,192,74400,1,0,0:0:0:0:m_040.ogg
109,192,74400,1,0,0:0:0:0:s_012.ogg
182,192,74400,1,0,0:0:0:0:m_045.ogg
402,192,74400,1,0,0:0:0:0:s_024.ogg
475,192,74400,1,0,0:0:0:0:s_043.ogg
256,192,74500,1,0,0:0:0:0:s_052.ogg
182,192,74600,1,0,0:0:0:0:s_051.ogg
256,192,74700,1,0,0:0:0:0:s_052.ogg
36,192,74800,1,0,0:0:0:0:s_033.ogg
109,192,74800,1,0,0:0:0:0:s_026.ogg
329,192,74800,1,0,0:0:0:0:s_014.ogg
402,192,74800,1,0,0:0:0:0:s_036.ogg
475,192,74800,1,0,0:0:0:0:s_054.ogg
256,192,74900,1,0,0:0:0:0:s_052.ogg
182,192,75000,1,0,0:0:0:0:s_048.ogg
109,192,75100,1,0,0:0:0:0:s_045.ogg
36,192,75200,1,0,0:0:0:0:s_019.ogg
182,192,75200,1,0,0:0:0:0:s_043.ogg
329,192,75200,1,0,0:0:0:0:s_047.ogg
109,192,75300,1,0,0:0:0:0:s_043.ogg
256,192,75300,1,0,0:0:0:0:s_067.ogg
402,192,75300,1,0,0:0:0:0:s_055.ogg
182,192,75400,1,0,0:0:0:0:s_045.ogg
329,192,75400,1,0,0:0:0:0:s_069.ogg
475,192,75400,1,0,0:0:0:0:s_057.ogg
36,192,75500,1,0,0:0:0:0:s_047.ogg
256,192,75500,1,0,0:0:0:0:s_071.ogg
402,192,75500,1,0,0:0:0:0:s_059.ogg
109,192,75600,1,0,0:0:0:0:s_048.ogg
329,192,75600,1,0,0:0:0:0:s_072.ogg
475,192,75600,1,0,0:0:0:0:s_060.ogg
36,192,75700,1,0,0:0:0:0:s_050.ogg
182,192,75700,1,0,0:0:0:0:s_074.ogg
402,192,75700,1,0,0:0:0:0:s_062.ogg
109,192,75800,1,0,0:0:0:0:s_052.ogg
256,192,75800,1,0,0:0:0:0:s_076.ogg
475,192,75800,1,0,0:0:0:0:s_064.ogg
36,192,75900,1,0,0:0:0:0:s_054.ogg
182,192,75900,1,0,0:0:0:0:s_066.ogg
329,192,75900,1,0,0:0:0:0:s_078.ogg
36,192,76000,1,0,0:0:0:0:s_079.ogg
109,192,76000,1,0,0:0:0:0:s_067.ogg
329,192,76000,1,0,0:0:0:0:m_050.ogg
402,192,76000,1,0,0:0:0:0:m_038.ogg
475,192,76000,1,0,0:0:0:0:m_055.ogg
182,192,76100,1,0,0:0:0:0:s_050.ogg
256,192,76100,1,0,0:0:0:0:s_038.ogg
36,192,76200,1,0,0:0:0:0:s_050.ogg
109,192,76200,1,0,0:0:0:0:s_038.ogg
329,192,76200,1,0,0:0:0:0:s_019.ogg
402,192,76200,1,0,0:0:0:0:s_043.ogg
475,192,76200,1,0,0:0:0:0:s_055.ogg
182,192,76300,1,0,0:0:0:0:s_043.ogg
256,192,76300,1,0,0:0:0:0:s_038.ogg
329,192,76300,1,0,0:0:0:0:s_050.ogg
402,192,76300,1,0,0:0:0:0:s_079.ogg
475,192,76300,1,0,0:0:0:0:s_067.ogg
36,192,76400,1,0,0:0:0:0:s_050.ogg
109,192,76400,1,0,0:0:0:0:s_038.ogg
329,192,76400,1,0,0:0:0:0:s_019.ogg
402,192,76400,1,0,0:0:0:0:s_043.ogg
475,192,76400,1,0,0:0:0:0:s_055.ogg
182,192,76500,1,0,0:0:0:0:s_050.ogg
256,192,76500,1,0,0:0:0:0:s_038.ogg
36,192,76600,1,0,0:0:0:0:s_050.ogg
109,192,76600,1,0,0:0:0:0:s_038.ogg
329,192,76600,1,0,0:0:0:0:s_043.ogg
402,192,76600,1,0,0:0:0:0:s_055.ogg
475,192,76600,1,0,0:0:0:0:s_079.ogg
182,192,76700,1,0,0:0:0:0:s_050.ogg
256,192,76700,1,0,0:0:0:0:s_038.ogg
329,192,76800,1,0,0:0:0:0:m_083.ogg
402,192,76800,1,0,0:0:0:0:m_047.ogg
182,192,76800,128,0,77300:0:0:0:0:m_059.ogg
109,192,76800,128,0,77300:0:0:0:0:m_031.ogg
36,192,76800,128,0,77300:0:0:0:0:m_055.ogg
256,192,76900,1,0,0:0:0:0:s_051.ogg
475,192,76900,1,0,0:0:0:0:s_071.ogg
329,192,77000,1,0,0:0:0:0:s_019.ogg
402,192,77000,1,0,0:0:0:0:s_039.ogg
256,192,77100,1,0,0:0:0:0:s_051.ogg
475,192,77100,1,0,0:0:0:0:s_071.ogg
329,192,77200,1,0,0:0:0:0:s_059.ogg
402,192,77200,1,0,0:0:0:0:s_039.ogg
256,192,77300,1,0,0:0:0:0:s_051.ogg
475,192,77300,1,0,0:0:0:0:s_071.ogg
36,192,77400,1,0,0:0:0:0:s_069.ogg
109,192,77400,1,0,0:0:0:0:s_051.ogg
182,192,77400,1,0,0:0:0:0:s_019.ogg
329,192,77400,1,0,0:0:0:0:s_057.ogg
402,192,77400,1,0,0:0:0:0:s_081.ogg
256,192,77500,1,0,0:0:0:0:s_051.ogg
475,192,77500,1,0,0:0:0:0:s_069.ogg
36,192,77600,1,0,0:0:0:0:s_067.ogg
109,192,77600,1,0,0:0:0:0:s_052.ogg
256,192,77600,1,0,0:0:0:0:s_040.ogg
329,192,77600,1,0,0:0:0:0:m_031.ogg
402,192,77600,1,0,0:0:0:0:m_043.ogg
256,192,77700,1,0,0:0:0:0:s_055.ogg
329,192,77700,1,0,0:0:0:0:s_040.ogg
402,192,77700,1,0,0:0:0:0:s_067.ogg
36,192,77800,1,0,0:0:0:0:s_039.ogg
109,192,77800,1,0,0:0:0:0:s_078.ogg
182,192,77800,1,0,0:0:0:0:s_031.ogg
475,192,77800,1,0,0:0:0:0:s_055.ogg
36,192,77900,1,0,0:0:0:0:s_066.ogg
109,192,77900,1,0,0:0:0:0:s_054.ogg
182,192,77900,1,0,0:0:0:0:s_039.ogg
256,192,78000,1,0,0:0:0:0:s_067.ogg
329,192,78000,1,0,0:0:0:0:s_019.ogg
402,192,78000,1,0,0:0:0:0:s_079.ogg
475,192,78000,1,0,0:0:0:0:s_031.ogg
329,192,78100,1,0,0:0:0:0:s_052.ogg
402,192,78100,1,0,0:0:0:0:s_055.ogg
475,192,78100,1,0,0:0:0:0:s_040.ogg
36,192,78200,1,0,0:0:0:0:s_055.ogg
109,192,78200,1,0,0:0:0:0:s_019.ogg
182,192,78200,1,0,0:0:0:0:s_076.ogg
256,192,78200,1,0,0:0:0:0:s_031.ogg
109,192,78300,1,0,0:0:0:0:s_048.ogg
182,192,78300,1,0,0:0:0:0:s_052.ogg
256,192,78300,1,0,0:0:0:0:s_036.ogg
36,192,78400,1,0,0:0:0:0:s_043.ogg
182,192,78400,1,0,0:0:0:0:s_031.ogg
329,192,78400,1,0,0:0:0:0:s_055.ogg
402,192,78400,1,0,0:0:0:0:s_047.ogg
475,192,78400,1,0,0:0:0:0:s_035.ogg
109,192,78500,1,0,0:0:0:0:s_052.ogg
256,192,78500,1,0,0:0:0:0:s_064.ogg
36,192,78600,1,0,0:0:0:0:s_050.ogg
182,192,78600,1,0,0:0:0:0:s_062.ogg
109,192,78700,1,0,0:0:0:0:s_052.ogg
256,192,78700,1,0,0:0:0:0:s_064.ogg
36,192,78800,1,0,0:0:0:0:s_043.ogg
182,192,78800,1,0,0:0:0:0:s_050.ogg
329,192,78800,1,0,0:0:0:0:s_074.ogg
402,192,78800,1,0,0:0:0:0:s_047.ogg
475,192,78800,1,0,0:0:0:0:s_071.ogg
109,192,78900,1,0,0:0:0:0:s_052.ogg
256,192,78900,1,0,0:0:0:0:s_064.ogg
182,192,79000,1,0,0:0:0:0:s_054.ogg
329,192,79000,1,0,0:0:0:0:s_066.ogg
256,192,79100,1,0,0:0:0:0:s_055.ogg
402,192,79100,1,0,0:0:0:0:s_067.ogg
36,192,79200,1,0,0:0:0:0:s_050.ogg
109,192,79200,1,0,0:0:0:0:s_018.ogg
182,192,79200,1,0,0:0:0:0:s_048.ogg
402,192,79200,1,0,0:0:0:0:s_038.ogg
475,192,79200,1,0,0:0:0:0:s_042.ogg
256,192,79300,1,0,0:0:0:0:s_050.ogg
329,192,79300,1,0,0:0:0:0:s_062.ogg
109,192,79400,1,0,0:0:0:0:s_048.ogg
182,192,79400,1,0,0:0:0:0:s_060.ogg
256,192,79500,1,0,0:0:0:0:s_050.ogg
329,192,79500,1,0,0:0:0:0:s_062.ogg
36,192,79600,1,0,0:0:0:0:s_018.ogg
109,192,79600,1,0,0:0:0:0:s_045.ogg
182,192,79600,1,0,0:0:0:0:s_048.ogg
402,192,79600,1,0,0:0:0:0:s_050.ogg
475,192,79600,1,0,0:0:0:0:s_042.ogg
36,192,79700,1,0,0:0:0:0:s_050.ogg
256,192,79700,1,0,0:0:0:0:s_062.ogg
109,192,79800,1,0,0:0:0:0:s_052.ogg
329,192,79800,1,0,0:0:0:0:s_064.ogg
182,192,79900,1,0,0:0:0:0:s_054.ogg
402,192,79900,1,0,0:0:0:0:s_066.ogg
36,192,80000,1,0,0:0:0:0:s_019.ogg
182,192,80000,1,0,0:0:0:0:s_043.ogg
256,192,80000,1,0,0:0:0:0:s_050.ogg
402,192,80000,1,0,0:0:0:0:s_038.ogg
475,192,80000,1,0,0:0:0:0:s_035.ogg
109,192,80100,1,0,0:0:0:0:s_048.ogg
329,192,80100,1,0,0:0:0:0:s_060.ogg
36,192,80200,1,0,0:0:0:0:s_047.ogg
256,192,80200,1,0,0:0:0:0:s_059.ogg
109,192,80300,1,0,0:0:0:0:s_048.ogg
329,192,80300,1,0,0:0:0:0:s_060.ogg
36,192,80400,1,0,0:0:0:0:s_019.ogg
182,192,80400,1,0,0:0:0:0:s_043.ogg
256,192,80400,1,0,0:0:0:0:s_050.ogg
402,192,80400,1,0,0:0:0:0:s_038.ogg
475,192,80400,1,0,0:0:0:0:s_035.ogg
109,192,80500,1,0,0:0:0:0:s_048.ogg
329,192,80500,1,0,0:0:0:0:s_060.ogg
182,192,80600,1,0,0:0:0:0:s_050.ogg
402,192,80600,1,0,0:0:0:0:s_062.ogg
256,192,80700,1,0,0:0:0:0:s_052.ogg
475,192,80700,1,0,0:0:0:0:s_064.ogg
36,192,80800,1,0,0:0:0:0:s_012.ogg
182,192,80800,1,0,0:0:0:0:s_045.ogg
256,192,80800,1,0,0:0:0:0:s_055.ogg
402,192,80800,1,0,0:0:0:0:s_036.ogg
475,192,80800,1,0,0:0:0:0:s_040.ogg
109,192,80900,1,0,0:0:0:0:s_047.ogg
329,192,80900,1,0,0:0:0:0:s_059.ogg
36,192,81000,1,0,0:0:0:0:s_045.ogg
256,192,81000,1,0,0:0:0:0:s_057.ogg
109,192,81100,1,0,0:0:0:0:s_047.ogg
329,192,81100,1,0,0:0:0:0:s_059.ogg
36,192,81200,1,0,0:0:0:0:s_012.ogg
182,192,81200,1,0,0:0:0:0:s_045.ogg
256,192,81200,1,0,0:0:0:0:s_036.ogg
402,192,81200,1,0,0:0:0:0:s_040.ogg
475,192,81200,1,0,0:0:0:0:s_057.ogg
109,192,81300,1,0,0:0:0:0:s_047.ogg
329,192,81300,1,0,0:0:0:0:s_059.ogg
36,192,81400,1,0,0:0:0:0:s_045.ogg
256,192,81400,1,0,0:0:0:0:s_057.ogg
109,192,81500,1,0,0:0:0:0:s_047.ogg
329,192,81500,1,0,0:0:0:0:s_059.ogg
36,192,81600,1,0,0:0:0:0:s_045.ogg
182,192,81600,1,0,0:0:0:0:s_038.ogg
256,192,81600,1,0,0:0:0:0:s_066.ogg
402,192,81600,1,0,0:0:0:0:s_042.ogg
475,192,81600,1,0,0:0:0:0:s_057.ogg
182,192,81700,1,0,0:0:0:0:s_047.ogg
329,192,81700,1,0,0:0:0:0:s_059.ogg
109,192,81800,1,0,0:0:0:0:s_045.ogg
256,192,81800,1,0,0:0:0:0:s_057.ogg
36,192,81900,1,0,0:0:0:0:s_042.ogg
182,192,81900,1,0,0:0:0:0:s_054.ogg
109,192,82000,1,0,0:0:0:0:s_042.ogg
256,192,82000,1,0,0:0:0:0:s_038.ogg
182,192,82100,1,0,0:0:0:0:s_050.ogg
329,192,82100,1,0,0:0:0:0:s_062.ogg
256,192,82200,1,0,0:0:0:0:s_076.ogg
402,192,82200,1,0,0:0:0:0:s_064.ogg
329,192,82300,1,0,0:0:0:0:s_078.ogg
475,192,82300,1,0,0:0:0:0:s_066.ogg
36,192,82400,1,0,0:0:0:0:m_047.ogg
109,192,82400,1,0,0:0:0:0:m_050.ogg
182,192,82400,1,0,0:0:0:0:m_038.ogg
402,192,82400,1,0,0:0:0:0:s_019.ogg
475,192,82400,1,0,0:0:0:0:s_079.ogg
256,192,82500,1,0,0:0:0:0:s_050.ogg
329,192,82500,1,0,0:0:0:0:s_038.ogg
36,192,82600,1,0,0:0:0:0:s_019.ogg
109,192,82600,1,0,0:0:0:0:s_043.ogg
182,192,82600,1,0,0:0:0:0:s_055.ogg
402,192,82600,1,0,0:0:0:0:s_067.ogg
475,192,82600,1,0,0:0:0:0:s_050.ogg
36,192,82700,1,0,0:0:0:0:s_050.ogg
109,192,82700,1,0,0:0:0:0:s_079.ogg
182,192,82700,1,0,0:0:0:0:s_067.ogg
256,192,82700,1,0,0:0:0:0:s_055.ogg
329,192,82700,1,0,0:0:0:0:s_038.ogg
36,192,82800,1,0,0:0:0:0:s_019.ogg
109,192,82800,1,0,0:0:0:0:s_043.ogg
182,192,82800,1,0,0:0:0:0:s_055.ogg
402,192,82800,1,0,0:0:0:0:s_067.ogg
475,192,82800,1,0,0:0:0:0:s_050.ogg
256,192,82900,1,0,0:0:0:0:s_050.ogg
329,192,82900,1,0,0:0:0:0:s_038.ogg
36,192,83000,1,0,0:0:0:0:s_067.ogg
109,192,83000,1,0,0:0:0:0:s_050.ogg
182,192,83000,1,0,0:0:0:0:s_038.ogg
402,192,83000,1,0,0:0:0:0:s_019.ogg
475,192,83000,1,0,0:0:0:0:s_043.ogg
256,192,83100,1,0,0:0:0:0:s_050.ogg
329,192,83100,1,0,0:0:0:0:s_038.ogg
36,192,83200,1,0,0:0:0:0:m_051.ogg
109,192,83200,1,0,0:0:0:0:m_083.ogg
475,192,83200,128,0,83700:0:0:0:0:m_043.ogg
402,192,83200,128,0,83700:0:0:0:0:m_039.ogg
329,192,83200,128,0,83700:0:0:0:0:m_031.ogg
182,192,83300,1,0,0:0:0:0:s_071.ogg
256,192,83300,1,0,0:0:0:0:s_051.ogg
36,192,83400,1,0,0:0:0:0:s_039.ogg
109,192,83400,1,0,0:0:0:0:s_059.ogg
182,192,83500,1,0,0:0:0:0:s_071.ogg
256,192,83500,1,0,0:0:0:0:s_051.ogg
36,192,83600,1,0,0:0:0:0:s_039.ogg
109,192,83600,1,0,0:0:0:0:s_059.ogg
182,192,83700,1,0,0:0:0:0:s_071.ogg
256,192,83700,1,0,0:0:0:0:s_051.ogg
36,192,83800,1,0,0:0:0:0:s_081.ogg
109,192,83800,1,0,0:0:0:0:s_057.ogg
329,192,83800,1,0,0:0:0:0:s_069.ogg
402,192,83800,1,0,0:0:0:0:s_051.ogg
475,192,83800,1,0,0:0:0:0:s_039.ogg
182,192,83900,1,0,0:0:0:0:s_051.ogg
256,192,83900,1,0,0:0:0:0:s_069.ogg
36,192,84000,1,0,0:0:0:0:s_040.ogg
109,192,84000,1,0,0:0:0:0:s_067.ogg
256,192,84000,1,0,0:0:0:0:s_055.ogg
329,192,84000,1,0,0:0:0:0:m_031.ogg
402,192,84000,1,0,0:0:0:0:m_048.ogg
256,192,84100,1,0,0:0:0:0:s_067.ogg
329,192,84100,1,0,0:0:0:0:s_055.ogg
402,192,84100,1,0,0:0:0:0:s_040.ogg
36,192,84200,1,0,0:0:0:0:s_051.ogg
109,192,84200,1,0,0:0:0:0:s_054.ogg
182,192,84200,1,0,0:0:0:0:s_039.ogg
475,192,84200,1,0,0:0:0:0:s_019.ogg
36,192,84300,1,0,0:0:0:0:s_054.ogg
109,192,84300,1,0,0:0:0:0:s_039.ogg
182,192,84300,1,0,0:0:0:0:s_066.ogg
256,192,84400,1,0,0:0:0:0:s_019.ogg
329,192,84400,1,0,0:0:0:0:s_040.ogg
402,192,84400,1,0,0:0:0:0:s_052.ogg
475,192,84400,1,0,0:0:0:0:s_043.ogg
329,192,84500,1,0,0:0:0:0:s_067.ogg
402,192,84500,1,0,0:0:0:0:s_055.ogg
475,192,84500,1,0,0:0:0:0:s_040.ogg
36,192,84600,1,0,0:0:0:0:s_019.ogg
109,192,84600,1,0,0:0:0:0:s_036.ogg
182,192,84600,1,0,0:0:0:0:s_048.ogg
256,192,84600,1,0,0:0:0:0:s_052.ogg
109,192,84700,1,0,0:0:0:0:s_064.ogg
182,192,84700,1,0,0:0:0:0:s_052.ogg
256,192,84700,1,0,0:0:0:0:s_036.ogg
36,192,84800,1,0,0:0:0:0:s_074.ogg
109,192,84800,1,0,0:0:0:0:s_055.ogg
329,192,84800,1,0,0:0:0:0:s_043.ogg
402,192,84800,1,0,0:0:0:0:s_062.ogg
475,192,84800,1,0,0:0:0:0:s_038.ogg
182,192,84900,1,0,0:0:0:0:s_052.ogg
329,192,84900,1,0,0:0:0:0:s_064.ogg
109,192,85000,1,0,0:0:0:0:s_050.ogg
256,192,85000,1,0,0:0:0:0:s_062.ogg
182,192,85100,1,0,0:0:0:0:s_052.ogg
329,192,85100,1,0,0:0:0:0:s_064.ogg
36,192,85200,1,0,0:0:0:0:s_050.ogg
109,192,85200,1,0,0:0:0:0:s_019.ogg
256,192,85200,1,0,0:0:0:0:s_071.ogg
402,192,85200,1,0,0:0:0:0:s_035.ogg
475,192,85200,1,0,0:0:0:0:s_062.ogg
182,192,85300,1,0,0:0:0:0:s_052.ogg
329,192,85300,1,0,0:0:0:0:s_064.ogg
256,192,85400,1,0,0:0:0:0:s_054.ogg
402,192,85400,1,0,0:0:0:0:s_066.ogg
329,192,85500,1,0,0:0:0:0:s_055.ogg
475,192,85500,1,0,0:0:0:0:s_067.ogg
36,192,85600,1,0,0:0:0:0:s_018.ogg
182,192,85600,1,0,0:0:0:0:s_048.ogg
256,192,85600,1,0,0:0:0:0:s_045.ogg
402,192,85600,1,0,0:0:0:0:s_050.ogg
475,192,85600,1,0,0:0:0:0:s_042.ogg
109,192,85700,1,0,0:0:0:0:s_050.ogg
256,192,85700,1,0,0:0:0:0:s_062.ogg
36,192,85800,1,0,0:0:0:0:s_048.ogg
182,192,85800,1,0,0:0:0:0:s_060.ogg
109,192,85900,1,0,0:0:0:0:s_050.ogg
256,192,85900,1,0,0:0:0:0:s_062.ogg
36,192,86000,1,0,0:0:0:0:s_072.ogg
182,192,86000,1,0,0:0:0:0:s_048.ogg
329,192,86000,1,0,0:0:0:0:s_045.ogg
402,192,86000,1,0,0:0:0:0:s_050.ogg
475,192,86000,1,0,0:0:0:0:s_042.ogg
109,192,86100,1,0,0:0:0:0:s_050.ogg
256,192,86100,1,0,0:0:0:0:s_062.ogg
182,192,86200,1,0,0:0:0:0:s_052.ogg
329,192,86200,1,0,0:0:0:0:s_064.ogg
256,192,86300,1,0,0:0:0:0:s_054.ogg
402,192,86300,1,0,0:0:0:0:s_066.ogg
36,192,86400,1,0,0:0:0:0:s_038.ogg
109,192,86400,1,0,0:0:0:0:s_043.ogg
256,192,86400,1,0,0:0:0:0:s_019.ogg
329,192,86400,1,0,0:0:0:0:s_050.ogg
475,192,86400,1,0,0:0:0:0:s_035.ogg
182,192,86500,1,0,0:0:0:0:s_048.ogg
402,192,86500,1,0,0:0:0:0:s_060.ogg
109,192,86600,1,0,0:0:0:0:s_047.ogg
329,192,86600,1,0,0:0:0:0:s_059.ogg
182,192,86700,1,0,0:0:0:0:s_048.ogg
402,192,86700,1,0,0:0:0:0:s_060.ogg
36,192,86800,1,0,0:0:0:0:s_038.ogg
109,192,86800,1,0,0:0:0:0:s_043.ogg
256,192,86800,1,0,0:0:0:0:s_050.ogg
402,192,86800,1,0,0:0:0:0:s_067.ogg
475,192,86800,1,0,0:0:0:0:s_035.ogg
182,192,86900,1,0,0:0:0:0:s_048.ogg
329,192,86900,1,0,0:0:0:0:s_060.ogg
256,192,87000,1,0,0:0:0:0:s_050.ogg
402,192,87000,1,0,0:0:0:0:s_062.ogg
329,192,87100,1,0,0:0:0:0:s_052.ogg
475,192,87100,1,0,0:0:0:0:s_064.ogg
36,192,87200,1,0,0:0:0:0:s_012.ogg
182,192,87200,1,0,0:0:0:0:s_052.ogg
256,192,87200,1,0,0:0:0:0:s_036.ogg
402,192,87200,1,0,0:0:0:0:s_048.ogg
475,192,87200,1,0,0:0:0:0:s_040.ogg
109,192,87300,1,0,0:0:0:0:s_047.ogg
329,192,87300,1,0,0:0:0:0:s_059.ogg
36,192,87400,1,0,0:0:0:0:s_045.ogg
256,192,87400,1,0,0:0:0:0:s_057.ogg
109,192,87500,1,0,0:0:0:0:s_047.ogg
329,192,87500,1,0,0:0:0:0:s_059.ogg
36,192,87600,1,0,0:0:0:0:s_045.ogg
182,192,87600,1,0,0:0:0:0:s_054.ogg
256,192,87600,1,0,0:0:0:0:s_066.ogg
402,192,87600,1,0,0:0:0:0:s_036.ogg
475,192,87600,1,0,0:0:0:0:s_038.ogg
182,192,87700,1,0,0:0:0:0:s_048.ogg
329,192,87700,1,0,0:0:0:0:s_060.ogg
109,192,87800,1,0,0:0:0:0:s_047.ogg
256,192,87800,1,0,0:0:0:0:s_059.ogg
36,192,87900,1,0,0:0:0:0:s_045.ogg
182,192,87900,1,0,0:0:0:0:s_057.ogg
109,192,88000,1,0,0:0:0:0:s_031.ogg
256,192,88000,1,0,0:0:0:0:s_038.ogg
329,192,88000,1,0,0:0:0:0:s_067.ogg
402,192,88000,1,0,0:0:0:0:s_043.ogg
475,192,88000,1,0,0:0:0:0:s_035.ogg
36,192,88200,1,0,0:0:0:0:s_031.ogg
182,192,88200,1,0,0:0:0:0:s_038.ogg
256,192,88200,1,0,0:0:0:0:s_074.ogg
329,192,88200,1,0,0:0:0:0:s_043.ogg
402,192,88200,1,0,0:0:0:0:s_050.ogg
109,192,88400,1,0,0:0:0:0:s_031.ogg
256,192,88400,1,0,0:0:0:0:s_038.ogg
329,192,88400,1,0,0:0:0:0:s_067.ogg
402,192,88400,1,0,0:0:0:0:s_043.ogg
475,192,88400,1,0,0:0:0:0:s_035.ogg
36,192,88600,1,0,0:0:0:0:s_043.ogg
109,192,88600,1,0,0:0:0:0:s_040.ogg
182,192,88600,1,0,0:0:0:0:s_028.ogg
329,192,88600,1,0,0:0:0:0:s_067.ogg
402,192,88600,1,0,0:0:0:0:s_059.ogg
36,192,88700,1,0,0:0:0:0:s_043.ogg
109,192,88700,1,0,0:0:0:0:s_040.ogg
182,192,88700,1,0,0:0:0:0:s_028.ogg
329,192,88700,1,0,0:0:0:0:s_059.ogg
402,192,88700,1,0,0:0:0:0:s_067.ogg
36,192,88800,1,0,0:0:0:0:s_040.ogg
109,192,88800,1,0,0:0:0:0:s_067.ogg
182,192,88800,1,0,0:0:0:0:s_047.ogg
329,192,88800,1,0,0:0:0:0:s_059.ogg
402,192,88800,1,0,0:0:0:0:s_071.ogg
36,192,89000,1,0,0:0:0:0:s_043.ogg
109,192,89000,1,0,0:0:0:0:s_040.ogg
182,192,89000,1,0,0:0:0:0:s_028.ogg
329,192,89000,1,0,0:0:0:0:s_059.ogg
402,192,89000,1,0,0:0:0:0:s_067.ogg
36,192,89100,1,0,0:0:0:0:s_043.ogg
109,192,89100,1,0,0:0:0:0:s_040.ogg
182,192,89100,1,0,0:0:0:0:s_028.ogg
329,192,89100,1,0,0:0:0:0:s_059.ogg
402,192,89100,1,0,0:0:0:0:s_067.ogg
36,192,89200,1,0,0:0:0:0:s_040.ogg
109,192,89200,1,0,0:0:0:0:s_067.ogg
182,192,89200,1,0,0:0:0:0:s_047.ogg
329,192,89200,1,0,0:0:0:0:s_059.ogg
402,192,89200,1,0,0:0:0:0:s_071.ogg
36,192,89400,1,0,0:0:0:0:s_043.ogg
109,192,89400,1,0,0:0:0:0:s_040.ogg
182,192,89400,1,0,0:0:0:0:s_028.ogg
329,192,89400,1,0,0:0:0:0:s_059.ogg
402,192,89400,1,0,0:0:0:0:s_067.ogg
36,192,89500,1,0,0:0:0:0:s_043.ogg
109,192,89500,1,0,0:0:0:0:s_040.ogg
182,192,89500,1,0,0:0:0:0:s_028.ogg
329,192,89500,1,0,0:0:0:0:s_059.ogg
402,192,89500,1,0,0:0:0:0:s_067.ogg
36,192,89600,1,0,0:0:0:0:s_040.ogg
109,192,89600,1,0,0:0:0:0:s_067.ogg
182,192,89600,1,0,0:0:0:0:s_047.ogg
329,192,89600,1,0,0:0:0:0:s_059.ogg
402,192,89600,1,0,0:0:0:0:s_071.ogg
256,192,89800,1,0,0:0:0:0:s_076.ogg
475,192,89800,1,0,0:0:0:0:s_040.ogg
36,192,90000,1,0,0:0:0:0:s_040.ogg
109,192,90000,1,0,0:0:0:0:s_055.ogg
182,192,90000,1,0,0:0:0:0:s_028.ogg
329,192,90000,1,0,0:0:0:0:s_059.ogg
402,192,90000,1,0,0:0:0:0:s_071.ogg
256,192,90200,1,0,0:0:0:0:s_076.ogg
475,192,90200,1,0,0:0:0:0:s_040.ogg
36,192,90400,1,0,0:0:0:0:s_071.ogg
109,192,90400,1,0,0:0:0:0:s_055.ogg
182,192,90400,1,0,0:0:0:0:s_040.ogg
329,192,90400,1,0,0:0:0:0:s_028.ogg
402,192,90400,1,0,0:0:0:0:s_059.ogg
256,192,90600,1,0,0:0:0:0:s_076.ogg
475,192,90600,1,0,0:0:0:0:s_040.ogg
36,192,90800,1,0,0:0:0:0:s_047.ogg
109,192,90800,1,0,0:0:0:0:s_055.ogg
182,192,90800,1,0,0:0:0:0:s_028.ogg
329,192,90800,1,0,0:0:0:0:s_059.ogg
402,192,90800,1,0,0:0:0:0:s_071.ogg
36,192,91000,1,0,0:0:0:0:s_069.ogg
109,192,91000,1,0,0:0:0:0:s_051.ogg
256,192,91000,1,0,0:0:0:0:s_023.ogg
329,192,91000,1,0,0:0:0:0:s_035.ogg
475,192,91000,1,0,0:0:0:0:s_066.ogg
36,192,91200,1,0,0:0:0:0:s_067.ogg
182,192,91200,1,0,0:0:0:0:s_028.ogg
256,192,91200,1,0,0:0:0:0:s_064.ogg
402,192,91200,1,0,0:0:0:0:s_047.ogg
475,192,91200,1,0,0:0:0:0:s_040.ogg
109,192,91400,1,0,0:0:0:0:s_054.ogg
182,192,91400,1,0,0:0:0:0:s_066.ogg
329,192,91400,1,0,0:0:0:0:s_047.ogg
402,192,91400,1,0,0:0:0:0:s_063.ogg
475,192,91400,1,0,0:0:0:0:s_040.ogg
36,192,91600,1,0,0:0:0:0:s_064.ogg
109,192,91600,1,0,0:0:0:0:s_040.ogg
256,192,91600,1,0,0:0:0:0:s_028.ogg
329,192,91600,1,0,0:0:0:0:s_035.ogg
402,192,91600,1,0,0:0:0:0:s_047.ogg
109,192,91800,1,0,0:0:0:0:s_055.ogg
182,192,91800,1,0,0:0:0:0:s_059.ogg
256,192,91800,1,0,0:0:0:0:s_067.ogg
402,192,91800,1,0,0:0:0:0:s_040.ogg
475,192,91800,1,0,0:0:0:0:s_043.ogg
109,192,91900,1,0,0:0:0:0:s_055.ogg
182,192,91900,1,0,0:0:0:0:s_059.ogg
256,192,91900,1,0,0:0:0:0:s_067.ogg
402,192,91900,1,0,0:0:0:0:s_040.ogg
475,192,91900,1,0,0:0:0:0:s_043.ogg
109,192,92000,1,0,0:0:0:0:s_028.ogg
182,192,92000,1,0,0:0:0:0:s_059.ogg
256,192,92000,1,0,0:0:0:0:s_071.ogg
402,192,92000,1,0,0:0:0:0:s_067.ogg
475,192,92000,1,0,0:0:0:0:s_040.ogg
109,192,92200,1,0,0:0:0:0:s_055.ogg
182,192,92200,1,0,0:0:0:0:s_059.ogg
256,192,92200,1,0,0:0:0:0:s_067.ogg
402,192,92200,1,0,0:0:0:0:s_040.ogg
475,192,92200,1,0,0:0:0:0:s_043.ogg
109,192,92300,1,0,0:0:0:0:s_055.ogg
182,192,92300,1,0,0:0:0:0:s_059.ogg
256,192,92300,1,0,0:0:0:0:s_067.ogg
402,192,92300,1,0,0:0:0:0:s_040.ogg
475,192,92300,1,0,0:0:0:0:s_043.ogg
109,192,92400,1,0,0:0:0:0:s_028.ogg
182,192,92400,1,0,0:0:0:0:s_059.ogg
256,192,92400,1,0,0:0:0:0:s_071.ogg
402,192,92400,1,0,0:0:0:0:s_067.ogg
475,192,92400,1,0,0:0:0:0:s_040.ogg
109,192,92600,1,0,0:0:0:0:s_055.ogg
182,192,92600,1,0,0:0:0:0:s_059.ogg
256,192,92600,1,0,0:0:0:0:s_067.ogg
402,192,92600,1,0,0:0:0:0:s_040.ogg
475,192,92600,1,0,0:0:0:0:s_043.ogg
109,192,92700,1,0,0:0:0:0:s_055.ogg
182,192,92700,1,0,0:0:0:0:s_059.ogg
256,192,92700,1,0,0:0:0:0:s_067.ogg
402,192,92700,1,0,0:0:0:0:s_040.ogg
475,192,92700,1,0,0:0:0:0:s_043.ogg
109,192,92800,1,0,0:0:0:0:s_028.ogg
182,192,92800,1,0,0:0:0:0:s_059.ogg
256,192,92800,1,0,0:0:0:0:s_071.ogg
402,192,92800,1,0,0:0:0:0:s_067.ogg
475,192,92800,1,0,0:0:0:0:s_040.ogg
36,192,93000,1,0,0:0:0:0:s_040.ogg
329,192,93000,1,0,0:0:0:0:s_076.ogg
109,192,93200,1,0,0:0:0:0:s_047.ogg
182,192,93200,1,0,0:0:0:0:s_055.ogg
256,192,93200,1,0,0:0:0:0:s_028.ogg
402,192,93200,1,0,0:0:0:0:s_059.ogg
475,192,93200,1,0,0:0:0:0:s_071.ogg
36,192,93400,1,0,0:0:0:0:s_076.ogg
329,192,93400,1,0,0:0:0:0:s_040.ogg
109,192,93600,1,0,0:0:0:0:s_047.ogg
182,192,93600,1,0,0:0:0:0:s_055.ogg
256,192,93600,1,0,0:0:0:0:s_028.ogg
402,192,93600,1,0,0:0:0:0:s_059.ogg
475,192,93600,1,0,0:0:0:0:s_071.ogg
36,192,93800,1,0,0:0:0:0:s_040.ogg
329,192,93800,1,0,0:0:0:0:s_076.ogg
109,192,94000,1,0,0:0:0:0:s_062.ogg
182,192,94000,1,0,0:0:0:0:s_074.ogg
256,192,94000,1,0,0:0:0:0:s_050.ogg
402,192,94000,1,0,0:0:0:0:s_054.ogg
475,192,94000,1,0,0:0:0:0:s_057.ogg
36,192,94200,1,0,0:0:0:0:s_073.ogg
109,192,94200,1,0,0:0:0:0:s_043.ogg
182,192,94200,1,0,0:0:0:0:s_052.ogg
329,192,94200,1,0,0:0:0:0:s_055.ogg
402,192,94200,1,0,0:0:0:0:s_064.ogg
109,192,94400,1,0,0:0:0:0:s_074.ogg
182,192,94400,1,0,0:0:0:0:s_050.ogg
256,192,94400,1,0,0:0:0:0:s_054.ogg
402,192,94400,1,0,0:0:0:0:s_038.ogg
475,192,94400,1,0,0:0:0:0:s_045.ogg
36,192,95000,1,0,0:0:0:0:s_050.ogg
109,192,95000,1,0,0:0:0:0:s_074.ogg
182,192,95000,1,0,0:0:0:0:s_035.ogg
329,192,95000,1,0,0:0:0:0:s_043.ogg
256,192,95000,1,0,0:0:0:0:s_047.ogg
36,192,95100,1,0,0:0:0:0:s_050.ogg
109,192,95100,1,0,0:0:0:0:s_074.ogg
182,192,95100,1,0,0:0:0:0:s_035.ogg
475,192,95100,1,0,0:0:0:0:s_043.ogg
402,192,95100,1,0,0:0:0:0:s_047.ogg
36,192,95200,1,0,0:0:0:0:s_019.ogg
109,192,95200,1,0,0:0:0:0:s_043.ogg
182,192,95200,1,0,0:0:0:0:s_074.ogg
329,192,95200,1,0,0:0:0:0:s_035.ogg
256,192,95200,1,0,0:0:0:0:s_062.ogg
36,192,95300,1,0,0:0:0:0:s_043.ogg
109,192,95300,1,0,0:0:0:0:s_038.ogg
182,192,95300,1,0,0:0:0:0:s_047.ogg
36,192,95400,1,0,0:0:0:0:s_043.ogg
109,192,95400,1,0,0:0:0:0:s_038.ogg
182,192,95400,1,0,0:0:0:0:s_074.ogg
329,192,95400,1,0,0:0:0:0:s_035.ogg
402,192,95400,1,0,0:0:0:0:s_062.ogg
36,192,95500,1,0,0:0:0:0:s_043.ogg
109,192,95500,1,0,0:0:0:0:s_062.ogg
182,192,95500,1,0,0:0:0:0:s_047.ogg
256,192,95500,1,0,0:0:0:0:s_074.ogg
475,192,95500,1,0,0:0:0:0:s_035.ogg
36,192,95600,1,0,0:0:0:0:s_019.ogg
109,192,95600,1,0,0:0:0:0:s_043.ogg
182,192,95600,1,0,0:0:0:0:s_074.ogg
329,192,95600,1,0,0:0:0:0:s_035.ogg
402,192,95600,1,0,0:0:0:0:s_062.ogg
36,192,95700,1,0,0:0:0:0:s_043.ogg
109,192,95700,1,0,0:0:0:0:s_038.ogg
182,192,95700,1,0,0:0:0:0:s_047.ogg
36,192,95800,1,0,0:0:0:0:s_043.ogg
109,192,95800,1,0,0:0:0:0:s_038.ogg
182,192,95800,1,0,0:0:0:0:s_074.ogg
402,192,95800,1,0,0:0:0:0:s_035.ogg
475,192,95800,1,0,0:0:0:0:s_062.ogg
36,192,95900,1,0,0:0:0:0:s_043.ogg
109,192,95900,1,0,0:0:0:0:s_062.ogg
182,192,95900,1,0,0:0:0:0:s_047.ogg
402,192,95900,1,0,0:0:0:0:s_074.ogg
475,192,95900,1,0,0:0:0:0:s_035.ogg
36,192,96000,1,0,0:0:0:0:s_019.ogg
109,192,96000,1,0,0:0:0:0:s_043.ogg
182,192,96000,1,0,0:0:0:0:s_079.ogg
256,192,96000,1,0,0:0:0:0:s_038.ogg
329,192,96000,1,0,0:0:0:0:s_067.ogg
36,192,96100,1,0,0:0:0:0:s_043.ogg
109,192,96100,1,0,0:0:0:0:s_038.ogg
182,192,96100,1,0,0:0:0:0:s_047.ogg
36,192,96200,1,0,0:0:0:0:s_043.ogg
109,192,96200,1,0,0:0:0:0:s_038.ogg
182,192,96200,1,0,0:0:0:0:s_081.ogg
256,192,96200,1,0,0:0:0:0:s_050.ogg
402,192,96200,1,0,0:0:0:0:s_069.ogg
36,192,96300,1,0,0:0:0:0:s_043.ogg
109,192,96300,1,0,0:0:0:0:s_038.ogg
182,192,96300,1,0,0:0:0:0:s_047.ogg
36,192,96400,1,0,0:0:0:0:s_019.ogg
109,192,96400,1,0,0:0:0:0:s_043.ogg
182,192,96400,1,0,0:0:0:0:s_083.ogg
329,192,96400,1,0,0:0:0:0:s_038.ogg
475,192,96400,1,0,0:0:0:0:s_071.ogg
36,192,96500,1,0,0:0:0:0:s_043.ogg
109,192,96500,1,0,0:0:0:0:s_038.ogg
182,192,96500,1,0,0:0:0:0:s_047.ogg
36,192,96600,1,0,0:0:0:0:s_043.ogg
109,192,96600,1,0,0:0:0:0:s_038.ogg
182,192,96600,1,0,0:0:0:0:s_074.ogg
402,192,96600,1,0,0:0:0:0:s_035.ogg
475,192,96600,1,0,0:0:0:0:s_062.ogg
36,192,96700,1,0,0:0:0:0:s_043.ogg
109,192,96700,1,0,0:0:0:0:s_062.ogg
182,192,96700,1,0,0:0:0:0:s_047.ogg
256,192,96700,1,0,0:0:0:0:s_074.ogg
329,192,96700,1,0,0:0:0:0:s_035.ogg
36,192,96800,1,0,0:0:0:0:s_019.ogg
109,192,96800,1,0,0:0:0:0:s_043.ogg
182,192,96800,1,0,0:0:0:0:s_074.ogg
402,192,96800,1,0,0:0:0:0:s_035.ogg
475,192,96800,1,0,0:0:0:0:s_062.ogg
36,192,96900,1,0,0:0:0:0:s_043.ogg
109,192,96900,1,0,0:0:0:0:s_038.ogg
182,192,96900,1,0,0:0:0:0:s_047.ogg
36,192,97000,1,0,0:0:0:0:s_043.ogg
109,192,97000,1,0,0:0:0:0:s_038.ogg
182,192,97000,1,0,0:0:0:0:s_074.ogg
329,192,97000,1,0,0:0:0:0:s_035.ogg
402,192,97000,1,0,0:0:0:0:s_062.ogg
36,192,97100,1,0,0:0:0:0:s_043.ogg
109,192,97100,1,0,0:0:0:0:s_062.ogg
182,192,97100,1,0,0:0:0:0:s_047.ogg
256,192,97100,1,0,0:0:0:0:s_074.ogg
475,192,97100,1,0,0:0:0:0:s_035.ogg
36,192,97200,1,0,0:0:0:0:s_019.ogg
109,192,97200,1,0,0:0:0:0:s_043.ogg
182,192,97200,1,0,0:0:0:0:s_079.ogg
329,192,97200,1,0,0:0:0:0:s_038.ogg
402,192,97200,1,0,0:0:0:0:s_067.ogg
36,192,97300,1,0,0:0:0:0:s_043.ogg
109,192,97300,1,0,0:0:0:0:s_038.ogg
182,192,97300,1,0,0:0:0:0:s_047.ogg
36,192,97400,1,0,0:0:0:0:s_043.ogg
109,192,97400,1,0,0:0:0:0:s_038.ogg
182,192,97400,1,0,0:0:0:0:s_083.ogg
329,192,97400,1,0,0:0:0:0:s_050.ogg
402,192,97400,1,0,0:0:0:0:s_071.ogg
36,192,97500,1,0,0:0:0:0:s_043.ogg
109,192,97500,1,0,0:0:0:0:s_071.ogg
182,192,97500,1,0,0:0:0:0:s_047.ogg
329,192,97500,1,0,0:0:0:0:s_059.ogg
402,192,97500,1,0,0:0:0:0:s_035.ogg
36,192,97600,1,0,0:0:0:0:s_014.ogg
182,192,97600,1,0,0:0:0:0:s_038.ogg
256,192,97600,1,0,0:0:0:0:s_081.ogg
402,192,97600,1,0,0:0:0:0:s_026.ogg
475,192,97600,1,0,0:0:0:0:s_069.ogg
36,192,97700,1,0,0:0:0:0:s_042.ogg
182,192,97700,1,0,0:0:0:0:s_038.ogg
256,192,97700,1,0,0:0:0:0:s_045.ogg
36,192,97800,1,0,0:0:0:0:s_042.ogg
182,192,97800,1,0,0:0:0:0:s_038.ogg
256,192,97800,1,0,0:0:0:0:s_078.ogg
329,192,97800,1,0,0:0:0:0:s_050.ogg
475,192,97800,1,0,0:0:0:0:s_066.ogg
36,192,97900,1,0,0:0:0:0:s_042.ogg
182,192,97900,1,0,0:0:0:0:s_038.ogg
256,192,97900,1,0,0:0:0:0:s_045.ogg
36,192,98000,1,0,0:0:0:0:s_014.ogg
182,192,98000,1,0,0:0:0:0:s_038.ogg
256,192,98000,1,0,0:0:0:0:s_074.ogg
329,192,98000,1,0,0:0:0:0:s_026.ogg
402,192,98000,1,0,0:0:0:0:s_042.ogg
36,192,98100,1,0,0:0:0:0:s_042.ogg
182,192,98100,1,0,0:0:0:0:s_038.ogg
256,192,98100,1,0,0:0:0:0:s_045.ogg
36,192,98200,1,0,0:0:0:0:s_042.ogg
182,192,98200,1,0,0:0:0:0:s_074.ogg
256,192,98200,1,0,0:0:0:0:s_050.ogg
402,192,98200,1,0,0:0:0:0:s_062.ogg
475,192,98200,1,0,0:0:0:0:s_043.ogg
36,192,98300,1,0,0:0:0:0:s_042.ogg
182,192,98300,1,0,0:0:0:0:s_062.ogg
256,192,98300,1,0,0:0:0:0:s_050.ogg
402,192,98300,1,0,0:0:0:0:s_038.ogg
475,192,98300,1,0,0:0:0:0:s_043.ogg
36,192,98400,1,0,0:0:0:0:s_035.ogg
109,192,98400,1,0,0:0:0:0:s_062.ogg
329,192,98400,1,0,0:0:0:0:s_019.ogg
402,192,98400,1,0,0:0:0:0:s_043.ogg
475,192,98400,1,0,0:0:0:0:s_074.ogg
329,192,98500,1,0,0:0:0:0:s_043.ogg
402,192,98500,1,0,0:0:0:0:s_038.ogg
475,192,98500,1,0,0:0:0:0:s_047.ogg
182,192,98600,1,0,0:0:0:0:s_035.ogg
256,192,98600,1,0,0:0:0:0:s_062.ogg
329,192,98600,1,0,0:0:0:0:s_043.ogg
402,192,98600,1,0,0:0:0:0:s_038.ogg
475,192,98600,1,0,0:0:0:0:s_074.ogg
36,192,98700,1,0,0:0:0:0:s_074.ogg
109,192,98700,1,0,0:0:0:0:s_035.ogg
329,192,98700,1,0,0:0:0:0:s_043.ogg
402,192,98700,1,0,0:0:0:0:s_062.ogg
475,192,98700,1,0,0:0:0:0:s_047.ogg
182,192,98800,1,0,0:0:0:0:s_035.ogg
256,192,98800,1,0,0:0:0:0:s_062.ogg
329,192,98800,1,0,0:0:0:0:s_019.ogg
402,192,98800,1,0,0:0:0:0:s_043.ogg
475,192,98800,1,0,0:0:0:0:s_074.ogg
329,192,98900,1,0,0:0:0:0:s_043.ogg
402,192,98900,1,0,0:0:0:0:s_038.ogg
475,192,98900,1,0,0:0:0:0:s_047.ogg
109,192,99000,1,0,0:0:0:0:s_035.ogg
182,192,99000,1,0,0:0:0:0:s_062.ogg
329,192,99000,1,0,0:0:0:0:s_043.ogg
402,192,99000,1,0,0:0:0:0:s_038.ogg
475,192,99000,1,0,0:0:0:0:s_074.ogg
109,192,99100,1,0,0:0:0:0:s_074.ogg
182,192,99100,1,0,0:0:0:0:s_035.ogg
329,192,99100,1,0,0:0:0:0:s_043.ogg
402,192,99100,1,0,0:0:0:0:s_062.ogg
475,192,99100,1,0,0:0:0:0:s_047.ogg
36,192,99200,1,0,0:0:0:0:s_038.ogg
256,192,99200,1,0,0:0:0:0:s_035.ogg
329,192,99200,1,0,0:0:0:0:s_019.ogg
402,192,99200,1,0,0:0:0:0:s_043.ogg
475,192,99200,1,0,0:0:0:0:s_079.ogg
329,192,99300,1,0,0:0:0:0:s_043.ogg
402,192,99300,1,0,0:0:0:0:s_038.ogg
475,192,99300,1,0,0:0:0:0:s_047.ogg
109,192,99400,1,0,0:0:0:0:s_050.ogg
182,192,99400,1,0,0:0:0:0:s_035.ogg
329,192,99400,1,0,0:0:0:0:s_043.ogg
402,192,99400,1,0,0:0:0:0:s_038.ogg
475,192,99400,1,0,0:0:0:0:s_081.ogg
329,192,99500,1,0,0:0:0:0:s_043.ogg
402,192,99500,1,0,0:0:0:0:s_038.ogg
475,192,99500,1,0,0:0:0:0:s_047.ogg
182,192,99600,1,0,0:0:0:0:s_038.ogg
256,192,99600,1,0,0:0:0:0:s_035.ogg
329,192,99600,1,0,0:0:0:0:s_019.ogg
402,192,99600,1,0,0:0:0:0:s_043.ogg
475,192,99600,1,0,0:0:0:0:s_083.ogg
329,192,99700,1,0,0:0:0:0:s_043.ogg
402,192,99700,1,0,0:0:0:0:s_038.ogg
475,192,99700,1,0,0:0:0:0:s_047.ogg
109,192,99800,1,0,0:0:0:0:s_038.ogg
256,192,99800,1,0,0:0:0:0:s_050.ogg
329,192,99800,1,0,0:0:0:0:s_043.ogg
402,192,99800,1,0,0:0:0:0:s_067.ogg
475,192,99800,1,0,0:0:0:0:s_055.ogg
36,192,99900,1,0,0:0:0:0:s_071.ogg
182,192,99900,1,0,0:0:0:0:s_038.ogg
329,192,99900,1,0,0:0:0:0:s_043.ogg
402,192,99900,1,0,0:0:0:0:s_059.ogg
475,192,99900,1,0,0:0:0:0:s_035.ogg
256,192,100000,1,0,0:0:0:0:s_014.ogg
329,192,100000,1,0,0:0:0:0:s_038.ogg
475,192,100000,1,0,0:0:0:0:s_045.ogg
109,192,100000,128,0,100400:0:0:0:0:m_074.ogg
36,192,100000,128,0,100400:0:0:0:0:m_050.ogg
256,192,100100,1,0,0:0:0:0:s_045.ogg
329,192,100100,1,0,0:0:0:0:s_042.ogg
475,192,100100,1,0,0:0:0:0:s_050.ogg
256,192,100200,1,0,0:0:0:0:s_045.ogg
329,192,100200,1,0,0:0:0:0:s_042.ogg
475,192,100200,1,0,0:0:0:0:s_050.ogg
256,192,100300,1,0,0:0:0:0:s_045.ogg
329,192,100300,1,0,0:0:0:0:s_033.ogg
475,192,100300,1,0,0:0:0:0:s_042.ogg
256,192,100400,1,0,0:0:0:0:s_014.ogg
329,192,100400,1,0,0:0:0:0:s_042.ogg
475,192,100400,1,0,0:0:0:0:s_050.ogg
109,192,100500,1,0,0:0:0:0:s_050.ogg
182,192,100500,1,0,0:0:0:0:s_042.ogg
256,192,100500,1,0,0:0:0:0:s_045.ogg
329,192,100500,1,0,0:0:0:0:s_060.ogg
475,192,100500,1,0,0:0:0:0:s_048.ogg
36,192,100600,1,0,0:0:0:0:s_038.ogg
182,192,100600,1,0,0:0:0:0:s_059.ogg
256,192,100600,1,0,0:0:0:0:s_045.ogg
329,192,100600,1,0,0:0:0:0:s_047.ogg
475,192,100600,1,0,0:0:0:0:s_042.ogg
36,192,100700,1,0,0:0:0:0:s_042.ogg
109,192,100700,1,0,0:0:0:0:s_038.ogg
256,192,100700,1,0,0:0:0:0:s_045.ogg
329,192,100700,1,0,0:0:0:0:s_057.ogg
475,192,100700,1,0,0:0:0:0:s_069.ogg
182,192,100800,1,0,0:0:0:0:s_019.ogg
402,192,100800,1,0,0:0:0:0:m_047.ogg
256,192,100800,1,0,0:0:0:0:m_055.ogg
36,192,100800,1,0,0:0:0:0:s_038.ogg
109,192,100900,1,0,0:0:0:0:s_047.ogg
329,192,100900,1,0,0:0:0:0:s_057.ogg
475,192,100900,1,0,0:0:0:0:s_045.ogg
36,192,101000,1,0,0:0:0:0:s_043.ogg
182,192,101000,1,0,0:0:0:0:s_047.ogg
402,192,101000,1,0,0:0:0:0:s_059.ogg
109,192,101100,1,0,0:0:0:0:s_047.ogg
256,192,101100,1,0,0:0:0:0:s_043.ogg
475,192,101100,1,0,0:0:0:0:s_031.ogg
36,192,101200,1,0,0:0:0:0:m_047.ogg
182,192,101200,1,0,0:0:0:0:s_059.ogg
402,192,101200,1,0,0:0:0:0:s_071.ogg
475,192,101300,1,0,0:0:0:0:s_048.ogg
109,192,101300,1,0,0:0:0:0:s_060.ogg
256,192,101300,1,0,0:0:0:0:s_047.ogg
329,192,101400,1,0,0:0:0:0:s_050.ogg
36,192,101400,1,0,0:0:0:0:s_047.ogg
182,192,101400,1,0,0:0:0:0:s_062.ogg
109,192,101500,1,0,0:0:0:0:s_076.ogg
256,192,101500,1,0,0:0:0:0:s_047.ogg
402,192,101500,1,0,0:0:0:0:s_064.ogg
329,192,101600,1,0,0:0:0:0:s_062.ogg
36,192,101600,1,0,0:0:0:0:s_047.ogg
182,192,101600,1,0,0:0:0:0:s_050.ogg
402,192,101700,1,0,0:0:0:0:s_076.ogg
109,192,101700,1,0,0:0:0:0:s_047.ogg
256,192,101700,1,0,0:0:0:0:s_064.ogg
329,192,101800,1,0,0:0:0:0:s_078.ogg
475,192,101800,1,0,0:0:0:0:s_047.ogg
182,192,101800,1,0,0:0:0:0:s_026.ogg
36,192,101900,1,0,0:0:0:0:s_079.ogg
256,192,101900,1,0,0:0:0:0:s_047.ogg
402,192,101900,1,0,0:0:0:0:s_067.ogg
329,192,102000,1,0,0:0:0:0:s_078.ogg
475,192,102000,1,0,0:0:0:0:s_023.ogg
182,192,102000,1,0,0:0:0:0:s_047.ogg
36,192,102100,1,0,0:0:0:0:s_079.ogg
256,192,102100,1,0,0:0:0:0:s_047.ogg
402,192,102100,1,0,0:0:0:0:s_067.ogg
109,192,102200,1,0,0:0:0:0:s_019.ogg
475,192,102200,1,0,0:0:0:0:s_047.ogg
329,192,102200,1,0,0:0:0:0:s_081.ogg
36,192,102300,1,0,0:0:0:0:s_083.ogg
182,192,102300,1,0,0:0:0:0:s_047.ogg
402,192,102300,1,0,0:0:0:0:s_071.ogg
109,192,102400,1,0,0:0:0:0:m_084.ogg
182,192,102400,1,0,0:0:0:0:s_014.ogg
329,192,102400,1,0,0:0:0:0:m_048.ogg
402,192,102400,1,0,0:0:0:0:m_072.ogg
36,192,102500,1,0,0:0:0:0:s_057.ogg
256,192,102500,1,0,0:0:0:0:s_060.ogg
475,192,102500,1,0,0:0:0:0:s_072.ogg
109,192,102600,1,0,0:0:0:0:s_039.ogg
329,192,102600,1,0,0:0:0:0:s_015.ogg
182,192,102600,1,0,0:0:0:0:s_072.ogg
402,192,102600,1,0,0:0:0:0:s_045.ogg
36,192,102700,1,0,0:0:0:0:s_057.ogg
256,192,102700,1,0,0:0:0:0:s_060.ogg
475,192,102700,1,0,0:0:0:0:s_072.ogg
109,192,102800,1,0,0:0:0:0:s_060.ogg
329,192,102800,1,0,0:0:0:0:s_016.ogg
182,192,102800,1,0,0:0:0:0:s_072.ogg
402,192,102800,1,0,0:0:0:0:s_028.ogg
36,192,102900,1,0,0:0:0:0:s_057.ogg
256,192,102900,1,0,0:0:0:0:s_060.ogg
475,192,102900,1,0,0:0:0:0:s_072.ogg
109,192,103000,1,0,0:0:0:0:s_041.ogg
182,192,103000,1,0,0:0:0:0:s_017.ogg
329,192,103000,1,0,0:0:0:0:s_072.ogg
402,192,103000,1,0,0:0:0:0:s_045.ogg
36,192,103100,1,0,0:0:0:0:s_057.ogg
256,192,103100,1,0,0:0:0:0:s_060.ogg
475,192,103100,1,0,0:0:0:0:s_072.ogg
109,192,103200,1,0,0:0:0:0:s_060.ogg
182,192,103200,1,0,0:0:0:0:s_018.ogg
329,192,103200,1,0,0:0:0:0:s_072.ogg
402,192,103200,1,0,0:0:0:0:s_030.ogg
36,192,103300,1,0,0:0:0:0:s_057.ogg
256,192,103300,1,0,0:0:0:0:s_060.ogg
475,192,103300,1,0,0:0:0:0:s_072.ogg
109,192,103400,1,0,0:0:0:0:s_033.ogg
182,192,103400,1,0,0:0:0:0:s_021.ogg
329,192,103400,1,0,0:0:0:0:s_072.ogg
402,192,103400,1,0,0:0:0:0:s_045.ogg
36,192,103500,1,0,0:0:0:0:s_057.ogg
256,192,103500,1,0,0:0:0:0:s_060.ogg
475,192,103500,1,0,0:0:0:0:s_072.ogg
109,192,103600,1,0,0:0:0:0:s_060.ogg
182,192,103600,1,0,0:0:0:0:s_026.ogg
329,192,103600,1,0,0:0:0:0:s_057.ogg
402,192,103600,1,0,0:0:0:0:s_038.ogg
36,192,103700,1,0,0:0:0:0:s_057.ogg
256,192,103700,1,0,0:0:0:0:s_060.ogg
475,192,103700,1,0,0:0:0:0:s_072.ogg
109,192,103800,1,0,0:0:0:0:s_057.ogg
182,192,103800,1,0,0:0:0:0:s_014.ogg
329,192,103800,1,0,0:0:0:0:s_048.ogg
402,192,103800,1,0,0:0:0:0:s_026.ogg
36,192,103900,1,0,0:0:0:0:s_057.ogg
256,192,103900,1,0,0:0:0:0:s_060.ogg
475,192,103900,1,0,0:0:0:0:s_072.ogg
109,192,104000,1,0,0:0:0:0:m_043.ogg
182,192,104000,1,0,0:0:0:0:s_038.ogg
329,192,104000,1,0,0:0:0:0:s_019.ogg
475,192,104000,1,0,0:0:0:0:s_050.ogg
36,192,104100,1,0,0:0:0:0:s_057.ogg
256,192,104100,1,0,0:0:0:0:s_045.ogg
402,192,104100,1,0,0:0:0:0:s_047.ogg
109,192,104200,1,0,0:0:0:0:s_059.ogg
329,192,104200,1,0,0:0:0:0:s_047.ogg
475,192,104200,1,0,0:0:0:0:s_043.ogg
36,192,104300,1,0,0:0:0:0:s_047.ogg
182,192,104300,1,0,0:0:0:0:s_072.ogg
402,192,104300,1,0,0:0:0:0:s_031.ogg
109,192,104400,1,0,0:0:0:0:m_050.ogg
329,192,104400,1,0,0:0:0:0:s_059.ogg
475,192,104400,1,0,0:0:0:0:s_071.ogg
36,192,104500,1,0,0:0:0:0:s_060.ogg
182,192,104500,1,0,0:0:0:0:s_048.ogg
402,192,104500,1,0,0:0:0:0:s_047.ogg
109,192,104600,1,0,0:0:0:0:s_047.ogg
256,192,104600,1,0,0:0:0:0:s_050.ogg
475,192,104600,1,0,0:0:0:0:s_062.ogg
36,192,104700,1,0,0:0:0:0:s_064.ogg
182,192,104700,1,0,0:0:0:0:s_076.ogg
329,192,104700,1,0,0:0:0:0:s_047.ogg
109,192,104800,1,0,0:0:0:0:s_047.ogg
256,192,104800,1,0,0:0:0:0:s_074.ogg
475,192,104800,1,0,0:0:0:0:s_062.ogg
36,192,104900,1,0,0:0:0:0:s_047.ogg
182,192,104900,1,0,0:0:0:0:s_076.ogg
329,192,104900,1,0,0:0:0:0:s_064.ogg
109,192,105000,1,0,0:0:0:0:s_047.ogg
256,192,105000,1,0,0:0:0:0:s_078.ogg
402,192,105000,1,0,0:0:0:0:s_026.ogg
182,192,105100,1,0,0:0:0:0:s_079.ogg
329,192,105100,1,0,0:0:0:0:s_047.ogg
475,192,105100,1,0,0:0:0:0:s_067.ogg
109,192,105200,1,0,0:0:0:0:s_047.ogg
256,192,105200,1,0,0:0:0:0:s_078.ogg
402,192,105200,1,0,0:0:0:0:s_023.ogg
182,192,105300,1,0,0:0:0:0:s_079.ogg
329,192,105300,1,0,0:0:0:0:s_047.ogg
475,192,105300,1,0,0:0:0:0:s_067.ogg
36,192,105400,1,0,0:0:0:0:s_047.ogg
256,192,105400,1,0,0:0:0:0:s_081.ogg
402,192,105400,1,0,0:0:0:0:s_019.ogg
109,192,105500,1,0,0:0:0:0:s_083.ogg
329,192,105500,1,0,0:0:0:0:s_071.ogg
475,192,105500,1,0,0:0:0:0:s_047.ogg
36,192,105600,1,0,0:0:0:0:m_072.ogg
182,192,105600,1,0,0:0:0:0:m_084.ogg
329,192,105600,1,0,0:0:0:0:s_057.ogg
475,192,105600,1,0,0:0:0:0:m_048.ogg
109,192,105700,1,0,0:0:0:0:s_057.ogg
256,192,105700,1,0,0:0:0:0:s_060.ogg
402,192,105700,1,0,0:0:0:0:s_072.ogg
36,192,105800,1,0,0:0:0:0:m_057.ogg
182,192,105800,1,0,0:0:0:0:s_045.ogg
329,192,105800,1,0,0:0:0:0:s_015.ogg
475,192,105800,1,0,0:0:0:0:s_039.ogg
109,192,105900,1,0,0:0:0:0:s_057.ogg
256,192,105900,1,0,0:0:0:0:s_060.ogg
402,192,105900,1,0,0:0:0:0:s_072.ogg
36,192,106000,1,0,0:0:0:0:m_048.ogg
182,192,106000,1,0,0:0:0:0:s_028.ogg
329,192,106000,1,0,0:0:0:0:s_016.ogg
475,192,106000,1,0,0:0:0:0:s_060.ogg
109,192,106100,1,0,0:0:0:0:s_057.ogg
256,192,106100,1,0,0:0:0:0:s_060.ogg
402,192,106100,1,0,0:0:0:0:s_072.ogg
36,192,106200,1,0,0:0:0:0:m_057.ogg
182,192,106200,1,0,0:0:0:0:s_045.ogg
329,192,106200,1,0,0:0:0:0:s_017.ogg
475,192,106200,1,0,0:0:0:0:s_041.ogg
109,192,106300,1,0,0:0:0:0:s_057.ogg
256,192,106300,1,0,0:0:0:0:s_060.ogg
402,192,106300,1,0,0:0:0:0:s_072.ogg
36,192,106400,1,0,0:0:0:0:m_048.ogg
182,192,106400,1,0,0:0:0:0:s_030.ogg
329,192,106400,1,0,0:0:0:0:s_018.ogg
475,192,106400,1,0,0:0:0:0:s_060.ogg
109,192,106500,1,0,0:0:0:0:s_057.ogg
256,192,106500,1,0,0:0:0:0:s_060.ogg
402,192,106500,1,0,0:0:0:0:s_072.ogg
36,192,106600,1,0,0:0:0:0:m_057.ogg
182,192,106600,1,0,0:0:0:0:s_045.ogg
329,192,106600,1,0,0:0:0:0:s_021.ogg
475,192,106600,1,0,0:0:0:0:s_033.ogg
109,192,106700,1,0,0:0:0:0:s_057.ogg
256,192,106700,1,0,0:0:0:0:s_060.ogg
402,192,106700,1,0,0:0:0:0:s_072.ogg
36,192,106800,1,0,0:0:0:0:m_048.ogg
182,192,106800,1,0,0:0:0:0:s_038.ogg
329,192,106800,1,0,0:0:0:0:s_026.ogg
475,192,106800,1,0,0:0:0:0:s_060.ogg
109,192,106900,1,0,0:0:0:0:s_057.ogg
256,192,106900,1,0,0:0:0:0:s_060.ogg
402,192,106900,1,0,0:0:0:0:s_072.ogg
36,192,107000,1,0,0:0:0:0:s_060.ogg
182,192,107000,1,0,0:0:0:0:s_026.ogg
329,192,107000,1,0,0:0:0:0:s_014.ogg
475,192,107000,1,0,0:0:0:0:s_057.ogg
109,192,107100,1,0,0:0:0:0:s_057.ogg
256,192,107100,1,0,0:0:0:0:s_060.ogg
402,192,107100,1,0,0:0:0:0:s_072.ogg
36,192,107200,1,0,0:0:0:0:s_031.ogg
182,192,107200,1,0,0:0:0:0:s_043.ogg
256,192,107200,1,0,0:0:0:0:s_083.ogg
329,192,107200,1,0,0:0:0:0:s_059.ogg
402,192,107200,1,0,0:0:0:0:s_047.ogg
109,192,107300,1,0,0:0:0:0:s_059.ogg
475,192,107300,1,0,0:0:0:0:s_071.ogg
182,192,107400,1,0,0:0:0:0:s_059.ogg
329,192,107400,1,0,0:0:0:0:s_071.ogg
36,192,107500,1,0,0:0:0:0:s_059.ogg
256,192,107500,1,0,0:0:0:0:s_071.ogg
109,192,107600,1,0,0:0:0:0:s_054.ogg
182,192,107600,1,0,0:0:0:0:s_059.ogg
329,192,107600,1,0,0:0:0:0:s_023.ogg
402,192,107600,1,0,0:0:0:0:s_078.ogg
475,192,107600,1,0,0:0:0:0:s_047.ogg
36,192,107700,1,0,0:0:0:0:s_051.ogg
256,192,107700,1,0,0:0:0:0:s_066.ogg
182,192,107800,1,0,0:0:0:0:s_051.ogg
402,192,107800,1,0,0:0:0:0:s_066.ogg
109,192,107900,1,0,0:0:0:0:s_051.ogg
329,192,107900,1,0,0:0:0:0:s_066.ogg
36,192,108000,1,0,0:0:0:0:s_040.ogg
182,192,108000,1,0,0:0:0:0:s_055.ogg
256,192,108000,1,0,0:0:0:0:s_028.ogg
402,192,108000,1,0,0:0:0:0:s_079.ogg
475,192,108000,1,0,0:0:0:0:s_067.ogg
109,192,108100,1,0,0:0:0:0:s_067.ogg
329,192,108100,1,0,0:0:0:0:s_055.ogg
36,192,108200,1,0,0:0:0:0:s_067.ogg
256,192,108200,1,0,0:0:0:0:s_055.ogg
182,192,108300,1,0,0:0:0:0:s_067.ogg
402,192,108300,1,0,0:0:0:0:s_055.ogg
36,192,108400,1,0,0:0:0:0:s_042.ogg
109,192,108400,1,0,0:0:0:0:s_038.ogg
256,192,108400,1,0,0:0:0:0:s_055.ogg
329,192,108400,1,0,0:0:0:0:s_014.ogg
475,192,108400,1,0,0:0:0:0:s_045.ogg
182,192,108500,1,0,0:0:0:0:s_050.ogg
402,192,108500,1,0,0:0:0:0:s_069.ogg
36,192,108600,1,0,0:0:0:0:s_050.ogg
329,192,108600,1,0,0:0:0:0:s_069.ogg
109,192,108700,1,0,0:0:0:0:s_050.ogg
475,192,108700,1,0,0:0:0:0:s_069.ogg
36,192,108800,1,0,0:0:0:0:s_059.ogg
182,192,108800,1,0,0:0:0:0:s_069.ogg
256,192,108800,1,0,0:0:0:0:s_057.ogg
329,192,108800,1,0,0:0:0:0:s_047.ogg
402,192,108800,1,0,0:0:0:0:s_043.ogg
109,192,108900,1,0,0:0:0:0:s_059.ogg
475,192,108900,1,0,0:0:0:0:s_071.ogg
182,192,109000,1,0,0:0:0:0:s_059.ogg
329,192,109000,1,0,0:0:0:0:s_071.ogg
36,192,109100,1,0,0:0:0:0:s_059.ogg
256,192,109100,1,0,0:0:0:0:s_071.ogg
109,192,109200,1,0,0:0:0:0:s_011.ogg
182,192,109200,1,0,0:0:0:0:s_066.ogg
329,192,109200,1,0,0:0:0:0:s_035.ogg
402,192,109200,1,0,0:0:0:0:s_045.ogg
475,192,109200,1,0,0:0:0:0:s_051.ogg
36,192,109300,1,0,0:0:0:0:s_051.ogg
256,192,109300,1,0,0:0:0:0:s_066.ogg
182,192,109400,1,0,0:0:0:0:s_051.ogg
475,192,109400,1,0,0:0:0:0:s_066.ogg
109,192,109500,1,0,0:0:0:0:s_051.ogg
329,192,109500,1,0,0:0:0:0:s_066.ogg
36,192,109600,1,0,0:0:0:0:s_016.ogg
182,192,109600,1,0,0:0:0:0:s_047.ogg
256,192,109600,1,0,0:0:0:0:s_052.ogg
402,192,109600,1,0,0:0:0:0:s_054.ogg
475,192,109600,1,0,0:0:0:0:s_043.ogg
109,192,109700,1,0,0:0:0:0:s_055.ogg
329,192,109700,1,0,0:0:0:0:s_067.ogg
36,192,109800,1,0,0:0:0:0:s_055.ogg
475,192,109800,1,0,0:0:0:0:s_067.ogg
182,192,109900,1,0,0:0:0:0:s_055.ogg
402,192,109900,1,0,0:0:0:0:s_067.ogg
36,192,110000,1,0,0:0:0:0:s_055.ogg
109,192,110000,1,0,0:0:0:0:s_014.ogg
256,192,110000,1,0,0:0:0:0:s_045.ogg
329,192,110000,1,0,0:0:0:0:s_054.ogg
475,192,110000,1,0,0:0:0:0:s_042.ogg
182,192,110100,1,0,0:0:0:0:s_050.ogg
402,192,110100,1,0,0:0:0:0:s_069.ogg
36,192,110200,1,0,0:0:0:0:s_050.ogg
256,192,110200,1,0,0:0:0:0:s_069.ogg
182,192,110300,1,0,0:0:0:0:s_050.ogg
402,192,110300,1,0,0:0:0:0:s_069.ogg
109,192,110400,1,0,0:0:0:0:m_058.ogg
256,192,110400,1,0,0:0:0:0:m_070.ogg
329,192,110400,1,0,0:0:0:0:m_063.ogg
475,192,110400,1,0,0:0:0:0:m_019.ogg
36,192,110500,1,0,0:0:0:0:s_039.ogg
256,192,110500,1,0,0:0:0:0:s_043.ogg
329,192,110500,1,0,0:0:0:0:s_070.ogg
475,192,110500,1,0,0:0:0:0:s_058.ogg
109,192,110600,1,0,0:0:0:0:s_019.ogg
256,192,110600,1,0,0:0:0:0:s_058.ogg
329,192,110600,1,0,0:0:0:0:s_043.ogg
475,192,110600,1,0,0:0:0:0:s_070.ogg
36,192,110700,1,0,0:0:0:0:s_039.ogg
256,192,110700,1,0,0:0:0:0:s_043.ogg
329,192,110700,1,0,0:0:0:0:s_070.ogg
475,192,110700,1,0,0:0:0:0:s_058.ogg
109,192,110800,1,0,0:0:0:0:s_019.ogg
256,192,110800,1,0,0:0:0:0:s_058.ogg
329,192,110800,1,0,0:0:0:0:s_043.ogg
475,192,110800,1,0,0:0:0:0:s_070.ogg
36,192,110900,1,0,0:0:0:0:s_039.ogg
256,192,110900,1,0,0:0:0:0:s_043.ogg
329,192,110900,1,0,0:0:0:0:s_070.ogg
475,192,110900,1,0,0:0:0:0:s_058.ogg
109,192,111000,1,0,0:0:0:0:s_019.ogg
256,192,111000,1,0,0:0:0:0:s_058.ogg
329,192,111000,1,0,0:0:0:0:s_043.ogg
475,192,111000,1,0,0:0:0:0:s_070.ogg
36,192,111100,1,0,0:0:0:0:s_039.ogg
256,192,111100,1,0,0:0:0:0:s_043.ogg
329,192,111100,1,0,0:0:0:0:s_070.ogg
475,192,111100,1,0,0:0:0:0:s_058.ogg
109,192,111200,1,0,0:0:0:0:s_019.ogg
256,192,111200,1,0,0:0:0:0:s_058.ogg
329,192,111200,1,0,0:0:0:0:s_043.ogg
475,192,111200,1,0,0:0:0:0:s_070.ogg
182,192,111400,1,0,0:0:0:0:s_055.ogg
402,192,111400,1,0,0:0:0:0:s_079.ogg
182,192,111500,1,0,0:0:0:0:s_079.ogg
402,192,111500,1,0,0:0:0:0:s_067.ogg
36,192,111600,1,0,0:0:0:0:s_075.ogg
256,192,111600,1,0,0:0:0:0:s_051.ogg
36,192,111700,1,0,0:0:0:0:s_063.ogg
256,192,111700,1,0,0:0:0:0:s_051.ogg
109,192,111800,1,0,0:0:0:0:s_055.ogg
329,192,111800,1,0,0:0:0:0:s_079.ogg
109,192,111900,1,0,0:0:0:0:s_055.ogg
329,192,111900,1,0,0:0:0:0:s_067.ogg
36,192,112000,1,0,0:0:0:0:m_071.ogg
182,192,112000,1,0,0:0:0:0:m_038.ogg
256,192,112000,1,0,0:0:0:0:m_055.ogg
402,192,112000,1,0,0:0:0:0:m_062.ogg
36,192,112100,1,0,0:0:0:0:s_038.ogg
182,192,112100,1,0,0:0:0:0:s_043.ogg
256,192,112100,1,0,0:0:0:0:s_071.ogg
475,192,112100,1,0,0:0:0:0:s_059.ogg
36,192,112200,1,0,0:0:0:0:s_019.ogg
182,192,112200,1,0,0:0:0:0:s_059.ogg
256,192,112200,1,0,0:0:0:0:s_043.ogg
402,192,112200,1,0,0:0:0:0:s_071.ogg
36,192,112300,1,0,0:0:0:0:s_038.ogg
182,192,112300,1,0,0:0:0:0:s_043.ogg
256,192,112300,1,0,0:0:0:0:s_071.ogg
475,192,112300,1,0,0:0:0:0:s_059.ogg
36,192,112400,1,0,0:0:0:0:s_019.ogg
182,192,112400,1,0,0:0:0:0:s_059.ogg
256,192,112400,1,0,0:0:0:0:s_043.ogg
402,192,112400,1,0,0:0:0:0:s_071.ogg
36,192,112500,1,0,0:0:0:0:s_038.ogg
182,192,112500,1,0,0:0:0:0:s_043.ogg
256,192,112500,1,0,0:0:0:0:s_071.ogg
475,192,112500,1,0,0:0:0:0:s_059.ogg
36,192,112600,1,0,0:0:0:0:s_019.ogg
182,192,112600,1,0,0:0:0:0:s_059.ogg
256,192,112600,1,0,0:0:0:0:s_043.ogg
402,192,112600,1,0,0:0:0:0:s_071.ogg
36,192,112700,1,0,0:0:0:0:s_038.ogg
182,192,112700,1,0,0:0:0:0:s_043.ogg
256,192,112700,1,0,0:0:0:0:s_071.ogg
475,192,112700,1,0,0:0:0:0:s_059.ogg
36,192,112800,1,0,0:0:0:0:s_019.ogg
182,192,112800,1,0,0:0:0:0:s_059.ogg
256,192,112800,1,0,0:0:0:0:s_043.ogg
402,192,112800,1,0,0:0:0:0:s_071.ogg
109,192,113000,1,0,0:0:0:0:s_079.ogg
329,192,113000,1,0,0:0:0:0:s_055.ogg
109,192,113100,1,0,0:0:0:0:s_055.ogg
329,192,113100,1,0,0:0:0:0:s_079.ogg
36,192,113200,1,0,0:0:0:0:s_074.ogg
182,192,113200,1,0,0:0:0:0:s_050.ogg
36,192,113300,1,0,0:0:0:0:s_062.ogg
182,192,113300,1,0,0:0:0:0:s_050.ogg
256,192,113400,1,0,0:0:0:0:s_079.ogg
329,192,113400,1,0,0:0:0:0:s_055.ogg
256,192,113500,1,0,0:0:0:0:s_067.ogg
329,192,113500,1,0,0:0:0:0:s_055.ogg
109,192,113600,1,0,0:0:0:0:m_059.ogg
36,192,113600,1,0,0:0:0:0:m_083.ogg
402,192,113600,1,0,0:0:0:0:m_050.ogg
475,192,113600,1,0,0:0:0:0:m_044.ogg
256,192,113700,1,0,0:0:0:0:s_040.ogg
182,192,113700,1,0,0:0:0:0:s_044.ogg
402,192,113700,1,0,0:0:0:0:s_071.ogg
475,192,113700,1,0,0:0:0:0:s_059.ogg
109,192,113800,1,0,0:0:0:0:s_016.ogg
36,192,113800,1,0,0:0:0:0:s_059.ogg
402,192,113800,1,0,0:0:0:0:s_044.ogg
475,192,113800,1,0,0:0:0:0:s_071.ogg
256,192,113900,1,0,0:0:0:0:s_040.ogg
182,192,113900,1,0,0:0:0:0:s_044.ogg
402,192,113900,1,0,0:0:0:0:s_071.ogg
475,192,113900,1,0,0:0:0:0:s_059.ogg
109,192,114000,1,0,0:0:0:0:s_016.ogg
36,192,114000,1,0,0:0:0:0:s_059.ogg
402,192,114000,1,0,0:0:0:0:s_044.ogg
475,192,114000,1,0,0:0:0:0:s_071.ogg
256,192,114100,1,0,0:0:0:0:s_040.ogg
182,192,114100,1,0,0:0:0:0:s_044.ogg
402,192,114100,1,0,0:0:0:0:s_071.ogg
475,192,114100,1,0,0:0:0:0:s_059.ogg
109,192,114200,1,0,0:0:0:0:s_016.ogg
36,192,114200,1,0,0:0:0:0:s_059.ogg
402,192,114200,1,0,0:0:0:0:s_044.ogg
475,192,114200,1,0,0:0:0:0:s_071.ogg
256,192,114300,1,0,0:0:0:0:s_040.ogg
182,192,114300,1,0,0:0:0:0:s_044.ogg
402,192,114300,1,0,0:0:0:0:s_071.ogg
475,192,114300,1,0,0:0:0:0:s_059.ogg
109,192,114400,1,0,0:0:0:0:s_016.ogg
36,192,114400,1,0,0:0:0:0:s_059.ogg
402,192,114400,1,0,0:0:0:0:s_044.ogg
475,192,114400,1,0,0:0:0:0:s_071.ogg
256,192,114600,1,0,0:0:0:0:s_080.ogg
329,192,114600,1,0,0:0:0:0:s_056.ogg
256,192,114700,1,0,0:0:0:0:s_068.ogg
329,192,114700,1,0,0:0:0:0:s_080.ogg
36,192,114800,1,0,0:0:0:0:s_052.ogg
109,192,114800,1,0,0:0:0:0:s_076.ogg
36,192,114900,1,0,0:0:0:0:s_052.ogg
109,192,114900,1,0,0:0:0:0:s_064.ogg
256,192,115000,1,0,0:0:0:0:s_080.ogg
182,192,115000,1,0,0:0:0:0:s_056.ogg
256,192,115100,1,0,0:0:0:0:s_056.ogg
182,192,115100,1,0,0:0:0:0:s_068.ogg
36,192,115200,1,0,0:0:0:0:m_043.ogg
109,192,115200,1,0,0:0:0:0:m_055.ogg
402,192,115200,1,0,0:0:0:0:m_031.ogg
475,192,115200,1,0,0:0:0:0:m_039.ogg
36,192,115300,1,0,0:0:0:0:s_055.ogg
109,192,115300,1,0,0:0:0:0:s_046.ogg
256,192,115300,1,0,0:0:0:0:s_073.ogg
329,192,115300,1,0,0:0:0:0:s_061.ogg
36,192,115400,1,0,0:0:0:0:s_015.ogg
109,192,115400,1,0,0:0:0:0:s_073.ogg
402,192,115400,1,0,0:0:0:0:s_061.ogg
475,192,115400,1,0,0:0:0:0:s_046.ogg
36,192,115500,1,0,0:0:0:0:s_055.ogg
109,192,115500,1,0,0:0:0:0:s_046.ogg
256,192,115500,1,0,0:0:0:0:s_073.ogg
329,192,115500,1,0,0:0:0:0:s_061.ogg
36,192,115600,1,0,0:0:0:0:s_015.ogg
109,192,115600,1,0,0:0:0:0:s_073.ogg
402,192,115600,1,0,0:0:0:0:s_061.ogg
475,192,115600,1,0,0:0:0:0:s_046.ogg
36,192,115700,1,0,0:0:0:0:s_055.ogg
109,192,115700,1,0,0:0:0:0:s_046.ogg
256,192,115700,1,0,0:0:0:0:s_073.ogg
329,192,115700,1,0,0:0:0:0:s_061.ogg
36,192,115800,1,0,0:0:0:0:s_015.ogg
109,192,115800,1,0,0:0:0:0:s_073.ogg
402,192,115800,1,0,0:0:0:0:s_061.ogg
475,192,115800,1,0,0:0:0:0:s_046.ogg
36,192,115900,1,0,0:0:0:0:s_055.ogg
109,192,115900,1,0,0:0:0:0:s_046.ogg
256,192,115900,1,0,0:0:0:0:s_073.ogg
329,192,115900,1,0,0:0:0:0:s_061.ogg
36,192,116000,1,0,0:0:0:0:s_015.ogg
109,192,116000,1,0,0:0:0:0:s_073.ogg
402,192,116000,1,0,0:0:0:0:s_061.ogg
475,192,116000,1,0,0:0:0:0:s_046.ogg
182,192,116200,1,0,0:0:0:0:s_082.ogg
256,192,116200,1,0,0:0:0:0:s_046.ogg
182,192,116300,1,0,0:0:0:0:s_046.ogg
256,192,116300,1,0,0:0:0:0:s_082.ogg
36,192,116400,1,0,0:0:0:0:s_043.ogg
109,192,116400,1,0,0:0:0:0:s_079.ogg
36,192,116500,1,0,0:0:0:0:s_055.ogg
109,192,116500,1,0,0:0:0:0:s_067.ogg
256,192,116600,1,0,0:0:0:0:s_046.ogg
329,192,116600,1,0,0:0:0:0:s_082.ogg
256,192,116700,1,0,0:0:0:0:s_058.ogg
329,192,116700,1,0,0:0:0:0:s_070.ogg
109,192,116800,1,0,0:0:0:0:s_014.ogg
182,192,116800,1,0,0:0:0:0:s_086.ogg
402,192,116800,1,0,0:0:0:0:s_074.ogg
475,192,116800,1,0,0:0:0:0:m_043.ogg
36,192,116900,1,0,0:0:0:0:s_055.ogg
182,192,116900,1,0,0:0:0:0:s_074.ogg
402,192,116900,1,0,0:0:0:0:s_062.ogg
109,192,117000,1,0,0:0:0:0:s_014.ogg
256,192,117000,1,0,0:0:0:0:s_085.ogg
329,192,117000,1,0,0:0:0:0:s_026.ogg
475,192,117000,1,0,0:0:0:0:s_038.ogg
109,192,117100,1,0,0:0:0:0:s_055.ogg
329,192,117100,1,0,0:0:0:0:s_073.ogg
402,192,117100,1,0,0:0:0:0:s_061.ogg
36,192,117200,1,0,0:0:0:0:s_014.ogg
182,192,117200,1,0,0:0:0:0:s_060.ogg
256,192,117200,1,0,0:0:0:0:s_026.ogg
475,192,117200,1,0,0:0:0:0:s_038.ogg
36,192,117300,1,0,0:0:0:0:s_055.ogg
256,192,117300,1,0,0:0:0:0:s_072.ogg
402,192,117300,1,0,0:0:0:0:s_060.ogg
109,192,117400,1,0,0:0:0:0:s_059.ogg
182,192,117400,1,0,0:0:0:0:s_026.ogg
329,192,117400,1,0,0:0:0:0:s_038.ogg
475,192,117400,1,0,0:0:0:0:s_014.ogg
182,192,117500,1,0,0:0:0:0:s_071.ogg
256,192,117500,1,0,0:0:0:0:s_059.ogg
475,192,117500,1,0,0:0:0:0:s_055.ogg
36,192,117600,1,0,0:0:0:0:s_057.ogg
109,192,117600,1,0,0:0:0:0:s_014.ogg
329,192,117600,1,0,0:0:0:0:s_038.ogg
402,192,117600,1,0,0:0:0:0:s_081.ogg
109,192,117700,1,0,0:0:0:0:s_055.ogg
256,192,117700,1,0,0:0:0:0:s_069.ogg
402,192,117700,1,0,0:0:0:0:s_057.ogg
36,192,117800,1,0,0:0:0:0:s_014.ogg
182,192,117800,1,0,0:0:0:0:s_026.ogg
329,192,117800,1,0,0:0:0:0:s_038.ogg
475,192,117800,1,0,0:0:0:0:s_047.ogg
36,192,117900,1,0,0:0:0:0:s_055.ogg
109,192,117900,1,0,0:0:0:0:s_067.ogg
329,192,117900,1,0,0:0:0:0:s_047.ogg
182,192,118000,1,0,0:0:0:0:s_026.ogg
256,192,118000,1,0,0:0:0:0:s_038.ogg
402,192,118000,1,0,0:0:0:0:s_054.ogg
475,192,118000,1,0,0:0:0:0:s_014.ogg
109,192,118100,1,0,0:0:0:0:s_066.ogg
256,192,118100,1,0,0:0:0:0:s_054.ogg
475,192,118100,1,0,0:0:0:0:s_055.ogg
36,192,118200,1,0,0:0:0:0:s_026.ogg
182,192,118200,1,0,0:0:0:0:s_038.ogg
329,192,118200,1,0,0:0:0:0:s_052.ogg
402,192,118200,1,0,0:0:0:0:s_014.ogg
475,192,118300,1,0,0:0:0:0:s_064.ogg
182,192,118300,1,0,0:0:0:0:s_052.ogg
402,192,118300,1,0,0:0:0:0:s_055.ogg
109,192,118400,1,0,0:0:0:0:s_042.ogg
256,192,118400,1,0,0:0:0:0:s_062.ogg
329,192,118400,1,0,0:0:0:0:s_086.ogg
36,192,118400,1,0,0:0:0:0:s_014.ogg
109,192,118500,1,0,0:0:0:0:s_062.ogg
329,192,118500,1,0,0:0:0:0:s_042.ogg
475,192,118500,1,0,0:0:0:0:s_050.ogg
36,192,118600,1,0,0:0:0:0:s_026.ogg
182,192,118600,1,0,0:0:0:0:s_014.ogg
256,192,118600,1,0,0:0:0:0:s_038.ogg
402,192,118600,1,0,0:0:0:0:s_049.ogg
36,192,118700,1,0,0:0:0:0:s_061.ogg
329,192,118700,1,0,0:0:0:0:s_050.ogg
256,192,118700,1,0,0:0:0:0:s_049.ogg
182,192,118800,1,0,0:0:0:0:s_048.ogg
109,192,118800,1,0,0:0:0:0:s_026.ogg
402,192,118800,1,0,0:0:0:0:s_038.ogg
475,192,118800,1,0,0:0:0:0:s_014.ogg
182,192,118900,1,0,0:0:0:0:s_060.ogg
329,192,118900,1,0,0:0:0:0:s_048.ogg
475,192,118900,1,0,0:0:0:0:s_050.ogg
36,192,119000,1,0,0:0:0:0:s_026.ogg
109,192,119000,1,0,0:0:0:0:s_047.ogg
256,192,119000,1,0,0:0:0:0:s_038.ogg
402,192,119000,1,0,0:0:0:0:s_014.ogg
182,192,119100,1,0,0:0:0:0:s_059.ogg
109,192,119100,1,0,0:0:0:0:s_047.ogg
402,192,119100,1,0,0:0:0:0:s_050.ogg
36,192,119200,1,0,0:0:0:0:s_038.ogg
329,192,119200,1,0,0:0:0:0:s_081.ogg
256,192,119200,1,0,0:0:0:0:s_042.ogg
475,192,119200,1,0,0:0:0:0:s_014.ogg
36,192,119300,1,0,0:0:0:0:s_057.ogg
329,192,119300,1,0,0:0:0:0:s_045.ogg
182,192,119300,1,0,0:0:0:0:s_050.ogg
109,192,119400,1,0,0:0:0:0:s_026.ogg
475,192,119400,1,0,0:0:0:0:s_038.ogg
256,192,119400,1,0,0:0:0:0:s_043.ogg
402,192,119400,1,0,0:0:0:0:s_014.ogg
36,192,119500,1,0,0:0:0:0:s_055.ogg
256,192,119500,1,0,0:0:0:0:s_043.ogg
475,192,119500,1,0,0:0:0:0:s_050.ogg
109,192,119600,1,0,0:0:0:0:s_038.ogg
182,192,119600,1,0,0:0:0:0:s_026.ogg
402,192,119600,1,0,0:0:0:0:s_014.ogg
329,192,119600,1,0,0:0:0:0:s_042.ogg
36,192,119700,1,0,0:0:0:0:s_042.ogg
182,192,119700,1,0,0:0:0:0:s_054.ogg
402,192,119700,1,0,0:0:0:0:s_050.ogg
109,192,119800,1,0,0:0:0:0:s_045.ogg
329,192,119800,1,0,0:0:0:0:s_026.ogg
256,192,119800,1,0,0:0:0:0:s_038.ogg
475,192,119800,1,0,0:0:0:0:s_014.ogg
36,192,119900,1,0,0:0:0:0:s_057.ogg
256,192,119900,1,0,0:0:0:0:s_045.ogg
475,192,119900,1,0,0:0:0:0:s_050.ogg
109,192,120000,1,0,0:0:0:0:m_038.ogg
182,192,120000,1,0,0:0:0:0:m_059.ogg
329,192,120000,1,0,0:0:0:0:m_035.ogg
402,192,120000,1,0,0:0:0:0:m_047.ogg
36,192,120100,1,0,0:0:0:0:s_054.ogg
256,192,120100,1,0,0:0:0:0:s_078.ogg
475,192,120100,1,0,0:0:0:0:s_043.ogg
109,192,120200,1,0,0:0:0:0:s_067.ogg
182,192,120200,1,0,0:0:0:0:s_055.ogg
329,192,120200,1,0,0:0:0:0:s_079.ogg
402,192,120200,1,0,0:0:0:0:s_043.ogg
36,192,120300,1,0,0:0:0:0:s_078.ogg
256,192,120300,1,0,0:0:0:0:s_054.ogg
475,192,120300,1,0,0:0:0:0:s_043.ogg
109,192,120400,1,0,0:0:0:0:s_047.ogg
182,192,120400,1,0,0:0:0:0:s_067.ogg
329,192,120400,1,0,0:0:0:0:s_055.ogg
402,192,120400,1,0,0:0:0:0:s_043.ogg
36,192,120600,1,0,0:0:0:0:s_050.ogg
256,192,120600,1,0,0:0:0:0:s_074.ogg
475,192,120600,1,0,0:0:0:0:s_038.ogg
36,192,120700,1,0,0:0:0:0:s_050.ogg
256,192,120700,1,0,0:0:0:0:s_074.ogg
475,192,120700,1,0,0:0:0:0:s_038.ogg
36,192,120800,1,0,0:0:0:0:s_050.ogg
256,192,120800,1,0,0:0:0:0:s_074.ogg
475,192,120800,1,0,0:0:0:0:s_038.ogg
36,192,121000,1,0,0:0:0:0:s_050.ogg
256,192,121000,1,0,0:0:0:0:s_074.ogg
475,192,121000,1,0,0:0:0:0:s_038.ogg
36,192,121100,1,0,0:0:0:0:s_050.ogg
256,192,121100,1,0,0:0:0:0:s_074.ogg
475,192,121100,1,0,0:0:0:0:s_038.ogg
36,192,121200,1,0,0:0:0:0:s_050.ogg
256,192,121200,1,0,0:0:0:0:s_074.ogg
475,192,121200,1,0,0:0:0:0:s_038.ogg
36,192,121400,1,0,0:0:0:0:s_050.ogg
256,192,121400,1,0,0:0:0:0:s_074.ogg
475,192,121400,1,0,0:0:0:0:s_038.ogg
36,192,121500,1,0,0:0:0:0:s_050.ogg
256,192,121500,1,0,0:0:0:0:s_074.ogg
475,192,121500,1,0,0:0:0:0:s_038.ogg
109,192,121600,1,0,0:0:0:0:s_067.ogg
182,192,121600,1,0,0:0:0:0:s_055.ogg
402,192,121600,1,0,0:0:0:0:s_079.ogg
109,192,121800,1,0,0:0:0:0:s_069.ogg
256,192,121800,1,0,0:0:0:0:s_057.ogg
402,192,121800,1,0,0:0:0:0:s_081.ogg
109,192,122000,1,0,0:0:0:0:s_071.ogg
329,192,122000,1,0,0:0:0:0:s_059.ogg
402,192,122000,1,0,0:0:0:0:s_083.ogg
36,192,122200,1,0,0:0:0:0:s_038.ogg
182,192,122200,1,0,0:0:0:0:s_074.ogg
256,192,122200,1,0,0:0:0:0:s_062.ogg
36,192,122300,1,0,0:0:0:0:s_038.ogg
182,192,122300,1,0,0:0:0:0:s_074.ogg
256,192,122300,1,0,0:0:0:0:s_062.ogg
36,192,122400,1,0,0:0:0:0:s_038.ogg
182,192,122400,1,0,0:0:0:0:s_074.ogg
256,192,122400,1,0,0:0:0:0:s_062.ogg
256,192,122600,1,0,0:0:0:0:s_038.ogg
329,192,122600,1,0,0:0:0:0:s_074.ogg
475,192,122600,1,0,0:0:0:0:s_062.ogg
256,192,122700,1,0,0:0:0:0:s_038.ogg
329,192,122700,1,0,0:0:0:0:s_074.ogg
475,192,122700,1,0,0:0:0:0:s_062.ogg
256,192,122800,1,0,0:0:0:0:s_038.ogg
329,192,122800,1,0,0:0:0:0:s_074.ogg
475,192,122800,1,0,0:0:0:0:s_062.ogg
402,192,123000,1,0,0:0:0:0:s_038.ogg
109,192,123000,1,0,0:0:0:0:s_074.ogg
256,192,123000,1,0,0:0:0:0:s_062.ogg
402,192,123100,1,0,0:0:0:0:s_038.ogg
109,192,123100,1,0,0:0:0:0:s_074.ogg
256,192,123100,1,0,0:0:0:0:s_062.ogg
36,192,123200,1,0,0:0:0:0:s_047.ogg
182,192,123200,1,0,0:0:0:0:s_059.ogg
329,192,123200,1,0,0:0:0:0:s_071.ogg
109,192,123400,1,0,0:0:0:0:s_048.ogg
256,192,123400,1,0,0:0:0:0:s_060.ogg
329,192,123400,1,0,0:0:0:0:s_072.ogg
402,192,123600,1,0,0:0:0:0:s_050.ogg
182,192,123600,1,0,0:0:0:0:s_062.ogg
329,192,123600,1,0,0:0:0:0:s_074.ogg
109,192,124000,1,0,0:0:0:0:s_079.ogg
256,192,124000,1,0,0:0:0:0:s_067.ogg
329,192,124000,1,0,0:0:0:0:s_043.ogg
182,192,124200,1,0,0:0:0:0:s_081.ogg
256,192,124200,1,0,0:0:0:0:s_069.ogg
402,192,124200,1,0,0:0:0:0:s_045.ogg
329,192,124400,1,0,0:0:0:0:s_083.ogg
256,192,124400,1,0,0:0:0:0:s_071.ogg
475,192,124400,1,0,0:0:0:0:s_047.ogg
36,192,124800,1,0,0:0:0:0:s_059.ogg
182,192,124800,1,0,0:0:0:0:s_047.ogg
256,192,124800,1,0,0:0:0:0:s_035.ogg
109,192,125000,1,0,0:0:0:0:s_060.ogg
182,192,125000,1,0,0:0:0:0:s_048.ogg
329,192,125000,1,0,0:0:0:0:s_036.ogg
256,192,125200,1,0,0:0:0:0:s_062.ogg
182,192,125200,1,0,0:0:0:0:s_050.ogg
402,192,125200,1,0,0:0:0:0:s_038.ogg
109,192,126400,1,0,0:0:0:0:s_014.ogg
256,192,126400,1,0,0:0:0:0:m_078.ogg
475,192,126400,128,0,127900:0:0:0:0:m_026.ogg
36,192,126400,128,0,127900:0:0:0:0:m_048.ogg
182,192,126500,1,0,0:0:0:0:s_039.ogg
329,192,126500,1,0,0:0:0:0:s_051.ogg
256,192,126600,1,0,0:0:0:0:s_014.ogg
402,192,126600,1,0,0:0:0:0:s_052.ogg
109,192,126700,1,0,0:0:0:0:s_053.ogg
329,192,126700,1,0,0:0:0:0:s_041.ogg
182,192,126800,1,0,0:0:0:0:s_054.ogg
402,192,126800,1,0,0:0:0:0:s_014.ogg
109,192,126900,1,0,0:0:0:0:s_043.ogg
256,192,126900,1,0,0:0:0:0:s_055.ogg
182,192,127000,1,0,0:0:0:0:s_014.ogg
329,192,127000,1,0,0:0:0:0:s_056.ogg
256,192,127100,1,0,0:0:0:0:s_045.ogg
402,192,127100,1,0,0:0:0:0:s_057.ogg
109,192,127200,1,0,0:0:0:0:s_058.ogg
329,192,127200,1,0,0:0:0:0:s_014.ogg
182,192,127300,1,0,0:0:0:0:s_059.ogg
402,192,127300,1,0,0:0:0:0:s_047.ogg
109,192,127400,1,0,0:0:0:0:s_014.ogg
256,192,127400,1,0,0:0:0:0:s_060.ogg
182,192,127500,1,0,0:0:0:0:s_049.ogg
329,192,127500,1,0,0:0:0:0:s_061.ogg
256,192,127600,1,0,0:0:0:0:s_062.ogg
402,192,127600,1,0,0:0:0:0:s_014.ogg
109,192,127700,1,0,0:0:0:0:s_051.ogg
329,192,127700,1,0,0:0:0:0:s_063.ogg
182,192,127800,1,0,0:0:0:0:s_014.ogg
402,192,127800,1,0,0:0:0:0:s_064.ogg
109,192,127900,1,0,0:0:0:0:s_066.ogg
256,192,127900,1,0,0:0:0:0:s_054.ogg
109,192,128000,1,0,0:0:0:0:s_038.ogg
182,192,128000,1,0,0:0:0:0:s_055.ogg
329,192,128000,1,0,0:0:0:0:s_031.ogg
402,192,128000,1,0,0:0:0:0:s_019.ogg
36,192,128100,1,0,0:0:0:0:s_054.ogg
256,192,128100,1,0,0:0:0:0:s_043.ogg
402,192,128100,1,0,0:0:0:0:s_047.ogg
109,192,128200,1,0,0:0:0:0:s_054.ogg
182,192,128200,1,0,0:0:0:0:s_038.ogg
329,192,128200,1,0,0:0:0:0:s_014.ogg
475,192,128200,1,0,0:0:0:0:s_026.ogg
36,192,128300,1,0,0:0:0:0:s_054.ogg
256,192,128300,1,0,0:0:0:0:s_048.ogg
475,192,128300,1,0,0:0:0:0:s_045.ogg
109,192,128400,1,0,0:0:0:0:s_038.ogg
182,192,128400,1,0,0:0:0:0:s_055.ogg
329,192,128400,1,0,0:0:0:0:s_031.ogg
402,192,128400,1,0,0:0:0:0:s_019.ogg
36,192,128500,1,0,0:0:0:0:s_054.ogg
329,192,128500,1,0,0:0:0:0:s_043.ogg
475,192,128500,1,0,0:0:0:0:s_047.ogg
109,192,128600,1,0,0:0:0:0:s_054.ogg
182,192,128600,1,0,0:0:0:0:s_038.ogg
256,192,128600,1,0,0:0:0:0:s_014.ogg
402,192,128600,1,0,0:0:0:0:s_026.ogg
36,192,128700,1,0,0:0:0:0:s_054.ogg
256,192,128700,1,0,0:0:0:0:s_048.ogg
475,192,128700,1,0,0:0:0:0:s_045.ogg
109,192,128800,1,0,0:0:0:0:s_038.ogg
182,192,128800,1,0,0:0:0:0:s_055.ogg
329,192,128800,1,0,0:0:0:0:s_031.ogg
402,192,128800,1,0,0:0:0:0:s_019.ogg
36,192,128900,1,0,0:0:0:0:s_054.ogg
256,192,128900,1,0,0:0:0:0:s_043.ogg
402,192,128900,1,0,0:0:0:0:s_047.ogg
109,192,129000,1,0,0:0:0:0:s_054.ogg
182,192,129000,1,0,0:0:0:0:s_038.ogg
329,192,129000,1,0,0:0:0:0:s_014.ogg
475,192,129000,1,0,0:0:0:0:s_026.ogg
36,192,129100,1,0,0:0:0:0:s_054.ogg
256,192,129100,1,0,0:0:0:0:s_048.ogg
475,192,129100,1,0,0:0:0:0:s_045.ogg
109,192,129200,1,0,0:0:0:0:s_038.ogg
182,192,129200,1,0,0:0:0:0:s_055.ogg
329,192,129200,1,0,0:0:0:0:s_031.ogg
402,192,129200,1,0,0:0:0:0:s_019.ogg
36,192,129300,1,0,0:0:0:0:s_054.ogg
329,192,129300,1,0,0:0:0:0:s_043.ogg
475,192,129300,1,0,0:0:0:0:s_047.ogg
109,192,129400,1,0,0:0:0:0:s_054.ogg
182,192,129400,1,0,0:0:0:0:s_038.ogg
256,192,129400,1,0,0:0:0:0:s_014.ogg
402,192,129400,1,0,0:0:0:0:s_026.ogg
36,192,129500,1,0,0:0:0:0:s_054.ogg
256,192,129500,1,0,0:0:0:0:s_048.ogg
475,192,129500,1,0,0:0:0:0:s_045.ogg
182,192,129600,1,0,0:0:0:0:s_019.ogg
109,192,129600,1,0,0:0:0:0:s_055.ogg
329,192,129600,1,0,0:0:0:0:s_031.ogg
475,192,129600,1,0,0:0:0:0:s_038.ogg
36,192,129700,1,0,0:0:0:0:s_047.ogg
109,192,129700,1,0,0:0:0:0:s_054.ogg
402,192,129700,1,0,0:0:0:0:s_043.ogg
182,192,129800,1,0,0:0:0:0:s_054.ogg
256,192,129800,1,0,0:0:0:0:s_014.ogg
329,192,129800,1,0,0:0:0:0:s_038.ogg
475,192,129800,1,0,0:0:0:0:s_026.ogg
109,192,129900,1,0,0:0:0:0:s_054.ogg
256,192,129900,1,0,0:0:0:0:s_048.ogg
402,192,129900,1,0,0:0:0:0:s_045.ogg
36,192,130000,1,0,0:0:0:0:s_019.ogg
182,192,130000,1,0,0:0:0:0:s_055.ogg
329,192,130000,1,0,0:0:0:0:s_031.ogg
475,192,130000,1,0,0:0:0:0:s_038.ogg
36,192,130100,1,0,0:0:0:0:s_047.ogg
109,192,130100,1,0,0:0:0:0:s_054.ogg
402,192,130100,1,0,0:0:0:0:s_043.ogg
182,192,130200,1,0,0:0:0:0:s_054.ogg
256,192,130200,1,0,0:0:0:0:s_014.ogg
329,192,130200,1,0,0:0:0:0:s_038.ogg
475,192,130200,1,0,0:0:0:0:s_026.ogg
182,192,130300,1,0,0:0:0:0:s_054.ogg
36,192,130300,1,0,0:0:0:0:s_048.ogg
402,192,130300,1,0,0:0:0:0:s_045.ogg
256,192,130400,1,0,0:0:0:0:s_019.ogg
109,192,130400,1,0,0:0:0:0:s_055.ogg
329,192,130400,1,0,0:0:0:0:s_031.ogg
475,192,130400,1,0,0:0:0:0:s_038.ogg
36,192,130500,1,0,0:0:0:0:s_047.ogg
109,192,130500,1,0,0:0:0:0:s_054.ogg
402,192,130500,1,0,0:0:0:0:s_043.ogg
182,192,130600,1,0,0:0:0:0:s_054.ogg
256,192,130600,1,0,0:0:0:0:s_014.ogg
329,192,130600,1,0,0:0:0:0:s_038.ogg
475,192,130600,1,0,0:0:0:0:s_026.ogg
109,192,130700,1,0,0:0:0:0:s_054.ogg
256,192,130700,1,0,0:0:0:0:s_048.ogg
402,192,130700,1,0,0:0:0:0:s_045.ogg
36,192,130800,1,0,0:0:0:0:s_019.ogg
182,192,130800,1,0,0:0:0:0:s_055.ogg
329,192,130800,1,0,0:0:0:0:s_031.ogg
475,192,130800,1,0,0:0:0:0:s_038.ogg
36,192,130900,1,0,0:0:0:0:s_047.ogg
109,192,130900,1,0,0:0:0:0:s_054.ogg
402,192,130900,1,0,0:0:0:0:s_043.ogg
182,192,131000,1,0,0:0:0:0:s_054.ogg
256,192,131000,1,0,0:0:0:0:s_014.ogg
329,192,131000,1,0,0:0:0:0:s_038.ogg
475,192,131000,1,0,0:0:0:0:s_026.ogg
182,192,131100,1,0,0:0:0:0:s_054.ogg
36,192,131100,1,0,0:0:0:0:s_048.ogg
402,192,131100,1,0,0:0:0:0:s_045.ogg
109,192,131200,1,0,0:0:0:0:s_067.ogg
256,192,131200,1,0,0:0:0:0:l_043.ogg
329,192,131200,1,0,0:0:0:0:s_047.ogg
475,192,131200,1,0,0:0:0:0:s_079.ogg
109,192,131300,1,0,0:0:0:0:s_055.ogg
256,192,131300,1,0,0:0:0:0:s_043.ogg
329,192,131300,1,0,0:0:0:0:s_050.ogg
475,192,131300,1,0,0:0:0:0:s_047.ogg
109,192,131400,1,0,0:0:0:0:s_079.ogg
256,192,131400,1,0,0:0:0:0:m_055.ogg
329,192,131400,1,0,0:0:0:0:s_019.ogg
475,192,131400,1,0,0:0:0:0:s_067.ogg
109,192,131500,1,0,0:0:0:0:s_067.ogg
256,192,131500,1,0,0:0:0:0:s_043.ogg
329,192,131500,1,0,0:0:0:0:s_050.ogg
475,192,131500,1,0,0:0:0:0:s_055.ogg
109,192,131600,1,0,0:0:0:0:s_079.ogg
256,192,131600,1,0,0:0:0:0:s_067.ogg
329,192,131600,1,0,0:0:0:0:s_019.ogg
475,192,131600,1,0,0:0:0:0:s_047.ogg
109,192,131700,1,0,0:0:0:0:s_067.ogg
256,192,131700,1,0,0:0:0:0:s_047.ogg
329,192,131700,1,0,0:0:0:0:s_050.ogg
475,192,131700,1,0,0:0:0:0:s_055.ogg
109,192,131800,1,0,0:0:0:0:s_079.ogg
256,192,131800,1,0,0:0:0:0:s_067.ogg
329,192,131800,1,0,0:0:0:0:s_019.ogg
475,192,131800,1,0,0:0:0:0:s_047.ogg
109,192,131900,1,0,0:0:0:0:s_067.ogg
256,192,131900,1,0,0:0:0:0:s_047.ogg
329,192,131900,1,0,0:0:0:0:s_050.ogg
475,192,131900,1,0,0:0:0:0:s_055.ogg
109,192,132000,1,0,0:0:0:0:s_079.ogg
256,192,132000,1,0,0:0:0:0:s_067.ogg
329,192,132000,1,0,0:0:0:0:s_019.ogg
475,192,132000,1,0,0:0:0:0:s_047.ogg
109,192,132100,1,0,0:0:0:0:s_055.ogg
256,192,132100,1,0,0:0:0:0:s_043.ogg
329,192,132100,1,0,0:0:0:0:s_050.ogg
475,192,132100,1,0,0:0:0:0:s_047.ogg
36,192,132200,1,0,0:0:0:0:s_062.ogg
182,192,132200,1,0,0:0:0:0:s_019.ogg
256,192,132200,1,0,0:0:0:0:s_074.ogg
402,192,132200,1,0,0:0:0:0:m_055.ogg
36,192,132300,1,0,0:0:0:0:s_055.ogg
182,192,132300,1,0,0:0:0:0:s_050.ogg
256,192,132300,1,0,0:0:0:0:s_062.ogg
402,192,132300,1,0,0:0:0:0:s_074.ogg
36,192,132400,1,0,0:0:0:0:s_047.ogg
182,192,132400,1,0,0:0:0:0:s_019.ogg
256,192,132400,1,0,0:0:0:0:s_074.ogg
402,192,132400,1,0,0:0:0:0:s_055.ogg
36,192,132500,1,0,0:0:0:0:s_055.ogg
182,192,132500,1,0,0:0:0:0:s_050.ogg
256,192,132500,1,0,0:0:0:0:s_062.ogg
402,192,132500,1,0,0:0:0:0:s_047.ogg
36,192,132600,1,0,0:0:0:0:s_047.ogg
182,192,132600,1,0,0:0:0:0:s_019.ogg
256,192,132600,1,0,0:0:0:0:s_074.ogg
402,192,132600,1,0,0:0:0:0:s_055.ogg
36,192,132700,1,0,0:0:0:0:s_055.ogg
182,192,132700,1,0,0:0:0:0:s_050.ogg
256,192,132700,1,0,0:0:0:0:s_062.ogg
402,192,132700,1,0,0:0:0:0:s_047.ogg
36,192,132800,1,0,0:0:0:0:s_047.ogg
182,192,132800,1,0,0:0:0:0:s_019.ogg
256,192,132800,1,0,0:0:0:0:s_074.ogg
402,192,132800,1,0,0:0:0:0:s_055.ogg
36,192,132900,1,0,0:0:0:0:s_047.ogg
182,192,132900,1,0,0:0:0:0:s_050.ogg
256,192,132900,1,0,0:0:0:0:s_055.ogg
402,192,132900,1,0,0:0:0:0:s_043.ogg
109,192,133000,1,0,0:0:0:0:s_019.ogg
182,192,133000,1,0,0:0:0:0:s_059.ogg
329,192,133000,1,0,0:0:0:0:s_071.ogg
475,192,133000,1,0,0:0:0:0:m_055.ogg
109,192,133100,1,0,0:0:0:0:s_050.ogg
182,192,133100,1,0,0:0:0:0:s_055.ogg
329,192,133100,1,0,0:0:0:0:s_059.ogg
475,192,133100,1,0,0:0:0:0:s_043.ogg
109,192,133200,1,0,0:0:0:0:s_019.ogg
182,192,133200,1,0,0:0:0:0:s_047.ogg
329,192,133200,1,0,0:0:0:0:s_071.ogg
475,192,133200,1,0,0:0:0:0:s_059.ogg
109,192,133300,1,0,0:0:0:0:s_050.ogg
182,192,133300,1,0,0:0:0:0:s_055.ogg
329,192,133300,1,0,0:0:0:0:s_059.ogg
475,192,133300,1,0,0:0:0:0:s_047.ogg
109,192,133400,1,0,0:0:0:0:s_019.ogg
182,192,133400,1,0,0:0:0:0:s_047.ogg
329,192,133400,1,0,0:0:0:0:s_071.ogg
475,192,133400,1,0,0:0:0:0:s_059.ogg
109,192,133500,1,0,0:0:0:0:s_050.ogg
182,192,133500,1,0,0:0:0:0:s_055.ogg
329,192,133500,1,0,0:0:0:0:s_059.ogg
475,192,133500,1,0,0:0:0:0:s_047.ogg
109,192,133600,1,0,0:0:0:0:s_019.ogg
182,192,133600,1,0,0:0:0:0:s_047.ogg
329,192,133600,1,0,0:0:0:0:s_071.ogg
475,192,133600,1,0,0:0:0:0:s_059.ogg
109,192,133700,1,0,0:0:0:0:s_050.ogg
182,192,133700,1,0,0:0:0:0:s_047.ogg
329,192,133700,1,0,0:0:0:0:s_055.ogg
475,192,133700,1,0,0:0:0:0:s_043.ogg
36,192,133800,1,0,0:0:0:0:s_019.ogg
109,192,133800,1,0,0:0:0:0:s_043.ogg
256,192,133800,1,0,0:0:0:0:s_067.ogg
402,192,133800,1,0,0:0:0:0:m_050.ogg
36,192,133900,1,0,0:0:0:0:s_050.ogg
109,192,133900,1,0,0:0:0:0:s_055.ogg
256,192,133900,1,0,0:0:0:0:s_067.ogg
402,192,133900,1,0,0:0:0:0:s_047.ogg
36,192,134000,1,0,0:0:0:0:s_019.ogg
109,192,134000,1,0,0:0:0:0:s_047.ogg
256,192,134000,1,0,0:0:0:0:s_067.ogg
402,192,134000,1,0,0:0:0:0:s_050.ogg
36,192,134100,1,0,0:0:0:0:s_050.ogg
109,192,134100,1,0,0:0:0:0:s_055.ogg
256,192,134100,1,0,0:0:0:0:s_047.ogg
402,192,134100,1,0,0:0:0:0:s_043.ogg
36,192,134200,1,0,0:0:0:0:s_019.ogg
109,192,134200,1,0,0:0:0:0:s_047.ogg
256,192,134200,1,0,0:0:0:0:s_067.ogg
402,192,134200,1,0,0:0:0:0:s_050.ogg
36,192,134300,1,0,0:0:0:0:s_050.ogg
109,192,134300,1,0,0:0:0:0:s_055.ogg
256,192,134300,1,0,0:0:0:0:s_047.ogg
402,192,134300,1,0,0:0:0:0:s_043.ogg
36,192,134400,1,0,0:0:0:0:s_019.ogg
109,192,134400,1,0,0:0:0:0:s_038.ogg
256,192,134400,1,0,0:0:0:0:s_067.ogg
402,192,134400,1,0,0:0:0:0:s_055.ogg
36,192,134500,1,0,0:0:0:0:s_043.ogg
109,192,134500,1,0,0:0:0:0:s_038.ogg
256,192,134500,1,0,0:0:0:0:s_047.ogg
402,192,134500,1,0,0:0:0:0:s_031.ogg
36,192,134600,1,0,0:0:0:0:m_031.ogg
182,192,134600,1,0,0:0:0:0:s_079.ogg
329,192,134600,1,0,0:0:0:0:m_038.ogg
475,192,134600,1,0,0:0:0:0:m_050.ogg
36,192,134700,1,0,0:0:0:0:s_067.ogg
182,192,134700,1,0,0:0:0:0:s_047.ogg
329,192,134700,1,0,0:0:0:0:s_055.ogg
475,192,134700,1,0,0:0:0:0:s_079.ogg
36,192,134800,1,0,0:0:0:0:s_079.ogg
182,192,134800,1,0,0:0:0:0:s_038.ogg
329,192,134800,1,0,0:0:0:0:s_047.ogg
475,192,134800,1,0,0:0:0:0:s_067.ogg
36,192,134900,1,0,0:0:0:0:s_055.ogg
182,192,134900,1,0,0:0:0:0:s_047.ogg
329,192,134900,1,0,0:0:0:0:s_043.ogg
475,192,134900,1,0,0:0:0:0:s_038.ogg
36,192,135000,1,0,0:0:0:0:s_079.ogg
182,192,135000,1,0,0:0:0:0:s_038.ogg
329,192,135000,1,0,0:0:0:0:s_047.ogg
475,192,135000,1,0,0:0:0:0:s_067.ogg
36,192,135100,1,0,0:0:0:0:s_055.ogg
182,192,135100,1,0,0:0:0:0:s_047.ogg
329,192,135100,1,0,0:0:0:0:s_043.ogg
475,192,135100,1,0,0:0:0:0:s_038.ogg
36,192,135200,1,0,0:0:0:0:s_079.ogg
182,192,135200,1,0,0:0:0:0:s_038.ogg
329,192,135200,1,0,0:0:0:0:s_047.ogg
475,192,135200,1,0,0:0:0:0:s_067.ogg
36,192,135300,1,0,0:0:0:0:s_047.ogg
182,192,135300,1,0,0:0:0:0:s_038.ogg
329,192,135300,1,0,0:0:0:0:s_043.ogg
475,192,135300,1,0,0:0:0:0:s_031.ogg
109,192,135400,1,0,0:0:0:0:s_062.ogg
256,192,135400,1,0,0:0:0:0:m_026.ogg
402,192,135400,1,0,0:0:0:0:m_050.ogg
475,192,135400,1,0,0:0:0:0:s_043.ogg
109,192,135500,1,0,0:0:0:0:s_047.ogg
256,192,135500,1,0,0:0:0:0:s_050.ogg
402,192,135500,1,0,0:0:0:0:s_074.ogg
475,192,135500,1,0,0:0:0:0:s_043.ogg
109,192,135600,1,0,0:0:0:0:s_038.ogg
256,192,135600,1,0,0:0:0:0:s_047.ogg
402,192,135600,1,0,0:0:0:0:s_062.ogg
475,192,135600,1,0,0:0:0:0:s_026.ogg
109,192,135700,1,0,0:0:0:0:s_047.ogg
256,192,135700,1,0,0:0:0:0:s_050.ogg
402,192,135700,1,0,0:0:0:0:s_038.ogg
475,192,135700,1,0,0:0:0:0:s_043.ogg
109,192,135800,1,0,0:0:0:0:s_038.ogg
256,192,135800,1,0,0:0:0:0:s_047.ogg
402,192,135800,1,0,0:0:0:0:s_062.ogg
475,192,135800,1,0,0:0:0:0:s_026.ogg
109,192,135900,1,0,0:0:0:0:s_047.ogg
256,192,135900,1,0,0:0:0:0:s_038.ogg
402,192,135900,1,0,0:0:0:0:s_031.ogg
475,192,135900,1,0,0:0:0:0:s_043.ogg
109,192,136000,1,0,0:0:0:0:s_038.ogg
256,192,136000,1,0,0:0:0:0:s_047.ogg
402,192,136000,1,0,0:0:0:0:s_062.ogg
475,192,136000,1,0,0:0:0:0:s_026.ogg
109,192,136100,1,0,0:0:0:0:s_038.ogg
256,192,136100,1,0,0:0:0:0:s_047.ogg
402,192,136100,1,0,0:0:0:0:s_031.ogg
475,192,136100,1,0,0:0:0:0:s_043.ogg
36,192,136200,1,0,0:0:0:0:s_059.ogg
182,192,136200,1,0,0:0:0:0:m_023.ogg
329,192,136200,1,0,0:0:0:0:m_038.ogg
402,192,136200,1,0,0:0:0:0:s_071.ogg
36,192,136300,1,0,0:0:0:0:s_047.ogg
182,192,136300,1,0,0:0:0:0:s_071.ogg
329,192,136300,1,0,0:0:0:0:s_031.ogg
402,192,136300,1,0,0:0:0:0:s_059.ogg
36,192,136400,1,0,0:0:0:0:s_038.ogg
182,192,136400,1,0,0:0:0:0:s_047.ogg
329,192,136400,1,0,0:0:0:0:s_059.ogg
402,192,136400,1,0,0:0:0:0:s_071.ogg
36,192,136500,1,0,0:0:0:0:s_047.ogg
182,192,136500,1,0,0:0:0:0:s_043.ogg
329,192,136500,1,0,0:0:0:0:s_031.ogg
402,192,136500,1,0,0:0:0:0:s_038.ogg
36,192,136600,1,0,0:0:0:0:s_038.ogg
182,192,136600,1,0,0:0:0:0:s_047.ogg
329,192,136600,1,0,0:0:0:0:s_059.ogg
402,192,136600,1,0,0:0:0:0:s_071.ogg
36,192,136700,1,0,0:0:0:0:s_047.ogg
182,192,136700,1,0,0:0:0:0:s_043.ogg
329,192,136700,1,0,0:0:0:0:s_031.ogg
402,192,136700,1,0,0:0:0:0:s_038.ogg
36,192,136800,1,0,0:0:0:0:s_038.ogg
182,192,136800,1,0,0:0:0:0:s_047.ogg
329,192,136800,1,0,0:0:0:0:s_059.ogg
402,192,136800,1,0,0:0:0:0:s_071.ogg
36,192,136900,1,0,0:0:0:0:s_038.ogg
182,192,136900,1,0,0:0:0:0:s_043.ogg
329,192,136900,1,0,0:0:0:0:s_031.ogg
402,192,136900,1,0,0:0:0:0:s_047.ogg
109,192,137000,1,0,0:0:0:0:s_067.ogg
256,192,137000,1,0,0:0:0:0:m_038.ogg
329,192,137000,1,0,0:0:0:0:m_031.ogg
475,192,137000,1,0,0:0:0:0:m_050.ogg
109,192,137100,1,0,0:0:0:0:s_047.ogg
256,192,137100,1,0,0:0:0:0:s_067.ogg
329,192,137100,1,0,0:0:0:0:s_055.ogg
475,192,137100,1,0,0:0:0:0:s_031.ogg
109,192,137200,1,0,0:0:0:0:s_038.ogg
256,192,137200,1,0,0:0:0:0:s_047.ogg
329,192,137200,1,0,0:0:0:0:s_067.ogg
475,192,137200,1,0,0:0:0:0:s_055.ogg
109,192,137300,1,0,0:0:0:0:s_047.ogg
256,192,137300,1,0,0:0:0:0:s_031.ogg
329,192,137300,1,0,0:0:0:0:s_038.ogg
475,192,137300,1,0,0:0:0:0:s_043.ogg
109,192,137400,1,0,0:0:0:0:s_038.ogg
256,192,137400,1,0,0:0:0:0:s_047.ogg
329,192,137400,1,0,0:0:0:0:s_067.ogg
475,192,137400,1,0,0:0:0:0:s_055.ogg
109,192,137500,1,0,0:0:0:0:s_047.ogg
256,192,137500,1,0,0:0:0:0:s_031.ogg
329,192,137500,1,0,0:0:0:0:s_038.ogg
475,192,137500,1,0,0:0:0:0:s_043.ogg
109,192,137600,1,0,0:0:0:0:s_038.ogg
256,192,137600,1,0,0:0:0:0:s_047.ogg
329,192,137600,1,0,0:0:0:0:s_067.ogg
475,192,137600,1,0,0:0:0:0:s_055.ogg
36,192,137800,1,0,0:0:0:0:s_038.ogg
182,192,137800,1,0,0:0:0:0:s_026.ogg
36,192,137900,1,0,0:0:0:0:s_038.ogg
329,192,138000,1,0,0:0:0:0:s_043.ogg
475,192,138000,1,0,0:0:0:0:s_031.ogg
329,192,138100,1,0,0:0:0:0:s_043.ogg
109,192,138200,1,0,0:0:0:0:s_038.ogg
256,192,138200,1,0,0:0:0:0:s_026.ogg
109,192,138300,1,0,0:0:0:0:s_038.ogg
329,192,138400,1,0,0:0:0:0:s_035.ogg
402,192,138400,1,0,0:0:0:0:s_047.ogg
402,192,138500,1,0,0:0:0:0:s_047.ogg
36,192,138600,1,0,0:0:0:0:s_031.ogg
182,192,138600,1,0,0:0:0:0:s_043.ogg
182,192,138700,1,0,0:0:0:0:s_043.ogg
402,192,138800,1,0,0:0:0:0:s_038.ogg
475,192,138800,1,0,0:0:0:0:s_050.ogg
475,192,138900,1,0,0:0:0:0:s_050.ogg
109,192,139000,1,0,0:0:0:0:s_035.ogg
256,192,139000,1,0,0:0:0:0:s_047.ogg
256,192,139100,1,0,0:0:0:0:s_047.ogg
182,192,139200,1,0,0:0:0:0:s_055.ogg
329,192,139200,1,0,0:0:0:0:s_043.ogg
36,192,139400,1,0,0:0:0:0:s_014.ogg
109,192,139400,1,0,0:0:0:0:s_026.ogg
256,192,139400,1,0,0:0:0:0:s_050.ogg
402,192,139400,1,0,0:0:0:0:s_062.ogg
475,192,139400,1,0,0:0:0:0:s_038.ogg
36,192,139500,1,0,0:0:0:0:s_038.ogg
109,192,139500,1,0,0:0:0:0:s_050.ogg
182,192,139600,1,0,0:0:0:0:s_055.ogg
256,192,139600,1,0,0:0:0:0:s_019.ogg
329,192,139600,1,0,0:0:0:0:s_031.ogg
402,192,139600,1,0,0:0:0:0:s_043.ogg
475,192,139600,1,0,0:0:0:0:s_067.ogg
256,192,139700,1,0,0:0:0:0:s_043.ogg
329,192,139700,1,0,0:0:0:0:s_055.ogg
36,192,139800,1,0,0:0:0:0:s_062.ogg
109,192,139800,1,0,0:0:0:0:s_014.ogg
182,192,139800,1,0,0:0:0:0:s_026.ogg
402,192,139800,1,0,0:0:0:0:s_038.ogg
475,192,139800,1,0,0:0:0:0:s_050.ogg
109,192,139900,1,0,0:0:0:0:s_038.ogg
182,192,139900,1,0,0:0:0:0:s_050.ogg
36,192,140000,1,0,0:0:0:0:s_059.ogg
256,192,140000,1,0,0:0:0:0:s_071.ogg
329,192,140000,1,0,0:0:0:0:s_023.ogg
402,192,140000,1,0,0:0:0:0:s_035.ogg
475,192,140000,1,0,0:0:0:0:s_047.ogg
329,192,140100,1,0,0:0:0:0:s_047.ogg
402,192,140100,1,0,0:0:0:0:s_059.ogg
36,192,140200,1,0,0:0:0:0:s_055.ogg
109,192,140200,1,0,0:0:0:0:s_067.ogg
182,192,140200,1,0,0:0:0:0:s_019.ogg
256,192,140200,1,0,0:0:0:0:s_031.ogg
475,192,140200,1,0,0:0:0:0:s_043.ogg
182,192,140300,1,0,0:0:0:0:s_043.ogg
256,192,140300,1,0,0:0:0:0:s_055.ogg
36,192,140400,1,0,0:0:0:0:s_062.ogg
109,192,140400,1,0,0:0:0:0:s_074.ogg
329,192,140400,1,0,0:0:0:0:s_050.ogg
402,192,140400,1,0,0:0:0:0:s_026.ogg
475,192,140400,1,0,0:0:0:0:s_038.ogg
402,192,140500,1,0,0:0:0:0:s_050.ogg
475,192,140500,1,0,0:0:0:0:s_062.ogg
36,192,140600,1,0,0:0:0:0:s_047.ogg
109,192,140600,1,0,0:0:0:0:s_059.ogg
182,192,140600,1,0,0:0:0:0:s_071.ogg
256,192,140600,1,0,0:0:0:0:s_023.ogg
329,192,140600,1,0,0:0:0:0:s_035.ogg
256,192,140700,1,0,0:0:0:0:s_047.ogg
329,192,140700,1,0,0:0:0:0:s_059.ogg
36,192,140800,1,0,0:0:0:0:m_031.ogg
109,192,140800,1,0,0:0:0:0:m_043.ogg
182,192,140800,1,0,0:0:0:0:m_067.ogg
402,192,140800,1,0,0:0:0:0:m_055.ogg
475,192,140800,1,0,0:0:0:0:m_079.ogg
36,192,141400,1,0,0:0:0:0:s_062.ogg
109,192,141400,1,0,0:0:0:0:s_079.ogg
182,192,141400,1,0,0:0:0:0:s_067.ogg
256,192,141400,1,0,0:0:0:0:s_055.ogg
329,192,141400,1,0,0:0:0:0:s_043.ogg
402,192,141400,1,0,0:0:0:0:s_059.ogg
36,192,141500,1,0,0:0:0:0:s_062.ogg
109,192,141500,1,0,0:0:0:0:s_079.ogg
182,192,141500,1,0,0:0:0:0:s_067.ogg
256,192,141500,1,0,0:0:0:0:s_055.ogg
329,192,141500,1,0,0:0:0:0:s_043.ogg
402,192,141500,1,0,0:0:0:0:s_059.ogg
36,192,141600,1,0,0:0:0:0:s_043.ogg
109,192,141600,1,0,0:0:0:0:s_062.ogg
182,192,141600,1,0,0:0:0:0:s_050.ogg
256,192,141600,1,0,0:0:0:0:s_079.ogg
329,192,141600,1,0,0:0:0:0:s_047.ogg
402,192,141600,1,0,0:0:0:0:s_038.ogg
36,192,141800,1,0,0:0:0:0:s_062.ogg
109,192,141800,1,0,0:0:0:0:s_079.ogg
182,192,141800,1,0,0:0:0:0:s_050.ogg
329,192,141800,1,0,0:0:0:0:s_047.ogg
402,192,141800,1,0,0:0:0:0:s_067.ogg
475,192,141800,1,0,0:0:0:0:s_026.ogg
36,192,142000,1,0,0:0:0:0:s_035.ogg
109,192,142000,1,0,0:0:0:0:s_062.ogg
182,192,142000,1,0,0:0:0:0:s_059.ogg
256,192,142000,1,0,0:0:0:0:s_079.ogg
329,192,142000,1,0,0:0:0:0:s_047.ogg
402,192,142000,1,0,0:0:0:0:s_038.ogg
36,192,142200,1,0,0:0:0:0:s_062.ogg
109,192,142200,1,0,0:0:0:0:s_079.ogg
182,192,142200,1,0,0:0:0:0:s_050.ogg
329,192,142200,1,0,0:0:0:0:s_047.ogg
402,192,142200,1,0,0:0:0:0:s_067.ogg
475,192,142200,1,0,0:0:0:0:s_026.ogg
36,192,142400,1,0,0:0:0:0:m_031.ogg
109,192,142400,1,0,0:0:0:0:m_062.ogg
182,192,142400,1,0,0:0:0:0:m_059.ogg
256,192,142400,1,0,0:0:0:0:m_079.ogg
329,192,142400,1,0,0:0:0:0:m_047.ogg
402,192,142400,1,0,0:0:0:0:m_038.ogg
109,192,143100,1,0,0:0:0:0:s_055.ogg
182,192,143100,1,0,0:0:0:0:s_043.ogg
256,192,143100,1,0,0:0:0:0:s_079.ogg
329,192,143100,1,0,0:0:0:0:s_047.ogg
402,192,143100,1,0,0:0:0:0:s_067.ogg
475,192,143100,1,0,0:0:0:0:s_050.ogg
36,192,143100,1,0,0:0:0:0:s_059.ogg
109,192,143200,1,0,0:0:0:0:m_055.ogg
182,192,143200,1,0,0:0:0:0:m_043.ogg
256,192,143200,1,0,0:0:0:0:m_079.ogg
329,192,143200,1,0,0:0:0:0:m_047.ogg
402,192,143200,1,0,0:0:0:0:m_067.ogg
475,192,143200,1,0,0:0:0:0:m_050.ogg
36,192,143200,1,0,0:0:0:0:m_038.ogg
36,192,143900,1,0,0:0:0:0:s_038.ogg
109,192,143900,1,0,0:0:0:0:s_047.ogg
182,192,143900,1,0,0:0:0:0:s_055.ogg
256,192,143900,1,0,0:0:0:0:s_067.ogg
329,192,143900,1,0,0:0:0:0:s_043.ogg
402,192,143900,1,0,0:0:0:0:s_035.ogg
475,192,143900,1,0,0:0:0:0:s_050.ogg
36,192,144000,1,0,0:0:0:0:l_067.ogg
109,192,144000,1,0,0:0:0:0:l_035.ogg
182,192,144000,1,0,0:0:0:0:l_047.ogg
256,192,144000,1,0,0:0:0:0:l_055.ogg
329,192,144000,1,0,0:0:0:0:l_043.ogg
402,192,144000,1,0,0:0:0:0:l_038.ogg
475,192,144000,1,0,0:0:0:0:l_050.ogg
