osu file format v14

[General]
AudioFilename: virtual
AudioLeadIn: 0
PreviewTime: 0
Countdown: 0
SampleSet: None
StackLeniency: 0.7
Mode: 3
LetterboxInBreaks: 0
SpecialStyle: 0
WidescreenStoryboard: 1

[Editor]
DistanceSpacing: 0.8
BeatDivisor: 4
GridSize: 32
TimelineZoom: 2.100006

[Metadata]
Title:Piano Beatmap Set
TitleUnicode:Piano Beatmap Set
Artist:Collection
ArtistUnicode:Collection
Creator:CircusGalop
Version:Turkish March - 7K EX
Source:BMS
Tags:
BeatmapID:1330312
BeatmapSetID:332673

[Difficulty]
HPDrainRate:9
CircleSize:7
OverallDifficulty:5
ApproachRate:5
SliderMultiplier:1.4
SliderTickRate:1

[Events]
//Background and Video events
0,0,"CircusGalop.jpg",0,0
//Break Periods
//Storyboard Layer 0 (Background)
//Storyboard Layer 1 (Fail)
//Storyboard Layer 2 (Pass)
//Storyboard Layer 3 (Foreground)
//Storyboard Sound Samples
Sample,86571,0,"m_053.ogg",100
Sample,87535,0,"s_036.ogg",100
Sample,88392,0,"s_031.ogg",100
Sample,91714,0,"m_053.ogg",100
Sample,92678,0,"s_036.ogg",100
Sample,93535,0,"s_031.ogg",100
Sample,102857,0,"m_060.ogg",100
Sample,103821,0,"s_036.ogg",100
Sample,104678,0,"s_031.ogg",100
Sample,105428,0,"m_048.ogg",100
Sample,109285,0,"m_055.ogg",100
Sample,109714,0,"m_055.ogg",100

[TimingPoints]
0,428.571428571432,4,2,0,100,1,0

[HitObjects]
402,192,1285,5,0,0:0:0:0:s_050.ogg
329,192,1392,1,0,0:0:0:0:s_048.ogg
256,192,1500,1,0,0:0:0:0:s_047.ogg
329,192,1607,1,0,0:0:0:0:s_048.ogg
36,192,1714,1,0,0:0:0:0:s_036.ogg
402,192,1714,1,0,0:0:0:0:s_051.ogg
109,192,1928,1,0,0:0:0:0:s_043.ogg
182,192,1928,1,0,0:0:0:0:s_039.ogg
109,192,2142,1,0,0:0:0:0:s_039.ogg
182,192,2142,1,0,0:0:0:0:s_043.ogg
402,192,2142,1,0,0:0:0:0:s_053.ogg
329,192,2250,1,0,0:0:0:0:s_051.ogg
109,192,2357,1,0,0:0:0:0:s_039.ogg
182,192,2357,1,0,0:0:0:0:s_043.ogg
256,192,2357,1,0,0:0:0:0:s_050.ogg
329,192,2464,1,0,0:0:0:0:s_051.ogg
36,192,2571,1,0,0:0:0:0:s_036.ogg
475,192,2571,1,0,0:0:0:0:s_055.ogg
109,192,2785,1,0,0:0:0:0:s_043.ogg
182,192,2785,1,0,0:0:0:0:s_039.ogg
109,192,3000,1,0,0:0:0:0:s_039.ogg
182,192,3000,1,0,0:0:0:0:s_043.ogg
402,192,3000,1,0,0:0:0:0:s_056.ogg
329,192,3107,1,0,0:0:0:0:s_055.ogg
109,192,3214,1,0,0:0:0:0:s_039.ogg
182,192,3214,1,0,0:0:0:0:s_043.ogg
256,192,3214,1,0,0:0:0:0:s_054.ogg
329,192,3321,1,0,0:0:0:0:s_055.ogg
36,192,3428,1,0,0:0:0:0:s_036.ogg
475,192,3428,1,0,0:0:0:0:s_062.ogg
402,192,3535,1,0,0:0:0:0:s_060.ogg
109,192,3642,1,0,0:0:0:0:s_043.ogg
182,192,3642,1,0,0:0:0:0:s_039.ogg
329,192,3642,1,0,0:0:0:0:s_059.ogg
402,192,3750,1,0,0:0:0:0:s_060.ogg
36,192,3857,1,0,0:0:0:0:s_036.ogg
475,192,3857,1,0,0:0:0:0:s_062.ogg
402,192,3964,1,0,0:0:0:0:s_060.ogg
109,192,4071,1,0,0:0:0:0:s_043.ogg
182,192,4071,1,0,0:0:0:0:s_039.ogg
329,192,4071,1,0,0:0:0:0:s_059.ogg
402,192,4178,1,0,0:0:0:0:s_060.ogg
36,192,4285,1,0,0:0:0:0:s_036.ogg
475,192,4285,128,0,4714:0:0:0:0:m_063.ogg
109,192,4500,1,0,0:0:0:0:s_043.ogg
182,192,4500,1,0,0:0:0:0:s_039.ogg
109,192,4714,1,0,0:0:0:0:s_039.ogg
182,192,4714,1,0,0:0:0:0:s_043.ogg
402,192,4714,1,0,0:0:0:0:s_060.ogg
109,192,4928,1,0,0:0:0:0:s_039.ogg
182,192,4928,1,0,0:0:0:0:s_043.ogg
475,192,4928,1,0,0:0:0:0:s_063.ogg
109,192,5142,1,0,0:0:0:0:s_031.ogg
329,192,5142,1,0,0:0:0:0:s_058.ogg
402,192,5169,1,0,0:0:0:0:s_060.ogg
475,192,5196,1,0,0:0:0:0:s_062.ogg
36,192,5357,1,0,0:0:0:0:s_043.ogg
182,192,5357,1,0,0:0:0:0:s_038.ogg
256,192,5357,1,0,0:0:0:0:s_060.ogg
402,192,5357,1,0,0:0:0:0:s_057.ogg
36,192,5571,1,0,0:0:0:0:s_038.ogg
182,192,5571,1,0,0:0:0:0:s_043.ogg
256,192,5571,1,0,0:0:0:0:s_058.ogg
329,192,5571,1,0,0:0:0:0:s_055.ogg
36,192,5785,1,0,0:0:0:0:s_038.ogg
182,192,5785,1,0,0:0:0:0:s_043.ogg
256,192,5785,1,0,0:0:0:0:s_060.ogg
402,192,5785,1,0,0:0:0:0:s_057.ogg
109,192,6000,1,0,0:0:0:0:s_031.ogg
329,192,6000,1,0,0:0:0:0:s_058.ogg
402,192,6026,1,0,0:0:0:0:s_060.ogg
475,192,6053,1,0,0:0:0:0:s_062.ogg
36,192,6214,1,0,0:0:0:0:s_043.ogg
182,192,6214,1,0,0:0:0:0:s_038.ogg
256,192,6214,1,0,0:0:0:0:s_060.ogg
402,192,6214,1,0,0:0:0:0:s_057.ogg
36,192,6428,1,0,0:0:0:0:s_038.ogg
182,192,6428,1,0,0:0:0:0:s_043.ogg
256,192,6428,1,0,0:0:0:0:s_058.ogg
329,192,6428,1,0,0:0:0:0:s_055.ogg
36,192,6642,1,0,0:0:0:0:s_038.ogg
182,192,6642,1,0,0:0:0:0:s_043.ogg
256,192,6642,1,0,0:0:0:0:s_060.ogg
402,192,6642,1,0,0:0:0:0:s_057.ogg
109,192,6857,1,0,0:0:0:0:s_031.ogg
329,192,6857,1,0,0:0:0:0:s_058.ogg
402,192,6883,1,0,0:0:0:0:s_060.ogg
475,192,6910,1,0,0:0:0:0:s_062.ogg
36,192,7071,1,0,0:0:0:0:s_038.ogg
182,192,7071,1,0,0:0:0:0:s_043.ogg
256,192,7071,1,0,0:0:0:0:s_060.ogg
402,192,7071,1,0,0:0:0:0:s_057.ogg
36,192,7285,1,0,0:0:0:0:s_026.ogg
329,192,7285,1,0,0:0:0:0:s_055.ogg
475,192,7285,1,0,0:0:0:0:s_058.ogg
182,192,7500,1,0,0:0:0:0:s_038.ogg
256,192,7500,1,0,0:0:0:0:s_057.ogg
402,192,7500,1,0,0:0:0:0:s_054.ogg
329,192,7714,128,0,8142:0:0:0:0:m_055.ogg
109,192,7714,128,0,8142:0:0:0:0:m_031.ogg
402,192,8142,1,0,0:0:0:0:s_050.ogg
329,192,8250,1,0,0:0:0:0:s_048.ogg
256,192,8357,1,0,0:0:0:0:s_047.ogg
329,192,8464,1,0,0:0:0:0:s_048.ogg
36,192,8571,1,0,0:0:0:0:s_036.ogg
402,192,8571,1,0,0:0:0:0:s_051.ogg
109,192,8785,1,0,0:0:0:0:s_043.ogg
182,192,8785,1,0,0:0:0:0:s_039.ogg
109,192,9000,1,0,0:0:0:0:s_039.ogg
182,192,9000,1,0,0:0:0:0:s_043.ogg
402,192,9000,1,0,0:0:0:0:s_053.ogg
329,192,9107,1,0,0:0:0:0:s_051.ogg
109,192,9214,1,0,0:0:0:0:s_039.ogg
182,192,9214,1,0,0:0:0:0:s_043.ogg
256,192,9214,1,0,0:0:0:0:s_050.ogg
329,192,9321,1,0,0:0:0:0:s_051.ogg
36,192,9428,1,0,0:0:0:0:s_036.ogg
475,192,9428,1,0,0:0:0:0:s_055.ogg
109,192,9642,1,0,0:0:0:0:s_043.ogg
182,192,9642,1,0,0:0:0:0:s_039.ogg
109,192,9857,1,0,0:0:0:0:s_039.ogg
182,192,9857,1,0,0:0:0:0:s_043.ogg
402,192,9857,1,0,0:0:0:0:s_056.ogg
329,192,9964,1,0,0:0:0:0:s_055.ogg
109,192,10071,1,0,0:0:0:0:s_039.ogg
182,192,10071,1,0,0:0:0:0:s_043.ogg
256,192,10071,1,0,0:0:0:0:s_054.ogg
329,192,10178,1,0,0:0:0:0:s_055.ogg
36,192,10285,1,0,0:0:0:0:s_036.ogg
475,192,10285,1,0,0:0:0:0:s_062.ogg
402,192,10392,1,0,0:0:0:0:s_060.ogg
109,192,10500,1,0,0:0:0:0:s_043.ogg
182,192,10500,1,0,0:0:0:0:s_039.ogg
329,192,10500,1,0,0:0:0:0:s_059.ogg
402,192,10607,1,0,0:0:0:0:s_060.ogg
36,192,10714,1,0,0:0:0:0:s_036.ogg
475,192,10714,1,0,0:0:0:0:s_062.ogg
402,192,10821,1,0,0:0:0:0:s_060.ogg
109,192,10928,1,0,0:0:0:0:s_043.ogg
182,192,10928,1,0,0:0:0:0:s_039.ogg
329,192,10928,1,0,0:0:0:0:s_059.ogg
402,192,11035,1,0,0:0:0:0:s_060.ogg
36,192,11142,1,0,0:0:0:0:s_036.ogg
475,192,11142,128,0,11571:0:0:0:0:m_063.ogg
109,192,11357,1,0,0:0:0:0:s_043.ogg
182,192,11357,1,0,0:0:0:0:s_039.ogg
109,192,11571,1,0,0:0:0:0:s_039.ogg
182,192,11571,1,0,0:0:0:0:s_043.ogg
402,192,11571,1,0,0:0:0:0:s_060.ogg
109,192,11785,1,0,0:0:0:0:s_039.ogg
182,192,11785,1,0,0:0:0:0:s_043.ogg
475,192,11785,1,0,0:0:0:0:s_063.ogg
109,192,12000,1,0,0:0:0:0:s_031.ogg
329,192,12000,1,0,0:0:0:0:s_058.ogg
402,192,12026,1,0,0:0:0:0:s_060.ogg
475,192,12053,1,0,0:0:0:0:s_062.ogg
36,192,12214,1,0,0:0:0:0:s_043.ogg
182,192,12214,1,0,0:0:0:0:s_038.ogg
256,192,12214,1,0,0:0:0:0:s_060.ogg
402,192,12214,1,0,0:0:0:0:s_057.ogg
36,192,12428,1,0,0:0:0:0:s_038.ogg
182,192,12428,1,0,0:0:0:0:s_043.ogg
256,192,12428,1,0,0:0:0:0:s_058.ogg
329,192,12428,1,0,0:0:0:0:s_055.ogg
36,192,12642,1,0,0:0:0:0:s_038.ogg
182,192,12642,1,0,0:0:0:0:s_043.ogg
256,192,12642,1,0,0:0:0:0:s_060.ogg
402,192,12642,1,0,0:0:0:0:s_057.ogg
109,192,12857,1,0,0:0:0:0:s_031.ogg
329,192,12857,1,0,0:0:0:0:s_058.ogg
402,192,12883,1,0,0:0:0:0:s_060.ogg
475,192,12910,1,0,0:0:0:0:s_062.ogg
36,192,13071,1,0,0:0:0:0:s_043.ogg
182,192,13071,1,0,0:0:0:0:s_038.ogg
256,192,13071,1,0,0:0:0:0:s_060.ogg
402,192,13071,1,0,0:0:0:0:s_057.ogg
36,192,13285,1,0,0:0:0:0:s_038.ogg
182,192,13285,1,0,0:0:0:0:s_043.ogg
256,192,13285,1,0,0:0:0:0:s_058.ogg
329,192,13285,1,0,0:0:0:0:s_055.ogg
36,192,13500,1,0,0:0:0:0:s_038.ogg
182,192,13500,1,0,0:0:0:0:s_043.ogg
256,192,13500,1,0,0:0:0:0:s_060.ogg
402,192,13500,1,0,0:0:0:0:s_057.ogg
109,192,13714,1,0,0:0:0:0:s_031.ogg
329,192,13714,1,0,0:0:0:0:s_058.ogg
402,192,13741,1,0,0:0:0:0:s_060.ogg
475,192,13767,1,0,0:0:0:0:s_062.ogg
36,192,13928,1,0,0:0:0:0:s_038.ogg
182,192,13928,1,0,0:0:0:0:s_043.ogg
256,192,13928,1,0,0:0:0:0:s_060.ogg
402,192,13928,1,0,0:0:0:0:s_057.ogg
36,192,14142,1,0,0:0:0:0:s_026.ogg
329,192,14142,1,0,0:0:0:0:s_058.ogg
475,192,14142,1,0,0:0:0:0:s_055.ogg
182,192,14357,1,0,0:0:0:0:s_038.ogg
256,192,14357,1,0,0:0:0:0:s_054.ogg
402,192,14357,1,0,0:0:0:0:s_057.ogg
329,192,14571,128,0,15000:0:0:0:0:m_055.ogg
109,192,14571,128,0,15000:0:0:0:0:m_031.ogg
256,192,15000,1,0,0:0:0:0:s_051.ogg
402,192,15000,1,0,0:0:0:0:s_055.ogg
329,192,15214,1,0,0:0:0:0:s_056.ogg
475,192,15214,1,0,0:0:0:0:s_053.ogg
36,192,15428,1,0,0:0:0:0:s_027.ogg
402,192,15428,1,0,0:0:0:0:s_055.ogg
475,192,15428,1,0,0:0:0:0:s_058.ogg
109,192,15642,1,0,0:0:0:0:s_039.ogg
402,192,15642,1,0,0:0:0:0:s_055.ogg
475,192,15642,1,0,0:0:0:0:s_058.ogg
36,192,15857,1,0,0:0:0:0:s_031.ogg
475,192,15857,1,0,0:0:0:0:s_060.ogg
402,192,15964,1,0,0:0:0:0:s_058.ogg
182,192,16071,1,0,0:0:0:0:s_043.ogg
329,192,16071,1,0,0:0:0:0:s_056.ogg
256,192,16178,1,0,0:0:0:0:s_055.ogg
109,192,16285,1,0,0:0:0:0:m_034.ogg
402,192,16285,1,0,0:0:0:0:m_053.ogg
475,192,16285,1,0,0:0:0:0:s_050.ogg
36,192,16500,1,0,0:0:0:0:s_046.ogg
256,192,16714,1,0,0:0:0:0:s_051.ogg
402,192,16714,1,0,0:0:0:0:s_055.ogg
329,192,16928,1,0,0:0:0:0:s_056.ogg
475,192,16928,1,0,0:0:0:0:s_053.ogg
36,192,17142,1,0,0:0:0:0:s_027.ogg
402,192,17142,1,0,0:0:0:0:s_055.ogg
475,192,17142,1,0,0:0:0:0:s_058.ogg
109,192,17357,1,0,0:0:0:0:s_039.ogg
402,192,17357,1,0,0:0:0:0:s_055.ogg
475,192,17357,1,0,0:0:0:0:s_058.ogg
36,192,17571,1,0,0:0:0:0:s_031.ogg
475,192,17571,1,0,0:0:0:0:s_060.ogg
402,192,17678,1,0,0:0:0:0:s_058.ogg
182,192,17785,1,0,0:0:0:0:s_043.ogg
329,192,17785,1,0,0:0:0:0:s_056.ogg
256,192,17892,1,0,0:0:0:0:s_055.ogg
109,192,18000,1,0,0:0:0:0:m_034.ogg
402,192,18000,1,0,0:0:0:0:m_053.ogg
475,192,18000,1,0,0:0:0:0:m_050.ogg
182,192,18428,1,0,0:0:0:0:s_048.ogg
329,192,18428,1,0,0:0:0:0:s_051.ogg
256,192,18642,1,0,0:0:0:0:s_050.ogg
402,192,18642,1,0,0:0:0:0:s_053.ogg
36,192,18857,1,0,0:0:0:0:s_024.ogg
329,192,18857,1,0,0:0:0:0:s_051.ogg
402,192,18857,1,0,0:0:0:0:s_055.ogg
109,192,19071,1,0,0:0:0:0:s_036.ogg
329,192,19071,1,0,0:0:0:0:s_051.ogg
402,192,19071,1,0,0:0:0:0:s_055.ogg
36,192,19285,1,0,0:0:0:0:s_027.ogg
475,192,19285,1,0,0:0:0:0:s_056.ogg
402,192,19392,1,0,0:0:0:0:s_055.ogg
182,192,19500,1,0,0:0:0:0:s_039.ogg
329,192,19500,1,0,0:0:0:0:s_053.ogg
256,192,19607,1,0,0:0:0:0:s_051.ogg
109,192,19714,1,0,0:0:0:0:m_031.ogg
402,192,19714,1,0,0:0:0:0:m_050.ogg
475,192,19714,1,0,0:0:0:0:s_047.ogg
36,192,19928,1,0,0:0:0:0:s_043.ogg
182,192,20142,1,0,0:0:0:0:s_048.ogg
329,192,20142,1,0,0:0:0:0:s_051.ogg
256,192,20357,1,0,0:0:0:0:s_050.ogg
402,192,20357,1,0,0:0:0:0:s_053.ogg
36,192,20571,1,0,0:0:0:0:s_024.ogg
329,192,20571,1,0,0:0:0:0:s_051.ogg
402,192,20571,1,0,0:0:0:0:s_055.ogg
109,192,20785,1,0,0:0:0:0:s_036.ogg
329,192,20785,1,0,0:0:0:0:s_051.ogg
402,192,20785,1,0,0:0:0:0:s_055.ogg
36,192,21000,1,0,0:0:0:0:s_027.ogg
475,192,21000,1,0,0:0:0:0:s_056.ogg
402,192,21107,1,0,0:0:0:0:s_055.ogg
182,192,21214,1,0,0:0:0:0:s_039.ogg
329,192,21214,1,0,0:0:0:0:s_053.ogg
256,192,21321,1,0,0:0:0:0:s_051.ogg
109,192,21428,1,0,0:0:0:0:m_047.ogg
402,192,21428,1,0,0:0:0:0:m_050.ogg
475,192,21428,1,0,0:0:0:0:m_031.ogg
402,192,21857,1,0,0:0:0:0:s_050.ogg
329,192,21964,1,0,0:0:0:0:s_048.ogg
256,192,22071,1,0,0:0:0:0:s_047.ogg
329,192,22178,1,0,0:0:0:0:s_048.ogg
36,192,22285,1,0,0:0:0:0:s_036.ogg
402,192,22285,1,0,0:0:0:0:s_051.ogg
109,192,22500,1,0,0:0:0:0:s_043.ogg
182,192,22500,1,0,0:0:0:0:s_039.ogg
109,192,22714,1,0,0:0:0:0:s_039.ogg
182,192,22714,1,0,0:0:0:0:s_043.ogg
402,192,22714,1,0,0:0:0:0:s_053.ogg
329,192,22821,1,0,0:0:0:0:s_051.ogg
109,192,22928,1,0,0:0:0:0:s_039.ogg
182,192,22928,1,0,0:0:0:0:s_043.ogg
256,192,22928,1,0,0:0:0:0:s_050.ogg
329,192,23035,1,0,0:0:0:0:s_051.ogg
36,192,23142,1,0,0:0:0:0:s_036.ogg
475,192,23142,1,0,0:0:0:0:s_055.ogg
109,192,23357,1,0,0:0:0:0:s_043.ogg
182,192,23357,1,0,0:0:0:0:s_039.ogg
109,192,23571,1,0,0:0:0:0:s_039.ogg
182,192,23571,1,0,0:0:0:0:s_043.ogg
402,192,23571,1,0,0:0:0:0:s_056.ogg
329,192,23678,1,0,0:0:0:0:s_055.ogg
109,192,23785,1,0,0:0:0:0:s_039.ogg
182,192,23785,1,0,0:0:0:0:s_043.ogg
256,192,23785,1,0,0:0:0:0:s_054.ogg
329,192,23892,1,0,0:0:0:0:s_055.ogg
36,192,24000,1,0,0:0:0:0:s_036.ogg
475,192,24000,1,0,0:0:0:0:s_062.ogg
402,192,24107,1,0,0:0:0:0:s_060.ogg
109,192,24214,1,0,0:0:0:0:s_043.ogg
182,192,24214,1,0,0:0:0:0:s_039.ogg
329,192,24214,1,0,0:0:0:0:s_059.ogg
402,192,24321,1,0,0:0:0:0:s_060.ogg
36,192,24428,1,0,0:0:0:0:s_036.ogg
475,192,24428,1,0,0:0:0:0:s_062.ogg
402,192,24535,1,0,0:0:0:0:s_060.ogg
109,192,24642,1,0,0:0:0:0:s_043.ogg
182,192,24642,1,0,0:0:0:0:s_039.ogg
329,192,24642,1,0,0:0:0:0:s_059.ogg
402,192,24750,1,0,0:0:0:0:s_060.ogg
36,192,24857,1,0,0:0:0:0:s_032.ogg
475,192,24857,128,0,25285:0:0:0:0:m_063.ogg
36,192,25071,1,0,0:0:0:0:s_042.ogg
109,192,25071,1,0,0:0:0:0:s_036.ogg
36,192,25285,1,0,0:0:0:0:s_036.ogg
109,192,25285,1,0,0:0:0:0:s_042.ogg
329,192,25285,1,0,0:0:0:0:s_060.ogg
36,192,25500,1,0,0:0:0:0:s_042.ogg
109,192,25500,1,0,0:0:0:0:s_036.ogg
402,192,25500,1,0,0:0:0:0:s_062.ogg
36,192,25714,1,0,0:0:0:0:s_031.ogg
475,192,25714,1,0,0:0:0:0:s_063.ogg
109,192,25928,1,0,0:0:0:0:s_036.ogg
182,192,25928,1,0,0:0:0:0:s_043.ogg
402,192,25928,1,0,0:0:0:0:s_062.ogg
109,192,26142,1,0,0:0:0:0:s_029.ogg
329,192,26142,1,0,0:0:0:0:s_060.ogg
36,192,26357,1,0,0:0:0:0:s_032.ogg
182,192,26357,1,0,0:0:0:0:s_038.ogg
256,192,26357,1,0,0:0:0:0:s_059.ogg
36,192,26571,1,0,0:0:0:0:s_027.ogg
475,192,26571,1,0,0:0:0:0:s_060.ogg
109,192,26785,1,0,0:0:0:0:s_036.ogg
182,192,26785,1,0,0:0:0:0:s_031.ogg
256,192,26785,1,0,0:0:0:0:s_055.ogg
109,192,27000,1,0,0:0:0:0:s_029.ogg
402,192,27000,1,0,0:0:0:0:s_056.ogg
36,192,27214,1,0,0:0:0:0:s_032.ogg
182,192,27214,1,0,0:0:0:0:s_038.ogg
329,192,27214,1,0,0:0:0:0:s_053.ogg
109,192,27428,1,0,0:0:0:0:s_031.ogg
182,192,27428,1,0,0:0:0:0:s_036.ogg
256,192,27428,1,0,0:0:0:0:m_051.ogg
109,192,27642,1,0,0:0:0:0:s_031.ogg
182,192,27642,1,0,0:0:0:0:s_036.ogg
36,192,27857,1,0,0:0:0:0:s_035.ogg
182,192,27857,1,0,0:0:0:0:s_031.ogg
329,192,27857,1,0,0:0:0:0:s_050.ogg
475,192,27910,1,0,0:0:0:0:s_051.ogg
329,192,27964,1,0,0:0:0:0:s_050.ogg
475,192,28017,1,0,0:0:0:0:s_051.ogg
36,192,28071,1,0,0:0:0:0:s_031.ogg
182,192,28071,1,0,0:0:0:0:s_035.ogg
329,192,28071,1,0,0:0:0:0:s_050.ogg
475,192,28125,1,0,0:0:0:0:s_051.ogg
256,192,28178,1,0,0:0:0:0:s_048.ogg
402,192,28232,1,0,0:0:0:0:s_050.ogg
36,192,28285,1,0,0:0:0:0:m_036.ogg
109,192,28285,1,0,0:0:0:0:m_024.ogg
256,192,28285,1,0,0:0:0:0:m_048.ogg
256,192,28714,1,0,0:0:0:0:s_048.ogg
402,192,28714,1,0,0:0:0:0:s_060.ogg
329,192,28928,1,0,0:0:0:0:s_050.ogg
475,192,28928,1,0,0:0:0:0:s_062.ogg
36,192,29142,1,0,0:0:0:0:m_024.ogg
402,192,29142,1,0,0:0:0:0:m_064.ogg
475,192,29142,1,0,0:0:0:0:m_052.ogg
109,192,29178,1,0,0:0:0:0:m_028.ogg
182,192,29214,1,0,0:0:0:0:m_031.ogg
256,192,29250,1,0,0:0:0:0:s_036.ogg
36,192,29357,1,0,0:0:0:0:s_036.ogg
36,192,29571,1,0,0:0:0:0:s_036.ogg
256,192,29571,1,0,0:0:0:0:s_060.ogg
402,192,29571,1,0,0:0:0:0:s_048.ogg
36,192,29785,1,0,0:0:0:0:s_036.ogg
329,192,29785,1,0,0:0:0:0:s_050.ogg
475,192,29785,1,0,0:0:0:0:s_062.ogg
36,192,30000,1,0,0:0:0:0:m_024.ogg
402,192,30000,1,0,0:0:0:0:m_064.ogg
475,192,30000,1,0,0:0:0:0:m_052.ogg
109,192,30035,1,0,0:0:0:0:m_028.ogg
182,192,30071,1,0,0:0:0:0:m_031.ogg
256,192,30107,1,0,0:0:0:0:s_036.ogg
36,192,30214,1,0,0:0:0:0:s_036.ogg
329,192,30214,1,0,0:0:0:0:s_050.ogg
475,192,30214,1,0,0:0:0:0:s_062.ogg
36,192,30428,1,0,0:0:0:0:s_036.ogg
256,192,30428,1,0,0:0:0:0:s_060.ogg
402,192,30428,1,0,0:0:0:0:s_048.ogg
36,192,30642,1,0,0:0:0:0:s_036.ogg
182,192,30642,1,0,0:0:0:0:s_059.ogg
329,192,30642,1,0,0:0:0:0:s_047.ogg
36,192,30857,1,0,0:0:0:0:s_057.ogg
109,192,30857,1,0,0:0:0:0:s_045.ogg
256,192,30857,1,0,0:0:0:0:s_017.ogg
329,192,30892,1,0,0:0:0:0:s_021.ogg
402,192,30928,1,0,0:0:0:0:s_024.ogg
475,192,30964,1,0,0:0:0:0:s_029.ogg
36,192,31071,1,0,0:0:0:0:s_047.ogg
182,192,31071,1,0,0:0:0:0:s_059.ogg
256,192,31071,1,0,0:0:0:0:s_029.ogg
109,192,31285,1,0,0:0:0:0:s_060.ogg
182,192,31285,1,0,0:0:0:0:s_018.ogg
256,192,31285,1,0,0:0:0:0:s_048.ogg
329,192,31321,1,0,0:0:0:0:s_021.ogg
402,192,31357,1,0,0:0:0:0:s_024.ogg
475,192,31392,1,0,0:0:0:0:s_030.ogg
109,192,31500,1,0,0:0:0:0:s_030.ogg
256,192,31500,1,0,0:0:0:0:s_062.ogg
329,192,31500,1,0,0:0:0:0:s_050.ogg
109,192,31714,1,0,0:0:0:0:m_047.ogg
182,192,31714,1,0,0:0:0:0:m_019.ogg
256,192,31714,1,0,0:0:0:0:m_059.ogg
329,192,31750,1,0,0:0:0:0:m_023.ogg
402,192,31785,1,0,0:0:0:0:m_026.ogg
475,192,31821,1,0,0:0:0:0:s_031.ogg
36,192,31928,1,0,0:0:0:0:s_055.ogg
109,192,31928,1,0,0:0:0:0:s_031.ogg
182,192,31928,1,0,0:0:0:0:s_043.ogg
36,192,32142,1,0,0:0:0:0:s_031.ogg
256,192,32142,1,0,0:0:0:0:s_060.ogg
402,192,32142,1,0,0:0:0:0:s_048.ogg
36,192,32357,1,0,0:0:0:0:s_031.ogg
329,192,32357,1,0,0:0:0:0:s_050.ogg
475,192,32357,1,0,0:0:0:0:s_062.ogg
36,192,32571,1,0,0:0:0:0:m_024.ogg
402,192,32571,1,0,0:0:0:0:m_052.ogg
475,192,32571,1,0,0:0:0:0:m_064.ogg
109,192,32607,1,0,0:0:0:0:m_028.ogg
182,192,32642,1,0,0:0:0:0:m_031.ogg
256,192,32678,1,0,0:0:0:0:s_036.ogg
36,192,32785,1,0,0:0:0:0:s_036.ogg
36,192,33000,1,0,0:0:0:0:s_036.ogg
256,192,33000,1,0,0:0:0:0:s_060.ogg
402,192,33000,1,0,0:0:0:0:s_048.ogg
36,192,33214,1,0,0:0:0:0:s_036.ogg
329,192,33214,1,0,0:0:0:0:s_062.ogg
475,192,33214,1,0,0:0:0:0:s_050.ogg
36,192,33428,1,0,0:0:0:0:m_024.ogg
402,192,33428,1,0,0:0:0:0:m_064.ogg
475,192,33428,1,0,0:0:0:0:m_052.ogg
109,192,33464,1,0,0:0:0:0:m_028.ogg
182,192,33500,1,0,0:0:0:0:m_031.ogg
256,192,33535,1,0,0:0:0:0:s_036.ogg
36,192,33642,1,0,0:0:0:0:s_036.ogg
329,192,33642,1,0,0:0:0:0:s_062.ogg
475,192,33642,1,0,0:0:0:0:s_050.ogg
36,192,33857,1,0,0:0:0:0:s_036.ogg
256,192,33857,1,0,0:0:0:0:s_048.ogg
402,192,33857,1,0,0:0:0:0:s_060.ogg
36,192,34071,1,0,0:0:0:0:s_036.ogg
182,192,34071,1,0,0:0:0:0:s_047.ogg
329,192,34071,1,0,0:0:0:0:s_059.ogg
36,192,34285,1,0,0:0:0:0:s_045.ogg
182,192,34285,1,0,0:0:0:0:s_017.ogg
256,192,34285,1,0,0:0:0:0:s_057.ogg
329,192,34321,1,0,0:0:0:0:s_021.ogg
402,192,34357,1,0,0:0:0:0:s_024.ogg
475,192,34392,1,0,0:0:0:0:s_029.ogg
109,192,34500,1,0,0:0:0:0:s_050.ogg
256,192,34500,1,0,0:0:0:0:s_029.ogg
329,192,34500,1,0,0:0:0:0:s_062.ogg
109,192,34714,1,0,0:0:0:0:s_047.ogg
182,192,34714,1,0,0:0:0:0:s_059.ogg
256,192,34714,1,0,0:0:0:0:s_019.ogg
329,192,34750,1,0,0:0:0:0:s_023.ogg
402,192,34785,1,0,0:0:0:0:s_026.ogg
475,192,34821,1,0,0:0:0:0:s_031.ogg
36,192,34928,1,0,0:0:0:0:s_055.ogg
109,192,34928,1,0,0:0:0:0:s_043.ogg
256,192,34928,1,0,0:0:0:0:s_031.ogg
182,192,35142,1,0,0:0:0:0:m_048.ogg
329,192,35142,1,0,0:0:0:0:m_060.ogg
402,192,35142,1,0,0:0:0:0:m_024.ogg
256,192,35571,1,0,0:0:0:0:s_048.ogg
402,192,35571,1,0,0:0:0:0:s_060.ogg
329,192,35785,1,0,0:0:0:0:s_050.ogg
475,192,35785,1,0,0:0:0:0:s_062.ogg
36,192,36000,1,0,0:0:0:0:m_024.ogg
402,192,36000,1,0,0:0:0:0:m_064.ogg
475,192,36000,1,0,0:0:0:0:m_052.ogg
109,192,36035,1,0,0:0:0:0:m_028.ogg
182,192,36071,1,0,0:0:0:0:m_031.ogg
256,192,36107,1,0,0:0:0:0:s_036.ogg
36,192,36214,1,0,0:0:0:0:s_036.ogg
36,192,36428,1,0,0:0:0:0:s_036.ogg
256,192,36428,1,0,0:0:0:0:s_060.ogg
402,192,36428,1,0,0:0:0:0:s_048.ogg
36,192,36642,1,0,0:0:0:0:s_036.ogg
329,192,36642,1,0,0:0:0:0:s_050.ogg
475,192,36642,1,0,0:0:0:0:s_062.ogg
36,192,36857,1,0,0:0:0:0:m_024.ogg
402,192,36857,1,0,0:0:0:0:m_064.ogg
475,192,36857,1,0,0:0:0:0:m_052.ogg
109,192,36892,1,0,0:0:0:0:m_028.ogg
182,192,36928,1,0,0:0:0:0:m_031.ogg
256,192,36964,1,0,0:0:0:0:s_036.ogg
36,192,37071,1,0,0:0:0:0:s_036.ogg
329,192,37071,1,0,0:0:0:0:s_050.ogg
475,192,37071,1,0,0:0:0:0:s_062.ogg
36,192,37285,1,0,0:0:0:0:s_036.ogg
256,192,37285,1,0,0:0:0:0:s_060.ogg
402,192,37285,1,0,0:0:0:0:s_048.ogg
36,192,37500,1,0,0:0:0:0:s_036.ogg
182,192,37500,1,0,0:0:0:0:s_059.ogg
329,192,37500,1,0,0:0:0:0:s_047.ogg
36,192,37714,1,0,0:0:0:0:s_057.ogg
109,192,37714,1,0,0:0:0:0:s_045.ogg
256,192,37714,1,0,0:0:0:0:s_017.ogg
329,192,37750,1,0,0:0:0:0:s_021.ogg
402,192,37785,1,0,0:0:0:0:s_024.ogg
475,192,37821,1,0,0:0:0:0:s_029.ogg
36,192,37928,1,0,0:0:0:0:s_047.ogg
182,192,37928,1,0,0:0:0:0:s_059.ogg
256,192,37928,1,0,0:0:0:0:s_029.ogg
109,192,38142,1,0,0:0:0:0:s_060.ogg
182,192,38142,1,0,0:0:0:0:s_018.ogg
256,192,38142,1,0,0:0:0:0:s_048.ogg
329,192,38178,1,0,0:0:0:0:s_021.ogg
402,192,38214,1,0,0:0:0:0:s_024.ogg
475,192,38250,1,0,0:0:0:0:s_030.ogg
109,192,38357,1,0,0:0:0:0:s_030.ogg
256,192,38357,1,0,0:0:0:0:s_062.ogg
329,192,38357,1,0,0:0:0:0:s_050.ogg
109,192,38571,1,0,0:0:0:0:m_047.ogg
182,192,38571,1,0,0:0:0:0:m_019.ogg
256,192,38571,1,0,0:0:0:0:m_059.ogg
329,192,38607,1,0,0:0:0:0:m_023.ogg
402,192,38642,1,0,0:0:0:0:m_026.ogg
475,192,38678,1,0,0:0:0:0:s_031.ogg
36,192,38785,1,0,0:0:0:0:s_055.ogg
109,192,38785,1,0,0:0:0:0:s_031.ogg
182,192,38785,1,0,0:0:0:0:s_043.ogg
36,192,39000,1,0,0:0:0:0:s_031.ogg
256,192,39000,1,0,0:0:0:0:s_060.ogg
402,192,39000,1,0,0:0:0:0:s_048.ogg
36,192,39214,1,0,0:0:0:0:s_031.ogg
329,192,39214,1,0,0:0:0:0:s_050.ogg
475,192,39214,1,0,0:0:0:0:s_062.ogg
36,192,39428,1,0,0:0:0:0:m_024.ogg
402,192,39428,1,0,0:0:0:0:m_052.ogg
475,192,39428,1,0,0:0:0:0:m_064.ogg
109,192,39464,1,0,0:0:0:0:m_028.ogg
182,192,39500,1,0,0:0:0:0:m_031.ogg
256,192,39535,1,0,0:0:0:0:s_036.ogg
36,192,39642,1,0,0:0:0:0:s_036.ogg
36,192,39857,1,0,0:0:0:0:s_036.ogg
256,192,39857,1,0,0:0:0:0:s_060.ogg
402,192,39857,1,0,0:0:0:0:s_048.ogg
36,192,40071,1,0,0:0:0:0:s_036.ogg
329,192,40071,1,0,0:0:0:0:s_062.ogg
475,192,40071,1,0,0:0:0:0:s_050.ogg
36,192,40285,1,0,0:0:0:0:m_024.ogg
402,192,40285,1,0,0:0:0:0:m_064.ogg
475,192,40285,1,0,0:0:0:0:m_052.ogg
109,192,40321,1,0,0:0:0:0:m_028.ogg
182,192,40357,1,0,0:0:0:0:m_031.ogg
256,192,40392,1,0,0:0:0:0:s_036.ogg
36,192,40500,1,0,0:0:0:0:s_036.ogg
329,192,40500,1,0,0:0:0:0:s_062.ogg
475,192,40500,1,0,0:0:0:0:s_050.ogg
36,192,40714,1,0,0:0:0:0:s_036.ogg
256,192,40714,1,0,0:0:0:0:s_048.ogg
402,192,40714,1,0,0:0:0:0:s_060.ogg
36,192,40928,1,0,0:0:0:0:s_036.ogg
182,192,40928,1,0,0:0:0:0:s_047.ogg
329,192,40928,1,0,0:0:0:0:s_059.ogg
36,192,41142,1,0,0:0:0:0:s_045.ogg
182,192,41142,1,0,0:0:0:0:s_017.ogg
256,192,41142,1,0,0:0:0:0:s_057.ogg
329,192,41178,1,0,0:0:0:0:s_021.ogg
402,192,41214,1,0,0:0:0:0:s_024.ogg
475,192,41250,1,0,0:0:0:0:s_029.ogg
109,192,41357,1,0,0:0:0:0:s_050.ogg
256,192,41357,1,0,0:0:0:0:s_029.ogg
329,192,41357,1,0,0:0:0:0:s_062.ogg
109,192,41571,1,0,0:0:0:0:s_047.ogg
182,192,41571,1,0,0:0:0:0:s_059.ogg
256,192,41571,1,0,0:0:0:0:s_019.ogg
329,192,41607,1,0,0:0:0:0:s_023.ogg
402,192,41642,1,0,0:0:0:0:s_026.ogg
475,192,41678,1,0,0:0:0:0:s_031.ogg
36,192,41785,1,0,0:0:0:0:s_055.ogg
109,192,41785,1,0,0:0:0:0:s_043.ogg
256,192,41785,1,0,0:0:0:0:s_031.ogg
182,192,42000,1,0,0:0:0:0:m_048.ogg
329,192,42000,1,0,0:0:0:0:m_060.ogg
402,192,42000,1,0,0:0:0:0:m_024.ogg
402,192,42428,1,0,0:0:0:0:s_064.ogg
475,192,42535,1,0,0:0:0:0:s_065.ogg
402,192,42642,1,0,0:0:0:0:s_064.ogg
329,192,42750,1,0,0:0:0:0:s_062.ogg
36,192,42857,1,0,0:0:0:0:s_033.ogg
256,192,42857,1,0,0:0:0:0:s_060.ogg
475,192,42964,1,0,0:0:0:0:s_062.ogg
109,192,43071,1,0,0:0:0:0:s_040.ogg
182,192,43071,1,0,0:0:0:0:s_036.ogg
402,192,43071,1,0,0:0:0:0:s_060.ogg
329,192,43178,1,0,0:0:0:0:s_059.ogg
109,192,43285,1,0,0:0:0:0:s_036.ogg
182,192,43285,1,0,0:0:0:0:s_040.ogg
256,192,43285,1,0,0:0:0:0:s_057.ogg
475,192,43392,1,0,0:0:0:0:s_060.ogg
109,192,43500,1,0,0:0:0:0:s_036.ogg
182,192,43500,1,0,0:0:0:0:s_040.ogg
402,192,43500,1,0,0:0:0:0:s_059.ogg
329,192,43607,1,0,0:0:0:0:s_057.ogg
109,192,43714,1,0,0:0:0:0:s_035.ogg
256,192,43714,1,0,0:0:0:0:s_056.ogg
329,192,43821,1,0,0:0:0:0:s_057.ogg
36,192,43928,1,0,0:0:0:0:s_040.ogg
182,192,43928,1,0,0:0:0:0:s_038.ogg
402,192,43928,1,0,0:0:0:0:s_059.ogg
329,192,44035,1,0,0:0:0:0:s_056.ogg
36,192,44142,1,0,0:0:0:0:s_038.ogg
182,192,44142,1,0,0:0:0:0:s_040.ogg
256,192,44142,1,0,0:0:0:0:s_052.ogg
329,192,44250,1,0,0:0:0:0:s_054.ogg
36,192,44357,1,0,0:0:0:0:s_038.ogg
182,192,44357,1,0,0:0:0:0:s_040.ogg
402,192,44357,1,0,0:0:0:0:s_056.ogg
256,192,44464,1,0,0:0:0:0:s_052.ogg
36,192,44571,1,0,0:0:0:0:s_033.ogg
329,192,44571,1,0,0:0:0:0:s_057.ogg
256,192,44678,1,0,0:0:0:0:s_056.ogg
109,192,44785,1,0,0:0:0:0:s_040.ogg
182,192,44785,1,0,0:0:0:0:s_036.ogg
329,192,44785,1,0,0:0:0:0:s_057.ogg
402,192,44892,1,0,0:0:0:0:s_059.ogg
109,192,45000,1,0,0:0:0:0:s_036.ogg
182,192,45000,1,0,0:0:0:0:s_040.ogg
475,192,45000,1,0,0:0:0:0:s_060.ogg
256,192,45107,1,0,0:0:0:0:s_059.ogg
109,192,45214,1,0,0:0:0:0:s_036.ogg
182,192,45214,1,0,0:0:0:0:s_040.ogg
329,192,45214,1,0,0:0:0:0:s_060.ogg
402,192,45321,1,0,0:0:0:0:s_062.ogg
109,192,45428,1,0,0:0:0:0:s_032.ogg
475,192,45428,1,0,0:0:0:0:s_064.ogg
329,192,45535,1,0,0:0:0:0:s_063.ogg
36,192,45642,1,0,0:0:0:0:s_035.ogg
182,192,45642,1,0,0:0:0:0:s_040.ogg
402,192,45642,1,0,0:0:0:0:s_064.ogg
329,192,45750,1,0,0:0:0:0:s_063.ogg
36,192,45857,1,0,0:0:0:0:s_035.ogg
182,192,45857,1,0,0:0:0:0:s_040.ogg
402,192,45857,1,0,0:0:0:0:s_064.ogg
475,192,45964,1,0,0:0:0:0:s_065.ogg
36,192,46071,1,0,0:0:0:0:s_035.ogg
182,192,46071,1,0,0:0:0:0:s_040.ogg
402,192,46071,1,0,0:0:0:0:s_064.ogg
329,192,46178,1,0,0:0:0:0:s_062.ogg
36,192,46285,1,0,0:0:0:0:s_033.ogg
256,192,46285,1,0,0:0:0:0:s_060.ogg
475,192,46392,1,0,0:0:0:0:s_062.ogg
109,192,46500,1,0,0:0:0:0:s_036.ogg
182,192,46500,1,0,0:0:0:0:s_040.ogg
402,192,46500,1,0,0:0:0:0:s_060.ogg
329,192,46607,1,0,0:0:0:0:s_059.ogg
109,192,46714,1,0,0:0:0:0:s_036.ogg
182,192,46714,1,0,0:0:0:0:s_040.ogg
256,192,46714,1,0,0:0:0:0:s_057.ogg
475,192,46821,1,0,0:0:0:0:s_060.ogg
109,192,46928,1,0,0:0:0:0:s_036.ogg
182,192,46928,1,0,0:0:0:0:s_040.ogg
402,192,46928,1,0,0:0:0:0:s_059.ogg
329,192,47035,1,0,0:0:0:0:s_057.ogg
109,192,47142,1,0,0:0:0:0:s_035.ogg
256,192,47142,1,0,0:0:0:0:s_055.ogg
329,192,47250,1,0,0:0:0:0:s_057.ogg
36,192,47357,1,0,0:0:0:0:s_040.ogg
182,192,47357,1,0,0:0:0:0:s_043.ogg
402,192,47357,1,0,0:0:0:0:s_059.ogg
329,192,47464,1,0,0:0:0:0:s_055.ogg
36,192,47571,1,0,0:0:0:0:s_043.ogg
182,192,47571,1,0,0:0:0:0:s_040.ogg
256,192,47571,1,0,0:0:0:0:s_052.ogg
329,192,47678,1,0,0:0:0:0:s_054.ogg
36,192,47785,1,0,0:0:0:0:s_043.ogg
182,192,47785,1,0,0:0:0:0:s_040.ogg
402,192,47785,1,0,0:0:0:0:s_055.ogg
256,192,47892,1,0,0:0:0:0:s_052.ogg
36,192,48000,1,0,0:0:0:0:s_035.ogg
329,192,48000,1,0,0:0:0:0:s_054.ogg
402,192,48107,1,0,0:0:0:0:s_055.ogg
109,192,48214,1,0,0:0:0:0:s_042.ogg
182,192,48214,1,0,0:0:0:0:s_045.ogg
475,192,48214,1,0,0:0:0:0:s_057.ogg
329,192,48321,1,0,0:0:0:0:s_054.ogg
109,192,48428,1,0,0:0:0:0:s_042.ogg
182,192,48428,1,0,0:0:0:0:s_045.ogg
256,192,48428,1,0,0:0:0:0:s_051.ogg
329,192,48535,1,0,0:0:0:0:s_052.ogg
109,192,48642,1,0,0:0:0:0:s_042.ogg
182,192,48642,1,0,0:0:0:0:s_045.ogg
402,192,48642,1,0,0:0:0:0:s_054.ogg
256,192,48750,1,0,0:0:0:0:s_051.ogg
475,192,48857,128,0,49285:0:0:0:0:m_040.ogg
329,192,48857,128,0,49285:0:0:0:0:m_052.ogg
36,192,48857,128,0,49285:0:0:0:0:m_043.ogg
182,192,49285,1,0,0:0:0:0:s_064.ogg
256,192,49392,1,0,0:0:0:0:s_065.ogg
182,192,49500,1,0,0:0:0:0:s_064.ogg
109,192,49607,1,0,0:0:0:0:s_062.ogg
36,192,49714,1,0,0:0:0:0:s_060.ogg
329,192,49714,1,0,0:0:0:0:s_033.ogg
256,192,49821,1,0,0:0:0:0:s_062.ogg
182,192,49928,1,0,0:0:0:0:s_060.ogg
402,192,49928,1,0,0:0:0:0:s_040.ogg
475,192,49928,1,0,0:0:0:0:s_036.ogg
109,192,50035,1,0,0:0:0:0:s_059.ogg
36,192,50142,1,0,0:0:0:0:s_057.ogg
402,192,50142,1,0,0:0:0:0:s_036.ogg
475,192,50142,1,0,0:0:0:0:s_040.ogg
256,192,50250,1,0,0:0:0:0:s_060.ogg
182,192,50357,1,0,0:0:0:0:s_059.ogg
402,192,50357,1,0,0:0:0:0:s_036.ogg
475,192,50357,1,0,0:0:0:0:s_040.ogg
109,192,50464,1,0,0:0:0:0:s_057.ogg
36,192,50571,1,0,0:0:0:0:s_056.ogg
402,192,50571,1,0,0:0:0:0:s_035.ogg
109,192,50678,1,0,0:0:0:0:s_057.ogg
182,192,50785,1,0,0:0:0:0:s_059.ogg
329,192,50785,1,0,0:0:0:0:s_040.ogg
475,192,50785,1,0,0:0:0:0:s_038.ogg
109,192,50892,1,0,0:0:0:0:s_056.ogg
36,192,51000,1,0,0:0:0:0:s_052.ogg
329,192,51000,1,0,0:0:0:0:s_038.ogg
475,192,51000,1,0,0:0:0:0:s_040.ogg
109,192,51107,1,0,0:0:0:0:s_054.ogg
182,192,51214,1,0,0:0:0:0:s_056.ogg
329,192,51214,1,0,0:0:0:0:s_038.ogg
475,192,51214,1,0,0:0:0:0:s_040.ogg
36,192,51321,1,0,0:0:0:0:s_052.ogg
109,192,51428,1,0,0:0:0:0:s_057.ogg
329,192,51428,1,0,0:0:0:0:s_033.ogg
36,192,51535,1,0,0:0:0:0:s_056.ogg
109,192,51642,1,0,0:0:0:0:s_057.ogg
402,192,51642,1,0,0:0:0:0:s_040.ogg
475,192,51642,1,0,0:0:0:0:s_036.ogg
182,192,51750,1,0,0:0:0:0:s_059.ogg
256,192,51857,1,0,0:0:0:0:s_060.ogg
402,192,51857,1,0,0:0:0:0:s_036.ogg
475,192,51857,1,0,0:0:0:0:s_040.ogg
36,192,51964,1,0,0:0:0:0:s_059.ogg
109,192,52071,1,0,0:0:0:0:s_060.ogg
402,192,52071,1,0,0:0:0:0:s_036.ogg
475,192,52071,1,0,0:0:0:0:s_040.ogg
182,192,52178,1,0,0:0:0:0:s_062.ogg
256,192,52285,1,0,0:0:0:0:s_064.ogg
402,192,52285,1,0,0:0:0:0:s_032.ogg
109,192,52392,1,0,0:0:0:0:s_063.ogg
182,192,52500,1,0,0:0:0:0:s_064.ogg
329,192,52500,1,0,0:0:0:0:s_035.ogg
475,192,52500,1,0,0:0:0:0:s_040.ogg
109,192,52607,1,0,0:0:0:0:s_063.ogg
182,192,52714,1,0,0:0:0:0:s_064.ogg
329,192,52714,1,0,0:0:0:0:s_035.ogg
475,192,52714,1,0,0:0:0:0:s_040.ogg
256,192,52821,1,0,0:0:0:0:s_065.ogg
182,192,52928,1,0,0:0:0:0:s_064.ogg
329,192,52928,1,0,0:0:0:0:s_035.ogg
475,192,52928,1,0,0:0:0:0:s_040.ogg
109,192,53035,1,0,0:0:0:0:s_062.ogg
36,192,53142,1,0,0:0:0:0:s_060.ogg
329,192,53142,1,0,0:0:0:0:s_033.ogg
256,192,53250,1,0,0:0:0:0:s_062.ogg
182,192,53357,1,0,0:0:0:0:s_060.ogg
402,192,53357,1,0,0:0:0:0:s_036.ogg
475,192,53357,1,0,0:0:0:0:s_040.ogg
109,192,53464,1,0,0:0:0:0:s_059.ogg
36,192,53571,1,0,0:0:0:0:s_057.ogg
402,192,53571,1,0,0:0:0:0:s_036.ogg
475,192,53571,1,0,0:0:0:0:s_040.ogg
256,192,53678,1,0,0:0:0:0:s_060.ogg
182,192,53785,1,0,0:0:0:0:s_059.ogg
402,192,53785,1,0,0:0:0:0:s_036.ogg
475,192,53785,1,0,0:0:0:0:s_040.ogg
109,192,53892,1,0,0:0:0:0:s_057.ogg
36,192,54000,1,0,0:0:0:0:s_055.ogg
402,192,54000,1,0,0:0:0:0:s_035.ogg
109,192,54107,1,0,0:0:0:0:s_057.ogg
182,192,54214,1,0,0:0:0:0:s_059.ogg
329,192,54214,1,0,0:0:0:0:s_040.ogg
475,192,54214,1,0,0:0:0:0:s_043.ogg
109,192,54321,1,0,0:0:0:0:s_055.ogg
36,192,54428,1,0,0:0:0:0:s_052.ogg
329,192,54428,1,0,0:0:0:0:s_043.ogg
475,192,54428,1,0,0:0:0:0:s_040.ogg
109,192,54535,1,0,0:0:0:0:s_054.ogg
182,192,54642,1,0,0:0:0:0:s_055.ogg
329,192,54642,1,0,0:0:0:0:s_043.ogg
475,192,54642,1,0,0:0:0:0:s_040.ogg
36,192,54750,1,0,0:0:0:0:s_052.ogg
109,192,54857,1,0,0:0:0:0:s_054.ogg
329,192,54857,1,0,0:0:0:0:s_035.ogg
182,192,54964,1,0,0:0:0:0:s_055.ogg
256,192,55071,1,0,0:0:0:0:s_057.ogg
402,192,55071,1,0,0:0:0:0:s_042.ogg
475,192,55071,1,0,0:0:0:0:s_045.ogg
109,192,55178,1,0,0:0:0:0:s_054.ogg
36,192,55285,1,0,0:0:0:0:s_051.ogg
402,192,55285,1,0,0:0:0:0:s_042.ogg
475,192,55285,1,0,0:0:0:0:s_045.ogg
109,192,55392,1,0,0:0:0:0:s_052.ogg
182,192,55500,1,0,0:0:0:0:s_054.ogg
402,192,55500,1,0,0:0:0:0:s_042.ogg
475,192,55500,1,0,0:0:0:0:s_045.ogg
36,192,55607,1,0,0:0:0:0:s_051.ogg
329,192,55714,128,0,56142:0:0:0:0:m_043.ogg
256,192,55714,128,0,56142:0:0:0:0:m_040.ogg
109,192,55714,128,0,56142:0:0:0:0:m_052.ogg
475,192,56142,1,0,0:0:0:0:s_055.ogg
402,192,56250,1,0,0:0:0:0:s_053.ogg
329,192,56357,1,0,0:0:0:0:s_052.ogg
256,192,56464,1,0,0:0:0:0:s_050.ogg
36,192,56571,1,0,0:0:0:0:s_036.ogg
475,192,56571,1,0,0:0:0:0:s_048.ogg
256,192,56678,1,0,0:0:0:0:s_050.ogg
109,192,56785,1,0,0:0:0:0:s_043.ogg
182,192,56785,1,0,0:0:0:0:s_040.ogg
329,192,56785,1,0,0:0:0:0:s_052.ogg
402,192,56892,1,0,0:0:0:0:s_053.ogg
109,192,57000,1,0,0:0:0:0:s_040.ogg
182,192,57000,1,0,0:0:0:0:s_043.ogg
256,192,57000,1,0,0:0:0:0:s_055.ogg
329,192,57107,1,0,0:0:0:0:s_057.ogg
109,192,57214,1,0,0:0:0:0:s_040.ogg
182,192,57214,1,0,0:0:0:0:s_043.ogg
402,192,57214,1,0,0:0:0:0:s_059.ogg
475,192,57321,1,0,0:0:0:0:s_060.ogg
36,192,57428,1,0,0:0:0:0:s_038.ogg
475,192,57428,1,0,0:0:0:0:s_060.ogg
402,192,57535,1,0,0:0:0:0:s_059.ogg
36,192,57642,1,0,0:0:0:0:s_041.ogg
182,192,57642,1,0,0:0:0:0:s_043.ogg
329,192,57642,1,0,0:0:0:0:s_057.ogg
256,192,57750,1,0,0:0:0:0:s_055.ogg
109,192,57857,1,0,0:0:0:0:s_035.ogg
256,192,57857,1,0,0:0:0:0:s_055.ogg
475,192,57964,1,0,0:0:0:0:s_053.ogg
36,192,58071,1,0,0:0:0:0:s_043.ogg
109,192,58071,1,0,0:0:0:0:s_041.ogg
402,192,58071,1,0,0:0:0:0:s_052.ogg
329,192,58178,1,0,0:0:0:0:s_050.ogg
36,192,58285,1,0,0:0:0:0:s_036.ogg
256,192,58285,1,0,0:0:0:0:s_048.ogg
329,192,58392,1,0,0:0:0:0:s_050.ogg
109,192,58500,1,0,0:0:0:0:s_043.ogg
182,192,58500,1,0,0:0:0:0:s_040.ogg
402,192,58500,1,0,0:0:0:0:s_052.ogg
475,192,58607,1,0,0:0:0:0:s_053.ogg
109,192,58714,1,0,0:0:0:0:s_040.ogg
182,192,58714,1,0,0:0:0:0:s_043.ogg
256,192,58714,1,0,0:0:0:0:s_055.ogg
329,192,58821,1,0,0:0:0:0:s_057.ogg
109,192,58928,1,0,0:0:0:0:s_040.ogg
182,192,58928,1,0,0:0:0:0:s_043.ogg
402,192,58928,1,0,0:0:0:0:s_059.ogg
475,192,59035,1,0,0:0:0:0:s_060.ogg
109,192,59142,1,0,0:0:0:0:s_031.ogg
329,192,59142,128,0,59357:0:0:0:0:s_061.ogg
36,192,59357,1,0,0:0:0:0:s_041.ogg
182,192,59357,1,0,0:0:0:0:s_035.ogg
402,192,59357,128,0,59571:0:0:0:0:s_062.ogg
36,192,59571,1,0,0:0:0:0:s_035.ogg
182,192,59571,1,0,0:0:0:0:s_041.ogg
475,192,59571,1,0,0:0:0:0:s_055.ogg
402,192,59678,1,0,0:0:0:0:s_053.ogg
36,192,59785,1,0,0:0:0:0:s_035.ogg
182,192,59785,1,0,0:0:0:0:s_041.ogg
329,192,59785,1,0,0:0:0:0:s_052.ogg
256,192,59892,1,0,0:0:0:0:s_050.ogg
36,192,60000,1,0,0:0:0:0:s_036.ogg
475,192,60000,1,0,0:0:0:0:s_048.ogg
329,192,60107,1,0,0:0:0:0:s_050.ogg
109,192,60214,1,0,0:0:0:0:s_043.ogg
182,192,60214,1,0,0:0:0:0:s_040.ogg
402,192,60214,1,0,0:0:0:0:s_052.ogg
475,192,60321,1,0,0:0:0:0:s_053.ogg
109,192,60428,1,0,0:0:0:0:s_040.ogg
182,192,60428,1,0,0:0:0:0:s_043.ogg
256,192,60428,1,0,0:0:0:0:s_055.ogg
329,192,60535,1,0,0:0:0:0:s_057.ogg
109,192,60642,1,0,0:0:0:0:s_040.ogg
182,192,60642,1,0,0:0:0:0:s_043.ogg
402,192,60642,1,0,0:0:0:0:s_059.ogg
475,192,60750,1,0,0:0:0:0:s_060.ogg
36,192,60857,1,0,0:0:0:0:s_038.ogg
475,192,60857,1,0,0:0:0:0:s_060.ogg
402,192,60964,1,0,0:0:0:0:s_059.ogg
36,192,61071,1,0,0:0:0:0:s_041.ogg
182,192,61071,1,0,0:0:0:0:s_043.ogg
329,192,61071,1,0,0:0:0:0:s_057.ogg
256,192,61178,1,0,0:0:0:0:s_055.ogg
109,192,61285,1,0,0:0:0:0:s_035.ogg
256,192,61285,1,0,0:0:0:0:s_055.ogg
402,192,61392,1,0,0:0:0:0:s_053.ogg
36,192,61500,1,0,0:0:0:0:s_043.ogg
109,192,61500,1,0,0:0:0:0:s_041.ogg
329,192,61500,1,0,0:0:0:0:s_052.ogg
256,192,61607,1,0,0:0:0:0:s_050.ogg
182,192,61714,1,0,0:0:0:0:s_036.ogg
402,192,61714,1,0,0:0:0:0:s_052.ogg
475,192,61821,1,0,0:0:0:0:s_055.ogg
109,192,61928,1,0,0:0:0:0:s_033.ogg
256,192,61928,1,0,0:0:0:0:s_048.ogg
402,192,62035,1,0,0:0:0:0:s_052.ogg
36,192,62142,1,0,0:0:0:0:s_029.ogg
329,192,62142,1,0,0:0:0:0:s_050.ogg
475,192,62250,1,0,0:0:0:0:s_053.ogg
109,192,62357,1,0,0:0:0:0:s_031.ogg
256,192,62357,1,0,0:0:0:0:s_047.ogg
402,192,62464,1,0,0:0:0:0:s_050.ogg
36,192,62571,1,0,0:0:0:0:s_024.ogg
329,192,62571,128,0,63000:0:0:0:0:m_048.ogg
182,192,62785,1,0,0:0:0:0:s_036.ogg
402,192,63000,1,0,0:0:0:0:s_064.ogg
475,192,63107,1,0,0:0:0:0:s_065.ogg
402,192,63214,1,0,0:0:0:0:s_064.ogg
329,192,63321,1,0,0:0:0:0:s_062.ogg
36,192,63428,1,0,0:0:0:0:s_033.ogg
256,192,63428,1,0,0:0:0:0:s_060.ogg
475,192,63535,1,0,0:0:0:0:s_062.ogg
109,192,63642,1,0,0:0:0:0:s_040.ogg
182,192,63642,1,0,0:0:0:0:s_036.ogg
402,192,63642,1,0,0:0:0:0:s_060.ogg
329,192,63750,1,0,0:0:0:0:s_059.ogg
109,192,63857,1,0,0:0:0:0:s_036.ogg
182,192,63857,1,0,0:0:0:0:s_040.ogg
256,192,63857,1,0,0:0:0:0:s_057.ogg
402,192,63964,1,0,0:0:0:0:s_060.ogg
109,192,64071,1,0,0:0:0:0:s_036.ogg
182,192,64071,1,0,0:0:0:0:s_040.ogg
329,192,64071,1,0,0:0:0:0:s_059.ogg
256,192,64178,1,0,0:0:0:0:s_057.ogg
109,192,64285,1,0,0:0:0:0:s_035.ogg
329,192,64285,1,0,0:0:0:0:s_056.ogg
402,192,64392,1,0,0:0:0:0:s_057.ogg
36,192,64500,1,0,0:0:0:0:s_040.ogg
182,192,64500,1,0,0:0:0:0:s_038.ogg
475,192,64500,1,0,0:0:0:0:s_059.ogg
329,192,64607,1,0,0:0:0:0:s_056.ogg
36,192,64714,1,0,0:0:0:0:s_038.ogg
182,192,64714,1,0,0:0:0:0:s_040.ogg
256,192,64714,1,0,0:0:0:0:s_052.ogg
329,192,64821,1,0,0:0:0:0:s_054.ogg
36,192,64928,1,0,0:0:0:0:s_038.ogg
182,192,64928,1,0,0:0:0:0:s_040.ogg
402,192,64928,1,0,0:0:0:0:s_056.ogg
256,192,65035,1,0,0:0:0:0:s_052.ogg
36,192,65142,1,0,0:0:0:0:s_033.ogg
475,192,65142,1,0,0:0:0:0:s_057.ogg
256,192,65250,1,0,0:0:0:0:s_056.ogg
109,192,65357,1,0,0:0:0:0:s_040.ogg
182,192,65357,1,0,0:0:0:0:s_036.ogg
329,192,65357,1,0,0:0:0:0:s_057.ogg
402,192,65464,1,0,0:0:0:0:s_059.ogg
109,192,65571,1,0,0:0:0:0:s_036.ogg
182,192,65571,1,0,0:0:0:0:s_040.ogg
475,192,65571,1,0,0:0:0:0:s_060.ogg
256,192,65678,1,0,0:0:0:0:s_059.ogg
109,192,65785,1,0,0:0:0:0:s_036.ogg
182,192,65785,1,0,0:0:0:0:s_040.ogg
329,192,65785,1,0,0:0:0:0:s_060.ogg
475,192,65892,1,0,0:0:0:0:s_062.ogg
109,192,66000,1,0,0:0:0:0:s_028.ogg
402,192,66000,1,0,0:0:0:0:s_064.ogg
329,192,66107,1,0,0:0:0:0:s_063.ogg
36,192,66214,1,0,0:0:0:0:s_035.ogg
182,192,66214,1,0,0:0:0:0:s_040.ogg
402,192,66214,1,0,0:0:0:0:s_064.ogg
329,192,66321,1,0,0:0:0:0:s_063.ogg
109,192,66428,1,0,0:0:0:0:s_034.ogg
182,192,66428,1,0,0:0:0:0:s_040.ogg
402,192,66428,1,0,0:0:0:0:s_064.ogg
329,192,66535,1,0,0:0:0:0:s_063.ogg
36,192,66642,1,0,0:0:0:0:s_033.ogg
182,192,66642,1,0,0:0:0:0:s_040.ogg
402,192,66642,1,0,0:0:0:0:s_064.ogg
256,192,66750,1,0,0:0:0:0:s_061.ogg
109,192,66857,1,0,0:0:0:0:s_026.ogg
475,192,66857,1,0,0:0:0:0:s_065.ogg
402,192,66964,1,0,0:0:0:0:s_064.ogg
36,192,67071,1,0,0:0:0:0:s_033.ogg
182,192,67071,1,0,0:0:0:0:s_038.ogg
475,192,67071,1,0,0:0:0:0:s_065.ogg
402,192,67178,1,0,0:0:0:0:s_064.ogg
36,192,67285,1,0,0:0:0:0:s_033.ogg
182,192,67285,1,0,0:0:0:0:s_038.ogg
475,192,67285,1,0,0:0:0:0:s_065.ogg
402,192,67392,1,0,0:0:0:0:s_064.ogg
36,192,67500,1,0,0:0:0:0:s_033.ogg
182,192,67500,1,0,0:0:0:0:s_038.ogg
475,192,67500,1,0,0:0:0:0:s_065.ogg
402,192,67607,1,0,0:0:0:0:s_064.ogg
36,192,67714,1,0,0:0:0:0:s_026.ogg
475,192,67714,1,0,0:0:0:0:s_065.ogg
402,192,67821,1,0,0:0:0:0:s_064.ogg
109,192,67928,1,0,0:0:0:0:s_035.ogg
182,192,67928,1,0,0:0:0:0:s_038.ogg
329,192,67928,1,0,0:0:0:0:s_062.ogg
475,192,68035,1,0,0:0:0:0:s_060.ogg
109,192,68142,1,0,0:0:0:0:s_035.ogg
182,192,68142,1,0,0:0:0:0:s_038.ogg
256,192,68142,1,0,0:0:0:0:s_059.ogg
329,192,68250,1,0,0:0:0:0:s_060.ogg
109,192,68357,1,0,0:0:0:0:s_035.ogg
182,192,68357,1,0,0:0:0:0:s_038.ogg
402,192,68357,1,0,0:0:0:0:s_062.ogg
256,192,68464,1,0,0:0:0:0:s_059.ogg
36,192,68571,1,0,0:0:0:0:s_028.ogg
329,192,68571,1,0,0:0:0:0:s_060.ogg
402,192,68678,1,0,0:0:0:0:s_062.ogg
36,192,68785,1,0,0:0:0:0:s_033.ogg
182,192,68785,1,0,0:0:0:0:s_036.ogg
475,192,68785,1,0,0:0:0:0:s_064.ogg
329,192,68892,1,0,0:0:0:0:s_057.ogg
109,192,69000,1,0,0:0:0:0:s_028.ogg
256,192,69000,1,0,0:0:0:0:s_056.ogg
329,192,69107,1,0,0:0:0:0:s_057.ogg
109,192,69214,1,0,0:0:0:0:s_035.ogg
182,192,69214,1,0,0:0:0:0:s_038.ogg
402,192,69214,1,0,0:0:0:0:s_059.ogg
256,192,69321,1,0,0:0:0:0:s_056.ogg
329,192,69428,128,0,69857:0:0:0:0:m_057.ogg
182,192,69428,128,0,69857:0:0:0:0:m_036.ogg
36,192,69428,128,0,69857:0:0:0:0:m_033.ogg
256,192,69857,1,0,0:0:0:0:s_048.ogg
402,192,69964,1,0,0:0:0:0:s_060.ogg
329,192,70071,1,0,0:0:0:0:s_050.ogg
475,192,70178,1,0,0:0:0:0:s_062.ogg
36,192,70285,1,0,0:0:0:0:m_024.ogg
402,192,70285,1,0,0:0:0:0:m_052.ogg
109,192,70321,1,0,0:0:0:0:m_028.ogg
182,192,70357,1,0,0:0:0:0:m_031.ogg
256,192,70392,1,0,0:0:0:0:s_036.ogg
475,192,70392,1,0,0:0:0:0:m_064.ogg
36,192,70500,1,0,0:0:0:0:s_036.ogg
36,192,70714,1,0,0:0:0:0:s_036.ogg
256,192,70714,1,0,0:0:0:0:s_048.ogg
402,192,70821,1,0,0:0:0:0:s_060.ogg
36,192,70928,1,0,0:0:0:0:s_036.ogg
329,192,70928,1,0,0:0:0:0:s_050.ogg
475,192,71035,1,0,0:0:0:0:s_062.ogg
36,192,71142,1,0,0:0:0:0:m_024.ogg
402,192,71142,1,0,0:0:0:0:m_052.ogg
109,192,71178,1,0,0:0:0:0:m_028.ogg
182,192,71214,1,0,0:0:0:0:m_031.ogg
256,192,71250,1,0,0:0:0:0:s_036.ogg
475,192,71250,1,0,0:0:0:0:m_064.ogg
36,192,71357,1,0,0:0:0:0:s_036.ogg
329,192,71357,1,0,0:0:0:0:s_050.ogg
475,192,71464,1,0,0:0:0:0:s_062.ogg
36,192,71571,1,0,0:0:0:0:s_036.ogg
256,192,71571,1,0,0:0:0:0:s_048.ogg
402,192,71678,1,0,0:0:0:0:s_060.ogg
36,192,71785,1,0,0:0:0:0:s_036.ogg
182,192,71785,1,0,0:0:0:0:s_047.ogg
329,192,71892,1,0,0:0:0:0:s_059.ogg
36,192,72000,1,0,0:0:0:0:s_045.ogg
256,192,72000,1,0,0:0:0:0:s_017.ogg
329,192,72035,1,0,0:0:0:0:s_021.ogg
402,192,72071,1,0,0:0:0:0:s_024.ogg
109,192,72107,1,0,0:0:0:0:s_057.ogg
475,192,72107,1,0,0:0:0:0:s_029.ogg
36,192,72214,1,0,0:0:0:0:s_047.ogg
329,192,72214,1,0,0:0:0:0:s_029.ogg
182,192,72321,1,0,0:0:0:0:s_059.ogg
109,192,72428,1,0,0:0:0:0:s_048.ogg
256,192,72428,1,0,0:0:0:0:s_018.ogg
329,192,72464,1,0,0:0:0:0:s_021.ogg
402,192,72500,1,0,0:0:0:0:s_024.ogg
182,192,72535,1,0,0:0:0:0:s_060.ogg
475,192,72535,1,0,0:0:0:0:s_030.ogg
109,192,72642,1,0,0:0:0:0:s_050.ogg
329,192,72642,1,0,0:0:0:0:s_030.ogg
402,192,72750,1,0,0:0:0:0:s_062.ogg
109,192,72857,1,0,0:0:0:0:m_047.ogg
256,192,72857,1,0,0:0:0:0:m_019.ogg
329,192,72892,1,0,0:0:0:0:m_023.ogg
402,192,72928,1,0,0:0:0:0:m_026.ogg
182,192,72964,1,0,0:0:0:0:m_059.ogg
475,192,72964,1,0,0:0:0:0:s_031.ogg
36,192,73071,1,0,0:0:0:0:s_043.ogg
329,192,73071,1,0,0:0:0:0:s_031.ogg
109,192,73178,1,0,0:0:0:0:s_055.ogg
182,192,73285,1,0,0:0:0:0:s_031.ogg
256,192,73285,1,0,0:0:0:0:s_048.ogg
402,192,73392,1,0,0:0:0:0:s_060.ogg
182,192,73500,1,0,0:0:0:0:s_031.ogg
329,192,73500,1,0,0:0:0:0:s_050.ogg
475,192,73607,1,0,0:0:0:0:s_062.ogg
36,192,73714,1,0,0:0:0:0:m_024.ogg
402,192,73714,1,0,0:0:0:0:m_052.ogg
109,192,73750,1,0,0:0:0:0:m_028.ogg
182,192,73785,1,0,0:0:0:0:m_031.ogg
256,192,73821,1,0,0:0:0:0:s_036.ogg
475,192,73821,1,0,0:0:0:0:m_064.ogg
36,192,73928,1,0,0:0:0:0:s_036.ogg
36,192,74142,1,0,0:0:0:0:s_036.ogg
256,192,74142,1,0,0:0:0:0:s_048.ogg
402,192,74250,1,0,0:0:0:0:s_060.ogg
36,192,74357,1,0,0:0:0:0:s_036.ogg
329,192,74357,1,0,0:0:0:0:s_050.ogg
475,192,74464,1,0,0:0:0:0:s_062.ogg
36,192,74571,1,0,0:0:0:0:m_024.ogg
402,192,74571,1,0,0:0:0:0:m_052.ogg
109,192,74607,1,0,0:0:0:0:m_028.ogg
182,192,74642,1,0,0:0:0:0:m_031.ogg
256,192,74678,1,0,0:0:0:0:s_036.ogg
475,192,74678,1,0,0:0:0:0:m_064.ogg
36,192,74785,1,0,0:0:0:0:s_036.ogg
329,192,74785,1,0,0:0:0:0:s_050.ogg
475,192,74892,1,0,0:0:0:0:s_062.ogg
36,192,75000,1,0,0:0:0:0:s_036.ogg
256,192,75000,1,0,0:0:0:0:s_048.ogg
402,192,75107,1,0,0:0:0:0:s_060.ogg
36,192,75214,1,0,0:0:0:0:s_036.ogg
182,192,75214,1,0,0:0:0:0:s_047.ogg
329,192,75321,1,0,0:0:0:0:s_059.ogg
36,192,75428,1,0,0:0:0:0:s_045.ogg
256,192,75428,1,0,0:0:0:0:s_017.ogg
329,192,75464,1,0,0:0:0:0:s_021.ogg
402,192,75500,1,0,0:0:0:0:s_024.ogg
182,192,75535,1,0,0:0:0:0:s_057.ogg
475,192,75535,1,0,0:0:0:0:s_029.ogg
109,192,75642,1,0,0:0:0:0:s_050.ogg
329,192,75642,1,0,0:0:0:0:s_029.ogg
402,192,75750,1,0,0:0:0:0:s_062.ogg
109,192,75857,1,0,0:0:0:0:s_047.ogg
256,192,75857,1,0,0:0:0:0:s_019.ogg
329,192,75892,1,0,0:0:0:0:s_023.ogg
402,192,75928,1,0,0:0:0:0:s_026.ogg
182,192,75964,1,0,0:0:0:0:s_059.ogg
475,192,75964,1,0,0:0:0:0:s_031.ogg
36,192,76071,1,0,0:0:0:0:s_043.ogg
329,192,76071,1,0,0:0:0:0:s_031.ogg
109,192,76178,1,0,0:0:0:0:s_055.ogg
256,192,76285,1,0,0:0:0:0:m_024.ogg
402,192,76285,1,0,0:0:0:0:m_060.ogg
475,192,76285,1,0,0:0:0:0:m_048.ogg
256,192,76714,1,0,0:0:0:0:s_048.ogg
402,192,76821,1,0,0:0:0:0:s_060.ogg
329,192,76928,1,0,0:0:0:0:s_050.ogg
475,192,77035,1,0,0:0:0:0:s_062.ogg
36,192,77142,1,0,0:0:0:0:m_024.ogg
402,192,77142,1,0,0:0:0:0:m_052.ogg
109,192,77178,1,0,0:0:0:0:m_028.ogg
182,192,77214,1,0,0:0:0:0:m_031.ogg
256,192,77250,1,0,0:0:0:0:s_036.ogg
475,192,77250,1,0,0:0:0:0:m_064.ogg
36,192,77357,1,0,0:0:0:0:s_036.ogg
36,192,77571,1,0,0:0:0:0:s_036.ogg
256,192,77571,1,0,0:0:0:0:s_048.ogg
402,192,77678,1,0,0:0:0:0:s_060.ogg
36,192,77785,1,0,0:0:0:0:s_036.ogg
329,192,77785,1,0,0:0:0:0:s_050.ogg
475,192,77892,1,0,0:0:0:0:s_062.ogg
36,192,78000,1,0,0:0:0:0:m_024.ogg
402,192,78000,1,0,0:0:0:0:m_052.ogg
109,192,78035,1,0,0:0:0:0:m_028.ogg
182,192,78071,1,0,0:0:0:0:m_031.ogg
256,192,78107,1,0,0:0:0:0:s_036.ogg
475,192,78107,1,0,0:0:0:0:m_064.ogg
36,192,78214,1,0,0:0:0:0:s_036.ogg
329,192,78214,1,0,0:0:0:0:s_050.ogg
475,192,78321,1,0,0:0:0:0:s_062.ogg
36,192,78428,1,0,0:0:0:0:s_036.ogg
256,192,78428,1,0,0:0:0:0:s_048.ogg
402,192,78535,1,0,0:0:0:0:s_060.ogg
36,192,78642,1,0,0:0:0:0:s_036.ogg
182,192,78642,1,0,0:0:0:0:s_047.ogg
329,192,78750,1,0,0:0:0:0:s_059.ogg
36,192,78857,1,0,0:0:0:0:s_045.ogg
256,192,78857,1,0,0:0:0:0:s_017.ogg
329,192,78892,1,0,0:0:0:0:s_021.ogg
402,192,78928,1,0,0:0:0:0:s_024.ogg
109,192,78964,1,0,0:0:0:0:s_057.ogg
475,192,78964,1,0,0:0:0:0:s_029.ogg
36,192,79071,1,0,0:0:0:0:s_047.ogg
329,192,79071,1,0,0:0:0:0:s_029.ogg
182,192,79178,1,0,0:0:0:0:s_059.ogg
109,192,79285,1,0,0:0:0:0:s_048.ogg
256,192,79285,1,0,0:0:0:0:s_018.ogg
329,192,79321,1,0,0:0:0:0:s_021.ogg
402,192,79357,1,0,0:0:0:0:s_024.ogg
182,192,79392,1,0,0:0:0:0:s_060.ogg
475,192,79392,1,0,0:0:0:0:s_030.ogg
109,192,79500,1,0,0:0:0:0:s_050.ogg
329,192,79500,1,0,0:0:0:0:s_030.ogg
402,192,79607,1,0,0:0:0:0:s_062.ogg
109,192,79714,1,0,0:0:0:0:m_047.ogg
256,192,79714,1,0,0:0:0:0:m_019.ogg
329,192,79750,1,0,0:0:0:0:m_023.ogg
402,192,79785,1,0,0:0:0:0:m_026.ogg
182,192,79821,1,0,0:0:0:0:m_059.ogg
475,192,79821,1,0,0:0:0:0:s_031.ogg
36,192,79928,1,0,0:0:0:0:s_043.ogg
329,192,79928,1,0,0:0:0:0:s_031.ogg
109,192,80035,1,0,0:0:0:0:s_055.ogg
182,192,80142,1,0,0:0:0:0:s_031.ogg
256,192,80142,1,0,0:0:0:0:s_048.ogg
402,192,80250,1,0,0:0:0:0:s_060.ogg
182,192,80357,1,0,0:0:0:0:s_031.ogg
329,192,80357,1,0,0:0:0:0:s_050.ogg
475,192,80464,1,0,0:0:0:0:s_062.ogg
36,192,80571,1,0,0:0:0:0:m_024.ogg
402,192,80571,1,0,0:0:0:0:m_052.ogg
109,192,80607,1,0,0:0:0:0:m_028.ogg
182,192,80642,1,0,0:0:0:0:m_031.ogg
256,192,80678,1,0,0:0:0:0:s_036.ogg
475,192,80678,1,0,0:0:0:0:m_064.ogg
36,192,80785,1,0,0:0:0:0:s_036.ogg
36,192,81000,1,0,0:0:0:0:s_036.ogg
256,192,81000,1,0,0:0:0:0:s_048.ogg
402,192,81107,1,0,0:0:0:0:s_060.ogg
36,192,81214,1,0,0:0:0:0:s_036.ogg
329,192,81214,1,0,0:0:0:0:s_050.ogg
475,192,81321,1,0,0:0:0:0:s_062.ogg
36,192,81428,1,0,0:0:0:0:m_024.ogg
402,192,81428,1,0,0:0:0:0:m_052.ogg
109,192,81464,1,0,0:0:0:0:m_028.ogg
182,192,81500,1,0,0:0:0:0:m_031.ogg
256,192,81535,1,0,0:0:0:0:s_036.ogg
475,192,81535,1,0,0:0:0:0:m_064.ogg
36,192,81642,1,0,0:0:0:0:s_036.ogg
329,192,81642,1,0,0:0:0:0:s_050.ogg
475,192,81750,1,0,0:0:0:0:s_062.ogg
36,192,81857,1,0,0:0:0:0:s_036.ogg
256,192,81857,1,0,0:0:0:0:s_048.ogg
402,192,81964,1,0,0:0:0:0:s_060.ogg
36,192,82071,1,0,0:0:0:0:s_036.ogg
182,192,82071,1,0,0:0:0:0:s_047.ogg
329,192,82178,1,0,0:0:0:0:s_059.ogg
36,192,82285,1,0,0:0:0:0:s_045.ogg
256,192,82285,1,0,0:0:0:0:s_017.ogg
329,192,82321,1,0,0:0:0:0:s_021.ogg
402,192,82357,1,0,0:0:0:0:s_024.ogg
182,192,82392,1,0,0:0:0:0:s_057.ogg
475,192,82392,1,0,0:0:0:0:s_029.ogg
109,192,82500,1,0,0:0:0:0:s_050.ogg
329,192,82500,1,0,0:0:0:0:s_029.ogg
402,192,82607,1,0,0:0:0:0:s_062.ogg
109,192,82714,1,0,0:0:0:0:s_047.ogg
256,192,82714,1,0,0:0:0:0:s_019.ogg
329,192,82750,1,0,0:0:0:0:s_023.ogg
402,192,82785,1,0,0:0:0:0:s_026.ogg
182,192,82821,1,0,0:0:0:0:s_059.ogg
475,192,82821,1,0,0:0:0:0:s_031.ogg
36,192,82928,1,0,0:0:0:0:s_043.ogg
329,192,82928,1,0,0:0:0:0:s_031.ogg
402,192,83035,1,0,0:0:0:0:s_055.ogg
109,192,83142,1,0,0:0:0:0:m_048.ogg
182,192,83142,1,0,0:0:0:0:m_060.ogg
256,192,83142,1,0,0:0:0:0:m_024.ogg
329,192,83178,1,0,0:0:0:0:m_028.ogg
402,192,83214,1,0,0:0:0:0:m_031.ogg
475,192,83250,1,0,0:0:0:0:s_036.ogg
36,192,83357,1,0,0:0:0:0:s_036.ogg
36,192,83571,1,0,0:0:0:0:s_036.ogg
402,192,83571,1,0,0:0:0:0:m_052.ogg
475,192,83571,1,0,0:0:0:0:m_064.ogg
36,192,83785,1,0,0:0:0:0:s_036.ogg
475,192,83892,1,0,0:0:0:0:s_064.ogg
36,192,84000,1,0,0:0:0:0:m_048.ogg
256,192,84000,1,0,0:0:0:0:m_024.ogg
329,192,84035,1,0,0:0:0:0:m_028.ogg
109,192,84053,1,0,0:0:0:0:m_052.ogg
402,192,84071,1,0,0:0:0:0:m_031.ogg
182,192,84107,1,0,0:0:0:0:m_060.ogg
475,192,84107,1,0,0:0:0:0:s_036.ogg
256,192,84160,1,0,0:0:0:0:m_064.ogg
36,192,84214,1,0,0:0:0:0:s_036.ogg
36,192,84428,1,0,0:0:0:0:s_036.ogg
36,192,84642,1,0,0:0:0:0:s_036.ogg
36,192,84857,1,0,0:0:0:0:m_048.ogg
256,192,84857,1,0,0:0:0:0:m_024.ogg
329,192,84892,1,0,0:0:0:0:m_028.ogg
109,192,84910,1,0,0:0:0:0:m_052.ogg
402,192,84928,1,0,0:0:0:0:m_031.ogg
182,192,84964,1,0,0:0:0:0:m_060.ogg
475,192,84964,1,0,0:0:0:0:s_036.ogg
256,192,85017,1,0,0:0:0:0:m_064.ogg
36,192,85071,1,0,0:0:0:0:s_036.ogg
36,192,85285,1,0,0:0:0:0:s_036.ogg
36,192,85500,1,0,0:0:0:0:s_036.ogg
36,192,85714,1,0,0:0:0:0:m_024.ogg
475,192,85714,1,0,0:0:0:0:m_065.ogg
109,192,85750,1,0,0:0:0:0:m_028.ogg
182,192,85785,1,0,0:0:0:0:m_031.ogg
256,192,85821,1,0,0:0:0:0:s_036.ogg
402,192,85821,1,0,0:0:0:0:s_064.ogg
36,192,85928,1,0,0:0:0:0:s_036.ogg
329,192,85928,1,0,0:0:0:0:s_062.ogg
402,192,86035,1,0,0:0:0:0:s_064.ogg
36,192,86142,1,0,0:0:0:0:s_036.ogg
475,192,86142,1,0,0:0:0:0:s_065.ogg
402,192,86250,1,0,0:0:0:0:s_064.ogg
36,192,86357,1,0,0:0:0:0:s_036.ogg
329,192,86357,1,0,0:0:0:0:s_062.ogg
402,192,86464,1,0,0:0:0:0:s_064.ogg
36,192,86571,1,0,0:0:0:0:m_017.ogg
329,192,86571,1,0,0:0:0:0:m_060.ogg
475,192,86571,1,0,0:0:0:0:m_065.ogg
109,192,86607,1,0,0:0:0:0:m_021.ogg
182,192,86642,1,0,0:0:0:0:m_024.ogg
256,192,86678,1,0,0:0:0:0:s_029.ogg
182,192,86785,1,0,0:0:0:0:s_029.ogg
182,192,87000,1,0,0:0:0:0:s_029.ogg
182,192,87214,1,0,0:0:0:0:s_029.ogg
36,192,87428,1,0,0:0:0:0:m_024.ogg
475,192,87428,1,0,0:0:0:0:s_065.ogg
109,192,87464,1,0,0:0:0:0:m_028.ogg
256,192,87482,1,0,0:0:0:0:s_055.ogg
329,192,87482,1,0,0:0:0:0:s_060.ogg
402,192,87482,1,0,0:0:0:0:s_064.ogg
182,192,87500,1,0,0:0:0:0:m_031.ogg
36,192,87642,1,0,0:0:0:0:s_036.ogg
475,192,87642,1,0,0:0:0:0:s_065.ogg
256,192,87696,1,0,0:0:0:0:s_055.ogg
329,192,87696,1,0,0:0:0:0:s_060.ogg
402,192,87696,1,0,0:0:0:0:s_064.ogg
36,192,87857,1,0,0:0:0:0:s_036.ogg
475,192,87857,1,0,0:0:0:0:s_065.ogg
256,192,87910,1,0,0:0:0:0:s_055.ogg
329,192,87910,1,0,0:0:0:0:s_060.ogg
402,192,87910,1,0,0:0:0:0:s_064.ogg
36,192,88071,1,0,0:0:0:0:s_036.ogg
475,192,88071,1,0,0:0:0:0:s_065.ogg
256,192,88125,1,0,0:0:0:0:s_055.ogg
329,192,88125,1,0,0:0:0:0:s_060.ogg
402,192,88125,1,0,0:0:0:0:s_064.ogg
36,192,88285,1,0,0:0:0:0:m_019.ogg
256,192,88285,1,0,0:0:0:0:m_062.ogg
329,192,88285,1,0,0:0:0:0:m_059.ogg
475,192,88285,1,0,0:0:0:0:m_055.ogg
109,192,88321,1,0,0:0:0:0:m_023.ogg
182,192,88357,1,0,0:0:0:0:m_026.ogg
109,192,88500,1,0,0:0:0:0:s_031.ogg
109,192,88714,1,0,0:0:0:0:s_031.ogg
109,192,88928,1,0,0:0:0:0:s_031.ogg
475,192,88928,1,0,0:0:0:0:s_067.ogg
36,192,89142,1,0,0:0:0:0:m_048.ogg
256,192,89142,1,0,0:0:0:0:m_024.ogg
329,192,89178,1,0,0:0:0:0:m_028.ogg
109,192,89196,1,0,0:0:0:0:m_052.ogg
402,192,89214,1,0,0:0:0:0:m_031.ogg
182,192,89250,1,0,0:0:0:0:m_060.ogg
475,192,89250,1,0,0:0:0:0:s_036.ogg
256,192,89303,1,0,0:0:0:0:m_064.ogg
36,192,89357,1,0,0:0:0:0:s_036.ogg
36,192,89571,1,0,0:0:0:0:s_036.ogg
36,192,89785,1,0,0:0:0:0:s_036.ogg
36,192,90000,1,0,0:0:0:0:m_048.ogg
256,192,90000,1,0,0:0:0:0:m_024.ogg
329,192,90035,1,0,0:0:0:0:m_028.ogg
109,192,90053,1,0,0:0:0:0:m_052.ogg
402,192,90071,1,0,0:0:0:0:m_031.ogg
182,192,90107,1,0,0:0:0:0:m_060.ogg
475,192,90107,1,0,0:0:0:0:s_036.ogg
256,192,90160,1,0,0:0:0:0:m_064.ogg
36,192,90214,1,0,0:0:0:0:s_036.ogg
36,192,90428,1,0,0:0:0:0:s_036.ogg
36,192,90642,1,0,0:0:0:0:s_036.ogg
36,192,90857,1,0,0:0:0:0:m_024.ogg
475,192,90857,1,0,0:0:0:0:m_065.ogg
109,192,90892,1,0,0:0:0:0:m_028.ogg
182,192,90928,1,0,0:0:0:0:m_031.ogg
256,192,90964,1,0,0:0:0:0:s_036.ogg
402,192,90964,1,0,0:0:0:0:s_064.ogg
36,192,91071,1,0,0:0:0:0:s_036.ogg
329,192,91071,1,0,0:0:0:0:s_062.ogg
402,192,91178,1,0,0:0:0:0:s_064.ogg
36,192,91285,1,0,0:0:0:0:s_036.ogg
475,192,91285,1,0,0:0:0:0:s_065.ogg
402,192,91392,1,0,0:0:0:0:s_064.ogg
36,192,91500,1,0,0:0:0:0:s_036.ogg
329,192,91500,1,0,0:0:0:0:s_062.ogg
402,192,91607,1,0,0:0:0:0:s_064.ogg
36,192,91714,1,0,0:0:0:0:m_017.ogg
329,192,91714,1,0,0:0:0:0:m_060.ogg
475,192,91714,1,0,0:0:0:0:m_065.ogg
109,192,91750,1,0,0:0:0:0:m_021.ogg
182,192,91785,1,0,0:0:0:0:m_024.ogg
256,192,91821,1,0,0:0:0:0:s_029.ogg
182,192,91928,1,0,0:0:0:0:s_029.ogg
182,192,92142,1,0,0:0:0:0:s_029.ogg
182,192,92357,1,0,0:0:0:0:s_029.ogg
36,192,92571,1,0,0:0:0:0:m_024.ogg
475,192,92571,1,0,0:0:0:0:m_065.ogg
109,192,92607,1,0,0:0:0:0:m_028.ogg
256,192,92625,1,0,0:0:0:0:m_060.ogg
329,192,92625,1,0,0:0:0:0:m_064.ogg
402,192,92625,1,0,0:0:0:0:m_055.ogg
182,192,92642,1,0,0:0:0:0:m_031.ogg
36,192,92785,1,0,0:0:0:0:s_036.ogg
36,192,93000,1,0,0:0:0:0:s_036.ogg
36,192,93214,1,0,0:0:0:0:s_036.ogg
36,192,93428,1,0,0:0:0:0:m_019.ogg
402,192,93428,1,0,0:0:0:0:s_064.ogg
109,192,93464,1,0,0:0:0:0:m_023.ogg
256,192,93482,1,0,0:0:0:0:s_055.ogg
329,192,93482,1,0,0:0:0:0:s_059.ogg
475,192,93482,1,0,0:0:0:0:s_062.ogg
182,192,93500,1,0,0:0:0:0:m_026.ogg
109,192,93642,1,0,0:0:0:0:s_031.ogg
402,192,93642,1,0,0:0:0:0:s_064.ogg
256,192,93696,1,0,0:0:0:0:s_055.ogg
329,192,93696,1,0,0:0:0:0:s_059.ogg
475,192,93696,1,0,0:0:0:0:s_062.ogg
109,192,93857,1,0,0:0:0:0:s_031.ogg
402,192,93857,1,0,0:0:0:0:s_064.ogg
256,192,93910,1,0,0:0:0:0:s_055.ogg
329,192,93910,1,0,0:0:0:0:s_059.ogg
475,192,93910,1,0,0:0:0:0:s_062.ogg
109,192,94071,1,0,0:0:0:0:s_031.ogg
402,192,94071,1,0,0:0:0:0:s_064.ogg
256,192,94125,1,0,0:0:0:0:s_055.ogg
329,192,94125,1,0,0:0:0:0:s_059.ogg
475,192,94125,1,0,0:0:0:0:s_062.ogg
36,192,94285,1,0,0:0:0:0:s_036.ogg
256,192,94285,1,0,0:0:0:0:m_060.ogg
182,192,94392,1,0,0:0:0:0:s_043.ogg
109,192,94500,1,0,0:0:0:0:s_040.ogg
182,192,94607,1,0,0:0:0:0:s_043.ogg
36,192,94714,1,0,0:0:0:0:s_036.ogg
256,192,94714,1,0,0:0:0:0:s_055.ogg
329,192,94741,1,0,0:0:0:0:s_060.ogg
402,192,94767,1,0,0:0:0:0:m_064.ogg
182,192,94821,1,0,0:0:0:0:s_043.ogg
109,192,94928,1,0,0:0:0:0:s_040.ogg
182,192,95035,1,0,0:0:0:0:s_043.ogg
402,192,95035,1,0,0:0:0:0:s_064.ogg
36,192,95142,1,0,0:0:0:0:s_036.ogg
256,192,95142,1,0,0:0:0:0:s_055.ogg
329,192,95169,1,0,0:0:0:0:s_060.ogg
402,192,95196,1,0,0:0:0:0:m_064.ogg
182,192,95250,1,0,0:0:0:0:s_043.ogg
109,192,95357,1,0,0:0:0:0:s_040.ogg
182,192,95464,1,0,0:0:0:0:s_043.ogg
36,192,95571,1,0,0:0:0:0:s_036.ogg
182,192,95678,1,0,0:0:0:0:s_043.ogg
109,192,95785,1,0,0:0:0:0:s_040.ogg
182,192,95892,1,0,0:0:0:0:s_043.ogg
36,192,96000,1,0,0:0:0:0:s_036.ogg
256,192,96000,1,0,0:0:0:0:s_055.ogg
329,192,96026,1,0,0:0:0:0:s_060.ogg
402,192,96053,1,0,0:0:0:0:m_064.ogg
182,192,96107,1,0,0:0:0:0:s_043.ogg
109,192,96214,1,0,0:0:0:0:s_040.ogg
182,192,96321,1,0,0:0:0:0:s_043.ogg
36,192,96428,1,0,0:0:0:0:s_036.ogg
182,192,96535,1,0,0:0:0:0:s_043.ogg
109,192,96642,1,0,0:0:0:0:s_040.ogg
182,192,96750,1,0,0:0:0:0:s_043.ogg
36,192,96857,1,0,0:0:0:0:s_036.ogg
475,192,96857,1,0,0:0:0:0:s_065.ogg
182,192,96964,1,0,0:0:0:0:s_043.ogg
402,192,96964,1,0,0:0:0:0:s_064.ogg
109,192,97071,1,0,0:0:0:0:s_040.ogg
329,192,97071,1,0,0:0:0:0:s_062.ogg
182,192,97178,1,0,0:0:0:0:s_043.ogg
402,192,97178,1,0,0:0:0:0:s_064.ogg
36,192,97285,1,0,0:0:0:0:s_036.ogg
475,192,97285,1,0,0:0:0:0:s_065.ogg
182,192,97392,1,0,0:0:0:0:s_043.ogg
402,192,97392,1,0,0:0:0:0:s_064.ogg
109,192,97500,1,0,0:0:0:0:s_040.ogg
329,192,97500,1,0,0:0:0:0:s_062.ogg
182,192,97607,1,0,0:0:0:0:s_043.ogg
402,192,97607,1,0,0:0:0:0:s_064.ogg
36,192,97714,1,0,0:0:0:0:s_036.ogg
475,192,97714,1,0,0:0:0:0:m_065.ogg
256,192,97821,1,0,0:0:0:0:s_045.ogg
182,192,97928,1,0,0:0:0:0:s_041.ogg
256,192,98035,1,0,0:0:0:0:s_045.ogg
36,192,98142,1,0,0:0:0:0:s_036.ogg
256,192,98250,1,0,0:0:0:0:s_045.ogg
182,192,98357,1,0,0:0:0:0:s_041.ogg
256,192,98464,1,0,0:0:0:0:s_045.ogg
36,192,98571,1,0,0:0:0:0:s_036.ogg
475,192,98571,1,0,0:0:0:0:s_065.ogg
402,192,98625,1,0,0:0:0:0:s_064.ogg
256,192,98678,1,0,0:0:0:0:s_043.ogg
109,192,98785,1,0,0:0:0:0:s_040.ogg
475,192,98785,1,0,0:0:0:0:s_065.ogg
402,192,98839,1,0,0:0:0:0:s_064.ogg
256,192,98892,1,0,0:0:0:0:s_043.ogg
36,192,99000,1,0,0:0:0:0:s_036.ogg
475,192,99000,1,0,0:0:0:0:s_065.ogg
402,192,99053,1,0,0:0:0:0:s_064.ogg
256,192,99107,1,0,0:0:0:0:s_043.ogg
109,192,99214,1,0,0:0:0:0:s_040.ogg
475,192,99214,1,0,0:0:0:0:s_065.ogg
402,192,99267,1,0,0:0:0:0:s_064.ogg
256,192,99321,1,0,0:0:0:0:s_043.ogg
36,192,99428,1,0,0:0:0:0:s_031.ogg
329,192,99428,1,0,0:0:0:0:m_062.ogg
182,192,99535,1,0,0:0:0:0:s_043.ogg
109,192,99642,1,0,0:0:0:0:s_038.ogg
182,192,99750,1,0,0:0:0:0:s_043.ogg
36,192,99857,1,0,0:0:0:0:s_031.ogg
182,192,99964,1,0,0:0:0:0:s_043.ogg
109,192,100071,1,0,0:0:0:0:s_038.ogg
475,192,100071,1,0,0:0:0:0:s_067.ogg
182,192,100178,1,0,0:0:0:0:s_043.ogg
36,192,100285,1,0,0:0:0:0:m_048.ogg
256,192,100285,1,0,0:0:0:0:m_024.ogg
329,192,100321,1,0,0:0:0:0:m_028.ogg
109,192,100339,1,0,0:0:0:0:m_052.ogg
402,192,100357,1,0,0:0:0:0:m_031.ogg
182,192,100392,1,0,0:0:0:0:m_060.ogg
475,192,100392,1,0,0:0:0:0:s_036.ogg
256,192,100446,1,0,0:0:0:0:m_064.ogg
36,192,100500,1,0,0:0:0:0:s_036.ogg
36,192,100714,1,0,0:0:0:0:s_036.ogg
36,192,100928,1,0,0:0:0:0:s_036.ogg
36,192,101142,1,0,0:0:0:0:m_048.ogg
256,192,101142,1,0,0:0:0:0:m_024.ogg
329,192,101178,1,0,0:0:0:0:m_028.ogg
109,192,101196,1,0,0:0:0:0:m_052.ogg
402,192,101214,1,0,0:0:0:0:m_031.ogg
182,192,101250,1,0,0:0:0:0:m_060.ogg
475,192,101250,1,0,0:0:0:0:s_036.ogg
256,192,101303,1,0,0:0:0:0:m_064.ogg
36,192,101357,1,0,0:0:0:0:s_036.ogg
36,192,101571,1,0,0:0:0:0:s_036.ogg
36,192,101785,1,0,0:0:0:0:s_036.ogg
36,192,102000,1,0,0:0:0:0:m_024.ogg
475,192,102000,1,0,0:0:0:0:m_065.ogg
109,192,102035,1,0,0:0:0:0:m_028.ogg
182,192,102071,1,0,0:0:0:0:m_031.ogg
256,192,102107,1,0,0:0:0:0:s_036.ogg
402,192,102107,1,0,0:0:0:0:s_064.ogg
36,192,102214,1,0,0:0:0:0:s_036.ogg
329,192,102214,1,0,0:0:0:0:s_062.ogg
402,192,102321,1,0,0:0:0:0:s_064.ogg
36,192,102428,1,0,0:0:0:0:s_036.ogg
475,192,102428,1,0,0:0:0:0:s_065.ogg
402,192,102535,1,0,0:0:0:0:s_064.ogg
36,192,102642,1,0,0:0:0:0:s_036.ogg
329,192,102642,1,0,0:0:0:0:s_062.ogg
402,192,102750,1,0,0:0:0:0:s_064.ogg
36,192,102857,1,0,0:0:0:0:m_017.ogg
329,192,102857,1,0,0:0:0:0:m_053.ogg
475,192,102857,1,0,0:0:0:0:m_065.ogg
109,192,102892,1,0,0:0:0:0:m_021.ogg
182,192,102928,1,0,0:0:0:0:m_024.ogg
256,192,102964,1,0,0:0:0:0:s_029.ogg
182,192,103071,1,0,0:0:0:0:s_029.ogg
182,192,103285,1,0,0:0:0:0:s_029.ogg
182,192,103500,1,0,0:0:0:0:s_029.ogg
36,192,103714,1,0,0:0:0:0:m_024.ogg
475,192,103714,1,0,0:0:0:0:m_065.ogg
109,192,103750,1,0,0:0:0:0:m_028.ogg
256,192,103767,1,0,0:0:0:0:m_060.ogg
329,192,103767,1,0,0:0:0:0:m_064.ogg
402,192,103767,1,0,0:0:0:0:m_055.ogg
182,192,103785,1,0,0:0:0:0:m_031.ogg
36,192,103928,1,0,0:0:0:0:s_036.ogg
36,192,104142,1,0,0:0:0:0:s_036.ogg
36,192,104357,1,0,0:0:0:0:s_036.ogg
36,192,104571,1,0,0:0:0:0:m_019.ogg
475,192,104571,1,0,0:0:0:0:s_064.ogg
109,192,104607,1,0,0:0:0:0:m_023.ogg
256,192,104625,1,0,0:0:0:0:s_055.ogg
329,192,104625,1,0,0:0:0:0:s_059.ogg
402,192,104625,1,0,0:0:0:0:s_062.ogg
182,192,104642,1,0,0:0:0:0:m_026.ogg
109,192,104785,1,0,0:0:0:0:s_031.ogg
475,192,104785,1,0,0:0:0:0:s_064.ogg
256,192,104839,1,0,0:0:0:0:s_055.ogg
329,192,104839,1,0,0:0:0:0:s_059.ogg
402,192,104839,1,0,0:0:0:0:s_062.ogg
109,192,105000,1,0,0:0:0:0:s_031.ogg
475,192,105000,1,0,0:0:0:0:s_064.ogg
256,192,105053,1,0,0:0:0:0:s_055.ogg
329,192,105053,1,0,0:0:0:0:s_059.ogg
402,192,105053,1,0,0:0:0:0:s_062.ogg
109,192,105214,1,0,0:0:0:0:s_031.ogg
475,192,105214,1,0,0:0:0:0:s_064.ogg
256,192,105267,1,0,0:0:0:0:s_055.ogg
329,192,105267,1,0,0:0:0:0:s_059.ogg
402,192,105267,1,0,0:0:0:0:s_062.ogg
36,192,105428,1,0,0:0:0:0:m_024.ogg
329,192,105428,1,0,0:0:0:0:m_060.ogg
402,192,105428,1,0,0:0:0:0:m_052.ogg
475,192,105428,1,0,0:0:0:0:m_055.ogg
109,192,105464,1,0,0:0:0:0:m_028.ogg
182,192,105500,1,0,0:0:0:0:m_031.ogg
256,192,105535,1,0,0:0:0:0:s_036.ogg
36,192,105642,1,0,0:0:0:0:s_036.ogg
36,192,105857,1,0,0:0:0:0:s_036.ogg
36,192,106071,1,0,0:0:0:0:s_036.ogg
329,192,106071,1,0,0:0:0:0:s_052.ogg
475,192,106071,1,0,0:0:0:0:s_064.ogg
36,192,106285,1,0,0:0:0:0:m_024.ogg
402,192,106285,128,0,106714:0:0:0:0:m_048.ogg
329,192,106285,128,0,106714:0:0:0:0:m_060.ogg
109,192,106321,1,0,0:0:0:0:m_028.ogg
182,192,106357,1,0,0:0:0:0:m_031.ogg
256,192,106392,1,0,0:0:0:0:s_036.ogg
36,192,106500,1,0,0:0:0:0:s_036.ogg
36,192,106714,1,0,0:0:0:0:s_036.ogg
36,192,106928,1,0,0:0:0:0:s_036.ogg
402,192,106928,1,0,0:0:0:0:s_055.ogg
475,192,106928,1,0,0:0:0:0:s_067.ogg
36,192,107142,1,0,0:0:0:0:m_024.ogg
402,192,107142,128,0,107571:0:0:0:0:m_048.ogg
329,192,107142,128,0,107571:0:0:0:0:m_060.ogg
109,192,107178,1,0,0:0:0:0:m_028.ogg
182,192,107214,1,0,0:0:0:0:m_031.ogg
256,192,107250,1,0,0:0:0:0:s_036.ogg
36,192,107357,1,0,0:0:0:0:s_036.ogg
36,192,107571,1,0,0:0:0:0:s_036.ogg
36,192,107785,1,0,0:0:0:0:s_036.ogg
329,192,107785,1,0,0:0:0:0:s_052.ogg
475,192,107785,1,0,0:0:0:0:s_064.ogg
36,192,108000,1,0,0:0:0:0:s_024.ogg
329,192,108000,1,0,0:0:0:0:s_048.ogg
402,192,108000,1,0,0:0:0:0:s_060.ogg
109,192,108035,1,0,0:0:0:0:s_028.ogg
182,192,108071,1,0,0:0:0:0:s_031.ogg
256,192,108107,1,0,0:0:0:0:s_036.ogg
36,192,108214,1,0,0:0:0:0:s_036.ogg
329,192,108214,1,0,0:0:0:0:s_052.ogg
475,192,108214,1,0,0:0:0:0:s_064.ogg
36,192,108428,1,0,0:0:0:0:s_024.ogg
329,192,108428,1,0,0:0:0:0:s_048.ogg
402,192,108428,1,0,0:0:0:0:s_060.ogg
109,192,108464,1,0,0:0:0:0:s_028.ogg
182,192,108500,1,0,0:0:0:0:s_031.ogg
256,192,108535,1,0,0:0:0:0:s_036.ogg
36,192,108642,1,0,0:0:0:0:s_036.ogg
402,192,108642,1,0,0:0:0:0:s_055.ogg
475,192,108642,1,0,0:0:0:0:s_067.ogg
109,192,108857,1,0,0:0:0:0:s_024.ogg
329,192,108857,1,0,0:0:0:0:s_048.ogg
402,192,108857,1,0,0:0:0:0:s_060.ogg
36,192,109285,1,0,0:0:0:0:m_036.ogg
109,192,109285,1,0,0:0:0:0:m_060.ogg
182,192,109285,1,0,0:0:0:0:m_024.ogg
256,192,109285,1,0,0:0:0:0:m_052.ogg
329,192,109285,1,0,0:0:0:0:m_048.ogg
402,192,109285,1,0,0:0:0:0:m_028.ogg
475,192,109285,1,0,0:0:0:0:m_031.ogg
36,192,109714,1,0,0:0:0:0:m_024.ogg
109,192,109714,1,0,0:0:0:0:m_060.ogg
182,192,109714,1,0,0:0:0:0:m_036.ogg
256,192,109714,1,0,0:0:0:0:m_052.ogg
329,192,109714,1,0,0:0:0:0:m_048.ogg
402,192,109714,1,0,0:0:0:0:m_031.ogg
475,192,109714,1,0,0:0:0:0:m_028.ogg
