osu file format v14

[General]
AudioFilename: virtual
AudioLeadIn: 0
PreviewTime: 0
Countdown: 0
SampleSet: Soft
StackLeniency: 0.7
Mode: 3
LetterboxInBreaks: 0
SpecialStyle: 0
WidescreenStoryboard: 1

[Editor]
DistanceSpacing: 0.8
BeatDivisor: 3
GridSize: 16
TimelineZoom: 2.000006

[Metadata]
Title:Piano Beatmap Set
TitleUnicode:Piano Beatmap Set
Artist:Collection
ArtistUnicode:Collection
Creator:CircusGalop
Version:Rachmaninov Concerto No.3 - 10K NM
Source:BMS
Tags:
BeatmapID:1354183
BeatmapSetID:332673

[Difficulty]
HPDrainRate:7
CircleSize:10
OverallDifficulty:5
ApproachRate:5
SliderMultiplier:1.4
SliderTickRate:1

[Events]
//Background and Video events
0,0,"CircusGalop.jpg",0,0
//Break Periods
//Storyboard Layer 0 (Background)
//Storyboard Layer 1 (Fail)
//Storyboard Layer 2 (Pass)
//Storyboard Layer 3 (Foreground)
//Storyboard Sound Samples
Sample,2266,0,"s_025.ogg",100
Sample,2266,0,"s_041.ogg",100
Sample,2266,0,"s_032.ogg",100
Sample,2400,0,"l_041.ogg",100
Sample,2400,0,"m_036.ogg",100
Sample,2400,0,"m_029.ogg",100
Sample,5333,0,"m_032.ogg",100
Sample,5333,0,"m_025.ogg",100
Sample,5600,0,"l_029.ogg",100
Sample,8266,0,"s_013.ogg",100
Sample,8400,0,"m_041.ogg",100
Sample,9066,0,"s_029.ogg",100
Sample,9200,0,"m_036.ogg",100
Sample,9866,0,"s_013.ogg",100
Sample,10000,0,"m_043.ogg",100
Sample,10000,0,"m_034.ogg",100
Sample,10666,0,"s_037.ogg",100
Sample,10800,0,"m_036.ogg",100
Sample,11466,0,"s_041.ogg",100
Sample,11600,0,"m_041.ogg",100
Sample,12266,0,"s_041.ogg",100
Sample,12400,0,"m_041.ogg",100
Sample,13066,0,"s_032.ogg",100
Sample,13200,0,"m_039.ogg",100
Sample,13866,0,"s_036.ogg",100
Sample,14000,0,"m_036.ogg",100
Sample,14400,0,"l_012.ogg",100
Sample,14666,0,"s_028.ogg",100
Sample,14666,0,"s_037.ogg",100
Sample,14800,0,"l_048.ogg",100
Sample,17000,0,"s_036.ogg",100
Sample,17200,0,"m_028.ogg",100
Sample,17200,0,"l_036.ogg",100
Sample,19466,0,"s_044.ogg",100
Sample,19600,0,"m_048.ogg",100
Sample,19600,0,"m_039.ogg",100
Sample,20266,0,"s_032.ogg",100
Sample,20400,0,"m_039.ogg",100
Sample,21066,0,"s_034.ogg",100
Sample,21066,0,"s_043.ogg",100
Sample,21200,0,"m_036.ogg",100
Sample,21200,0,"m_039.ogg",100
Sample,21866,0,"s_037.ogg",100
Sample,22000,0,"m_036.ogg",100
Sample,22000,0,"m_039.ogg",100
Sample,22666,0,"s_044.ogg",100
Sample,22800,0,"m_036.ogg",100
Sample,22800,0,"m_039.ogg",100
Sample,23466,0,"s_041.ogg",100
Sample,23600,0,"m_036.ogg",100
Sample,23600,0,"m_044.ogg",100
Sample,24266,0,"s_036.ogg",100
Sample,24400,0,"m_044.ogg",100
Sample,24400,0,"m_048.ogg",100
Sample,25066,0,"s_044.ogg",100
Sample,25200,0,"m_035.ogg",100
Sample,25200,0,"m_043.ogg",100
Sample,25600,0,"l_012.ogg",100
Sample,25866,0,"s_048.ogg",100
Sample,25866,0,"s_039.ogg",100
Sample,25866,0,"s_036.ogg",100
Sample,26000,0,"m_031.ogg",100
Sample,26000,0,"m_039.ogg",100
Sample,26000,0,"m_048.ogg",100
Sample,27466,0,"s_044.ogg",100
Sample,27466,0,"s_027.ogg",100
Sample,27600,0,"m_031.ogg",100
Sample,27600,0,"m_043.ogg",100
Sample,27600,0,"m_024.ogg",100
Sample,28950,0,"s_044.ogg",100
Sample,29100,0,"m_043.ogg",100
Sample,29100,0,"m_048.ogg",100
Sample,29550,0,"s_039.ogg",100
Sample,29700,0,"m_039.ogg",100
Sample,29700,0,"m_036.ogg",100
Sample,30150,0,"s_047.ogg",100
Sample,30300,0,"m_041.ogg",100
Sample,30300,0,"m_047.ogg",100
Sample,30750,0,"s_044.ogg",100
Sample,30900,0,"m_043.ogg",100
Sample,30900,0,"m_048.ogg",100
Sample,31350,0,"s_048.ogg",100
Sample,31350,0,"s_043.ogg",100
Sample,31500,0,"m_051.ogg",100
Sample,31500,0,"m_042.ogg",100
Sample,31950,0,"s_043.ogg",100
Sample,31950,0,"s_039.ogg",100
Sample,32100,0,"m_051.ogg",100
Sample,32100,0,"m_048.ogg",100
Sample,32550,0,"s_041.ogg",100
Sample,32550,0,"s_047.ogg",100
Sample,32700,0,"m_041.ogg",100
Sample,32700,0,"m_047.ogg",100
Sample,33150,0,"s_051.ogg",100
Sample,33150,0,"s_048.ogg",100
Sample,33300,0,"m_054.ogg",100
Sample,33300,0,"m_051.ogg",100
Sample,33750,0,"s_050.ogg",100
Sample,33900,0,"m_045.ogg",100
Sample,33900,0,"m_054.ogg",100
Sample,34350,0,"s_050.ogg",100
Sample,34500,0,"m_054.ogg",100
Sample,34500,0,"m_042.ogg",100
Sample,34950,0,"s_042.ogg",100
Sample,35100,0,"m_058.ogg",100
Sample,35100,0,"m_046.ogg",100
Sample,35550,0,"s_038.ogg",100
Sample,35700,0,"m_050.ogg",100
Sample,35700,0,"m_042.ogg",100
Sample,36150,0,"s_051.ogg",100
Sample,36300,0,"m_058.ogg",100
Sample,36300,0,"m_051.ogg",100
Sample,36750,0,"s_047.ogg",100
Sample,36900,0,"m_051.ogg",100
Sample,36900,0,"m_046.ogg",100
Sample,37350,0,"s_051.ogg",100
Sample,37500,0,"m_047.ogg",100
Sample,37500,0,"m_059.ogg",100
Sample,37950,0,"s_048.ogg",100
Sample,38100,0,"m_046.ogg",100
Sample,38100,0,"m_051.ogg",100
Sample,38500,0,"s_044.ogg",100
Sample,38500,0,"s_037.ogg",100
Sample,38550,0,"s_049.ogg",100
Sample,38700,0,"s_044.ogg",100
Sample,38700,0,"m_060.ogg",100
Sample,38700,0,"m_056.ogg",100
Sample,38700,0,"s_036.ogg",100
Sample,38900,0,"s_036.ogg",100
Sample,38900,0,"s_044.ogg",100
Sample,39000,0,"s_032.ogg",100
Sample,39100,0,"s_041.ogg",100
Sample,39100,0,"s_037.ogg",100
Sample,39150,0,"s_049.ogg",100
Sample,39300,0,"m_048.ogg",100
Sample,39300,0,"m_060.ogg",100
Sample,39300,0,"s_037.ogg",100
Sample,39300,0,"s_041.ogg",100
Sample,39500,0,"s_041.ogg",100
Sample,39500,0,"s_036.ogg",100
Sample,39600,0,"s_032.ogg",100
Sample,39700,0,"s_041.ogg",100
Sample,39700,0,"s_038.ogg",100
Sample,39750,0,"s_053.ogg",100
Sample,39900,0,"s_037.ogg",100
Sample,39900,0,"m_049.ogg",100
Sample,39900,0,"s_041.ogg",100
Sample,39900,0,"m_061.ogg",100
Sample,40100,0,"s_041.ogg",100
Sample,40100,0,"s_037.ogg",100
Sample,40200,0,"s_033.ogg",100
Sample,40300,0,"s_042.ogg",100
Sample,40300,0,"s_046.ogg",100
Sample,40350,0,"s_054.ogg",100
Sample,40500,0,"m_061.ogg",100
Sample,40500,0,"m_049.ogg",100
Sample,40500,0,"s_046.ogg",100
Sample,40500,0,"s_037.ogg",100
Sample,40700,0,"s_046.ogg",100
Sample,40700,0,"s_037.ogg",100
Sample,40800,0,"s_024.ogg",100
Sample,41000,0,"s_052.ogg",100
Sample,41000,0,"s_042.ogg",100
Sample,41100,0,"m_055.ogg",100
Sample,41100,0,"s_046.ogg",100
Sample,41100,0,"m_061.ogg",100
Sample,41100,0,"s_040.ogg",100
Sample,41600,0,"s_036.ogg",100
Sample,41600,0,"s_045.ogg",100
Sample,41700,0,"m_040.ogg",100
Sample,41700,0,"m_024.ogg",100
Sample,41700,0,"m_046.ogg",100
Sample,42200,0,"s_048.ogg",100
Sample,42200,0,"s_052.ogg",100
Sample,42300,0,"m_055.ogg",100
Sample,42300,0,"s_037.ogg",100
Sample,42300,0,"m_061.ogg",100
Sample,42800,0,"s_031.ogg",100
Sample,42800,0,"s_036.ogg",100
Sample,42900,0,"m_046.ogg",100
Sample,42900,0,"m_037.ogg",100
Sample,42900,0,"m_031.ogg",100
Sample,43400,0,"s_048.ogg",100
Sample,43400,0,"s_051.ogg",100
Sample,43500,0,"m_064.ogg",100
Sample,43500,0,"s_049.ogg",100
Sample,43500,0,"m_058.ogg",100
Sample,43500,0,"s_043.ogg",100
Sample,44000,0,"s_048.ogg",100
Sample,44000,0,"s_051.ogg",100
Sample,44100,0,"s_024.ogg",100
Sample,44100,0,"m_040.ogg",100
Sample,44100,0,"m_049.ogg",100
Sample,44600,0,"s_048.ogg",100
Sample,44600,0,"s_058.ogg",100
Sample,44700,0,"s_040.ogg",100
Sample,44700,0,"s_043.ogg",100
Sample,44700,0,"m_055.ogg",100
Sample,44700,0,"m_064.ogg",100
Sample,45200,0,"s_048.ogg",100
Sample,45200,0,"s_043.ogg",100
Sample,45300,0,"m_040.ogg",100
Sample,45300,0,"m_049.ogg",100
Sample,45300,0,"s_024.ogg",100
Sample,45800,0,"s_057.ogg",100
Sample,45800,0,"s_054.ogg",100
Sample,45900,0,"m_067.ogg",100
Sample,45900,0,"m_061.ogg",100
Sample,46400,0,"s_054.ogg",100
Sample,46400,0,"s_060.ogg",100
Sample,46500,0,"m_055.ogg",100
Sample,46500,0,"m_058.ogg",100
Sample,46950,0,"s_063.ogg",100
Sample,46950,0,"s_057.ogg",100
Sample,47100,0,"m_058.ogg",100
Sample,47100,0,"m_064.ogg",100
Sample,47550,0,"s_066.ogg",100
Sample,47550,0,"s_063.ogg",100
Sample,47700,0,"m_058.ogg",100
Sample,47700,0,"m_064.ogg",100
Sample,48200,0,"s_072.ogg",100
Sample,48200,0,"s_060.ogg",100
Sample,48300,0,"l_073.ogg",100
Sample,48300,0,"l_000.ogg",100
Sample,48300,0,"m_070.ogg",100
Sample,48450,0,"l_063.ogg",100
Sample,48600,0,"m_024.ogg",100
Sample,48600,0,"l_064.ogg",100
Sample,48750,0,"m_066.ogg",100
Sample,48900,0,"m_058.ogg",100
Sample,48900,0,"l_028.ogg",100
Sample,49050,0,"m_057.ogg",100
Sample,49200,0,"l_031.ogg",100
Sample,49200,0,"m_036.ogg",100
Sample,49350,0,"m_072.ogg",100
Sample,49500,0,"m_070.ogg",100
Sample,49500,0,"m_061.ogg",100
Sample,49650,0,"m_063.ogg",100
Sample,49800,0,"m_067.ogg",100
Sample,49800,0,"m_043.ogg",100
Sample,49950,0,"m_066.ogg",100
Sample,50100,0,"m_067.ogg",100
Sample,50100,0,"m_058.ogg",100
Sample,50250,0,"s_072.ogg",100
Sample,50400,0,"s_049.ogg",100
Sample,50400,0,"s_052.ogg",100
Sample,50475,0,"s_061.ogg",100
Sample,50475,0,"s_064.ogg",100
Sample,50550,0,"s_048.ogg",100
Sample,50550,0,"s_052.ogg",100
Sample,50625,0,"s_064.ogg",100
Sample,50625,0,"s_060.ogg",100
Sample,50700,0,"s_057.ogg",100
Sample,50850,0,"s_044.ogg",100
Sample,51000,0,"s_049.ogg",100
Sample,51000,0,"s_052.ogg",100
Sample,51075,0,"s_064.ogg",100
Sample,51075,0,"s_061.ogg",100
Sample,51150,0,"s_052.ogg",100
Sample,51150,0,"s_048.ogg",100
Sample,51225,0,"s_060.ogg",100
Sample,51225,0,"s_064.ogg",100
Sample,51300,0,"s_044.ogg",100
Sample,51450,0,"s_043.ogg",100
Sample,51600,0,"s_049.ogg",100
Sample,51600,0,"s_052.ogg",100
Sample,51675,0,"s_064.ogg",100
Sample,51675,0,"s_061.ogg",100
Sample,51750,0,"s_056.ogg",100
Sample,51750,0,"s_052.ogg",100
Sample,51825,0,"s_072.ogg",100
Sample,51825,0,"s_060.ogg",100
Sample,51900,0,"s_043.ogg",100
Sample,52050,0,"s_042.ogg",100
Sample,52200,0,"s_056.ogg",100
Sample,52200,0,"s_053.ogg",100
Sample,52275,0,"s_065.ogg",100
Sample,52275,0,"s_072.ogg",100
Sample,52350,0,"s_047.ogg",100
Sample,52350,0,"s_053.ogg",100
Sample,52425,0,"s_065.ogg",100
Sample,52425,0,"s_059.ogg",100
Sample,52500,0,"s_053.ogg",100
Sample,52650,0,"s_040.ogg",100
Sample,52800,0,"s_052.ogg",100
Sample,52800,0,"s_044.ogg",100
Sample,52875,0,"s_064.ogg",100
Sample,52875,0,"s_068.ogg",100
Sample,52950,0,"s_048.ogg",100
Sample,52950,0,"s_052.ogg",100
Sample,53025,0,"s_064.ogg",100
Sample,53025,0,"s_060.ogg",100
Sample,53100,0,"s_037.ogg",100
Sample,53250,0,"s_036.ogg",100
Sample,53400,0,"s_052.ogg",100
Sample,53400,0,"s_044.ogg",100
Sample,53475,0,"s_064.ogg",100
Sample,53475,0,"s_068.ogg",100
Sample,53550,0,"s_047.ogg",100
Sample,53550,0,"s_043.ogg",100
Sample,53625,0,"s_067.ogg",100
Sample,53625,0,"s_064.ogg",100
Sample,53700,0,"s_036.ogg",100
Sample,53850,0,"s_035.ogg",100
Sample,54000,0,"s_044.ogg",100
Sample,54000,0,"s_046.ogg",100
Sample,54075,0,"s_064.ogg",100
Sample,54075,0,"s_056.ogg",100
Sample,54150,0,"s_046.ogg",100
Sample,54150,0,"s_043.ogg",100
Sample,54225,0,"s_055.ogg",100
Sample,54225,0,"s_064.ogg",100
Sample,54300,0,"s_047.ogg",100
Sample,54450,0,"s_046.ogg",100
Sample,54600,0,"s_044.ogg",100
Sample,54600,0,"s_047.ogg",100
Sample,54675,0,"s_053.ogg",100
Sample,54675,0,"s_059.ogg",100
Sample,54750,0,"s_040.ogg",100
Sample,54750,0,"s_047.ogg",100
Sample,54825,0,"s_064.ogg",100
Sample,54825,0,"s_052.ogg",100
Sample,54900,0,"s_032.ogg",100
Sample,55050,0,"s_043.ogg",100
Sample,55200,0,"s_044.ogg",100
Sample,55200,0,"s_037.ogg",100
Sample,55275,0,"s_049.ogg",100
Sample,55275,0,"s_061.ogg",100
Sample,55350,0,"s_036.ogg",100
Sample,55350,0,"s_044.ogg",100
Sample,55425,0,"s_060.ogg",100
Sample,55425,0,"s_048.ogg",100
Sample,55500,0,"s_041.ogg",100
Sample,55650,0,"s_040.ogg",100
Sample,56100,0,"s_020.ogg",100
Sample,56100,0,"s_028.ogg",100
Sample,56175,0,"s_040.ogg",100
Sample,56175,0,"s_036.ogg",100
Sample,56250,0,"s_031.ogg",100
Sample,56250,0,"s_028.ogg",100
Sample,56325,0,"s_040.ogg",100
Sample,56325,0,"s_043.ogg",100
Sample,56400,0,"s_029.ogg",100
Sample,56475,0,"s_041.ogg",100
Sample,56475,0,"s_036.ogg",100
Sample,56550,0,"s_016.ogg",100
Sample,56625,0,"s_040.ogg",100
Sample,56625,0,"s_031.ogg",100
Sample,58000,0,"m_024.ogg",100
Sample,58200,0,"l_019.ogg",100
Sample,58200,0,"m_036.ogg",100
Sample,58400,0,"l_040.ogg",100
Sample,58400,0,"m_048.ogg",100
Sample,58800,0,"m_036.ogg",100
Sample,59000,0,"m_048.ogg",100
Sample,59000,0,"l_031.ogg",100
Sample,59200,0,"m_052.ogg",100
Sample,59200,0,"m_060.ogg",100
Sample,59600,0,"m_052.ogg",100
Sample,59800,0,"m_055.ogg",100
Sample,59800,0,"m_065.ogg",100
Sample,59800,0,"s_043.ogg",100
Sample,59800,0,"m_035.ogg",100
Sample,60000,0,"m_064.ogg",100
Sample,60000,0,"s_060.ogg",100
Sample,60000,0,"m_034.ogg",100
Sample,60200,0,"s_048.ogg",100
Sample,60200,0,"m_060.ogg",100
Sample,60400,0,"m_024.ogg",100
Sample,60400,0,"m_048.ogg",100
Sample,60600,0,"s_043.ogg",100
Sample,60600,0,"s_065.ogg",100
Sample,60600,0,"s_060.ogg",100
Sample,60800,0,"m_068.ogg",100
Sample,60800,0,"s_041.ogg",100
Sample,60800,0,"m_056.ogg",100
Sample,60800,0,"m_032.ogg",100
Sample,61000,0,"s_053.ogg",100
Sample,61000,0,"s_046.ogg",100
Sample,61000,0,"s_048.ogg",100
Sample,61000,0,"m_041.ogg",100
Sample,61200,0,"m_048.ogg",100
Sample,61200,0,"m_053.ogg",100
Sample,61200,0,"m_056.ogg",100
Sample,61200,0,"m_029.ogg",100
Sample,61200,0,"m_032.ogg",100
Sample,61200,0,"m_024.ogg",100
Sample,61400,0,"s_043.ogg",100
Sample,61400,0,"s_067.ogg",100
Sample,61400,0,"s_055.ogg",100
Sample,61600,0,"m_032.ogg",100
Sample,61600,0,"m_060.ogg",100
Sample,61600,0,"m_041.ogg",100
Sample,61800,0,"s_046.ogg",100
Sample,61800,0,"s_036.ogg",100
Sample,61800,0,"s_048.ogg",100
Sample,61800,0,"s_016.ogg",100
Sample,62000,0,"m_032.ogg",100
Sample,62000,0,"m_029.ogg",100
Sample,62000,0,"m_024.ogg",100
Sample,62000,0,"m_053.ogg",100
Sample,62000,0,"m_041.ogg",100
Sample,62000,0,"m_044.ogg",100
Sample,62200,0,"s_036.ogg",100
Sample,62200,0,"s_058.ogg",100
Sample,62200,0,"s_031.ogg",100
Sample,62400,0,"m_036.ogg",100
Sample,62400,0,"m_065.ogg",100
Sample,62400,0,"s_053.ogg",100
Sample,62600,0,"m_053.ogg",100
Sample,62600,0,"s_048.ogg",100
Sample,62600,0,"s_046.ogg",100
Sample,62600,0,"s_017.ogg",100
Sample,62800,0,"m_046.ogg",100
Sample,62800,0,"s_055.ogg",100
Sample,62800,0,"m_031.ogg",100
Sample,62800,0,"s_034.ogg",100
Sample,62800,0,"s_043.ogg",100
Sample,62800,0,"m_048.ogg",100
Sample,63000,0,"s_055.ogg",100
Sample,63000,0,"s_043.ogg",100
Sample,63000,0,"s_067.ogg",100
Sample,63200,0,"m_065.ogg",100
Sample,63200,0,"m_041.ogg",100
Sample,63200,0,"m_036.ogg",100
Sample,63400,0,"s_017.ogg",100
Sample,63400,0,"s_055.ogg",100
Sample,63400,0,"s_048.ogg",100
Sample,63400,0,"s_043.ogg",100
Sample,63600,0,"m_048.ogg",100
Sample,63600,0,"m_024.ogg",100
Sample,63600,0,"m_056.ogg",100
Sample,63600,0,"m_044.ogg",100
Sample,63600,0,"m_032.ogg",100
Sample,63600,0,"m_029.ogg",100
Sample,63800,0,"s_036.ogg",100
Sample,63800,0,"s_034.ogg",100
Sample,63800,0,"s_043.ogg",100
Sample,63800,0,"s_065.ogg",100
Sample,64000,0,"s_053.ogg",100
Sample,64000,0,"m_060.ogg",100
Sample,64000,0,"m_056.ogg",100
Sample,64200,0,"s_017.ogg",100
Sample,64200,0,"s_053.ogg",100
Sample,64200,0,"s_041.ogg",100
Sample,64200,0,"s_046.ogg",100
Sample,64400,0,"m_041.ogg",100
Sample,64400,0,"m_032.ogg",100
Sample,64400,0,"s_044.ogg",100
Sample,64400,0,"m_036.ogg",100
Sample,64400,0,"m_029.ogg",100
Sample,64400,0,"m_056.ogg",100
Sample,64600,0,"s_060.ogg",100
Sample,64600,0,"s_053.ogg",100
Sample,64600,0,"s_048.ogg",100
Sample,64800,0,"s_053.ogg",100
Sample,64800,0,"m_068.ogg",100
Sample,64800,0,"m_062.ogg",100
Sample,65000,0,"s_053.ogg",100
Sample,65000,0,"s_050.ogg",100
Sample,65000,0,"s_043.ogg",100
Sample,65000,0,"s_023.ogg",100
Sample,65200,0,"s_050.ogg",100
Sample,65200,0,"m_038.ogg",100
Sample,65200,0,"m_041.ogg",100
Sample,65200,0,"m_044.ogg",100
Sample,65200,0,"m_032.ogg",100
Sample,65400,0,"s_065.ogg",100
Sample,65400,0,"s_053.ogg",100
Sample,65400,0,"s_050.ogg",100
Sample,65600,0,"m_036.ogg",100
Sample,65600,0,"m_060.ogg",100
Sample,65600,0,"m_055.ogg",100
Sample,65600,0,"m_067.ogg",100
Sample,65800,0,"s_024.ogg",100
Sample,65800,0,"s_053.ogg",100
Sample,65800,0,"s_012.ogg",100
Sample,66000,0,"m_040.ogg",100
Sample,66000,0,"s_053.ogg",100
Sample,66000,0,"s_031.ogg",100
Sample,66000,0,"m_043.ogg",100
Sample,66000,0,"m_055.ogg",100
Sample,66200,0,"s_053.ogg",100
Sample,66200,0,"s_060.ogg",100
Sample,66200,0,"s_038.ogg",100
Sample,66200,0,"s_065.ogg",100
Sample,66400,0,"s_064.ogg",100
Sample,66400,0,"s_036.ogg",100
Sample,66400,0,"s_040.ogg",100
Sample,66600,0,"s_060.ogg",100
Sample,66600,0,"s_041.ogg",100
Sample,66800,0,"m_055.ogg",100
Sample,66800,0,"m_067.ogg",100
Sample,66800,0,"m_036.ogg",100
Sample,66800,0,"m_031.ogg",100
Sample,67000,0,"s_041.ogg",100
Sample,67000,0,"s_053.ogg",100
Sample,67000,0,"s_017.ogg",100
Sample,67000,0,"s_046.ogg",100
Sample,67200,0,"s_053.ogg",100
Sample,67200,0,"m_048.ogg",100
Sample,67200,0,"m_024.ogg",100
Sample,67200,0,"m_044.ogg",100
Sample,67200,0,"m_029.ogg",100
Sample,67200,0,"m_036.ogg",100
Sample,67400,0,"s_034.ogg",100
Sample,67400,0,"m_053.ogg",100
Sample,67400,0,"s_041.ogg",100
Sample,67400,0,"s_065.ogg",100
Sample,67600,0,"m_060.ogg",100
Sample,67600,0,"m_056.ogg",100
Sample,67600,0,"m_044.ogg",100
Sample,67800,0,"s_036.ogg",100
Sample,67800,0,"s_024.ogg",100
Sample,67800,0,"s_048.ogg",100
Sample,67800,0,"s_046.ogg",100
Sample,68000,0,"m_032.ogg",100
Sample,68000,0,"m_041.ogg",100
Sample,68000,0,"m_029.ogg",100
Sample,68000,0,"m_048.ogg",100
Sample,68000,0,"m_044.ogg",100
Sample,68000,0,"m_024.ogg",100
Sample,68200,0,"s_043.ogg",100
Sample,68200,0,"s_055.ogg",100
Sample,68200,0,"s_067.ogg",100
Sample,68400,0,"m_041.ogg",100
Sample,68400,0,"m_032.ogg",100
Sample,68400,0,"m_053.ogg",100
Sample,68600,0,"s_048.ogg",100
Sample,68600,0,"s_024.ogg",100
Sample,68600,0,"s_052.ogg",100
Sample,68600,0,"s_040.ogg",100
Sample,68800,0,"m_024.ogg",100
Sample,68800,0,"m_048.ogg",100
Sample,68800,0,"m_036.ogg",100
Sample,68800,0,"m_053.ogg",100
Sample,68800,0,"s_031.ogg",100
Sample,68800,0,"m_046.ogg",100
Sample,69000,0,"s_060.ogg",100
Sample,69000,0,"m_034.ogg",100
Sample,69000,0,"s_058.ogg",100
Sample,69200,0,"m_032.ogg",100
Sample,69200,0,"m_065.ogg",100
Sample,69200,0,"s_053.ogg",100
Sample,69400,0,"s_043.ogg",100
Sample,69400,0,"s_046.ogg",100
Sample,69400,0,"s_024.ogg",100
Sample,69400,0,"s_055.ogg",100
Sample,69600,0,"m_044.ogg",100
Sample,69600,0,"m_029.ogg",100
Sample,69600,0,"s_032.ogg",100
Sample,69600,0,"m_053.ogg",100
Sample,69600,0,"m_048.ogg",100
Sample,69600,0,"m_056.ogg",100
Sample,69800,0,"s_036.ogg",100
Sample,69800,0,"s_060.ogg",100
Sample,69800,0,"s_055.ogg",100
Sample,69800,0,"s_065.ogg",100
Sample,70000,0,"s_032.ogg",100
Sample,70000,0,"s_060.ogg",100
Sample,70000,0,"s_068.ogg",100
Sample,70000,0,"s_065.ogg",100
Sample,70200,0,"s_039.ogg",100
Sample,70200,0,"s_057.ogg",100
Sample,70200,0,"s_045.ogg",100
Sample,70200,0,"s_063.ogg",100
Sample,70400,0,"s_046.ogg",100
Sample,70400,0,"m_061.ogg",100
Sample,70400,0,"m_037.ogg",100
Sample,70400,0,"m_065.ogg",100
Sample,70600,0,"m_058.ogg",100
Sample,70600,0,"m_046.ogg",100
Sample,70600,0,"s_029.ogg",100
Sample,70600,0,"s_053.ogg",100
Sample,70600,0,"s_031.ogg",100
Sample,70800,0,"m_053.ogg",100
Sample,70800,0,"m_020.ogg",100
Sample,70800,0,"m_029.ogg",100
Sample,70800,0,"m_032.ogg",100
Sample,71000,0,"s_056.ogg",100
Sample,71000,0,"s_044.ogg",100
Sample,71000,0,"s_068.ogg",100
Sample,71200,0,"m_065.ogg",100
Sample,71200,0,"s_061.ogg",100
Sample,71200,0,"m_043.ogg",100
Sample,71400,0,"s_049.ogg",100
Sample,71400,0,"s_055.ogg",100
Sample,71400,0,"s_022.ogg",100
Sample,71400,0,"s_031.ogg",100
Sample,71400,0,"s_034.ogg",100
Sample,71600,0,"m_031.ogg",100
Sample,71600,0,"m_055.ogg",100
Sample,71600,0,"m_023.ogg",100
Sample,71600,0,"s_062.ogg",100
Sample,71600,0,"m_035.ogg",100
Sample,71800,0,"s_065.ogg",100
Sample,71800,0,"s_038.ogg",100
Sample,72000,0,"m_036.ogg",100
Sample,72000,0,"m_060.ogg",100
Sample,72000,0,"m_055.ogg",100
Sample,72200,0,"s_012.ogg",100
Sample,72200,0,"s_050.ogg",100
Sample,72200,0,"s_024.ogg",100
Sample,72200,0,"s_048.ogg",100
Sample,72400,0,"s_024.ogg",100
Sample,72400,0,"s_048.ogg",100
Sample,72400,0,"s_031.ogg",100
Sample,72400,0,"m_040.ogg",100
Sample,72600,0,"s_050.ogg",100
Sample,72600,0,"s_053.ogg",100
Sample,72600,0,"s_036.ogg",100
Sample,72600,0,"s_031.ogg",100
Sample,72800,0,"m_055.ogg",100
Sample,72800,0,"s_034.ogg",100
Sample,72800,0,"s_037.ogg",100
Sample,72800,0,"m_046.ogg",100
Sample,72800,0,"s_041.ogg",100
Sample,72800,0,"m_049.ogg",100
Sample,73000,0,"m_053.ogg",100
Sample,73000,0,"s_061.ogg",100
Sample,73000,0,"s_037.ogg",100
Sample,73200,0,"s_064.ogg",100
Sample,73200,0,"s_060.ogg",100
Sample,73200,0,"m_043.ogg",100
Sample,73400,0,"s_034.ogg",100
Sample,73400,0,"s_037.ogg",100
Sample,73400,0,"s_041.ogg",100
Sample,73400,0,"s_061.ogg",100
Sample,73600,0,"s_052.ogg",100
Sample,73600,0,"s_060.ogg",100
Sample,73800,0,"s_036.ogg",100
Sample,73800,0,"s_062.ogg",100
Sample,73800,0,"s_031.ogg",100
Sample,73800,0,"s_041.ogg",100
Sample,74000,0,"s_043.ogg",100
Sample,74000,0,"m_060.ogg",100
Sample,74000,0,"m_040.ogg",100
Sample,74000,0,"m_067.ogg",100
Sample,74200,0,"s_012.ogg",100
Sample,74200,0,"s_048.ogg",100
Sample,74200,0,"s_024.ogg",100
Sample,74200,0,"s_050.ogg",100
Sample,74400,0,"s_024.ogg",100
Sample,74400,0,"s_031.ogg",100
Sample,74400,0,"m_040.ogg",100
Sample,74400,0,"s_052.ogg",100
Sample,74600,0,"s_036.ogg",100
Sample,74600,0,"s_043.ogg",100
Sample,74600,0,"s_048.ogg",100
Sample,74600,0,"s_050.ogg",100
Sample,74800,0,"m_040.ogg",100
Sample,74800,0,"m_043.ogg",100
Sample,74800,0,"s_052.ogg",100
Sample,74800,0,"m_036.ogg",100
Sample,75200,0,"m_030.ogg",100
Sample,75200,0,"m_063.ogg",100
Sample,75200,0,"s_039.ogg",100
Sample,75200,0,"m_054.ogg",100
Sample,75400,0,"s_022.ogg",100
Sample,75400,0,"s_044.ogg",100
Sample,75400,0,"s_046.ogg",100
Sample,75600,0,"m_027.ogg",100
Sample,75600,0,"m_051.ogg",100
Sample,75600,0,"s_034.ogg",100
Sample,75600,0,"s_039.ogg",100
Sample,75600,0,"m_022.ogg",100
Sample,75800,0,"s_054.ogg",100
Sample,75800,0,"s_034.ogg",100
Sample,75800,0,"s_066.ogg",100
Sample,76000,0,"m_053.ogg",100
Sample,76000,0,"m_057.ogg",100
Sample,76000,0,"m_060.ogg",100
Sample,76200,0,"s_024.ogg",100
Sample,76200,0,"s_042.ogg",100
Sample,76200,0,"s_046.ogg",100
Sample,76400,0,"m_029.ogg",100
Sample,76400,0,"m_045.ogg",100
Sample,76400,0,"m_048.ogg",100
Sample,76400,0,"m_024.ogg",100
Sample,76400,0,"s_041.ogg",100
Sample,76600,0,"s_041.ogg",100
Sample,76600,0,"s_051.ogg",100
Sample,76800,0,"s_037.ogg",100
Sample,76800,0,"s_058.ogg",100
Sample,77000,0,"s_041.ogg",100
Sample,77000,0,"s_039.ogg",100
Sample,77200,0,"m_061.ogg",100
Sample,77400,0,"s_029.ogg",100
Sample,77400,0,"s_041.ogg",100
Sample,77400,0,"s_034.ogg",100
Sample,77400,0,"s_046.ogg",100
Sample,77600,0,"m_024.ogg",100
Sample,77600,0,"m_052.ogg",100
Sample,77600,0,"m_046.ogg",100
Sample,77600,0,"s_055.ogg",100
Sample,77600,0,"s_043.ogg",100
Sample,77800,0,"s_067.ogg",100
Sample,77800,0,"s_034.ogg",100
Sample,77800,0,"s_036.ogg",100
Sample,77800,0,"s_043.ogg",100
Sample,78000,0,"m_036.ogg",100
Sample,78000,0,"m_060.ogg",100
Sample,78000,0,"s_044.ogg",100
Sample,78000,0,"m_065.ogg",100
Sample,78200,0,"s_056.ogg",100
Sample,78200,0,"s_053.ogg",100
Sample,78200,0,"s_029.ogg",100
Sample,78200,0,"s_024.ogg",100
Sample,78200,0,"s_044.ogg",100
Sample,78400,0,"m_037.ogg",100
Sample,78400,0,"m_034.ogg",100
Sample,78400,0,"m_066.ogg",100
Sample,78400,0,"m_058.ogg",100
Sample,78600,0,"s_029.ogg",100
Sample,78600,0,"s_025.ogg",100
Sample,78600,0,"s_049.ogg",100
Sample,78600,0,"s_044.ogg",100
Sample,78800,0,"m_018.ogg",100
Sample,78800,0,"m_025.ogg",100
Sample,78800,0,"s_054.ogg",100
Sample,78800,0,"s_046.ogg",100
Sample,78800,0,"m_049.ogg",100
Sample,79000,0,"s_037.ogg",100
Sample,79000,0,"s_061.ogg",100
Sample,79000,0,"s_046.ogg",100
Sample,79000,0,"s_034.ogg",100
Sample,79200,0,"m_065.ogg",100
Sample,79200,0,"s_053.ogg",100
Sample,79200,0,"m_063.ogg",100
Sample,79200,0,"m_048.ogg",100
Sample,79400,0,"s_029.ogg",100
Sample,79400,0,"s_031.ogg",100
Sample,79400,0,"s_053.ogg",100
Sample,79400,0,"s_049.ogg",100
Sample,79400,0,"s_046.ogg",100
Sample,79600,0,"m_033.ogg",100
Sample,79600,0,"m_048.ogg",100
Sample,79600,0,"m_053.ogg",100
Sample,79600,0,"m_021.ogg",100
Sample,79800,0,"s_039.ogg",100
Sample,79800,0,"s_063.ogg",100
Sample,80000,0,"s_058.ogg",100
Sample,80200,0,"s_060.ogg",100
Sample,80400,0,"m_041.ogg",100
Sample,80600,0,"s_034.ogg",100
Sample,80600,0,"s_061.ogg",100
Sample,80600,0,"s_055.ogg",100
Sample,80600,0,"s_031.ogg",100
Sample,80600,0,"s_049.ogg",100
Sample,80800,0,"m_052.ogg",100
Sample,80800,0,"m_024.ogg",100
Sample,80800,0,"s_060.ogg",100
Sample,80800,0,"m_031.ogg",100
Sample,80800,0,"s_055.ogg",100
Sample,81000,0,"s_060.ogg",100
Sample,81000,0,"s_055.ogg",100
Sample,81000,0,"s_040.ogg",100
Sample,81000,0,"s_067.ogg",100
Sample,81200,0,"m_065.ogg",100
Sample,81200,0,"s_056.ogg",100
Sample,81200,0,"m_068.ogg",100
Sample,81200,0,"m_041.ogg",100
Sample,81400,0,"s_056.ogg",100
Sample,81400,0,"s_029.ogg",100
Sample,81400,0,"s_024.ogg",100
Sample,81400,0,"s_044.ogg",100
Sample,81400,0,"s_053.ogg",100
Sample,81600,0,"m_036.ogg",100
Sample,81600,0,"m_033.ogg",100
Sample,81600,0,"m_065.ogg",100
Sample,81600,0,"m_045.ogg",100
Sample,81800,0,"s_042.ogg",100
Sample,82000,0,"s_041.ogg",100
Sample,82200,0,"s_060.ogg",100
Sample,82200,0,"s_041.ogg",100
Sample,82200,0,"s_068.ogg",100
Sample,82200,0,"s_056.ogg",100
Sample,82400,0,"m_033.ogg",100
Sample,82400,0,"m_060.ogg",100
Sample,82400,0,"m_036.ogg",100
Sample,82400,0,"m_041.ogg",100
Sample,82600,0,"s_028.ogg",100
Sample,82800,0,"s_027.ogg",100
Sample,83000,0,"s_056.ogg",100
Sample,83000,0,"s_041.ogg",100
Sample,83000,0,"s_068.ogg",100
Sample,83000,0,"s_060.ogg",100
Sample,83200,0,"m_033.ogg",100
Sample,83200,0,"m_041.ogg",100
Sample,83200,0,"m_060.ogg",100
Sample,83200,0,"m_036.ogg",100
Sample,83400,0,"s_026.ogg",100
Sample,83600,0,"s_037.ogg",100
Sample,83800,0,"s_056.ogg",100
Sample,83800,0,"s_060.ogg",100
Sample,83800,0,"s_068.ogg",100
Sample,83800,0,"s_041.ogg",100
Sample,84000,0,"m_058.ogg",100
Sample,84000,0,"m_061.ogg",100
Sample,84000,0,"s_037.ogg",100
Sample,84000,0,"m_034.ogg",100
Sample,84200,0,"s_037.ogg",100
Sample,84200,0,"s_041.ogg",100
Sample,84200,0,"s_048.ogg",100
Sample,84200,0,"s_024.ogg",100
Sample,84200,0,"s_025.ogg",100
Sample,84400,0,"s_041.ogg",100
Sample,84400,0,"s_025.ogg",100
Sample,84400,0,"m_046.ogg",100
Sample,84400,0,"s_037.ogg",100
Sample,84400,0,"s_022.ogg",100
Sample,84600,0,"s_033.ogg",100
Sample,84600,0,"s_041.ogg",100
Sample,84600,0,"s_037.ogg",100
Sample,84600,0,"s_029.ogg",100
Sample,84600,0,"s_045.ogg",100
Sample,84800,0,"m_041.ogg",100
Sample,84800,0,"m_035.ogg",100
Sample,84800,0,"s_047.ogg",100
Sample,84800,0,"m_062.ogg",100
Sample,85000,0,"s_047.ogg",100
Sample,85000,0,"s_026.ogg",100
Sample,85000,0,"s_044.ogg",100
Sample,85000,0,"s_056.ogg",100
Sample,85000,0,"s_032.ogg",100
Sample,85000,0,"s_023.ogg",100
Sample,85200,0,"s_055.ogg",100
Sample,85200,0,"s_019.ogg",100
Sample,85200,0,"s_026.ogg",100
Sample,85200,0,"s_050.ogg",100
Sample,85200,0,"s_023.ogg",100
Sample,85200,0,"s_043.ogg",100
Sample,85400,0,"s_070.ogg",100
Sample,85400,0,"s_065.ogg",100
Sample,85400,0,"s_062.ogg",100
Sample,85400,0,"s_041.ogg",100
Sample,85600,0,"m_071.ogg",100
Sample,85600,0,"m_059.ogg",100
Sample,85600,0,"m_041.ogg",100
Sample,85600,0,"m_038.ogg",100
Sample,85800,0,"s_023.ogg",100
Sample,85800,0,"s_018.ogg",100
Sample,85800,0,"s_047.ogg",100
Sample,85800,0,"s_054.ogg",100
Sample,85800,0,"s_042.ogg",100
Sample,85800,0,"s_030.ogg",100
Sample,86000,0,"s_053.ogg",100
Sample,86000,0,"s_017.ogg",100
Sample,86000,0,"s_041.ogg",100
Sample,86000,0,"s_023.ogg",100
Sample,86000,0,"s_047.ogg",100
Sample,86000,0,"s_029.ogg",100
Sample,86200,0,"s_065.ogg",100
Sample,86200,0,"s_062.ogg",100
Sample,86200,0,"s_070.ogg",100
Sample,86200,0,"s_041.ogg",100
Sample,86400,0,"m_065.ogg",100
Sample,86400,0,"m_071.ogg",100
Sample,86400,0,"m_041.ogg",100
Sample,86400,0,"m_059.ogg",100
Sample,86600,0,"s_016.ogg",100
Sample,86600,0,"s_028.ogg",100
Sample,86600,0,"s_052.ogg",100
Sample,86600,0,"s_040.ogg",100
Sample,86600,0,"s_019.ogg",100
Sample,86600,0,"s_047.ogg",100
Sample,86800,0,"s_023.ogg",100
Sample,86800,0,"s_047.ogg",100
Sample,86800,0,"s_043.ogg",100
Sample,86800,0,"s_051.ogg",100
Sample,86800,0,"s_027.ogg",100
Sample,86800,0,"s_039.ogg",100
Sample,87000,0,"s_065.ogg",100
Sample,87000,0,"s_070.ogg",100
Sample,87000,0,"s_062.ogg",100
Sample,87000,0,"s_041.ogg",100
Sample,87200,0,"m_048.ogg",100
Sample,87200,0,"m_060.ogg",100
Sample,87200,0,"m_067.ogg",100
Sample,87200,0,"s_043.ogg",100
Sample,87400,0,"s_038.ogg",100
Sample,87400,0,"s_043.ogg",100
Sample,87400,0,"s_019.ogg",100
Sample,87400,0,"s_014.ogg",100
Sample,87400,0,"s_039.ogg",100
Sample,87600,0,"m_048.ogg",100
Sample,87600,0,"s_039.ogg",100
Sample,87600,0,"s_043.ogg",100
Sample,87600,0,"s_012.ogg",100
Sample,87600,0,"m_036.ogg",100
Sample,87800,0,"s_039.ogg",100
Sample,87800,0,"s_043.ogg",100
Sample,87800,0,"s_019.ogg",100
Sample,87800,0,"s_035.ogg",100
Sample,87800,0,"s_011.ogg",100
Sample,88000,0,"s_048.ogg",100
Sample,88000,0,"m_072.ogg",100
Sample,88000,0,"m_063.ogg",100
Sample,88000,0,"s_039.ogg",100
Sample,88200,0,"s_039.ogg",100
Sample,88200,0,"s_010.ogg",100
Sample,88200,0,"s_042.ogg",100
Sample,88200,0,"s_022.ogg",100
Sample,88400,0,"s_039.ogg",100
Sample,88400,0,"m_048.ogg",100
Sample,88400,0,"m_027.ogg",100
Sample,88400,0,"s_042.ogg",100
Sample,88600,0,"s_063.ogg",100
Sample,88600,0,"s_071.ogg",100
Sample,88600,0,"s_059.ogg",100
Sample,88600,0,"s_039.ogg",100
Sample,88800,0,"s_043.ogg",100
Sample,88800,0,"m_063.ogg",100
Sample,88800,0,"s_039.ogg",100
Sample,88800,0,"m_060.ogg",100
Sample,89000,0,"s_043.ogg",100
Sample,89000,0,"s_011.ogg",100
Sample,89000,0,"s_039.ogg",100
Sample,89000,0,"s_023.ogg",100
Sample,89200,0,"s_039.ogg",100
Sample,89200,0,"m_027.ogg",100
Sample,89200,0,"s_043.ogg",100
Sample,89200,0,"m_048.ogg",100
Sample,89400,0,"s_071.ogg",100
Sample,89400,0,"s_039.ogg",100
Sample,89400,0,"s_059.ogg",100
Sample,89400,0,"s_067.ogg",100
Sample,89600,0,"s_048.ogg",100
Sample,89600,0,"m_068.ogg",100
Sample,89600,0,"s_044.ogg",100
Sample,89600,0,"m_060.ogg",100
Sample,89800,0,"s_044.ogg",100
Sample,89800,0,"s_020.ogg",100
Sample,89800,0,"s_008.ogg",100
Sample,89800,0,"s_039.ogg",100
Sample,90000,0,"m_032.ogg",100
Sample,90000,0,"s_039.ogg",100
Sample,90000,0,"m_036.ogg",100
Sample,90000,0,"m_048.ogg",100
Sample,90200,0,"s_044.ogg",100
Sample,90200,0,"s_035.ogg",100
Sample,90200,0,"s_071.ogg",100
Sample,90200,0,"s_059.ogg",100
Sample,90400,0,"m_072.ogg",100
Sample,90400,0,"s_064.ogg",100
Sample,90400,0,"m_036.ogg",100
Sample,90400,0,"m_044.ogg",100
Sample,90600,0,"s_064.ogg",100
Sample,90600,0,"s_052.ogg",100
Sample,90600,0,"s_018.ogg",100
Sample,90600,0,"s_006.ogg",100
Sample,90800,0,"s_040.ogg",100
Sample,90800,0,"m_036.ogg",100
Sample,90800,0,"m_028.ogg",100
Sample,90800,0,"m_048.ogg",100
Sample,90933,0,"s_040.ogg",100
Sample,90933,0,"s_064.ogg",100
Sample,90933,0,"s_035.ogg",100
Sample,90933,0,"s_068.ogg",100
Sample,91066,0,"s_068.ogg",100
Sample,91066,0,"s_064.ogg",100
Sample,91066,0,"s_040.ogg",100
Sample,91066,0,"s_036.ogg",100
Sample,91200,0,"l_069.ogg",100
Sample,91200,0,"s_036.ogg",100
Sample,91200,0,"m_048.ogg",100
Sample,91200,0,"l_072.ogg",100
Sample,91400,0,"s_036.ogg",100
Sample,91400,0,"s_029.ogg",100
Sample,91400,0,"s_005.ogg",100
Sample,91600,0,"s_024.ogg",100
Sample,91600,0,"s_029.ogg",100
Sample,91600,0,"s_041.ogg",100
Sample,91800,0,"s_025.ogg",100
Sample,91800,0,"s_041.ogg",100
Sample,91800,0,"s_037.ogg",100
Sample,92000,0,"s_033.ogg",100
Sample,92000,0,"s_045.ogg",100
Sample,92000,0,"s_041.ogg",100
Sample,92200,0,"s_045.ogg",100
Sample,92200,0,"s_029.ogg",100
Sample,92200,0,"s_041.ogg",100
Sample,92400,0,"s_045.ogg",100
Sample,92400,0,"m_048.ogg",100
Sample,92400,0,"s_053.ogg",100
Sample,92600,0,"s_057.ogg",100
Sample,92600,0,"s_053.ogg",100
Sample,92600,0,"s_049.ogg",100
Sample,92800,0,"s_045.ogg",100
Sample,92800,0,"s_041.ogg",100
Sample,92800,0,"m_057.ogg",100
Sample,92800,0,"m_036.ogg",100
Sample,92800,0,"m_060.ogg",100
Sample,93000,0,"s_065.ogg",100
Sample,93000,0,"s_063.ogg",100
Sample,93000,0,"s_045.ogg",100
Sample,93000,0,"s_075.ogg",100
Sample,93200,0,"s_061.ogg",100
Sample,93200,0,"s_041.ogg",100
Sample,93200,0,"s_069.ogg",100
Sample,93200,0,"s_073.ogg",100
Sample,93400,0,"s_065.ogg",100
Sample,93400,0,"s_045.ogg",100
Sample,93400,0,"s_060.ogg",100
Sample,93400,0,"s_072.ogg",100
Sample,93600,0,"s_045.ogg",100
Sample,93600,0,"s_072.ogg",100
Sample,93600,0,"s_069.ogg",100
Sample,93600,0,"s_040.ogg",100
Sample,93800,0,"s_043.ogg",100
Sample,93800,0,"s_058.ogg",100
Sample,93800,0,"s_064.ogg",100
Sample,93800,0,"s_070.ogg",100
Sample,94000,0,"s_060.ogg",100
Sample,94000,0,"s_069.ogg",100
Sample,94000,0,"s_040.ogg",100
Sample,94000,0,"s_072.ogg",100
Sample,94200,0,"s_064.ogg",100
Sample,94200,0,"s_073.ogg",100
Sample,94200,0,"s_061.ogg",100
Sample,94200,0,"s_046.ogg",100
Sample,94400,0,"l_065.ogg",100
Sample,94400,0,"m_048.ogg",100
Sample,94400,0,"m_041.ogg",100
Sample,94400,0,"l_072.ogg",100
Sample,94600,0,"s_029.ogg",100
Sample,94600,0,"s_033.ogg",100
Sample,94600,0,"s_017.ogg",100
Sample,94800,0,"m_036.ogg",100
Sample,94800,0,"s_029.ogg",100
Sample,94800,0,"s_041.ogg",100
Sample,95000,0,"s_025.ogg",100
Sample,95000,0,"s_029.ogg",100
Sample,95000,0,"s_033.ogg",100
Sample,95200,0,"s_045.ogg",100
Sample,95200,0,"s_024.ogg",100
Sample,95200,0,"s_033.ogg",100
Sample,95400,0,"s_029.ogg",100
Sample,95400,0,"m_036.ogg",100
Sample,95400,0,"s_048.ogg",100
Sample,95600,0,"s_033.ogg",100
Sample,95600,0,"s_045.ogg",100
Sample,95600,0,"m_041.ogg",100
Sample,95800,0,"s_057.ogg",100
Sample,95800,0,"s_037.ogg",100
Sample,95800,0,"s_045.ogg",100
Sample,96000,0,"m_036.ogg",100
Sample,96000,0,"m_057.ogg",100
Sample,96000,0,"s_041.ogg",100
Sample,96000,0,"m_053.ogg",100
Sample,96000,0,"s_045.ogg",100
Sample,96200,0,"s_063.ogg",100
Sample,96200,0,"s_069.ogg",100
Sample,96200,0,"s_041.ogg",100
Sample,96200,0,"s_075.ogg",100
Sample,96400,0,"s_061.ogg",100
Sample,96400,0,"s_041.ogg",100
Sample,96400,0,"s_065.ogg",100
Sample,96400,0,"s_073.ogg",100
Sample,96600,0,"s_041.ogg",100
Sample,96600,0,"s_069.ogg",100
Sample,96600,0,"s_065.ogg",100
Sample,96600,0,"s_072.ogg",100
Sample,96800,0,"s_072.ogg",100
Sample,96800,0,"s_069.ogg",100
Sample,96800,0,"s_040.ogg",100
Sample,96800,0,"s_060.ogg",100
Sample,96933,0,"s_043.ogg",100
Sample,96933,0,"s_070.ogg",100
Sample,96933,0,"s_067.ogg",100
Sample,96933,0,"s_058.ogg",100
Sample,97066,0,"s_064.ogg",100
Sample,97066,0,"s_071.ogg",100
Sample,97066,0,"s_043.ogg",100
Sample,97066,0,"s_059.ogg",100
Sample,97200,0,"s_071.ogg",100
Sample,97200,0,"s_068.ogg",100
Sample,97200,0,"s_059.ogg",100
Sample,97200,0,"s_044.ogg",100
Sample,97333,0,"s_048.ogg",100
Sample,97333,0,"s_060.ogg",100
Sample,97333,0,"s_040.ogg",100
Sample,97333,0,"s_072.ogg",100
Sample,97466,0,"s_070.ogg",100
Sample,97466,0,"s_073.ogg",100
Sample,97466,0,"s_046.ogg",100
Sample,97466,0,"s_061.ogg",100
Sample,97600,0,"m_065.ogg",100
Sample,97600,0,"s_041.ogg",100
Sample,97600,0,"m_069.ogg",100
Sample,97600,0,"m_072.ogg",100
Sample,97800,0,"s_045.ogg",100
Sample,97800,0,"s_041.ogg",100
Sample,97800,0,"s_017.ogg",100
Sample,98000,0,"s_045.ogg",100
Sample,98000,0,"m_048.ogg",100
Sample,98000,0,"s_024.ogg",100
Sample,98000,0,"s_033.ogg",100
Sample,98000,0,"m_036.ogg",100
Sample,98200,0,"s_053.ogg",100
Sample,98200,0,"s_033.ogg",100
Sample,98200,0,"s_049.ogg",100
Sample,98200,0,"s_041.ogg",100
Sample,98400,0,"m_060.ogg",100
Sample,98400,0,"m_053.ogg",100
Sample,98400,0,"m_057.ogg",100
Sample,98400,0,"m_036.ogg",100
Sample,98400,0,"m_048.ogg",100
Sample,98533,0,"s_070.ogg",100
Sample,98533,0,"s_039.ogg",100
Sample,98533,0,"s_058.ogg",100
Sample,98533,0,"s_067.ogg",100
Sample,98666,0,"s_039.ogg",100
Sample,98666,0,"s_067.ogg",100
Sample,98666,0,"s_043.ogg",100
Sample,98666,0,"s_071.ogg",100
Sample,98800,0,"s_064.ogg",100
Sample,98800,0,"s_059.ogg",100
Sample,98800,0,"s_071.ogg",100
Sample,98800,0,"s_044.ogg",100
Sample,98933,0,"s_068.ogg",100
Sample,98933,0,"s_072.ogg",100
Sample,98933,0,"s_040.ogg",100
Sample,98933,0,"s_060.ogg",100
Sample,99066,0,"s_044.ogg",100
Sample,99066,0,"s_061.ogg",100
Sample,99066,0,"s_073.ogg",100
Sample,99066,0,"s_064.ogg",100
Sample,99200,0,"m_048.ogg",100
Sample,99200,0,"m_069.ogg",100
Sample,99200,0,"s_041.ogg",100
Sample,99200,0,"m_060.ogg",100
Sample,99400,0,"m_036.ogg",100
Sample,99400,0,"s_041.ogg",100
Sample,99400,0,"s_017.ogg",100
Sample,99600,0,"s_045.ogg",100
Sample,99600,0,"m_041.ogg",100
Sample,99600,0,"s_029.ogg",100
Sample,99600,0,"s_024.ogg",100
Sample,99733,0,"s_029.ogg",100
Sample,99733,0,"s_053.ogg",100
Sample,99733,0,"m_048.ogg",100
Sample,99733,0,"m_036.ogg",100
Sample,99866,0,"s_057.ogg",100
Sample,99866,0,"s_033.ogg",100
Sample,99866,0,"s_053.ogg",100
Sample,99866,0,"s_037.ogg",100
Sample,100000,0,"m_053.ogg",100
Sample,100000,0,"m_057.ogg",100
Sample,100000,0,"m_060.ogg",100
Sample,100000,0,"m_045.ogg",100
Sample,100000,0,"m_048.ogg",100
Sample,100133,0,"s_067.ogg",100
Sample,100133,0,"s_070.ogg",100
Sample,100133,0,"s_039.ogg",100
Sample,100133,0,"s_043.ogg",100
Sample,100266,0,"s_039.ogg",100
Sample,100266,0,"s_067.ogg",100
Sample,100266,0,"s_059.ogg",100
Sample,100266,0,"s_071.ogg",100
Sample,100400,0,"s_058.ogg",100
Sample,100400,0,"s_034.ogg",100
Sample,100400,0,"s_040.ogg",100
Sample,100400,0,"s_068.ogg",100
Sample,100500,0,"s_072.ogg",100
Sample,100500,0,"s_064.ogg",100
Sample,100500,0,"s_044.ogg",100
Sample,100500,0,"s_060.ogg",100
Sample,100600,0,"s_069.ogg",100
Sample,100600,0,"s_072.ogg",100
Sample,100600,0,"s_060.ogg",100
Sample,100600,0,"s_040.ogg",100
Sample,100700,0,"s_037.ogg",100
Sample,100700,0,"s_040.ogg",100
Sample,100700,0,"s_046.ogg",100
Sample,100700,0,"s_064.ogg",100
Sample,100800,0,"s_069.ogg",100
Sample,100800,0,"s_065.ogg",100
Sample,100800,0,"s_045.ogg",100
Sample,100800,0,"s_060.ogg",100
Sample,100933,0,"s_033.ogg",100
Sample,100933,0,"s_057.ogg",100
Sample,100933,0,"s_060.ogg",100
Sample,100933,0,"s_038.ogg",100
Sample,101066,0,"s_036.ogg",100
Sample,101066,0,"s_027.ogg",100
Sample,101066,0,"s_033.ogg",100
Sample,101066,0,"s_051.ogg",100
Sample,101066,0,"s_057.ogg",100
Sample,101200,0,"s_064.ogg",100
Sample,101200,0,"s_036.ogg",100
Sample,101200,0,"s_060.ogg",100
Sample,101200,0,"s_052.ogg",100
Sample,101200,0,"s_028.ogg",100
Sample,101333,0,"s_041.ogg",100
Sample,101333,0,"s_057.ogg",100
Sample,101333,0,"s_053.ogg",100
Sample,101333,0,"s_065.ogg",100
Sample,101333,0,"s_036.ogg",100
Sample,101466,0,"s_033.ogg",100
Sample,101466,0,"s_066.ogg",100
Sample,101466,0,"s_057.ogg",100
Sample,101466,0,"s_030.ogg",100
Sample,101466,0,"s_060.ogg",100
Sample,101600,0,"s_065.ogg",100
Sample,101600,0,"s_029.ogg",100
Sample,101600,0,"s_041.ogg",100
Sample,101600,0,"s_057.ogg",100
Sample,101600,0,"s_036.ogg",100
Sample,101733,0,"s_057.ogg",100
Sample,101733,0,"s_029.ogg",100
Sample,101733,0,"s_021.ogg",100
Sample,101866,0,"s_029.ogg",100
Sample,101866,0,"s_022.ogg",100
Sample,101866,0,"s_057.ogg",100
Sample,101866,0,"s_046.ogg",100
Sample,102000,0,"s_053.ogg",100
Sample,102000,0,"s_059.ogg",100
Sample,102000,0,"s_047.ogg",100
Sample,102000,0,"s_035.ogg",100
Sample,102000,0,"s_033.ogg",100
Sample,102133,0,"s_060.ogg",100
Sample,102133,0,"s_053.ogg",100
Sample,102133,0,"s_048.ogg",100
Sample,102133,0,"s_029.ogg",100
Sample,102133,0,"s_024.ogg",100
Sample,102266,0,"s_025.ogg",100
Sample,102266,0,"s_061.ogg",100
Sample,102266,0,"s_037.ogg",100
Sample,102266,0,"s_029.ogg",100
Sample,102266,0,"s_049.ogg",100
Sample,102400,0,"s_048.ogg",100
Sample,102400,0,"s_053.ogg",100
Sample,102400,0,"s_036.ogg",100
Sample,102400,0,"s_060.ogg",100
Sample,102400,0,"s_024.ogg",100
Sample,102533,0,"s_055.ogg",100
Sample,102533,0,"s_043.ogg",100
Sample,102533,0,"s_031.ogg",100
Sample,102533,0,"s_039.ogg",100
Sample,102666,0,"s_040.ogg",100
Sample,102666,0,"s_048.ogg",100
Sample,102666,0,"s_032.ogg",100
Sample,102666,0,"s_056.ogg",100
Sample,102800,0,"s_041.ogg",100
Sample,102800,0,"s_053.ogg",100
Sample,102800,0,"s_045.ogg",100
Sample,102800,0,"s_048.ogg",100
Sample,102933,0,"s_036.ogg",100
Sample,102933,0,"s_028.ogg",100
Sample,102933,0,"s_048.ogg",100
Sample,102933,0,"s_052.ogg",100
Sample,103066,0,"s_048.ogg",100
Sample,103066,0,"s_036.ogg",100
Sample,103066,0,"s_041.ogg",100
Sample,103066,0,"s_045.ogg",100
Sample,103200,0,"s_042.ogg",100
Sample,103200,0,"s_037.ogg",100
Sample,103200,0,"s_030.ogg",100
Sample,103200,0,"s_046.ogg",100
Sample,103333,0,"s_039.ogg",100
Sample,103333,0,"s_051.ogg",100
Sample,103333,0,"s_048.ogg",100
Sample,103333,0,"s_036.ogg",100
Sample,103466,0,"s_036.ogg",100
Sample,103466,0,"s_040.ogg",100
Sample,103466,0,"s_044.ogg",100
Sample,103466,0,"s_052.ogg",100
Sample,103600,0,"s_041.ogg",100
Sample,103600,0,"s_029.ogg",100
Sample,103600,0,"s_053.ogg",100
Sample,103600,0,"s_045.ogg",100
Sample,103733,0,"s_023.ogg",100
Sample,103733,0,"s_033.ogg",100
Sample,103733,0,"s_035.ogg",100
Sample,103733,0,"s_041.ogg",100
Sample,103866,0,"s_036.ogg",100
Sample,103866,0,"s_033.ogg",100
Sample,103866,0,"s_045.ogg",100
Sample,103866,0,"s_024.ogg",100
Sample,104000,0,"s_037.ogg",100
Sample,104000,0,"s_041.ogg",100
Sample,104000,0,"s_025.ogg",100
Sample,104000,0,"s_049.ogg",100
Sample,104100,0,"s_021.ogg",100
Sample,104100,0,"s_045.ogg",100
Sample,104200,0,"s_036.ogg",100
Sample,104200,0,"s_024.ogg",100
Sample,104300,0,"s_018.ogg",100
Sample,104300,0,"s_042.ogg",100
Sample,104400,0,"s_033.ogg",100
Sample,104400,0,"s_021.ogg",100
Sample,104500,0,"s_017.ogg",100
Sample,104500,0,"s_029.ogg",100
Sample,104600,0,"s_030.ogg",100
Sample,104600,0,"s_018.ogg",100
Sample,104700,0,"s_037.ogg",100
Sample,104700,0,"s_013.ogg",100
Sample,104800,0,"s_041.ogg",100
Sample,104800,0,"s_018.ogg",100
Sample,104900,0,"s_024.ogg",100
Sample,104900,0,"s_012.ogg",100
Sample,105000,0,"s_025.ogg",100
Sample,105000,0,"s_037.ogg",100
Sample,105100,0,"s_029.ogg",100
Sample,105200,0,"s_033.ogg",100
Sample,105300,0,"s_036.ogg",100
Sample,105400,0,"s_030.ogg",100
Sample,105500,0,"s_021.ogg",100
Sample,105600,0,"s_017.ogg",100
Sample,105700,0,"s_018.ogg",100
Sample,105800,0,"s_013.ogg",100
Sample,105900,0,"s_029.ogg",100
Sample,106000,0,"s_012.ogg",100
Sample,106100,0,"s_013.ogg",100
Sample,106200,0,"s_021.ogg",100
Sample,106300,0,"s_012.ogg",100
Sample,106400,0,"s_017.ogg",100
Sample,106500,0,"s_017.ogg",100
Sample,106600,0,"m_017.ogg",100
Sample,106700,0,"m_024.ogg",100
Sample,107100,0,"m_024.ogg",100
Sample,107200,0,"m_029.ogg",100
Sample,107300,0,"m_033.ogg",100
Sample,107700,0,"m_029.ogg",100
Sample,107800,0,"l_033.ogg",100
Sample,107900,0,"s_041.ogg",100
Sample,108300,0,"m_036.ogg",100
Sample,108400,0,"m_041.ogg",100
Sample,108500,0,"m_045.ogg",100
Sample,108900,0,"m_041.ogg",100
Sample,109000,0,"l_045.ogg",100
Sample,109100,0,"s_053.ogg",100
Sample,109500,0,"m_048.ogg",100
Sample,109600,0,"m_053.ogg",100
Sample,109700,0,"m_057.ogg",100
Sample,110100,0,"m_053.ogg",100
Sample,110200,0,"m_057.ogg",100
Sample,110300,0,"s_065.ogg",100
Sample,110700,0,"m_053.ogg",100
Sample,110800,0,"m_057.ogg",100
Sample,110900,0,"s_065.ogg",100
Sample,111200,0,"l_005.ogg",100

[TimingPoints]
0,400.000000000003,4,2,0,100,1,0
28800,300,4,2,0,100,1,0
28800,-133.333333333333,4,2,0,100,0,0
57600,400,4,2,0,100,1,0
104000,300,4,2,0,100,1,0
104000,-133.333333333333,4,2,0,100,0,0

[HitObjects]
25,192,1600,5,0,0:0:0:0:s_012.ogg
76,192,1733,1,0,0:0:0:0:s_017.ogg
128,192,1866,1,0,0:0:0:0:s_020.ogg
179,192,2000,1,0,0:0:0:0:s_022.ogg
230,192,2133,1,0,0:0:0:0:s_023.ogg
76,192,2266,1,0,0:0:0:0:s_020.ogg
281,192,2266,1,0,0:0:0:0:s_037.ogg
384,192,2266,1,0,0:0:0:0:s_029.ogg
179,192,2400,1,0,0:0:0:0:m_024.ogg
332,192,2400,1,0,0:0:0:0:l_032.ogg
435,192,2400,1,0,0:0:0:0:l_044.ogg
486,192,2666,1,0,0:0:0:0:l_036.ogg
332,192,2800,1,0,0:0:0:0:m_024.ogg
384,192,2933,1,0,0:0:0:0:m_029.ogg
230,192,3066,1,0,0:0:0:0:s_020.ogg
435,192,3200,1,0,0:0:0:0:m_031.ogg
281,192,3333,1,0,0:0:0:0:s_020.ogg
332,192,3466,1,0,0:0:0:0:s_024.ogg
179,192,3600,1,0,0:0:0:0:s_019.ogg
435,192,3733,1,0,0:0:0:0:m_031.ogg
281,192,3866,1,0,0:0:0:0:s_020.ogg
332,192,4000,1,0,0:0:0:0:s_024.ogg
179,192,4133,1,0,0:0:0:0:s_017.ogg
384,192,4266,1,0,0:0:0:0:m_027.ogg
230,192,4400,1,0,0:0:0:0:s_020.ogg
281,192,4533,1,0,0:0:0:0:s_024.ogg
128,192,4666,1,0,0:0:0:0:s_015.ogg
332,192,4800,1,0,0:0:0:0:m_026.ogg
179,192,4933,1,0,0:0:0:0:s_017.ogg
230,192,5066,1,0,0:0:0:0:s_020.ogg
76,192,5200,1,0,0:0:0:0:s_014.ogg
281,192,5333,1,0,0:0:0:0:m_037.ogg
384,192,5333,1,0,0:0:0:0:m_029.ogg
128,192,5466,1,0,0:0:0:0:s_017.ogg
179,192,5600,1,0,0:0:0:0:s_020.ogg
384,192,5600,1,0,0:0:0:0:l_032.ogg
486,192,5600,1,0,0:0:0:0:l_041.ogg
25,192,5733,1,0,0:0:0:0:s_013.ogg
332,192,5866,1,0,0:0:0:0:m_024.ogg
179,192,6000,1,0,0:0:0:0:s_017.ogg
230,192,6133,1,0,0:0:0:0:s_020.ogg
76,192,6266,1,0,0:0:0:0:s_012.ogg
281,192,6400,1,0,0:0:0:0:m_023.ogg
128,192,6533,1,0,0:0:0:0:s_017.ogg
179,192,6666,1,0,0:0:0:0:s_020.ogg
25,192,6800,1,0,0:0:0:0:s_012.ogg
230,192,6933,1,0,0:0:0:0:m_022.ogg
76,192,7066,1,0,0:0:0:0:s_017.ogg
128,192,7200,1,0,0:0:0:0:s_020.ogg
25,192,7333,1,0,0:0:0:0:s_012.ogg
179,192,7466,1,0,0:0:0:0:m_020.ogg
76,192,7600,1,0,0:0:0:0:s_016.ogg
128,192,7733,1,0,0:0:0:0:s_017.ogg
25,192,7866,1,0,0:0:0:0:s_012.ogg
128,192,8000,1,0,0:0:0:0:s_012.ogg
230,192,8133,1,0,0:0:0:0:s_025.ogg
76,192,8266,1,0,0:0:0:0:s_032.ogg
281,192,8266,1,0,0:0:0:0:s_037.ogg
435,192,8266,1,0,0:0:0:0:s_041.ogg
179,192,8400,1,0,0:0:0:0:s_024.ogg
332,192,8400,1,0,0:0:0:0:m_044.ogg
486,192,8400,1,0,0:0:0:0:m_036.ogg
25,192,8533,1,0,0:0:0:0:s_012.ogg
128,192,8666,1,0,0:0:0:0:s_017.ogg
25,192,8800,1,0,0:0:0:0:s_012.ogg
230,192,8933,1,0,0:0:0:0:s_025.ogg
76,192,9066,1,0,0:0:0:0:s_037.ogg
281,192,9066,1,0,0:0:0:0:s_013.ogg
384,192,9066,1,0,0:0:0:0:s_032.ogg
179,192,9200,1,0,0:0:0:0:s_024.ogg
332,192,9200,1,0,0:0:0:0:m_041.ogg
435,192,9200,1,0,0:0:0:0:m_032.ogg
25,192,9333,1,0,0:0:0:0:s_012.ogg
128,192,9466,1,0,0:0:0:0:s_017.ogg
25,192,9600,1,0,0:0:0:0:s_012.ogg
230,192,9733,1,0,0:0:0:0:s_025.ogg
76,192,9866,1,0,0:0:0:0:s_040.ogg
332,192,9866,1,0,0:0:0:0:s_031.ogg
435,192,9866,1,0,0:0:0:0:s_034.ogg
179,192,10000,1,0,0:0:0:0:s_024.ogg
384,192,10000,1,0,0:0:0:0:m_036.ogg
486,192,10000,1,0,0:0:0:0:m_040.ogg
25,192,10133,1,0,0:0:0:0:s_012.ogg
128,192,10266,1,0,0:0:0:0:s_016.ogg
25,192,10400,1,0,0:0:0:0:s_012.ogg
230,192,10533,1,0,0:0:0:0:s_025.ogg
76,192,10666,1,0,0:0:0:0:s_041.ogg
281,192,10666,1,0,0:0:0:0:s_013.ogg
435,192,10666,1,0,0:0:0:0:s_032.ogg
179,192,10800,1,0,0:0:0:0:s_024.ogg
332,192,10800,1,0,0:0:0:0:m_044.ogg
486,192,10800,1,0,0:0:0:0:m_041.ogg
25,192,10933,1,0,0:0:0:0:s_012.ogg
128,192,11066,1,0,0:0:0:0:s_017.ogg
25,192,11200,1,0,0:0:0:0:s_012.ogg
230,192,11333,1,0,0:0:0:0:s_025.ogg
76,192,11466,1,0,0:0:0:0:s_032.ogg
281,192,11466,1,0,0:0:0:0:s_013.ogg
435,192,11466,1,0,0:0:0:0:s_037.ogg
179,192,11600,1,0,0:0:0:0:s_024.ogg
332,192,11600,1,0,0:0:0:0:m_044.ogg
486,192,11600,1,0,0:0:0:0:m_036.ogg
25,192,11733,1,0,0:0:0:0:s_012.ogg
128,192,11866,1,0,0:0:0:0:s_017.ogg
25,192,12000,1,0,0:0:0:0:s_012.ogg
230,192,12133,1,0,0:0:0:0:s_026.ogg
76,192,12266,1,0,0:0:0:0:s_032.ogg
281,192,12266,1,0,0:0:0:0:s_014.ogg
435,192,12266,1,0,0:0:0:0:s_036.ogg
179,192,12400,1,0,0:0:0:0:s_024.ogg
332,192,12400,1,0,0:0:0:0:m_044.ogg
486,192,12400,1,0,0:0:0:0:m_036.ogg
25,192,12533,1,0,0:0:0:0:s_012.ogg
128,192,12666,1,0,0:0:0:0:s_017.ogg
25,192,12800,1,0,0:0:0:0:s_012.ogg
230,192,12933,1,0,0:0:0:0:s_027.ogg
76,192,13066,1,0,0:0:0:0:s_015.ogg
332,192,13066,1,0,0:0:0:0:s_039.ogg
435,192,13066,1,0,0:0:0:0:s_041.ogg
179,192,13200,1,0,0:0:0:0:s_024.ogg
281,192,13200,1,0,0:0:0:0:m_036.ogg
384,192,13200,1,0,0:0:0:0:m_044.ogg
25,192,13333,1,0,0:0:0:0:s_012.ogg
128,192,13466,1,0,0:0:0:0:s_017.ogg
25,192,13600,1,0,0:0:0:0:s_012.ogg
230,192,13733,1,0,0:0:0:0:s_028.ogg
76,192,13866,1,0,0:0:0:0:s_016.ogg
281,192,13866,1,0,0:0:0:0:s_040.ogg
435,192,13866,1,0,0:0:0:0:s_031.ogg
179,192,14000,1,0,0:0:0:0:s_024.ogg
332,192,14000,1,0,0:0:0:0:m_043.ogg
486,192,14000,1,0,0:0:0:0:m_040.ogg
25,192,14133,1,0,0:0:0:0:s_012.ogg
128,192,14266,1,0,0:0:0:0:s_016.ogg
25,192,14400,1,0,0:0:0:0:m_024.ogg
76,192,14666,1,0,0:0:0:0:s_032.ogg
332,192,14666,1,0,0:0:0:0:s_044.ogg
435,192,14666,1,0,0:0:0:0:s_040.ogg
128,192,14800,1,0,0:0:0:0:m_036.ogg
384,192,14800,1,0,0:0:0:0:l_039.ogg
486,192,14800,1,0,0:0:0:0:l_044.ogg
486,192,15066,1,0,0:0:0:0:l_036.ogg
281,192,15200,1,0,0:0:0:0:s_027.ogg
332,192,15333,1,0,0:0:0:0:s_032.ogg
179,192,15466,1,0,0:0:0:0:m_024.ogg
435,192,15600,1,0,0:0:0:0:m_034.ogg
230,192,15733,1,0,0:0:0:0:m_024.ogg
281,192,15866,1,0,0:0:0:0:s_027.ogg
128,192,16000,1,0,0:0:0:0:s_022.ogg
384,192,16133,1,0,0:0:0:0:m_032.ogg
179,192,16266,1,0,0:0:0:0:m_024.ogg
230,192,16400,1,0,0:0:0:0:s_027.ogg
76,192,16533,1,0,0:0:0:0:s_020.ogg
332,192,16666,1,0,0:0:0:0:m_030.ogg
128,192,16800,1,0,0:0:0:0:s_020.ogg
179,192,16933,1,0,0:0:0:0:s_024.ogg
281,192,17000,1,0,0:0:0:0:s_032.ogg
384,192,17000,1,0,0:0:0:0:s_040.ogg
25,192,17066,1,0,0:0:0:0:s_018.ogg
384,192,17200,1,0,0:0:0:0:l_044.ogg
486,192,17200,1,0,0:0:0:0:l_032.ogg
179,192,17333,1,0,0:0:0:0:s_020.ogg
230,192,17466,1,0,0:0:0:0:s_024.ogg
76,192,17600,1,0,0:0:0:0:s_016.ogg
281,192,17733,1,0,0:0:0:0:m_027.ogg
128,192,17866,1,0,0:0:0:0:s_020.ogg
179,192,18000,1,0,0:0:0:0:s_024.ogg
76,192,18133,1,0,0:0:0:0:s_015.ogg
230,192,18266,1,0,0:0:0:0:m_025.ogg
128,192,18400,1,0,0:0:0:0:s_020.ogg
76,192,18533,1,0,0:0:0:0:s_015.ogg
179,192,18666,1,0,0:0:0:0:m_024.ogg
25,192,18800,1,0,0:0:0:0:s_018.ogg
128,192,18933,1,0,0:0:0:0:s_020.ogg
76,192,19066,1,0,0:0:0:0:s_015.ogg
25,192,19200,1,0,0:0:0:0:s_012.ogg
230,192,19333,1,0,0:0:0:0:s_028.ogg
76,192,19466,1,0,0:0:0:0:s_016.ogg
281,192,19466,1,0,0:0:0:0:s_040.ogg
435,192,19466,1,0,0:0:0:0:s_037.ogg
179,192,19600,1,0,0:0:0:0:s_027.ogg
332,192,19600,1,0,0:0:0:0:m_036.ogg
486,192,19600,1,0,0:0:0:0:m_044.ogg
76,192,19733,1,0,0:0:0:0:s_015.ogg
128,192,19866,1,0,0:0:0:0:s_020.ogg
25,192,20000,1,0,0:0:0:0:s_012.ogg
230,192,20133,1,0,0:0:0:0:s_028.ogg
76,192,20266,1,0,0:0:0:0:s_040.ogg
281,192,20266,1,0,0:0:0:0:s_016.ogg
384,192,20266,1,0,0:0:0:0:s_037.ogg
179,192,20400,1,0,0:0:0:0:s_027.ogg
332,192,20400,1,0,0:0:0:0:m_044.ogg
435,192,20400,1,0,0:0:0:0:m_036.ogg
76,192,20533,1,0,0:0:0:0:s_015.ogg
128,192,20666,1,0,0:0:0:0:s_020.ogg
25,192,20800,1,0,0:0:0:0:s_012.ogg
230,192,20933,1,0,0:0:0:0:s_028.ogg
76,192,21066,1,0,0:0:0:0:s_016.ogg
332,192,21066,1,0,0:0:0:0:s_040.ogg
435,192,21066,1,0,0:0:0:0:s_037.ogg
179,192,21200,1,0,0:0:0:0:s_027.ogg
384,192,21200,1,0,0:0:0:0:m_043.ogg
486,192,21200,1,0,0:0:0:0:m_046.ogg
76,192,21333,1,0,0:0:0:0:s_015.ogg
128,192,21466,1,0,0:0:0:0:s_019.ogg
25,192,21600,1,0,0:0:0:0:s_012.ogg
230,192,21733,1,0,0:0:0:0:s_028.ogg
76,192,21866,1,0,0:0:0:0:s_016.ogg
281,192,21866,1,0,0:0:0:0:s_044.ogg
435,192,21866,1,0,0:0:0:0:s_040.ogg
179,192,22000,1,0,0:0:0:0:s_027.ogg
332,192,22000,1,0,0:0:0:0:m_048.ogg
486,192,22000,1,0,0:0:0:0:m_044.ogg
76,192,22133,1,0,0:0:0:0:s_012.ogg
128,192,22266,1,0,0:0:0:0:s_020.ogg
25,192,22400,1,0,0:0:0:0:s_012.ogg
230,192,22533,1,0,0:0:0:0:s_028.ogg
76,192,22666,1,0,0:0:0:0:s_016.ogg
281,192,22666,1,0,0:0:0:0:s_037.ogg
435,192,22666,1,0,0:0:0:0:s_040.ogg
179,192,22800,1,0,0:0:0:0:s_027.ogg
332,192,22800,1,0,0:0:0:0:m_048.ogg
486,192,22800,1,0,0:0:0:0:m_044.ogg
76,192,22933,1,0,0:0:0:0:s_015.ogg
128,192,23066,1,0,0:0:0:0:s_020.ogg
25,192,23200,1,0,0:0:0:0:s_012.ogg
230,192,23333,1,0,0:0:0:0:s_029.ogg
76,192,23466,1,0,0:0:0:0:s_017.ogg
281,192,23466,1,0,0:0:0:0:s_044.ogg
435,192,23466,1,0,0:0:0:0:s_037.ogg
179,192,23600,1,0,0:0:0:0:s_028.ogg
332,192,23600,1,0,0:0:0:0:m_040.ogg
486,192,23600,1,0,0:0:0:0:m_048.ogg
76,192,23733,1,0,0:0:0:0:s_016.ogg
128,192,23866,1,0,0:0:0:0:s_020.ogg
25,192,24000,1,0,0:0:0:0:s_012.ogg
230,192,24133,1,0,0:0:0:0:s_030.ogg
76,192,24266,1,0,0:0:0:0:s_044.ogg
281,192,24266,1,0,0:0:0:0:s_042.ogg
435,192,24266,1,0,0:0:0:0:s_018.ogg
179,192,24400,1,0,0:0:0:0:s_029.ogg
332,192,24400,1,0,0:0:0:0:m_041.ogg
486,192,24400,1,0,0:0:0:0:m_036.ogg
76,192,24533,1,0,0:0:0:0:s_017.ogg
128,192,24666,1,0,0:0:0:0:s_020.ogg
25,192,24800,1,0,0:0:0:0:s_012.ogg
179,192,24933,1,0,0:0:0:0:s_030.ogg
76,192,25066,1,0,0:0:0:0:s_036.ogg
332,192,25066,1,0,0:0:0:0:s_018.ogg
486,192,25066,1,0,0:0:0:0:s_039.ogg
230,192,25200,1,0,0:0:0:0:s_031.ogg
281,192,25200,1,0,0:0:0:0:m_047.ogg
435,192,25200,1,0,0:0:0:0:m_038.ogg
128,192,25333,1,0,0:0:0:0:s_019.ogg
179,192,25466,1,0,0:0:0:0:s_019.ogg
25,192,25600,1,0,0:0:0:0:m_024.ogg
76,192,25866,1,0,0:0:0:0:s_027.ogg
332,192,25866,1,0,0:0:0:0:s_032.ogg
435,192,25866,1,0,0:0:0:0:s_044.ogg
128,192,26000,1,0,0:0:0:0:m_036.ogg
384,192,26000,1,0,0:0:0:0:m_043.ogg
486,192,26000,1,0,0:0:0:0:m_051.ogg
332,192,26266,1,0,0:0:0:0:m_039.ogg
179,192,26400,1,0,0:0:0:0:s_027.ogg
230,192,26533,1,0,0:0:0:0:s_032.ogg
76,192,26666,1,0,0:0:0:0:m_024.ogg
281,192,26800,1,0,0:0:0:0:m_036.ogg
128,192,26933,1,0,0:0:0:0:s_027.ogg
230,192,27066,1,0,0:0:0:0:s_031.ogg
76,192,27200,1,0,0:0:0:0:s_019.ogg
179,192,27333,1,0,0:0:0:0:s_024.ogg
25,192,27466,1,0,0:0:0:0:s_039.ogg
281,192,27466,1,0,0:0:0:0:s_032.ogg
384,192,27466,1,0,0:0:0:0:s_036.ogg
128,192,27600,1,0,0:0:0:0:m_039.ogg
332,192,27600,1,0,0:0:0:0:m_036.ogg
435,192,27600,1,0,0:0:0:0:m_048.ogg
230,192,27866,1,0,0:0:0:0:s_027.ogg
128,192,28000,1,0,0:0:0:0:s_020.ogg
179,192,28133,1,0,0:0:0:0:m_024.ogg
76,192,28266,1,0,0:0:0:0:s_019.ogg
179,192,28400,1,0,0:0:0:0:m_024.ogg
25,192,28533,1,0,0:0:0:0:s_015.ogg
128,192,28666,1,0,0:0:0:0:s_019.ogg
25,192,28800,1,0,0:0:0:0:s_012.ogg
230,192,28900,1,0,0:0:0:0:s_032.ogg
281,192,28950,1,0,0:0:0:0:s_048.ogg
384,192,28950,1,0,0:0:0:0:s_039.ogg
128,192,29000,1,0,0:0:0:0:s_020.ogg
179,192,29100,1,0,0:0:0:0:s_031.ogg
435,192,29100,1,0,0:0:0:0:m_039.ogg
486,192,29100,1,0,0:0:0:0:m_051.ogg
76,192,29200,1,0,0:0:0:0:s_019.ogg
25,192,29300,1,0,0:0:0:0:m_012.ogg
230,192,29500,1,0,0:0:0:0:s_032.ogg
281,192,29550,1,0,0:0:0:0:s_036.ogg
332,192,29550,1,0,0:0:0:0:s_044.ogg
128,192,29600,1,0,0:0:0:0:s_020.ogg
179,192,29700,1,0,0:0:0:0:s_031.ogg
384,192,29700,1,0,0:0:0:0:m_048.ogg
486,192,29700,1,0,0:0:0:0:m_044.ogg
76,192,29800,1,0,0:0:0:0:s_019.ogg
25,192,29900,1,0,0:0:0:0:m_012.ogg
230,192,30100,1,0,0:0:0:0:s_032.ogg
281,192,30150,1,0,0:0:0:0:s_038.ogg
332,192,30150,1,0,0:0:0:0:s_041.ogg
128,192,30200,1,0,0:0:0:0:s_020.ogg
76,192,30300,1,0,0:0:0:0:s_019.ogg
384,192,30300,1,0,0:0:0:0:m_038.ogg
435,192,30300,1,0,0:0:0:0:m_050.ogg
179,192,30400,1,0,0:0:0:0:s_031.ogg
25,192,30500,1,0,0:0:0:0:m_012.ogg
230,192,30700,1,0,0:0:0:0:s_032.ogg
332,192,30750,1,0,0:0:0:0:s_048.ogg
384,192,30750,1,0,0:0:0:0:s_039.ogg
128,192,30800,1,0,0:0:0:0:s_020.ogg
76,192,30900,1,0,0:0:0:0:s_019.ogg
435,192,30900,1,0,0:0:0:0:m_039.ogg
486,192,30900,1,0,0:0:0:0:m_051.ogg
179,192,31000,1,0,0:0:0:0:s_031.ogg
25,192,31100,1,0,0:0:0:0:m_012.ogg
179,192,31300,1,0,0:0:0:0:s_031.ogg
281,192,31350,1,0,0:0:0:0:s_039.ogg
332,192,31350,1,0,0:0:0:0:s_051.ogg
76,192,31400,1,0,0:0:0:0:s_019.ogg
230,192,31500,1,0,0:0:0:0:s_032.ogg
435,192,31500,1,0,0:0:0:0:m_048.ogg
486,192,31500,1,0,0:0:0:0:m_054.ogg
128,192,31600,1,0,0:0:0:0:s_020.ogg
25,192,31700,1,0,0:0:0:0:m_012.ogg
179,192,31900,1,0,0:0:0:0:s_031.ogg
281,192,31950,1,0,0:0:0:0:s_036.ogg
384,192,31950,1,0,0:0:0:0:s_048.ogg
76,192,32000,1,0,0:0:0:0:s_019.ogg
230,192,32100,1,0,0:0:0:0:s_032.ogg
435,192,32100,1,0,0:0:0:0:m_039.ogg
486,192,32100,1,0,0:0:0:0:m_042.ogg
128,192,32200,1,0,0:0:0:0:s_020.ogg
25,192,32300,1,0,0:0:0:0:m_012.ogg
179,192,32500,1,0,0:0:0:0:s_031.ogg
281,192,32550,1,0,0:0:0:0:s_050.ogg
332,192,32550,1,0,0:0:0:0:s_038.ogg
76,192,32600,1,0,0:0:0:0:s_019.ogg
230,192,32700,1,0,0:0:0:0:s_032.ogg
384,192,32700,1,0,0:0:0:0:m_053.ogg
486,192,32700,1,0,0:0:0:0:m_050.ogg
128,192,32800,1,0,0:0:0:0:s_020.ogg
25,192,32900,1,0,0:0:0:0:m_012.ogg
179,192,33100,1,0,0:0:0:0:s_031.ogg
281,192,33150,1,0,0:0:0:0:s_039.ogg
332,192,33150,1,0,0:0:0:0:s_043.ogg
76,192,33200,1,0,0:0:0:0:s_019.ogg
230,192,33300,1,0,0:0:0:0:s_032.ogg
435,192,33300,1,0,0:0:0:0:m_042.ogg
486,192,33300,1,0,0:0:0:0:m_048.ogg
128,192,33400,1,0,0:0:0:0:s_020.ogg
25,192,33500,1,0,0:0:0:0:m_012.ogg
230,192,33700,1,0,0:0:0:0:s_034.ogg
281,192,33750,1,0,0:0:0:0:s_054.ogg
384,192,33750,1,0,0:0:0:0:s_042.ogg
128,192,33800,1,0,0:0:0:0:s_022.ogg
179,192,33900,1,0,0:0:0:0:s_033.ogg
435,192,33900,1,0,0:0:0:0:m_057.ogg
486,192,33900,1,0,0:0:0:0:m_050.ogg
76,192,34000,1,0,0:0:0:0:s_021.ogg
128,192,34100,1,0,0:0:0:0:s_030.ogg
25,192,34200,1,0,0:0:0:0:s_018.ogg
230,192,34300,1,0,0:0:0:0:s_031.ogg
281,192,34350,1,0,0:0:0:0:s_046.ogg
332,192,34350,1,0,0:0:0:0:s_038.ogg
128,192,34400,1,0,0:0:0:0:s_019.ogg
179,192,34500,1,0,0:0:0:0:s_030.ogg
384,192,34500,1,0,0:0:0:0:m_045.ogg
486,192,34500,1,0,0:0:0:0:m_050.ogg
76,192,34600,1,0,0:0:0:0:s_018.ogg
25,192,34700,1,0,0:0:0:0:m_012.ogg
230,192,34900,1,0,0:0:0:0:s_035.ogg
281,192,34950,1,0,0:0:0:0:s_054.ogg
332,192,34950,1,0,0:0:0:0:s_050.ogg
128,192,35000,1,0,0:0:0:0:s_023.ogg
179,192,35100,1,0,0:0:0:0:s_034.ogg
384,192,35100,1,0,0:0:0:0:m_054.ogg
435,192,35100,1,0,0:0:0:0:m_050.ogg
76,192,35200,1,0,0:0:0:0:s_022.ogg
128,192,35300,1,0,0:0:0:0:s_030.ogg
25,192,35400,1,0,0:0:0:0:s_018.ogg
230,192,35500,1,0,0:0:0:0:s_031.ogg
332,192,35550,1,0,0:0:0:0:s_050.ogg
384,192,35550,1,0,0:0:0:0:s_046.ogg
128,192,35600,1,0,0:0:0:0:s_019.ogg
179,192,35700,1,0,0:0:0:0:s_030.ogg
435,192,35700,1,0,0:0:0:0:m_046.ogg
486,192,35700,1,0,0:0:0:0:m_054.ogg
76,192,35800,1,0,0:0:0:0:s_018.ogg
25,192,35900,1,0,0:0:0:0:m_012.ogg
230,192,36100,1,0,0:0:0:0:s_035.ogg
281,192,36150,1,0,0:0:0:0:s_055.ogg
435,192,36150,1,0,0:0:0:0:s_043.ogg
128,192,36200,1,0,0:0:0:0:s_023.ogg
179,192,36300,1,0,0:0:0:0:s_034.ogg
332,192,36300,1,0,0:0:0:0:m_046.ogg
486,192,36300,1,0,0:0:0:0:m_055.ogg
76,192,36400,1,0,0:0:0:0:s_022.ogg
128,192,36500,1,0,0:0:0:0:s_031.ogg
25,192,36600,1,0,0:0:0:0:s_019.ogg
230,192,36700,1,0,0:0:0:0:s_032.ogg
281,192,36750,1,0,0:0:0:0:s_039.ogg
384,192,36750,1,0,0:0:0:0:s_051.ogg
128,192,36800,1,0,0:0:0:0:s_020.ogg
179,192,36900,1,0,0:0:0:0:s_031.ogg
332,192,36900,1,0,0:0:0:0:m_043.ogg
435,192,36900,1,0,0:0:0:0:m_055.ogg
76,192,37000,1,0,0:0:0:0:s_019.ogg
25,192,37100,1,0,0:0:0:0:m_012.ogg
230,192,37300,1,0,0:0:0:0:s_036.ogg
281,192,37350,1,0,0:0:0:0:s_055.ogg
435,192,37350,1,0,0:0:0:0:s_043.ogg
128,192,37400,1,0,0:0:0:0:s_024.ogg
179,192,37500,1,0,0:0:0:0:s_035.ogg
332,192,37500,1,0,0:0:0:0:m_051.ogg
486,192,37500,1,0,0:0:0:0:m_055.ogg
76,192,37600,1,0,0:0:0:0:s_023.ogg
128,192,37700,1,0,0:0:0:0:s_031.ogg
25,192,37800,1,0,0:0:0:0:s_019.ogg
230,192,37900,1,0,0:0:0:0:s_032.ogg
332,192,37950,1,0,0:0:0:0:s_039.ogg
435,192,37950,1,0,0:0:0:0:s_051.ogg
128,192,38000,1,0,0:0:0:0:s_020.ogg
179,192,38100,1,0,0:0:0:0:s_031.ogg
384,192,38100,1,0,0:0:0:0:m_043.ogg
486,192,38100,1,0,0:0:0:0:m_055.ogg
76,192,38200,1,0,0:0:0:0:s_019.ogg
25,192,38300,1,0,0:0:0:0:m_012.ogg
25,192,38500,1,0,0:0:0:0:s_040.ogg
281,192,38550,1,0,0:0:0:0:s_056.ogg
332,192,38550,1,0,0:0:0:0:s_052.ogg
179,192,38600,1,0,0:0:0:0:s_032.ogg
25,192,38700,1,0,0:0:0:0:s_040.ogg
435,192,38700,1,0,0:0:0:0:m_048.ogg
486,192,38700,1,0,0:0:0:0:m_052.ogg
179,192,38800,1,0,0:0:0:0:s_032.ogg
25,192,38900,1,0,0:0:0:0:s_040.ogg
179,192,39000,1,0,0:0:0:0:s_024.ogg
76,192,39100,1,0,0:0:0:0:s_044.ogg
281,192,39150,1,0,0:0:0:0:s_056.ogg
332,192,39150,1,0,0:0:0:0:s_052.ogg
230,192,39200,1,0,0:0:0:0:s_032.ogg
76,192,39300,1,0,0:0:0:0:s_044.ogg
435,192,39300,1,0,0:0:0:0:m_053.ogg
486,192,39300,1,0,0:0:0:0:m_056.ogg
230,192,39400,1,0,0:0:0:0:s_032.ogg
76,192,39500,1,0,0:0:0:0:s_044.ogg
230,192,39600,1,0,0:0:0:0:s_024.ogg
128,192,39700,1,0,0:0:0:0:s_045.ogg
332,192,39750,1,0,0:0:0:0:s_057.ogg
384,192,39750,1,0,0:0:0:0:s_050.ogg
25,192,39800,1,0,0:0:0:0:s_033.ogg
128,192,39900,1,0,0:0:0:0:s_045.ogg
435,192,39900,1,0,0:0:0:0:m_053.ogg
486,192,39900,1,0,0:0:0:0:m_057.ogg
25,192,40000,1,0,0:0:0:0:s_033.ogg
128,192,40100,1,0,0:0:0:0:s_045.ogg
25,192,40200,1,0,0:0:0:0:s_024.ogg
179,192,40300,1,0,0:0:0:0:s_038.ogg
332,192,40350,1,0,0:0:0:0:s_058.ogg
384,192,40350,1,0,0:0:0:0:s_050.ogg
76,192,40400,1,0,0:0:0:0:s_034.ogg
179,192,40500,1,0,0:0:0:0:s_042.ogg
435,192,40500,1,0,0:0:0:0:m_054.ogg
486,192,40500,1,0,0:0:0:0:m_058.ogg
76,192,40600,1,0,0:0:0:0:s_034.ogg
179,192,40700,1,0,0:0:0:0:s_042.ogg
76,192,40800,1,0,0:0:0:0:s_034.ogg
128,192,41000,1,0,0:0:0:0:s_048.ogg
281,192,41000,1,0,0:0:0:0:s_055.ogg
435,192,41000,1,0,0:0:0:0:s_060.ogg
230,192,41100,1,0,0:0:0:0:s_037.ogg
332,192,41100,1,0,0:0:0:0:m_049.ogg
486,192,41100,1,0,0:0:0:0:m_052.ogg
179,192,41200,1,0,0:0:0:0:s_043.ogg
128,192,41300,1,0,0:0:0:0:s_040.ogg
76,192,41400,1,0,0:0:0:0:s_037.ogg
25,192,41500,1,0,0:0:0:0:s_034.ogg
128,192,41600,1,0,0:0:0:0:s_048.ogg
281,192,41600,1,0,0:0:0:0:s_040.ogg
384,192,41600,1,0,0:0:0:0:s_031.ogg
230,192,41700,1,0,0:0:0:0:m_031.ogg
332,192,41700,1,0,0:0:0:0:m_037.ogg
435,192,41700,1,0,0:0:0:0:m_049.ogg
25,192,41900,1,0,0:0:0:0:s_034.ogg
76,192,42000,1,0,0:0:0:0:m_037.ogg
128,192,42100,1,0,0:0:0:0:m_040.ogg
179,192,42200,1,0,0:0:0:0:s_060.ogg
281,192,42200,1,0,0:0:0:0:s_045.ogg
435,192,42200,1,0,0:0:0:0:s_055.ogg
230,192,42300,1,0,0:0:0:0:s_046.ogg
332,192,42300,1,0,0:0:0:0:m_049.ogg
486,192,42300,1,0,0:0:0:0:m_052.ogg
179,192,42400,1,0,0:0:0:0:s_043.ogg
128,192,42500,1,0,0:0:0:0:s_040.ogg
76,192,42600,1,0,0:0:0:0:s_037.ogg
25,192,42700,1,0,0:0:0:0:s_034.ogg
128,192,42800,1,0,0:0:0:0:s_040.ogg
281,192,42800,1,0,0:0:0:0:s_045.ogg
384,192,42800,1,0,0:0:0:0:s_048.ogg
230,192,42900,1,0,0:0:0:0:m_024.ogg
332,192,42900,1,0,0:0:0:0:m_040.ogg
435,192,42900,1,0,0:0:0:0:m_049.ogg
25,192,43100,1,0,0:0:0:0:s_034.ogg
76,192,43200,1,0,0:0:0:0:m_040.ogg
128,192,43300,1,0,0:0:0:0:s_043.ogg
179,192,43400,1,0,0:0:0:0:s_063.ogg
281,192,43400,1,0,0:0:0:0:s_055.ogg
435,192,43400,1,0,0:0:0:0:s_058.ogg
230,192,43500,1,0,0:0:0:0:s_040.ogg
332,192,43500,1,0,0:0:0:0:m_052.ogg
486,192,43500,1,0,0:0:0:0:m_055.ogg
179,192,43600,1,0,0:0:0:0:s_046.ogg
128,192,43700,1,0,0:0:0:0:s_043.ogg
76,192,43800,1,0,0:0:0:0:s_040.ogg
25,192,43900,1,0,0:0:0:0:s_034.ogg
332,192,44000,1,0,0:0:0:0:s_039.ogg
435,192,44000,1,0,0:0:0:0:s_043.ogg
230,192,44000,1,0,0:0:0:0:s_037.ogg
76,192,44100,1,0,0:0:0:0:s_031.ogg
384,192,44100,1,0,0:0:0:0:m_043.ogg
486,192,44100,1,0,0:0:0:0:m_052.ogg
128,192,44200,1,0,0:0:0:0:s_034.ogg
179,192,44300,1,0,0:0:0:0:s_037.ogg
230,192,44400,1,0,0:0:0:0:m_040.ogg
25,192,44500,1,0,0:0:0:0:s_043.ogg
76,192,44600,1,0,0:0:0:0:s_063.ogg
281,192,44600,1,0,0:0:0:0:s_055.ogg
435,192,44600,1,0,0:0:0:0:s_051.ogg
128,192,44700,1,0,0:0:0:0:s_049.ogg
332,192,44700,1,0,0:0:0:0:m_052.ogg
486,192,44700,1,0,0:0:0:0:m_058.ogg
76,192,44800,1,0,0:0:0:0:s_046.ogg
25,192,44900,1,0,0:0:0:0:s_043.ogg
230,192,45000,1,0,0:0:0:0:s_040.ogg
179,192,45100,1,0,0:0:0:0:s_037.ogg
128,192,45200,1,0,0:0:0:0:s_051.ogg
332,192,45200,1,0,0:0:0:0:s_034.ogg
435,192,45200,1,0,0:0:0:0:s_039.ogg
76,192,45300,1,0,0:0:0:0:s_031.ogg
384,192,45300,1,0,0:0:0:0:m_043.ogg
486,192,45300,1,0,0:0:0:0:m_052.ogg
128,192,45400,1,0,0:0:0:0:s_034.ogg
179,192,45500,1,0,0:0:0:0:s_037.ogg
25,192,45600,1,0,0:0:0:0:m_040.ogg
76,192,45675,1,0,0:0:0:0:s_043.ogg
128,192,45750,1,0,0:0:0:0:s_046.ogg
281,192,45800,1,0,0:0:0:0:s_066.ogg
332,192,45800,1,0,0:0:0:0:s_060.ogg
179,192,45825,1,0,0:0:0:0:s_049.ogg
230,192,45900,1,0,0:0:0:0:s_052.ogg
384,192,45900,1,0,0:0:0:0:m_055.ogg
435,192,45900,1,0,0:0:0:0:m_058.ogg
179,192,46000,1,0,0:0:0:0:s_051.ogg
128,192,46100,1,0,0:0:0:0:s_050.ogg
76,192,46200,1,0,0:0:0:0:s_049.ogg
25,192,46300,1,0,0:0:0:0:s_048.ogg
230,192,46400,1,0,0:0:0:0:s_047.ogg
281,192,46400,1,0,0:0:0:0:s_057.ogg
332,192,46400,1,0,0:0:0:0:s_066.ogg
179,192,46500,1,0,0:0:0:0:s_046.ogg
384,192,46500,1,0,0:0:0:0:m_067.ogg
435,192,46500,1,0,0:0:0:0:m_061.ogg
128,192,46600,1,0,0:0:0:0:s_043.ogg
76,192,46700,1,0,0:0:0:0:s_040.ogg
25,192,46800,1,0,0:0:0:0:s_037.ogg
230,192,46900,1,0,0:0:0:0:s_036.ogg
281,192,46950,1,0,0:0:0:0:s_066.ogg
332,192,46950,1,0,0:0:0:0:s_069.ogg
179,192,47000,1,0,0:0:0:0:s_035.ogg
128,192,47100,1,0,0:0:0:0:s_034.ogg
435,192,47100,1,0,0:0:0:0:m_070.ogg
486,192,47100,1,0,0:0:0:0:m_067.ogg
76,192,47200,1,0,0:0:0:0:s_031.ogg
25,192,47300,1,0,0:0:0:0:s_028.ogg
230,192,47400,1,0,0:0:0:0:s_025.ogg
179,192,47500,1,0,0:0:0:0:s_024.ogg
281,192,47550,1,0,0:0:0:0:s_069.ogg
332,192,47550,1,0,0:0:0:0:s_057.ogg
128,192,47600,1,0,0:0:0:0:s_023.ogg
76,192,47700,1,0,0:0:0:0:s_022.ogg
435,192,47700,1,0,0:0:0:0:m_070.ogg
486,192,47700,1,0,0:0:0:0:m_067.ogg
25,192,47800,1,0,0:0:0:0:s_019.ogg
230,192,47900,1,0,0:0:0:0:s_016.ogg
179,192,48000,1,0,0:0:0:0:s_013.ogg
128,192,48100,1,0,0:0:0:0:s_012.ogg
76,192,48200,1,0,0:0:0:0:s_007.ogg
332,192,48200,1,0,0:0:0:0:s_064.ogg
384,192,48200,1,0,0:0:0:0:s_069.ogg
25,192,48300,1,0,0:0:0:0:m_064.ogg
435,192,48300,1,0,0:0:0:0:l_061.ogg
486,192,48300,1,0,0:0:0:0:l_012.ogg
281,192,48450,1,0,0:0:0:0:m_066.ogg
384,192,48450,1,0,0:0:0:0:l_054.ogg
25,192,48600,1,0,0:0:0:0:m_067.ogg
332,192,48600,1,0,0:0:0:0:l_055.ogg
435,192,48600,1,0,0:0:0:0:l_019.ogg
76,192,48700,1,0,0:0:0:0:l_025.ogg
384,192,48750,1,0,0:0:0:0:m_057.ogg
486,192,48750,1,0,0:0:0:0:m_069.ogg
128,192,48800,1,0,0:0:0:0:l_027.ogg
179,192,48900,1,0,0:0:0:0:l_024.ogg
281,192,48900,1,0,0:0:0:0:m_070.ogg
435,192,48900,1,0,0:0:0:0:m_067.ogg
230,192,49000,1,0,0:0:0:0:m_031.ogg
332,192,49050,1,0,0:0:0:0:m_069.ogg
384,192,49050,1,0,0:0:0:0:m_066.ogg
25,192,49100,1,0,0:0:0:0:l_034.ogg
76,192,49200,1,0,0:0:0:0:m_070.ogg
435,192,49200,1,0,0:0:0:0:m_058.ogg
486,192,49200,1,0,0:0:0:0:m_067.ogg
128,192,49300,1,0,0:0:0:0:m_037.ogg
281,192,49350,1,0,0:0:0:0:m_069.ogg
332,192,49350,1,0,0:0:0:0:m_060.ogg
179,192,49400,1,0,0:0:0:0:m_039.ogg
230,192,49500,1,0,0:0:0:0:m_036.ogg
384,192,49500,1,0,0:0:0:0:m_073.ogg
435,192,49500,1,0,0:0:0:0:m_040.ogg
25,192,49600,1,0,0:0:0:0:m_043.ogg
332,192,49650,1,0,0:0:0:0:m_066.ogg
486,192,49650,1,0,0:0:0:0:m_054.ogg
76,192,49700,1,0,0:0:0:0:m_046.ogg
128,192,49800,1,0,0:0:0:0:m_064.ogg
281,192,49800,1,0,0:0:0:0:m_048.ogg
384,192,49800,1,0,0:0:0:0:m_055.ogg
179,192,49900,1,0,0:0:0:0:m_049.ogg
332,192,49950,1,0,0:0:0:0:m_069.ogg
435,192,49950,1,0,0:0:0:0:m_057.ogg
230,192,50000,1,0,0:0:0:0:m_051.ogg
25,192,50100,1,0,0:0:0:0:m_070.ogg
384,192,50100,1,0,0:0:0:0:m_052.ogg
486,192,50100,1,0,0:0:0:0:m_048.ogg
76,192,50200,1,0,0:0:0:0:m_055.ogg
281,192,50250,1,0,0:0:0:0:s_069.ogg
435,192,50250,1,0,0:0:0:0:s_060.ogg
128,192,50300,1,0,0:0:0:0:s_057.ogg
230,192,50400,1,0,0:0:0:0:s_058.ogg
486,192,50475,1,0,0:0:0:0:s_073.ogg
179,192,50550,1,0,0:0:0:0:s_058.ogg
435,192,50625,1,0,0:0:0:0:s_072.ogg
128,192,50700,1,0,0:0:0:0:s_045.ogg
384,192,50775,1,0,0:0:0:0:s_069.ogg
76,192,50850,1,0,0:0:0:0:s_056.ogg
332,192,50925,1,0,0:0:0:0:s_068.ogg
230,192,51000,1,0,0:0:0:0:s_057.ogg
486,192,51075,1,0,0:0:0:0:s_073.ogg
179,192,51150,1,0,0:0:0:0:s_057.ogg
435,192,51225,1,0,0:0:0:0:s_072.ogg
128,192,51300,1,0,0:0:0:0:s_056.ogg
384,192,51375,1,0,0:0:0:0:s_068.ogg
76,192,51450,1,0,0:0:0:0:s_055.ogg
332,192,51525,1,0,0:0:0:0:s_067.ogg
230,192,51600,1,0,0:0:0:0:s_056.ogg
486,192,51675,1,0,0:0:0:0:s_073.ogg
179,192,51750,1,0,0:0:0:0:s_048.ogg
435,192,51825,1,0,0:0:0:0:s_064.ogg
128,192,51900,1,0,0:0:0:0:s_055.ogg
384,192,51975,1,0,0:0:0:0:s_067.ogg
25,192,52050,1,0,0:0:0:0:s_054.ogg
281,192,52125,1,0,0:0:0:0:s_066.ogg
230,192,52200,1,0,0:0:0:0:s_048.ogg
486,192,52275,1,0,0:0:0:0:s_060.ogg
179,192,52350,1,0,0:0:0:0:s_056.ogg
435,192,52425,1,0,0:0:0:0:s_071.ogg
128,192,52500,1,0,0:0:0:0:s_041.ogg
384,192,52575,1,0,0:0:0:0:s_065.ogg
25,192,52650,1,0,0:0:0:0:s_052.ogg
281,192,52725,1,0,0:0:0:0:s_064.ogg
230,192,52800,1,0,0:0:0:0:s_048.ogg
486,192,52875,1,0,0:0:0:0:s_060.ogg
179,192,52950,1,0,0:0:0:0:s_043.ogg
435,192,53025,1,0,0:0:0:0:s_055.ogg
76,192,53100,1,0,0:0:0:0:s_049.ogg
332,192,53175,1,0,0:0:0:0:s_061.ogg
25,192,53250,1,0,0:0:0:0:s_048.ogg
281,192,53325,1,0,0:0:0:0:s_060.ogg
230,192,53400,1,0,0:0:0:0:s_047.ogg
486,192,53475,1,0,0:0:0:0:s_056.ogg
179,192,53550,1,0,0:0:0:0:s_052.ogg
435,192,53625,1,0,0:0:0:0:s_055.ogg
76,192,53700,1,0,0:0:0:0:s_048.ogg
332,192,53775,1,0,0:0:0:0:s_060.ogg
25,192,53850,1,0,0:0:0:0:s_047.ogg
281,192,53925,1,0,0:0:0:0:s_059.ogg
230,192,54000,1,0,0:0:0:0:s_052.ogg
486,192,54075,1,0,0:0:0:0:s_068.ogg
128,192,54150,1,0,0:0:0:0:s_052.ogg
384,192,54225,1,0,0:0:0:0:s_067.ogg
76,192,54300,1,0,0:0:0:0:s_035.ogg
332,192,54375,1,0,0:0:0:0:s_059.ogg
25,192,54450,1,0,0:0:0:0:s_034.ogg
281,192,54525,1,0,0:0:0:0:s_058.ogg
179,192,54600,1,0,0:0:0:0:s_041.ogg
435,192,54675,1,0,0:0:0:0:s_065.ogg
128,192,54750,1,0,0:0:0:0:s_044.ogg
384,192,54825,1,0,0:0:0:0:s_059.ogg
76,192,54900,1,0,0:0:0:0:s_044.ogg
332,192,54975,1,0,0:0:0:0:s_056.ogg
25,192,55050,1,0,0:0:0:0:s_031.ogg
281,192,55125,1,0,0:0:0:0:s_055.ogg
230,192,55200,1,0,0:0:0:0:s_040.ogg
486,192,55275,1,0,0:0:0:0:s_052.ogg
179,192,55350,1,0,0:0:0:0:s_040.ogg
435,192,55425,1,0,0:0:0:0:s_052.ogg
128,192,55500,1,0,0:0:0:0:s_029.ogg
384,192,55575,1,0,0:0:0:0:s_053.ogg
76,192,55650,1,0,0:0:0:0:s_028.ogg
332,192,55725,1,0,0:0:0:0:s_052.ogg
25,192,55800,1,0,0:0:0:0:s_037.ogg
281,192,55875,1,0,0:0:0:0:s_049.ogg
230,192,55950,1,0,0:0:0:0:s_036.ogg
486,192,56025,1,0,0:0:0:0:s_048.ogg
179,192,56100,1,0,0:0:0:0:s_032.ogg
435,192,56175,1,0,0:0:0:0:s_044.ogg
128,192,56250,1,0,0:0:0:0:s_019.ogg
384,192,56325,1,0,0:0:0:0:s_036.ogg
76,192,56400,1,0,0:0:0:0:s_017.ogg
332,192,56475,1,0,0:0:0:0:s_031.ogg
25,192,56550,1,0,0:0:0:0:s_028.ogg
281,192,56625,1,0,0:0:0:0:s_036.ogg
230,192,56700,1,0,0:0:0:0:s_025.ogg
486,192,56775,1,0,0:0:0:0:s_037.ogg
128,192,56850,1,0,0:0:0:0:s_024.ogg
384,192,56925,1,0,0:0:0:0:s_036.ogg
179,192,57000,1,0,0:0:0:0:s_017.ogg
435,192,57075,1,0,0:0:0:0:s_029.ogg
76,192,57150,1,0,0:0:0:0:s_016.ogg
332,192,57225,1,0,0:0:0:0:s_028.ogg
128,192,57300,1,0,0:0:0:0:s_008.ogg
384,192,57375,1,0,0:0:0:0:s_020.ogg
25,192,57450,1,0,0:0:0:0:s_007.ogg
281,192,57525,1,0,0:0:0:0:s_019.ogg
76,192,57600,1,0,0:0:0:0:l_000.ogg
332,192,57600,1,0,0:0:0:0:l_012.ogg
128,192,57800,1,0,0:0:0:0:m_019.ogg
384,192,57800,1,0,0:0:0:0:m_031.ogg
230,192,58000,1,0,0:0:0:0:s_043.ogg
486,192,58000,1,0,0:0:0:0:s_036.ogg
179,192,58200,1,0,0:0:0:0:m_043.ogg
435,192,58200,1,0,0:0:0:0:l_041.ogg
25,192,58400,1,0,0:0:0:0:s_031.ogg
281,192,58400,1,0,0:0:0:0:l_024.ogg
76,192,58600,1,0,0:0:0:0:m_031.ogg
332,192,58600,1,0,0:0:0:0:m_043.ogg
230,192,58800,1,0,0:0:0:0:s_055.ogg
486,192,58800,1,0,0:0:0:0:s_048.ogg
179,192,59000,1,0,0:0:0:0:m_055.ogg
435,192,59000,1,0,0:0:0:0:l_053.ogg
25,192,59200,1,0,0:0:0:0:s_043.ogg
281,192,59200,1,0,0:0:0:0:m_036.ogg
76,192,59400,1,0,0:0:0:0:m_043.ogg
332,192,59400,1,0,0:0:0:0:m_055.ogg
179,192,59600,1,0,0:0:0:0:m_060.ogg
435,192,59600,1,0,0:0:0:0:s_067.ogg
128,192,59800,1,0,0:0:0:0:s_067.ogg
384,192,59800,1,0,0:0:0:0:m_041.ogg
76,192,60000,1,0,0:0:0:0:s_048.ogg
179,192,60000,1,0,0:0:0:0:m_043.ogg
230,192,60000,1,0,0:0:0:0:m_058.ogg
332,192,60000,1,0,0:0:0:0:m_040.ogg
435,192,60000,1,0,0:0:0:0:m_067.ogg
486,192,60000,1,0,0:0:0:0:m_072.ogg
25,192,60200,1,0,0:0:0:0:s_036.ogg
281,192,60200,1,0,0:0:0:0:s_024.ogg
25,192,60400,1,0,0:0:0:0:s_036.ogg
281,192,60400,1,0,0:0:0:0:m_012.ogg
76,192,60600,1,0,0:0:0:0:s_053.ogg
179,192,60600,1,0,0:0:0:0:s_036.ogg
332,192,60600,1,0,0:0:0:0:s_034.ogg
435,192,60600,1,0,0:0:0:0:s_058.ogg
128,192,60800,1,0,0:0:0:0:m_036.ogg
230,192,60800,1,0,0:0:0:0:m_044.ogg
384,192,60800,1,0,0:0:0:0:m_065.ogg
486,192,60800,1,0,0:0:0:0:m_060.ogg
25,192,61000,1,0,0:0:0:0:s_005.ogg
281,192,61000,1,0,0:0:0:0:s_017.ogg
25,192,61200,1,0,0:0:0:0:s_036.ogg
281,192,61200,1,0,0:0:0:0:m_044.ogg
128,192,61400,1,0,0:0:0:0:s_058.ogg
230,192,61400,1,0,0:0:0:0:s_034.ogg
384,192,61400,1,0,0:0:0:0:s_060.ogg
486,192,61400,1,0,0:0:0:0:s_036.ogg
76,192,61600,1,0,0:0:0:0:s_036.ogg
179,192,61600,1,0,0:0:0:0:m_053.ogg
332,192,61600,1,0,0:0:0:0:m_065.ogg
435,192,61600,1,0,0:0:0:0:m_056.ogg
25,192,61800,1,0,0:0:0:0:s_024.ogg
281,192,61800,1,0,0:0:0:0:s_043.ogg
25,192,62000,1,0,0:0:0:0:s_036.ogg
281,192,62000,1,0,0:0:0:0:m_048.ogg
76,192,62200,1,0,0:0:0:0:s_040.ogg
179,192,62200,1,0,0:0:0:0:s_060.ogg
332,192,62200,1,0,0:0:0:0:s_064.ogg
435,192,62200,1,0,0:0:0:0:s_052.ogg
128,192,62400,1,0,0:0:0:0:s_041.ogg
230,192,62400,1,0,0:0:0:0:m_032.ogg
384,192,62400,1,0,0:0:0:0:m_060.ogg
486,192,62400,1,0,0:0:0:0:m_058.ogg
25,192,62600,1,0,0:0:0:0:s_024.ogg
281,192,62600,1,0,0:0:0:0:m_041.ogg
25,192,62800,1,0,0:0:0:0:s_036.ogg
281,192,62800,1,0,0:0:0:0:m_024.ogg
128,192,63000,1,0,0:0:0:0:s_034.ogg
230,192,63000,1,0,0:0:0:0:s_058.ogg
384,192,63000,1,0,0:0:0:0:s_060.ogg
486,192,63000,1,0,0:0:0:0:s_036.ogg
76,192,63200,1,0,0:0:0:0:s_053.ogg
179,192,63200,1,0,0:0:0:0:m_032.ogg
332,192,63200,1,0,0:0:0:0:m_056.ogg
435,192,63200,1,0,0:0:0:0:m_060.ogg
25,192,63400,1,0,0:0:0:0:s_024.ogg
281,192,63400,1,0,0:0:0:0:s_053.ogg
25,192,63600,1,0,0:0:0:0:s_036.ogg
281,192,63600,1,0,0:0:0:0:m_053.ogg
76,192,63800,1,0,0:0:0:0:s_055.ogg
179,192,63800,1,0,0:0:0:0:s_060.ogg
332,192,63800,1,0,0:0:0:0:s_067.ogg
435,192,63800,1,0,0:0:0:0:s_041.ogg
128,192,64000,1,0,0:0:0:0:s_048.ogg
230,192,64000,1,0,0:0:0:0:m_044.ogg
384,192,64000,1,0,0:0:0:0:m_068.ogg
486,192,64000,1,0,0:0:0:0:m_065.ogg
25,192,64200,1,0,0:0:0:0:s_024.ogg
281,192,64200,1,0,0:0:0:0:s_048.ogg
25,192,64400,1,0,0:0:0:0:s_053.ogg
281,192,64400,1,0,0:0:0:0:m_024.ogg
76,192,64600,1,0,0:0:0:0:s_044.ogg
179,192,64600,1,0,0:0:0:0:s_065.ogg
332,192,64600,1,0,0:0:0:0:s_055.ogg
435,192,64600,1,0,0:0:0:0:s_067.ogg
128,192,64800,1,0,0:0:0:0:m_056.ogg
230,192,64800,1,0,0:0:0:0:m_044.ogg
384,192,64800,1,0,0:0:0:0:m_065.ogg
486,192,64800,1,0,0:0:0:0:m_047.ogg
25,192,65000,1,0,0:0:0:0:s_032.ogg
281,192,65000,1,0,0:0:0:0:s_055.ogg
25,192,65200,1,0,0:0:0:0:s_053.ogg
281,192,65200,1,0,0:0:0:0:m_056.ogg
76,192,65400,1,0,0:0:0:0:s_043.ogg
179,192,65400,1,0,0:0:0:0:s_062.ogg
332,192,65400,1,0,0:0:0:0:s_060.ogg
435,192,65400,1,0,0:0:0:0:s_048.ogg
128,192,65600,1,0,0:0:0:0:m_040.ogg
230,192,65600,1,0,0:0:0:0:m_031.ogg
384,192,65600,1,0,0:0:0:0:m_043.ogg
486,192,65600,1,0,0:0:0:0:m_064.ogg
25,192,65800,1,0,0:0:0:0:s_041.ogg
281,192,65800,1,0,0:0:0:0:s_048.ogg
25,192,66000,1,0,0:0:0:0:s_036.ogg
281,192,66000,1,0,0:0:0:0:m_048.ogg
128,192,66200,1,0,0:0:0:0:s_031.ogg
230,192,66200,1,0,0:0:0:0:s_044.ogg
384,192,66200,1,0,0:0:0:0:s_062.ogg
486,192,66200,1,0,0:0:0:0:s_036.ogg
25,192,66400,1,0,0:0:0:0:s_043.ogg
128,192,66400,1,0,0:0:0:0:s_060.ogg
281,192,66400,1,0,0:0:0:0:s_052.ogg
384,192,66400,1,0,0:0:0:0:s_031.ogg
76,192,66600,1,0,0:0:0:0:s_031.ogg
179,192,66600,1,0,0:0:0:0:s_065.ogg
332,192,66600,1,0,0:0:0:0:s_036.ogg
435,192,66600,1,0,0:0:0:0:s_053.ogg
128,192,66800,1,0,0:0:0:0:m_043.ogg
230,192,66800,1,0,0:0:0:0:m_060.ogg
384,192,66800,1,0,0:0:0:0:m_064.ogg
486,192,66800,1,0,0:0:0:0:m_040.ogg
25,192,67000,1,0,0:0:0:0:s_005.ogg
281,192,67000,1,0,0:0:0:0:s_048.ogg
25,192,67200,1,0,0:0:0:0:s_032.ogg
281,192,67200,1,0,0:0:0:0:m_056.ogg
76,192,67400,1,0,0:0:0:0:s_043.ogg
179,192,67400,1,0,0:0:0:0:s_060.ogg
332,192,67400,1,0,0:0:0:0:s_058.ogg
435,192,67400,1,0,0:0:0:0:s_032.ogg
128,192,67600,1,0,0:0:0:0:m_065.ogg
230,192,67600,1,0,0:0:0:0:m_032.ogg
384,192,67600,1,0,0:0:0:0:m_041.ogg
486,192,67600,1,0,0:0:0:0:m_068.ogg
25,192,67800,1,0,0:0:0:0:s_017.ogg
281,192,67800,1,0,0:0:0:0:s_043.ogg
25,192,68000,1,0,0:0:0:0:s_036.ogg
281,192,68000,1,0,0:0:0:0:m_053.ogg
128,192,68200,1,0,0:0:0:0:s_034.ogg
230,192,68200,1,0,0:0:0:0:s_058.ogg
384,192,68200,1,0,0:0:0:0:s_036.ogg
486,192,68200,1,0,0:0:0:0:s_060.ogg
76,192,68400,1,0,0:0:0:0:m_065.ogg
179,192,68400,1,0,0:0:0:0:m_056.ogg
332,192,68400,1,0,0:0:0:0:m_060.ogg
435,192,68400,1,0,0:0:0:0:m_036.ogg
25,192,68600,1,0,0:0:0:0:s_017.ogg
281,192,68600,1,0,0:0:0:0:s_044.ogg
25,192,68800,1,0,0:0:0:0:s_034.ogg
281,192,68800,1,0,0:0:0:0:m_041.ogg
76,192,69000,1,0,0:0:0:0:s_040.ogg
179,192,69000,1,0,0:0:0:0:s_052.ogg
332,192,69000,1,0,0:0:0:0:s_064.ogg
435,192,69000,1,0,0:0:0:0:m_031.ogg
128,192,69200,1,0,0:0:0:0:m_041.ogg
230,192,69200,1,0,0:0:0:0:m_060.ogg
384,192,69200,1,0,0:0:0:0:m_036.ogg
486,192,69200,1,0,0:0:0:0:m_058.ogg
25,192,69400,1,0,0:0:0:0:s_017.ogg
281,192,69400,1,0,0:0:0:0:s_053.ogg
25,192,69600,1,0,0:0:0:0:s_036.ogg
281,192,69600,1,0,0:0:0:0:m_024.ogg
76,192,69800,1,0,0:0:0:0:s_043.ogg
128,192,69800,1,0,0:0:0:0:s_032.ogg
332,192,69800,1,0,0:0:0:0:s_067.ogg
384,192,69800,1,0,0:0:0:0:s_041.ogg
76,192,70000,1,0,0:0:0:0:s_044.ogg
179,192,70000,1,0,0:0:0:0:s_036.ogg
332,192,70000,1,0,0:0:0:0:s_056.ogg
435,192,70000,1,0,0:0:0:0:s_041.ogg
128,192,70200,1,0,0:0:0:0:s_033.ogg
230,192,70200,1,0,0:0:0:0:s_069.ogg
384,192,70200,1,0,0:0:0:0:s_065.ogg
486,192,70200,1,0,0:0:0:0:s_041.ogg
179,192,70400,1,0,0:0:0:0:s_058.ogg
230,192,70400,1,0,0:0:0:0:m_041.ogg
435,192,70400,1,0,0:0:0:0:m_070.ogg
486,192,70400,1,0,0:0:0:0:m_034.ogg
25,192,70600,1,0,0:0:0:0:s_019.ogg
281,192,70600,1,0,0:0:0:0:s_049.ogg
25,192,70800,1,0,0:0:0:0:s_060.ogg
281,192,70800,1,0,0:0:0:0:m_048.ogg
128,192,71000,1,0,0:0:0:0:s_036.ogg
230,192,71000,1,0,0:0:0:0:s_060.ogg
384,192,71000,1,0,0:0:0:0:s_065.ogg
486,192,71000,1,0,0:0:0:0:s_041.ogg
76,192,71200,1,0,0:0:0:0:s_055.ogg
179,192,71200,1,0,0:0:0:0:m_067.ogg
332,192,71200,1,0,0:0:0:0:m_041.ogg
435,192,71200,1,0,0:0:0:0:m_037.ogg
25,192,71400,1,0,0:0:0:0:s_053.ogg
281,192,71400,1,0,0:0:0:0:m_061.ogg
128,192,71600,1,0,0:0:0:0:s_053.ogg
384,192,71600,1,0,0:0:0:0:m_050.ogg
76,192,71800,1,0,0:0:0:0:s_062.ogg
179,192,71800,1,0,0:0:0:0:s_043.ogg
332,192,71800,1,0,0:0:0:0:s_053.ogg
435,192,71800,1,0,0:0:0:0:s_041.ogg
128,192,72000,1,0,0:0:0:0:s_043.ogg
230,192,72000,1,0,0:0:0:0:m_040.ogg
384,192,72000,1,0,0:0:0:0:m_064.ogg
486,192,72000,1,0,0:0:0:0:m_067.ogg
25,192,72200,1,0,0:0:0:0:s_043.ogg
281,192,72200,1,0,0:0:0:0:s_041.ogg
76,192,72400,1,0,0:0:0:0:s_043.ogg
332,192,72400,1,0,0:0:0:0:s_052.ogg
25,192,72600,1,0,0:0:0:0:s_048.ogg
281,192,72600,1,0,0:0:0:0:s_043.ogg
76,192,72800,1,0,0:0:0:0:s_053.ogg
332,192,72800,1,0,0:0:0:0:m_043.ogg
128,192,73000,1,0,0:0:0:0:s_034.ogg
230,192,73000,1,0,0:0:0:0:s_065.ogg
384,192,73000,1,0,0:0:0:0:s_058.ogg
486,192,73000,1,0,0:0:0:0:s_044.ogg
76,192,73200,1,0,0:0:0:0:s_037.ogg
179,192,73200,1,0,0:0:0:0:s_058.ogg
332,192,73200,1,0,0:0:0:0:s_052.ogg
435,192,73200,1,0,0:0:0:0:s_034.ogg
128,192,73400,1,0,0:0:0:0:s_053.ogg
230,192,73400,1,0,0:0:0:0:s_058.ogg
384,192,73400,1,0,0:0:0:0:s_065.ogg
486,192,73400,1,0,0:0:0:0:s_032.ogg
25,192,73600,1,0,0:0:0:0:s_040.ogg
128,192,73600,1,0,0:0:0:0:s_064.ogg
281,192,73600,1,0,0:0:0:0:s_031.ogg
384,192,73600,1,0,0:0:0:0:s_036.ogg
76,192,73800,1,0,0:0:0:0:s_053.ogg
179,192,73800,1,0,0:0:0:0:s_060.ogg
332,192,73800,1,0,0:0:0:0:s_065.ogg
435,192,73800,1,0,0:0:0:0:s_038.ogg
128,192,74000,1,0,0:0:0:0:m_036.ogg
230,192,74000,1,0,0:0:0:0:m_031.ogg
384,192,74000,1,0,0:0:0:0:m_055.ogg
486,192,74000,1,0,0:0:0:0:m_064.ogg
25,192,74200,1,0,0:0:0:0:s_043.ogg
281,192,74200,1,0,0:0:0:0:s_041.ogg
76,192,74400,1,0,0:0:0:0:s_043.ogg
332,192,74400,1,0,0:0:0:0:s_048.ogg
128,192,74600,1,0,0:0:0:0:s_053.ogg
384,192,74600,1,0,0:0:0:0:s_031.ogg
230,192,74800,1,0,0:0:0:0:s_048.ogg
486,192,74800,1,0,0:0:0:0:m_055.ogg
179,192,75000,1,0,0:0:0:0:s_048.ogg
435,192,75000,1,0,0:0:0:0:s_060.ogg
128,192,75200,1,0,0:0:0:0:m_034.ogg
230,192,75200,1,0,0:0:0:0:m_042.ogg
384,192,75200,1,0,0:0:0:0:m_066.ogg
486,192,75200,1,0,0:0:0:0:m_058.ogg
25,192,75400,1,0,0:0:0:0:s_015.ogg
281,192,75400,1,0,0:0:0:0:s_039.ogg
25,192,75600,1,0,0:0:0:0:s_042.ogg
281,192,75600,1,0,0:0:0:0:m_046.ogg
128,192,75800,1,0,0:0:0:0:s_042.ogg
230,192,75800,1,0,0:0:0:0:s_063.ogg
384,192,75800,1,0,0:0:0:0:s_058.ogg
486,192,75800,1,0,0:0:0:0:s_039.ogg
76,192,76000,1,0,0:0:0:0:m_033.ogg
179,192,76000,1,0,0:0:0:0:m_036.ogg
332,192,76000,1,0,0:0:0:0:m_041.ogg
435,192,76000,1,0,0:0:0:0:m_065.ogg
25,192,76200,1,0,0:0:0:0:s_017.ogg
281,192,76200,1,0,0:0:0:0:s_048.ogg
25,192,76400,1,0,0:0:0:0:s_036.ogg
281,192,76400,1,0,0:0:0:0:m_053.ogg
128,192,76600,1,0,0:0:0:0:s_033.ogg
230,192,76600,1,0,0:0:0:0:s_060.ogg
384,192,76600,1,0,0:0:0:0:s_063.ogg
486,192,76600,1,0,0:0:0:0:s_036.ogg
25,192,76800,1,0,0:0:0:0:s_034.ogg
128,192,76800,1,0,0:0:0:0:s_049.ogg
281,192,76800,1,0,0:0:0:0:s_061.ogg
384,192,76800,1,0,0:0:0:0:s_041.ogg
76,192,77000,1,0,0:0:0:0:s_060.ogg
179,192,77000,1,0,0:0:0:0:s_063.ogg
332,192,77000,1,0,0:0:0:0:s_051.ogg
435,192,77000,1,0,0:0:0:0:s_036.ogg
128,192,77200,1,0,0:0:0:0:s_041.ogg
230,192,77200,1,0,0:0:0:0:s_053.ogg
384,192,77200,1,0,0:0:0:0:m_037.ogg
486,192,77200,1,0,0:0:0:0:m_065.ogg
25,192,77400,1,0,0:0:0:0:s_025.ogg
281,192,77400,1,0,0:0:0:0:s_053.ogg
25,192,77600,1,0,0:0:0:0:s_034.ogg
281,192,77600,1,0,0:0:0:0:m_028.ogg
76,192,77800,1,0,0:0:0:0:s_055.ogg
179,192,77800,1,0,0:0:0:0:s_060.ogg
332,192,77800,1,0,0:0:0:0:s_064.ogg
435,192,77800,1,0,0:0:0:0:s_040.ogg
128,192,78000,1,0,0:0:0:0:s_056.ogg
230,192,78000,1,0,0:0:0:0:m_032.ogg
384,192,78000,1,0,0:0:0:0:m_068.ogg
486,192,78000,1,0,0:0:0:0:m_041.ogg
25,192,78200,1,0,0:0:0:0:s_017.ogg
281,192,78200,1,0,0:0:0:0:s_048.ogg
128,192,78400,1,0,0:0:0:0:m_054.ogg
230,192,78400,1,0,0:0:0:0:m_039.ogg
384,192,78400,1,0,0:0:0:0:m_042.ogg
486,192,78400,1,0,0:0:0:0:m_061.ogg
25,192,78600,1,0,0:0:0:0:s_017.ogg
281,192,78600,1,0,0:0:0:0:s_056.ogg
25,192,78800,1,0,0:0:0:0:s_058.ogg
281,192,78800,1,0,0:0:0:0:m_030.ogg
128,192,79000,1,0,0:0:0:0:s_058.ogg
230,192,79000,1,0,0:0:0:0:s_054.ogg
384,192,79000,1,0,0:0:0:0:s_066.ogg
486,192,79000,1,0,0:0:0:0:s_042.ogg
76,192,79200,1,0,0:0:0:0:m_036.ogg
179,192,79200,1,0,0:0:0:0:m_060.ogg
332,192,79200,1,0,0:0:0:0:m_039.ogg
435,192,79200,1,0,0:0:0:0:m_041.ogg
25,192,79400,1,0,0:0:0:0:s_019.ogg
281,192,79400,1,0,0:0:0:0:s_058.ogg
25,192,79600,1,0,0:0:0:0:s_060.ogg
281,192,79600,1,0,0:0:0:0:m_029.ogg
128,192,79800,1,0,0:0:0:0:s_036.ogg
230,192,79800,1,0,0:0:0:0:s_051.ogg
384,192,79800,1,0,0:0:0:0:s_060.ogg
486,192,79800,1,0,0:0:0:0:s_041.ogg
25,192,80000,1,0,0:0:0:0:s_037.ogg
128,192,80000,1,0,0:0:0:0:s_049.ogg
281,192,80000,1,0,0:0:0:0:s_061.ogg
384,192,80000,1,0,0:0:0:0:s_041.ogg
76,192,80200,1,0,0:0:0:0:s_048.ogg
179,192,80200,1,0,0:0:0:0:s_063.ogg
332,192,80200,1,0,0:0:0:0:s_051.ogg
435,192,80200,1,0,0:0:0:0:s_039.ogg
128,192,80400,1,0,0:0:0:0:s_049.ogg
230,192,80400,1,0,0:0:0:0:s_053.ogg
384,192,80400,1,0,0:0:0:0:s_061.ogg
486,192,80400,1,0,0:0:0:0:m_065.ogg
25,192,80600,1,0,0:0:0:0:s_022.ogg
281,192,80600,1,0,0:0:0:0:s_053.ogg
25,192,80800,1,0,0:0:0:0:s_036.ogg
281,192,80800,1,0,0:0:0:0:m_048.ogg
76,192,81000,1,0,0:0:0:0:s_043.ogg
179,192,81000,1,0,0:0:0:0:s_034.ogg
332,192,81000,1,0,0:0:0:0:s_064.ogg
435,192,81000,1,0,0:0:0:0:s_036.ogg
128,192,81200,1,0,0:0:0:0:s_044.ogg
230,192,81200,1,0,0:0:0:0:m_032.ogg
384,192,81200,1,0,0:0:0:0:m_060.ogg
486,192,81200,1,0,0:0:0:0:m_036.ogg
25,192,81400,1,0,0:0:0:0:s_017.ogg
281,192,81400,1,0,0:0:0:0:s_048.ogg
128,192,81600,1,0,0:0:0:0:m_041.ogg
230,192,81600,1,0,0:0:0:0:m_060.ogg
332,192,81600,1,0,0:0:0:0:m_057.ogg
435,192,81600,1,0,0:0:0:0:m_069.ogg
76,192,81800,1,0,0:0:0:0:s_054.ogg
486,192,81800,1,0,0:0:0:0:s_030.ogg
25,192,82000,1,0,0:0:0:0:s_053.ogg
435,192,82000,1,0,0:0:0:0:s_029.ogg
76,192,82200,1,0,0:0:0:0:s_032.ogg
179,192,82200,1,0,0:0:0:0:s_036.ogg
281,192,82200,1,0,0:0:0:0:s_044.ogg
384,192,82200,1,0,0:0:0:0:s_065.ogg
128,192,82400,1,0,0:0:0:0:m_069.ogg
230,192,82400,1,0,0:0:0:0:m_057.ogg
332,192,82400,1,0,0:0:0:0:m_045.ogg
435,192,82400,1,0,0:0:0:0:m_065.ogg
76,192,82600,1,0,0:0:0:0:s_040.ogg
486,192,82600,1,0,0:0:0:0:s_052.ogg
25,192,82800,1,0,0:0:0:0:s_039.ogg
435,192,82800,1,0,0:0:0:0:s_051.ogg
76,192,83000,1,0,0:0:0:0:s_032.ogg
179,192,83000,1,0,0:0:0:0:s_036.ogg
281,192,83000,1,0,0:0:0:0:s_044.ogg
384,192,83000,1,0,0:0:0:0:s_065.ogg
128,192,83200,1,0,0:0:0:0:m_069.ogg
230,192,83200,1,0,0:0:0:0:m_057.ogg
332,192,83200,1,0,0:0:0:0:m_045.ogg
435,192,83200,1,0,0:0:0:0:m_065.ogg
76,192,83400,1,0,0:0:0:0:s_038.ogg
486,192,83400,1,0,0:0:0:0:s_050.ogg
25,192,83600,1,0,0:0:0:0:s_025.ogg
435,192,83600,1,0,0:0:0:0:s_049.ogg
76,192,83800,1,0,0:0:0:0:s_032.ogg
179,192,83800,1,0,0:0:0:0:s_036.ogg
281,192,83800,1,0,0:0:0:0:s_044.ogg
384,192,83800,1,0,0:0:0:0:s_065.ogg
128,192,84000,1,0,0:0:0:0:s_041.ogg
230,192,84000,1,0,0:0:0:0:m_046.ogg
332,192,84000,1,0,0:0:0:0:m_070.ogg
435,192,84000,1,0,0:0:0:0:m_065.ogg
76,192,84200,1,0,0:0:0:0:s_029.ogg
486,192,84200,1,0,0:0:0:0:s_036.ogg
25,192,84400,1,0,0:0:0:0:s_029.ogg
435,192,84400,1,0,0:0:0:0:m_034.ogg
76,192,84600,1,0,0:0:0:0:s_025.ogg
486,192,84600,1,0,0:0:0:0:s_021.ogg
179,192,84800,1,0,0:0:0:0:m_065.ogg
230,192,84800,1,0,0:0:0:0:m_038.ogg
384,192,84800,1,0,0:0:0:0:m_071.ogg
435,192,84800,1,0,0:0:0:0:m_059.ogg
76,192,85000,1,0,0:0:0:0:s_020.ogg
486,192,85000,1,0,0:0:0:0:s_050.ogg
25,192,85200,1,0,0:0:0:0:s_031.ogg
435,192,85200,1,0,0:0:0:0:s_047.ogg
76,192,85400,1,0,0:0:0:0:s_046.ogg
128,192,85400,1,0,0:0:0:0:s_034.ogg
281,192,85400,1,0,0:0:0:0:s_038.ogg
332,192,85400,1,0,0:0:0:0:s_058.ogg
179,192,85600,1,0,0:0:0:0:s_047.ogg
230,192,85600,1,0,0:0:0:0:m_065.ogg
384,192,85600,1,0,0:0:0:0:m_062.ogg
435,192,85600,1,0,0:0:0:0:m_035.ogg
76,192,85800,1,0,0:0:0:0:s_026.ogg
486,192,85800,1,0,0:0:0:0:s_050.ogg
25,192,86000,1,0,0:0:0:0:s_050.ogg
435,192,86000,1,0,0:0:0:0:s_026.ogg
76,192,86200,1,0,0:0:0:0:s_046.ogg
128,192,86200,1,0,0:0:0:0:s_034.ogg
281,192,86200,1,0,0:0:0:0:s_038.ogg
332,192,86200,1,0,0:0:0:0:s_058.ogg
179,192,86400,1,0,0:0:0:0:s_047.ogg
230,192,86400,1,0,0:0:0:0:m_038.ogg
384,192,86400,1,0,0:0:0:0:m_062.ogg
435,192,86400,1,0,0:0:0:0:m_035.ogg
76,192,86600,1,0,0:0:0:0:s_023.ogg
486,192,86600,1,0,0:0:0:0:s_043.ogg
25,192,86800,1,0,0:0:0:0:s_019.ogg
435,192,86800,1,0,0:0:0:0:s_015.ogg
76,192,87000,1,0,0:0:0:0:s_046.ogg
128,192,87000,1,0,0:0:0:0:s_034.ogg
281,192,87000,1,0,0:0:0:0:s_058.ogg
332,192,87000,1,0,0:0:0:0:s_038.ogg
179,192,87200,1,0,0:0:0:0:s_039.ogg
230,192,87200,1,0,0:0:0:0:m_036.ogg
384,192,87200,1,0,0:0:0:0:m_063.ogg
435,192,87200,1,0,0:0:0:0:m_072.ogg
128,192,87400,1,0,0:0:0:0:s_026.ogg
486,192,87400,1,0,0:0:0:0:s_050.ogg
76,192,87600,1,0,0:0:0:0:s_024.ogg
435,192,87600,1,0,0:0:0:0:s_019.ogg
25,192,87800,1,0,0:0:0:0:s_023.ogg
281,192,87800,1,0,0:0:0:0:s_047.ogg
128,192,88000,1,0,0:0:0:0:s_042.ogg
230,192,88000,1,0,0:0:0:0:m_036.ogg
384,192,88000,1,0,0:0:0:0:m_060.ogg
486,192,88000,1,0,0:0:0:0:m_066.ogg
76,192,88200,1,0,0:0:0:0:s_048.ogg
332,192,88200,1,0,0:0:0:0:s_051.ogg
25,192,88400,1,0,0:0:0:0:m_030.ogg
281,192,88400,1,0,0:0:0:0:m_036.ogg
76,192,88600,1,0,0:0:0:0:s_035.ogg
179,192,88600,1,0,0:0:0:0:s_047.ogg
332,192,88600,1,0,0:0:0:0:s_066.ogg
435,192,88600,1,0,0:0:0:0:s_042.ogg
128,192,88800,1,0,0:0:0:0:s_048.ogg
230,192,88800,1,0,0:0:0:0:m_036.ogg
384,192,88800,1,0,0:0:0:0:m_067.ogg
486,192,88800,1,0,0:0:0:0:m_072.ogg
76,192,89000,1,0,0:0:0:0:s_048.ogg
332,192,89000,1,0,0:0:0:0:s_051.ogg
25,192,89200,1,0,0:0:0:0:m_036.ogg
281,192,89200,1,0,0:0:0:0:m_031.ogg
76,192,89400,1,0,0:0:0:0:s_035.ogg
179,192,89400,1,0,0:0:0:0:s_047.ogg
332,192,89400,1,0,0:0:0:0:s_063.ogg
435,192,89400,1,0,0:0:0:0:s_043.ogg
128,192,89600,1,0,0:0:0:0:s_039.ogg
230,192,89600,1,0,0:0:0:0:m_036.ogg
384,192,89600,1,0,0:0:0:0:m_063.ogg
486,192,89600,1,0,0:0:0:0:m_072.ogg
76,192,89800,1,0,0:0:0:0:s_048.ogg
332,192,89800,1,0,0:0:0:0:s_051.ogg
25,192,90000,1,0,0:0:0:0:s_044.ogg
281,192,90000,1,0,0:0:0:0:m_027.ogg
76,192,90200,1,0,0:0:0:0:s_047.ogg
179,192,90200,1,0,0:0:0:0:s_063.ogg
332,192,90200,1,0,0:0:0:0:s_068.ogg
435,192,90200,1,0,0:0:0:0:s_039.ogg
128,192,90400,1,0,0:0:0:0:s_060.ogg
230,192,90400,1,0,0:0:0:0:m_068.ogg
384,192,90400,1,0,0:0:0:0:m_048.ogg
486,192,90400,1,0,0:0:0:0:m_040.ogg
25,192,90600,1,0,0:0:0:0:s_056.ogg
281,192,90600,1,0,0:0:0:0:s_060.ogg
76,192,90800,1,0,0:0:0:0:s_044.ogg
332,192,90800,1,0,0:0:0:0:m_032.ogg
128,192,90933,1,0,0:0:0:0:s_059.ogg
230,192,90933,1,0,0:0:0:0:s_046.ogg
384,192,90933,1,0,0:0:0:0:s_071.ogg
486,192,90933,1,0,0:0:0:0:s_044.ogg
128,192,91066,1,0,0:0:0:0:s_072.ogg
230,192,91066,1,0,0:0:0:0:s_048.ogg
384,192,91066,1,0,0:0:0:0:s_060.ogg
486,192,91066,1,0,0:0:0:0:s_044.ogg
128,192,91200,1,0,0:0:0:0:m_041.ogg
230,192,91200,1,0,0:0:0:0:m_045.ogg
384,192,91200,1,0,0:0:0:0:l_060.ogg
486,192,91200,1,0,0:0:0:0:l_065.ogg
25,192,91400,1,0,0:0:0:0:s_017.ogg
281,192,91400,1,0,0:0:0:0:s_033.ogg
76,192,91600,1,0,0:0:0:0:s_033.ogg
332,192,91600,1,0,0:0:0:0:m_036.ogg
128,192,91800,1,0,0:0:0:0:s_033.ogg
384,192,91800,1,0,0:0:0:0:s_029.ogg
179,192,92000,1,0,0:0:0:0:s_036.ogg
435,192,92000,1,0,0:0:0:0:s_024.ogg
76,192,92200,1,0,0:0:0:0:s_048.ogg
332,192,92200,1,0,0:0:0:0:m_036.ogg
128,192,92400,1,0,0:0:0:0:s_033.ogg
384,192,92400,1,0,0:0:0:0:m_041.ogg
179,192,92600,1,0,0:0:0:0:s_045.ogg
435,192,92600,1,0,0:0:0:0:s_037.ogg
230,192,92800,1,0,0:0:0:0:m_053.ogg
486,192,92800,1,0,0:0:0:0:m_048.ogg
25,192,93000,1,0,0:0:0:0:s_051.ogg
128,192,93000,1,0,0:0:0:0:s_039.ogg
384,192,93000,1,0,0:0:0:0:s_069.ogg
486,192,93000,1,0,0:0:0:0:s_041.ogg
76,192,93200,1,0,0:0:0:0:s_037.ogg
179,192,93200,1,0,0:0:0:0:s_049.ogg
332,192,93200,1,0,0:0:0:0:s_065.ogg
435,192,93200,1,0,0:0:0:0:s_045.ogg
128,192,93400,1,0,0:0:0:0:s_048.ogg
230,192,93400,1,0,0:0:0:0:s_036.ogg
281,192,93400,1,0,0:0:0:0:s_069.ogg
384,192,93400,1,0,0:0:0:0:s_041.ogg
76,192,93600,1,0,0:0:0:0:s_036.ogg
179,192,93600,1,0,0:0:0:0:s_048.ogg
332,192,93600,1,0,0:0:0:0:s_060.ogg
435,192,93600,1,0,0:0:0:0:s_064.ogg
128,192,93800,1,0,0:0:0:0:s_046.ogg
230,192,93800,1,0,0:0:0:0:s_034.ogg
281,192,93800,1,0,0:0:0:0:s_067.ogg
384,192,93800,1,0,0:0:0:0:s_040.ogg
76,192,94000,1,0,0:0:0:0:s_036.ogg
179,192,94000,1,0,0:0:0:0:s_048.ogg
332,192,94000,1,0,0:0:0:0:s_064.ogg
435,192,94000,1,0,0:0:0:0:s_045.ogg
25,192,94200,1,0,0:0:0:0:s_049.ogg
128,192,94200,1,0,0:0:0:0:s_037.ogg
384,192,94200,1,0,0:0:0:0:s_070.ogg
486,192,94200,1,0,0:0:0:0:s_040.ogg
76,192,94400,1,0,0:0:0:0:s_036.ogg
179,192,94400,1,0,0:0:0:0:m_045.ogg
332,192,94400,1,0,0:0:0:0:l_060.ogg
435,192,94400,1,0,0:0:0:0:l_069.ogg
25,192,94600,1,0,0:0:0:0:s_036.ogg
281,192,94600,1,0,0:0:0:0:s_005.ogg
76,192,94800,1,0,0:0:0:0:s_024.ogg
332,192,94800,1,0,0:0:0:0:s_033.ogg
128,192,95000,1,0,0:0:0:0:s_041.ogg
384,192,95000,1,0,0:0:0:0:s_037.ogg
179,192,95200,1,0,0:0:0:0:s_036.ogg
435,192,95200,1,0,0:0:0:0:s_041.ogg
76,192,95400,1,0,0:0:0:0:s_041.ogg
332,192,95400,1,0,0:0:0:0:s_045.ogg
128,192,95600,1,0,0:0:0:0:s_053.ogg
384,192,95600,1,0,0:0:0:0:m_048.ogg
179,192,95800,1,0,0:0:0:0:s_049.ogg
435,192,95800,1,0,0:0:0:0:s_053.ogg
230,192,96000,1,0,0:0:0:0:m_060.ogg
486,192,96000,1,0,0:0:0:0:m_048.ogg
25,192,96200,1,0,0:0:0:0:s_039.ogg
128,192,96200,1,0,0:0:0:0:s_051.ogg
384,192,96200,1,0,0:0:0:0:s_065.ogg
486,192,96200,1,0,0:0:0:0:s_045.ogg
76,192,96400,1,0,0:0:0:0:s_045.ogg
179,192,96400,1,0,0:0:0:0:s_049.ogg
332,192,96400,1,0,0:0:0:0:s_069.ogg
435,192,96400,1,0,0:0:0:0:s_037.ogg
128,192,96600,1,0,0:0:0:0:s_036.ogg
230,192,96600,1,0,0:0:0:0:s_048.ogg
281,192,96600,1,0,0:0:0:0:s_060.ogg
384,192,96600,1,0,0:0:0:0:s_045.ogg
25,192,96800,1,0,0:0:0:0:s_036.ogg
128,192,96800,1,0,0:0:0:0:s_048.ogg
384,192,96800,1,0,0:0:0:0:s_064.ogg
486,192,96800,1,0,0:0:0:0:s_045.ogg
76,192,96933,1,0,0:0:0:0:s_046.ogg
179,192,96933,1,0,0:0:0:0:s_034.ogg
332,192,96933,1,0,0:0:0:0:s_064.ogg
435,192,96933,1,0,0:0:0:0:s_040.ogg
128,192,97066,1,0,0:0:0:0:s_040.ogg
230,192,97066,1,0,0:0:0:0:s_035.ogg
281,192,97066,1,0,0:0:0:0:s_067.ogg
384,192,97066,1,0,0:0:0:0:s_047.ogg
128,192,97200,1,0,0:0:0:0:s_047.ogg
230,192,97200,1,0,0:0:0:0:s_035.ogg
281,192,97200,1,0,0:0:0:0:s_064.ogg
384,192,97200,1,0,0:0:0:0:s_040.ogg
76,192,97333,1,0,0:0:0:0:s_036.ogg
179,192,97333,1,0,0:0:0:0:s_064.ogg
332,192,97333,1,0,0:0:0:0:s_069.ogg
435,192,97333,1,0,0:0:0:0:s_045.ogg
25,192,97466,1,0,0:0:0:0:s_049.ogg
128,192,97466,1,0,0:0:0:0:s_037.ogg
384,192,97466,1,0,0:0:0:0:s_064.ogg
486,192,97466,1,0,0:0:0:0:s_040.ogg
76,192,97600,1,0,0:0:0:0:s_036.ogg
179,192,97600,1,0,0:0:0:0:s_045.ogg
332,192,97600,1,0,0:0:0:0:m_048.ogg
435,192,97600,1,0,0:0:0:0:m_060.ogg
25,192,97800,1,0,0:0:0:0:s_005.ogg
281,192,97800,1,0,0:0:0:0:s_036.ogg
128,192,98000,1,0,0:0:0:0:s_041.ogg
384,192,98000,1,0,0:0:0:0:s_029.ogg
179,192,98200,1,0,0:0:0:0:s_045.ogg
435,192,98200,1,0,0:0:0:0:s_037.ogg
230,192,98400,1,0,0:0:0:0:m_045.ogg
486,192,98400,1,0,0:0:0:0:m_041.ogg
76,192,98533,1,0,0:0:0:0:s_034.ogg
179,192,98533,1,0,0:0:0:0:s_046.ogg
332,192,98533,1,0,0:0:0:0:s_063.ogg
435,192,98533,1,0,0:0:0:0:s_043.ogg
128,192,98666,1,0,0:0:0:0:s_035.ogg
230,192,98666,1,0,0:0:0:0:s_047.ogg
281,192,98666,1,0,0:0:0:0:s_063.ogg
384,192,98666,1,0,0:0:0:0:s_059.ogg
128,192,98800,1,0,0:0:0:0:s_047.ogg
230,192,98800,1,0,0:0:0:0:s_035.ogg
281,192,98800,1,0,0:0:0:0:s_068.ogg
384,192,98800,1,0,0:0:0:0:s_040.ogg
76,192,98933,1,0,0:0:0:0:s_036.ogg
179,192,98933,1,0,0:0:0:0:s_048.ogg
332,192,98933,1,0,0:0:0:0:s_064.ogg
435,192,98933,1,0,0:0:0:0:s_044.ogg
25,192,99066,1,0,0:0:0:0:s_049.ogg
128,192,99066,1,0,0:0:0:0:s_037.ogg
384,192,99066,1,0,0:0:0:0:s_068.ogg
486,192,99066,1,0,0:0:0:0:s_040.ogg
76,192,99200,1,0,0:0:0:0:s_036.ogg
179,192,99200,1,0,0:0:0:0:s_045.ogg
332,192,99200,1,0,0:0:0:0:m_072.ogg
435,192,99200,1,0,0:0:0:0:m_065.ogg
25,192,99400,1,0,0:0:0:0:s_045.ogg
281,192,99400,1,0,0:0:0:0:s_005.ogg
76,192,99600,1,0,0:0:0:0:s_033.ogg
332,192,99600,1,0,0:0:0:0:s_048.ogg
128,192,99733,1,0,0:0:0:0:s_033.ogg
384,192,99733,1,0,0:0:0:0:m_045.ogg
179,192,99866,1,0,0:0:0:0:s_041.ogg
435,192,99866,1,0,0:0:0:0:s_049.ogg
230,192,100000,1,0,0:0:0:0:m_036.ogg
486,192,100000,1,0,0:0:0:0:m_041.ogg
76,192,100133,1,0,0:0:0:0:s_034.ogg
179,192,100133,1,0,0:0:0:0:s_046.ogg
332,192,100133,1,0,0:0:0:0:s_063.ogg
435,192,100133,1,0,0:0:0:0:s_058.ogg
128,192,100266,1,0,0:0:0:0:s_035.ogg
230,192,100266,1,0,0:0:0:0:s_047.ogg
281,192,100266,1,0,0:0:0:0:s_063.ogg
384,192,100266,1,0,0:0:0:0:s_043.ogg
128,192,100400,1,0,0:0:0:0:s_071.ogg
230,192,100400,1,0,0:0:0:0:s_047.ogg
281,192,100400,1,0,0:0:0:0:s_064.ogg
384,192,100400,1,0,0:0:0:0:s_044.ogg
76,192,100500,1,0,0:0:0:0:s_048.ogg
179,192,100500,1,0,0:0:0:0:s_036.ogg
332,192,100500,1,0,0:0:0:0:s_068.ogg
435,192,100500,1,0,0:0:0:0:s_040.ogg
76,192,100600,1,0,0:0:0:0:s_036.ogg
179,192,100600,1,0,0:0:0:0:s_048.ogg
332,192,100600,1,0,0:0:0:0:s_064.ogg
435,192,100600,1,0,0:0:0:0:s_045.ogg
25,192,100700,1,0,0:0:0:0:s_049.ogg
128,192,100700,1,0,0:0:0:0:s_061.ogg
384,192,100700,1,0,0:0:0:0:s_073.ogg
486,192,100700,1,0,0:0:0:0:s_070.ogg
76,192,100800,1,0,0:0:0:0:s_048.ogg
179,192,100800,1,0,0:0:0:0:s_036.ogg
332,192,100800,1,0,0:0:0:0:s_072.ogg
435,192,100800,1,0,0:0:0:0:s_041.ogg
25,192,100933,1,0,0:0:0:0:s_026.ogg
179,192,100933,1,0,0:0:0:0:s_050.ogg
281,192,100933,1,0,0:0:0:0:s_062.ogg
76,192,101066,1,0,0:0:0:0:s_039.ogg
230,192,101066,1,0,0:0:0:0:s_060.ogg
332,192,101066,1,0,0:0:0:0:s_063.ogg
128,192,101200,1,0,0:0:0:0:s_040.ogg
281,192,101200,1,0,0:0:0:0:s_057.ogg
384,192,101200,1,0,0:0:0:0:s_033.ogg
179,192,101333,1,0,0:0:0:0:s_029.ogg
332,192,101333,1,0,0:0:0:0:s_060.ogg
435,192,101333,1,0,0:0:0:0:s_033.ogg
230,192,101466,1,0,0:0:0:0:s_042.ogg
384,192,101466,1,0,0:0:0:0:s_054.ogg
486,192,101466,1,0,0:0:0:0:s_036.ogg
179,192,101600,1,0,0:0:0:0:s_053.ogg
332,192,101600,1,0,0:0:0:0:s_060.ogg
435,192,101600,1,0,0:0:0:0:s_033.ogg
25,192,101733,1,0,0:0:0:0:s_053.ogg
128,192,101733,1,0,0:0:0:0:s_033.ogg
281,192,101733,1,0,0:0:0:0:s_045.ogg
76,192,101866,1,0,0:0:0:0:s_053.ogg
179,192,101866,1,0,0:0:0:0:s_058.ogg
332,192,101866,1,0,0:0:0:0:s_034.ogg
128,192,102000,1,0,0:0:0:0:s_057.ogg
230,192,102000,1,0,0:0:0:0:s_029.ogg
384,192,102000,1,0,0:0:0:0:s_023.ogg
179,192,102133,1,0,0:0:0:0:s_036.ogg
281,192,102133,1,0,0:0:0:0:s_033.ogg
435,192,102133,1,0,0:0:0:0:s_057.ogg
230,192,102266,1,0,0:0:0:0:s_057.ogg
332,192,102266,1,0,0:0:0:0:s_053.ogg
486,192,102266,1,0,0:0:0:0:s_033.ogg
179,192,102400,1,0,0:0:0:0:s_057.ogg
281,192,102400,1,0,0:0:0:0:s_033.ogg
435,192,102400,1,0,0:0:0:0:s_029.ogg
128,192,102533,1,0,0:0:0:0:s_051.ogg
384,192,102533,1,0,0:0:0:0:s_048.ogg
179,192,102666,1,0,0:0:0:0:s_052.ogg
435,192,102666,1,0,0:0:0:0:s_044.ogg
230,192,102800,1,0,0:0:0:0:s_057.ogg
486,192,102800,1,0,0:0:0:0:s_033.ogg
128,192,102933,1,0,0:0:0:0:s_044.ogg
332,192,102933,1,0,0:0:0:0:s_040.ogg
179,192,103066,1,0,0:0:0:0:s_053.ogg
384,192,103066,1,0,0:0:0:0:s_029.ogg
230,192,103200,1,0,0:0:0:0:s_049.ogg
435,192,103200,1,0,0:0:0:0:s_054.ogg
76,192,103333,1,0,0:0:0:0:s_043.ogg
281,192,103333,1,0,0:0:0:0:s_027.ogg
128,192,103466,1,0,0:0:0:0:s_048.ogg
332,192,103466,1,0,0:0:0:0:s_028.ogg
179,192,103600,1,0,0:0:0:0:s_048.ogg
384,192,103600,1,0,0:0:0:0:s_036.ogg
25,192,103733,1,0,0:0:0:0:s_045.ogg
281,192,103733,1,0,0:0:0:0:s_047.ogg
76,192,103866,1,0,0:0:0:0:s_048.ogg
332,192,103866,1,0,0:0:0:0:s_041.ogg
128,192,104000,1,0,0:0:0:0:s_045.ogg
384,192,104000,1,0,0:0:0:0:s_033.ogg
281,192,104100,1,0,0:0:0:0:s_033.ogg
486,192,104200,1,0,0:0:0:0:s_048.ogg
230,192,104300,1,0,0:0:0:0:s_030.ogg
435,192,104400,1,0,0:0:0:0:s_045.ogg
179,192,104500,1,0,0:0:0:0:s_041.ogg
384,192,104600,1,0,0:0:0:0:s_042.ogg
128,192,104700,1,0,0:0:0:0:s_025.ogg
332,192,104800,1,0,0:0:0:0:s_029.ogg
76,192,104900,1,0,0:0:0:0:s_036.ogg
281,192,105000,1,0,0:0:0:0:s_013.ogg
25,192,105100,1,0,0:0:0:0:s_017.ogg
332,192,105200,1,0,0:0:0:0:s_021.ogg
435,192,105300,1,0,0:0:0:0:s_024.ogg
281,192,105400,1,0,0:0:0:0:s_018.ogg
384,192,105500,1,0,0:0:0:0:s_033.ogg
230,192,105600,1,0,0:0:0:0:s_029.ogg
332,192,105700,1,0,0:0:0:0:s_030.ogg
179,192,105800,1,0,0:0:0:0:s_025.ogg
281,192,105900,1,0,0:0:0:0:s_018.ogg
128,192,106000,1,0,0:0:0:0:s_024.ogg
230,192,106100,1,0,0:0:0:0:s_025.ogg
76,192,106200,1,0,0:0:0:0:s_009.ogg
179,192,106300,1,0,0:0:0:0:s_024.ogg
25,192,106400,128,0,106475:0:0:0:0:l_005.ogg
76,192,106475,128,0,106550:0:0:0:0:m_024.ogg
128,192,106550,128,0,106625:0:0:0:0:m_029.ogg
179,192,106625,128,0,106700:0:0:0:0:s_033.ogg
486,192,106700,128,0,106775:0:0:0:0:m_041.ogg
435,192,106775,128,0,106850:0:0:0:0:m_033.ogg
384,192,106850,128,0,106925:0:0:0:0:m_029.ogg
332,192,106925,128,0,107000:0:0:0:0:s_024.ogg
76,192,107000,128,0,107075:0:0:0:0:l_017.ogg
128,192,107075,128,0,107150:0:0:0:0:m_033.ogg
179,192,107150,128,0,107225:0:0:0:0:m_036.ogg
230,192,107225,128,0,107300:0:0:0:0:s_041.ogg
435,192,107300,128,0,107375:0:0:0:0:m_048.ogg
384,192,107375,128,0,107450:0:0:0:0:m_041.ogg
332,192,107450,128,0,107525:0:0:0:0:m_036.ogg
281,192,107525,128,0,107600:0:0:0:0:m_033.ogg
25,192,107600,128,0,107675:0:0:0:0:l_024.ogg
76,192,107675,128,0,107750:0:0:0:0:m_036.ogg
128,192,107750,128,0,107825:0:0:0:0:s_041.ogg
179,192,107825,128,0,107900:0:0:0:0:s_045.ogg
435,192,107900,128,0,107975:0:0:0:0:m_053.ogg
384,192,107975,128,0,108050:0:0:0:0:m_045.ogg
332,192,108050,128,0,108125:0:0:0:0:m_041.ogg
281,192,108125,128,0,108200:0:0:0:0:s_036.ogg
25,192,108200,128,0,108275:0:0:0:0:l_029.ogg
76,192,108275,128,0,108350:0:0:0:0:m_045.ogg
128,192,108350,128,0,108425:0:0:0:0:m_048.ogg
230,192,108425,128,0,108500:0:0:0:0:s_053.ogg
486,192,108500,128,0,108575:0:0:0:0:m_060.ogg
384,192,108575,128,0,108650:0:0:0:0:m_053.ogg
332,192,108650,128,0,108725:0:0:0:0:m_048.ogg
281,192,108725,128,0,108800:0:0:0:0:m_045.ogg
25,192,108800,128,0,108875:0:0:0:0:l_036.ogg
76,192,108875,128,0,108950:0:0:0:0:m_048.ogg
179,192,108950,128,0,109025:0:0:0:0:s_053.ogg
230,192,109025,128,0,109100:0:0:0:0:s_057.ogg
486,192,109100,128,0,109175:0:0:0:0:m_065.ogg
435,192,109175,128,0,109250:0:0:0:0:m_057.ogg
332,192,109250,128,0,109325:0:0:0:0:m_053.ogg
281,192,109325,128,0,109400:0:0:0:0:s_048.ogg
25,192,109400,128,0,109475:0:0:0:0:l_041.ogg
128,192,109475,128,0,109550:0:0:0:0:m_057.ogg
179,192,109550,128,0,109625:0:0:0:0:m_060.ogg
230,192,109625,128,0,109700:0:0:0:0:s_065.ogg
486,192,109700,128,0,109775:0:0:0:0:l_072.ogg
435,192,109775,128,0,109850:0:0:0:0:m_065.ogg
384,192,109850,128,0,109925:0:0:0:0:m_060.ogg
281,192,109925,128,0,110000:0:0:0:0:m_057.ogg
76,192,110000,128,0,110075:0:0:0:0:m_048.ogg
128,192,110075,128,0,110150:0:0:0:0:m_060.ogg
179,192,110150,128,0,110225:0:0:0:0:s_065.ogg
230,192,110225,128,0,110300:0:0:0:0:s_069.ogg
486,192,110300,128,0,110375:0:0:0:0:m_077.ogg
435,192,110375,128,0,110450:0:0:0:0:m_069.ogg
384,192,110450,128,0,110525:0:0:0:0:m_065.ogg
332,192,110525,128,0,110600:0:0:0:0:s_060.ogg
76,192,110600,128,0,110675:0:0:0:0:m_048.ogg
128,192,110675,128,0,110750:0:0:0:0:m_060.ogg
179,192,110750,128,0,110825:0:0:0:0:s_065.ogg
230,192,110825,128,0,110900:0:0:0:0:s_069.ogg
486,192,110900,128,0,110975:0:0:0:0:m_077.ogg
435,192,110975,128,0,111050:0:0:0:0:m_069.ogg
384,192,111050,128,0,111125:0:0:0:0:s_065.ogg
332,192,111125,128,0,111200:0:0:0:0:s_060.ogg
25,192,111200,1,0,0:0:0:0:l_029.ogg
76,192,111200,1,0,0:0:0:0:l_017.ogg
