osu file format v14

[General]
AudioFilename: virtual
AudioLeadIn: 0
PreviewTime: 0
Countdown: 0
SampleSet: Soft
StackLeniency: 0.7
Mode: 3
LetterboxInBreaks: 0
SpecialStyle: 0
WidescreenStoryboard: 1

[Editor]
DistanceSpacing: 0.8
BeatDivisor: 4
GridSize: 16
TimelineZoom: 2.000006

[Metadata]
Title:Piano Beatmap Set
TitleUnicode:Piano Beatmap Set
Artist:Collection
ArtistUnicode:Collection
Creator:CircusGalop
Version:Pathetique (Medley ver.) - 7K EX
Source:BMS
Tags:
BeatmapID:1330406
BeatmapSetID:332673

[Difficulty]
HPDrainRate:9
CircleSize:7
OverallDifficulty:5
ApproachRate:5
SliderMultiplier:1.4
SliderTickRate:1

[Events]
//Background and Video events
0,0,"CircusGalop.jpg",0,0
//Break Periods
//Storyboard Layer 0 (Background)
//Storyboard Layer 1 (Fail)
//Storyboard Layer 2 (Pass)
//Storyboard Layer 3 (Foreground)
//Storyboard Sound Samples

[TimingPoints]
0,300.000000000001,4,2,0,100,1,0
0,-125,4,2,0,100,0,0
22800,500.000000000001,4,2,0,100,1,0
22800,-75,4,2,0,100,0,0
54800,375.000000000001,4,2,0,100,1,0
146300,500.000000000001,4,2,0,100,1,0
146300,-75,4,2,0,100,0,0

[HitObjects]
182,192,1950,5,0,0:0:0:0:s_046.ogg
256,192,2100,1,0,0:0:0:0:s_051.ogg
329,192,2250,1,0,0:0:0:0:s_053.ogg
36,192,2400,1,0,0:0:0:0:s_027.ogg
402,192,2400,128,0,2700:0:0:0:0:m_054.ogg
109,192,2550,1,0,0:0:0:0:s_030.ogg
182,192,2700,1,0,0:0:0:0:s_034.ogg
256,192,2850,1,0,0:0:0:0:s_039.ogg
475,192,2850,1,0,0:0:0:0:s_056.ogg
36,192,3000,1,0,0:0:0:0:s_027.ogg
329,192,3000,128,0,3300:0:0:0:0:m_053.ogg
109,192,3150,1,0,0:0:0:0:s_032.ogg
182,192,3300,1,0,0:0:0:0:s_034.ogg
256,192,3450,1,0,0:0:0:0:s_038.ogg
402,192,3450,1,0,0:0:0:0:s_054.ogg
36,192,3600,1,0,0:0:0:0:s_027.ogg
329,192,3600,128,0,4050:0:0:0:0:m_051.ogg
109,192,3750,1,0,0:0:0:0:s_030.ogg
182,192,3900,1,0,0:0:0:0:s_034.ogg
256,192,4050,1,0,0:0:0:0:s_039.ogg
36,192,4200,1,0,0:0:0:0:s_042.ogg
402,192,4200,1,0,0:0:0:0:s_053.ogg
329,192,4237,1,0,0:0:0:0:s_051.ogg
256,192,4350,1,0,0:0:0:0:s_050.ogg
475,192,4350,1,0,0:0:0:0:s_046.ogg
182,192,4500,1,0,0:0:0:0:s_042.ogg
329,192,4500,1,0,0:0:0:0:s_051.ogg
109,192,4650,1,0,0:0:0:0:s_041.ogg
402,192,4650,1,0,0:0:0:0:s_053.ogg
36,192,4800,1,0,0:0:0:0:s_039.ogg
475,192,4800,1,0,0:0:0:0:s_056.ogg
402,192,4837,1,0,0:0:0:0:s_054.ogg
182,192,4950,1,0,0:0:0:0:s_046.ogg
256,192,4950,1,0,0:0:0:0:s_053.ogg
36,192,5100,1,0,0:0:0:0:s_042.ogg
109,192,5100,1,0,0:0:0:0:s_039.ogg
329,192,5100,1,0,0:0:0:0:s_054.ogg
256,192,5250,1,0,0:0:0:0:s_046.ogg
402,192,5250,1,0,0:0:0:0:s_056.ogg
36,192,5400,1,0,0:0:0:0:s_038.ogg
182,192,5400,1,0,0:0:0:0:s_041.ogg
475,192,5400,1,0,0:0:0:0:s_058.ogg
256,192,5550,1,0,0:0:0:0:s_046.ogg
36,192,5700,1,0,0:0:0:0:s_035.ogg
109,192,5700,1,0,0:0:0:0:s_039.ogg
475,192,5700,1,0,0:0:0:0:s_058.ogg
256,192,5850,1,0,0:0:0:0:s_046.ogg
36,192,6000,1,0,0:0:0:0:s_034.ogg
475,192,6000,128,0,6600:0:0:0:0:m_058.ogg
109,192,6150,1,0,0:0:0:0:s_038.ogg
182,192,6300,1,0,0:0:0:0:s_041.ogg
256,192,6450,1,0,0:0:0:0:s_046.ogg
36,192,6600,1,0,0:0:0:0:s_034.ogg
109,192,6750,1,0,0:0:0:0:s_038.ogg
182,192,6900,1,0,0:0:0:0:s_041.ogg
329,192,6900,1,0,0:0:0:0:s_056.ogg
256,192,7050,1,0,0:0:0:0:s_046.ogg
402,192,7050,1,0,0:0:0:0:s_058.ogg
36,192,7200,1,0,0:0:0:0:s_032.ogg
329,192,7200,1,0,0:0:0:0:s_056.ogg
402,192,7237,1,0,0:0:0:0:s_058.ogg
475,192,7275,128,0,7650:0:0:0:0:m_059.ogg
109,192,7350,1,0,0:0:0:0:s_035.ogg
182,192,7500,1,0,0:0:0:0:s_038.ogg
256,192,7650,1,0,0:0:0:0:s_041.ogg
36,192,7800,1,0,0:0:0:0:s_032.ogg
329,192,7800,1,0,0:0:0:0:s_053.ogg
109,192,7950,1,0,0:0:0:0:s_035.ogg
182,192,8100,1,0,0:0:0:0:s_038.ogg
402,192,8100,1,0,0:0:0:0:s_054.ogg
256,192,8250,1,0,0:0:0:0:s_041.ogg
475,192,8250,1,0,0:0:0:0:s_056.ogg
36,192,8400,1,0,0:0:0:0:s_030.ogg
329,192,8400,1,0,0:0:0:0:s_054.ogg
402,192,8437,1,0,0:0:0:0:s_056.ogg
475,192,8475,128,0,8850:0:0:0:0:m_058.ogg
109,192,8550,1,0,0:0:0:0:s_034.ogg
182,192,8700,1,0,0:0:0:0:s_039.ogg
256,192,8850,1,0,0:0:0:0:s_042.ogg
36,192,9000,1,0,0:0:0:0:s_035.ogg
329,192,9000,1,0,0:0:0:0:s_051.ogg
109,192,9150,1,0,0:0:0:0:s_039.ogg
182,192,9300,1,0,0:0:0:0:s_042.ogg
329,192,9300,1,0,0:0:0:0:s_051.ogg
256,192,9450,1,0,0:0:0:0:s_045.ogg
402,192,9450,1,0,0:0:0:0:s_053.ogg
109,192,9600,1,0,0:0:0:0:s_034.ogg
475,192,9600,1,0,0:0:0:0:s_054.ogg
182,192,9750,1,0,0:0:0:0:s_039.ogg
256,192,9900,1,0,0:0:0:0:s_042.ogg
402,192,9900,1,0,0:0:0:0:s_054.ogg
329,192,10050,1,0,0:0:0:0:s_046.ogg
475,192,10050,1,0,0:0:0:0:s_056.ogg
36,192,10200,1,0,0:0:0:0:s_034.ogg
256,192,10200,1,0,0:0:0:0:s_053.ogg
109,192,10350,1,0,0:0:0:0:s_038.ogg
182,192,10500,1,0,0:0:0:0:s_041.ogg
329,192,10500,1,0,0:0:0:0:s_053.ogg
256,192,10650,1,0,0:0:0:0:s_046.ogg
402,192,10650,1,0,0:0:0:0:s_054.ogg
329,192,10800,128,0,11400:0:0:0:0:m_051.ogg
36,192,10950,1,0,0:0:0:0:s_027.ogg
109,192,11100,1,0,0:0:0:0:s_030.ogg
182,192,11250,1,0,0:0:0:0:s_034.ogg
256,192,11400,1,0,0:0:0:0:m_039.ogg
329,192,11700,1,0,0:0:0:0:s_056.ogg
402,192,11850,1,0,0:0:0:0:s_058.ogg
475,192,12000,128,0,12450:0:0:0:0:m_059.ogg
329,192,12000,128,0,12450:0:0:0:0:m_047.ogg
36,192,12150,1,0,0:0:0:0:s_020.ogg
109,192,12300,1,0,0:0:0:0:s_026.ogg
182,192,12450,1,0,0:0:0:0:s_029.ogg
256,192,12600,1,0,0:0:0:0:s_032.ogg
402,192,12600,1,0,0:0:0:0:s_053.ogg
36,192,12750,1,0,0:0:0:0:s_035.ogg
182,192,12900,1,0,0:0:0:0:s_034.ogg
329,192,12900,1,0,0:0:0:0:s_054.ogg
109,192,13050,1,0,0:0:0:0:s_032.ogg
402,192,13050,1,0,0:0:0:0:s_056.ogg
475,192,13200,128,0,13650:0:0:0:0:m_058.ogg
256,192,13200,128,0,13650:0:0:0:0:m_046.ogg
36,192,13350,1,0,0:0:0:0:s_018.ogg
109,192,13500,1,0,0:0:0:0:s_022.ogg
182,192,13650,1,0,0:0:0:0:s_027.ogg
256,192,13800,1,0,0:0:0:0:s_030.ogg
329,192,13800,1,0,0:0:0:0:s_051.ogg
109,192,13950,1,0,0:0:0:0:s_034.ogg
182,192,14100,1,0,0:0:0:0:s_035.ogg
256,192,14100,1,0,0:0:0:0:s_051.ogg
109,192,14250,1,0,0:0:0:0:s_033.ogg
329,192,14250,1,0,0:0:0:0:s_053.ogg
36,192,14400,1,0,0:0:0:0:s_022.ogg
402,192,14400,1,0,0:0:0:0:s_054.ogg
109,192,14550,1,0,0:0:0:0:s_034.ogg
256,192,14700,1,0,0:0:0:0:s_039.ogg
402,192,14700,1,0,0:0:0:0:s_054.ogg
109,192,14850,1,0,0:0:0:0:s_034.ogg
475,192,14850,1,0,0:0:0:0:s_056.ogg
36,192,15000,1,0,0:0:0:0:s_022.ogg
329,192,15000,1,0,0:0:0:0:s_053.ogg
109,192,15150,1,0,0:0:0:0:s_034.ogg
182,192,15300,1,0,0:0:0:0:s_038.ogg
329,192,15300,1,0,0:0:0:0:s_053.ogg
109,192,15450,1,0,0:0:0:0:s_034.ogg
402,192,15450,1,0,0:0:0:0:s_054.ogg
36,192,15600,1,0,0:0:0:0:s_027.ogg
256,192,15600,1,0,0:0:0:0:s_051.ogg
182,192,15750,1,0,0:0:0:0:s_039.ogg
109,192,15900,1,0,0:0:0:0:s_038.ogg
475,192,15900,128,0,16350:0:0:0:0:m_061.ogg
182,192,16050,1,0,0:0:0:0:s_039.ogg
36,192,16200,1,0,0:0:0:0:s_031.ogg
182,192,16350,1,0,0:0:0:0:s_039.ogg
109,192,16500,1,0,0:0:0:0:s_034.ogg
475,192,16500,128,0,16800:0:0:0:0:m_061.ogg
182,192,16650,1,0,0:0:0:0:s_039.ogg
36,192,16800,1,0,0:0:0:0:s_032.ogg
182,192,16950,1,0,0:0:0:0:s_039.ogg
475,192,16950,1,0,0:0:0:0:s_059.ogg
109,192,17100,1,0,0:0:0:0:s_035.ogg
402,192,17100,1,0,0:0:0:0:s_058.ogg
182,192,17250,1,0,0:0:0:0:s_039.ogg
329,192,17250,1,0,0:0:0:0:s_056.ogg
36,192,17400,1,0,0:0:0:0:s_034.ogg
256,192,17400,1,0,0:0:0:0:s_054.ogg
109,192,17550,1,0,0:0:0:0:s_044.ogg
402,192,17550,1,0,0:0:0:0:s_053.ogg
36,192,17700,1,0,0:0:0:0:s_039.ogg
329,192,17700,1,0,0:0:0:0:s_051.ogg
109,192,17850,1,0,0:0:0:0:s_044.ogg
256,192,17850,1,0,0:0:0:0:s_050.ogg
36,192,18000,1,0,0:0:0:0:s_035.ogg
329,192,18000,1,0,0:0:0:0:s_051.ogg
182,192,18150,1,0,0:0:0:0:s_042.ogg
36,192,18300,1,0,0:0:0:0:s_039.ogg
475,192,18300,128,0,18750:0:0:0:0:m_063.ogg
256,192,18300,128,0,18750:0:0:0:0:m_051.ogg
182,192,18450,1,0,0:0:0:0:s_042.ogg
109,192,18600,1,0,0:0:0:0:s_034.ogg
182,192,18750,1,0,0:0:0:0:s_043.ogg
109,192,18900,1,0,0:0:0:0:s_039.ogg
402,192,18900,128,0,19200:0:0:0:0:m_061.ogg
182,192,19050,1,0,0:0:0:0:s_043.ogg
36,192,19200,1,0,0:0:0:0:s_032.ogg
182,192,19350,1,0,0:0:0:0:s_044.ogg
402,192,19350,1,0,0:0:0:0:s_059.ogg
36,192,19500,1,0,0:0:0:0:s_039.ogg
329,192,19500,1,0,0:0:0:0:s_058.ogg
182,192,19650,1,0,0:0:0:0:s_044.ogg
256,192,19650,1,0,0:0:0:0:s_056.ogg
109,192,19800,1,0,0:0:0:0:s_034.ogg
475,192,19800,1,0,0:0:0:0:s_054.ogg
182,192,19950,1,0,0:0:0:0:s_046.ogg
402,192,19950,1,0,0:0:0:0:s_053.ogg
109,192,20100,1,0,0:0:0:0:s_034.ogg
329,192,20100,1,0,0:0:0:0:s_051.ogg
182,192,20250,1,0,0:0:0:0:s_046.ogg
256,192,20250,1,0,0:0:0:0:s_050.ogg
36,192,20400,1,0,0:0:0:0:s_039.ogg
329,192,20400,1,0,0:0:0:0:s_051.ogg
109,192,20700,1,0,0:0:0:0:s_034.ogg
182,192,20700,1,0,0:0:0:0:s_038.ogg
329,192,20700,1,0,0:0:0:0:s_053.ogg
402,192,20756,1,0,0:0:0:0:s_054.ogg
329,192,20812,1,0,0:0:0:0:s_053.ogg
256,192,20868,1,0,0:0:0:0:s_051.ogg
329,192,20931,1,0,0:0:0:0:s_053.ogg
36,192,21000,1,0,0:0:0:0:s_039.ogg
182,192,21000,1,0,0:0:0:0:s_027.ogg
402,192,21000,1,0,0:0:0:0:s_054.ogg
36,192,21300,1,0,0:0:0:0:s_022.ogg
109,192,21300,1,0,0:0:0:0:s_034.ogg
182,192,21300,1,0,0:0:0:0:s_053.ogg
329,192,21300,1,0,0:0:0:0:s_062.ogg
475,192,21300,1,0,0:0:0:0:s_050.ogg
109,192,21600,1,0,0:0:0:0:m_015.ogg
182,192,21600,1,0,0:0:0:0:m_027.ogg
256,192,21600,1,0,0:0:0:0:m_063.ogg
402,192,21600,1,0,0:0:0:0:m_054.ogg
475,192,21600,1,0,0:0:0:0:m_058.ogg
109,192,22800,1,0,0:0:0:0:l_023.ogg
329,192,22800,1,0,0:0:0:0:s_035.ogg
475,192,22800,1,0,0:0:0:0:l_039.ogg
182,192,23050,1,0,0:0:0:0:s_030.ogg
329,192,23300,1,0,0:0:0:0:s_035.ogg
182,192,23550,1,0,0:0:0:0:s_030.ogg
36,192,23800,1,0,0:0:0:0:l_028.ogg
256,192,23800,1,0,0:0:0:0:s_034.ogg
402,192,23800,1,0,0:0:0:0:l_037.ogg
182,192,24050,1,0,0:0:0:0:s_030.ogg
256,192,24300,1,0,0:0:0:0:s_034.ogg
182,192,24550,1,0,0:0:0:0:s_030.ogg
109,192,24800,1,0,0:0:0:0:l_027.ogg
329,192,24800,1,0,0:0:0:0:s_035.ogg
475,192,24800,1,0,0:0:0:0:l_042.ogg
182,192,25050,1,0,0:0:0:0:s_030.ogg
329,192,25300,1,0,0:0:0:0:s_035.ogg
182,192,25550,1,0,0:0:0:0:s_030.ogg
36,192,25800,1,0,0:0:0:0:l_022.ogg
402,192,25800,1,0,0:0:0:0:s_037.ogg
182,192,26050,1,0,0:0:0:0:s_030.ogg
329,192,26300,1,0,0:0:0:0:m_040.ogg
402,192,26300,1,0,0:0:0:0:s_037.ogg
182,192,26550,1,0,0:0:0:0:s_030.ogg
109,192,26800,1,0,0:0:0:0:m_023.ogg
256,192,26800,1,0,0:0:0:0:s_035.ogg
329,192,26800,1,0,0:0:0:0:m_039.ogg
182,192,27050,1,0,0:0:0:0:s_030.ogg
36,192,27300,1,0,0:0:0:0:m_022.ogg
256,192,27300,1,0,0:0:0:0:s_037.ogg
402,192,27300,1,0,0:0:0:0:m_042.ogg
182,192,27550,1,0,0:0:0:0:s_030.ogg
109,192,27800,1,0,0:0:0:0:m_020.ogg
329,192,27800,1,0,0:0:0:0:s_039.ogg
475,192,27800,1,0,0:0:0:0:m_047.ogg
256,192,28050,1,0,0:0:0:0:s_035.ogg
109,192,28300,1,0,0:0:0:0:m_032.ogg
402,192,28300,1,0,0:0:0:0:s_041.ogg
475,192,28300,1,0,0:0:0:0:m_049.ogg
256,192,28550,1,0,0:0:0:0:s_037.ogg
36,192,28800,1,0,0:0:0:0:l_030.ogg
182,192,28800,1,0,0:0:0:0:s_034.ogg
402,192,28800,1,0,0:0:0:0:l_042.ogg
329,192,29050,1,0,0:0:0:0:s_037.ogg
182,192,29300,1,0,0:0:0:0:s_034.ogg
329,192,29550,1,0,0:0:0:0:s_037.ogg
109,192,29800,1,0,0:0:0:0:l_018.ogg
182,192,29800,1,0,0:0:0:0:s_034.ogg
329,192,30050,1,0,0:0:0:0:s_037.ogg
182,192,30300,1,0,0:0:0:0:s_034.ogg
402,192,30300,1,0,0:0:0:0:m_043.ogg
329,192,30550,1,0,0:0:0:0:s_037.ogg
36,192,30800,1,0,0:0:0:0:l_016.ogg
182,192,30800,1,0,0:0:0:0:s_034.ogg
475,192,30800,1,0,0:0:0:0:l_044.ogg
329,192,31050,1,0,0:0:0:0:s_037.ogg
182,192,31300,1,0,0:0:0:0:s_034.ogg
329,192,31550,1,0,0:0:0:0:s_037.ogg
109,192,31800,1,0,0:0:0:0:m_037.ogg
256,192,31800,1,0,0:0:0:0:s_034.ogg
329,192,31800,1,0,0:0:0:0:l_028.ogg
182,192,32050,1,0,0:0:0:0:s_030.ogg
329,192,32300,1,0,0:0:0:0:s_034.ogg
182,192,32550,1,0,0:0:0:0:s_030.ogg
256,192,32550,1,0,0:0:0:0:s_039.ogg
329,192,32675,1,0,0:0:0:0:s_040.ogg
36,192,32800,1,0,0:0:0:0:l_027.ogg
402,192,32800,1,0,0:0:0:0:l_042.ogg
475,192,32800,1,0,0:0:0:0:s_035.ogg
329,192,33050,1,0,0:0:0:0:s_030.ogg
475,192,33300,1,0,0:0:0:0:s_035.ogg
329,192,33550,1,0,0:0:0:0:s_030.ogg
109,192,33800,1,0,0:0:0:0:l_020.ogg
256,192,33800,1,0,0:0:0:0:l_036.ogg
329,192,33800,1,0,0:0:0:0:s_030.ogg
182,192,34050,1,0,0:0:0:0:s_027.ogg
329,192,34300,1,0,0:0:0:0:s_030.ogg
182,192,34550,1,0,0:0:0:0:s_027.ogg
36,192,34800,1,0,0:0:0:0:l_013.ogg
402,192,34800,1,0,0:0:0:0:s_032.ogg
475,192,34800,1,0,0:0:0:0:l_040.ogg
256,192,35050,1,0,0:0:0:0:s_028.ogg
402,192,35300,1,0,0:0:0:0:s_032.ogg
256,192,35550,1,0,0:0:0:0:s_028.ogg
109,192,35800,1,0,0:0:0:0:l_018.ogg
256,192,35800,1,0,0:0:0:0:s_039.ogg
475,192,35800,1,0,0:0:0:0:s_028.ogg
256,192,36050,1,0,0:0:0:0:s_037.ogg
402,192,36050,1,0,0:0:0:0:s_028.ogg
256,192,36300,1,0,0:0:0:0:s_035.ogg
329,192,36300,1,0,0:0:0:0:s_028.ogg
182,192,36550,1,0,0:0:0:0:s_028.ogg
256,192,36550,1,0,0:0:0:0:s_034.ogg
36,192,36800,1,0,0:0:0:0:m_011.ogg
256,192,36800,1,0,0:0:0:0:s_028.ogg
402,192,36800,1,0,0:0:0:0:l_034.ogg
475,192,36800,1,0,0:0:0:0:l_037.ogg
329,192,37050,1,0,0:0:0:0:s_030.ogg
109,192,37300,1,0,0:0:0:0:m_023.ogg
256,192,37300,1,0,0:0:0:0:s_028.ogg
329,192,37550,1,0,0:0:0:0:s_030.ogg
36,192,37800,1,0,0:0:0:0:l_011.ogg
182,192,37800,1,0,0:0:0:0:l_027.ogg
402,192,37800,1,0,0:0:0:0:m_035.ogg
109,192,37966,1,0,0:0:0:0:m_030.ogg
182,192,38133,1,0,0:0:0:0:s_035.ogg
256,192,38300,1,0,0:0:0:0:m_039.ogg
329,192,38466,1,0,0:0:0:0:m_042.ogg
402,192,38633,1,0,0:0:0:0:s_047.ogg
109,192,38800,1,0,0:0:0:0:l_023.ogg
182,192,38800,1,0,0:0:0:0:m_035.ogg
256,192,38800,1,0,0:0:0:0:m_039.ogg
475,192,38800,1,0,0:0:0:0:l_051.ogg
36,192,39050,1,0,0:0:0:0:m_030.ogg
402,192,39050,1,0,0:0:0:0:m_042.ogg
182,192,39300,1,0,0:0:0:0:m_035.ogg
256,192,39300,1,0,0:0:0:0:m_039.ogg
36,192,39550,1,0,0:0:0:0:s_030.ogg
402,192,39550,1,0,0:0:0:0:s_042.ogg
109,192,39800,1,0,0:0:0:0:m_034.ogg
182,192,39800,1,0,0:0:0:0:l_028.ogg
256,192,39800,1,0,0:0:0:0:m_037.ogg
475,192,39800,1,0,0:0:0:0:l_049.ogg
36,192,40050,1,0,0:0:0:0:m_030.ogg
329,192,40050,1,0,0:0:0:0:m_042.ogg
109,192,40300,1,0,0:0:0:0:m_034.ogg
256,192,40300,1,0,0:0:0:0:m_037.ogg
36,192,40550,1,0,0:0:0:0:s_030.ogg
329,192,40550,1,0,0:0:0:0:s_042.ogg
109,192,40800,1,0,0:0:0:0:l_027.ogg
182,192,40800,1,0,0:0:0:0:m_035.ogg
329,192,40800,1,0,0:0:0:0:m_042.ogg
475,192,40800,1,0,0:0:0:0:l_054.ogg
36,192,41050,1,0,0:0:0:0:m_030.ogg
402,192,41050,1,0,0:0:0:0:m_047.ogg
182,192,41300,1,0,0:0:0:0:m_035.ogg
329,192,41300,1,0,0:0:0:0:m_042.ogg
36,192,41550,1,0,0:0:0:0:s_030.ogg
402,192,41550,1,0,0:0:0:0:s_047.ogg
109,192,41800,1,0,0:0:0:0:m_034.ogg
182,192,41800,1,0,0:0:0:0:l_022.ogg
256,192,41800,1,0,0:0:0:0:m_042.ogg
36,192,42050,1,0,0:0:0:0:m_030.ogg
402,192,42050,1,0,0:0:0:0:m_049.ogg
109,192,42300,1,0,0:0:0:0:m_034.ogg
256,192,42300,1,0,0:0:0:0:m_042.ogg
475,192,42300,1,0,0:0:0:0:m_052.ogg
36,192,42550,1,0,0:0:0:0:s_030.ogg
402,192,42550,1,0,0:0:0:0:s_049.ogg
36,192,42800,1,0,0:0:0:0:m_023.ogg
109,192,42800,1,0,0:0:0:0:m_035.ogg
256,192,42800,1,0,0:0:0:0:m_051.ogg
475,192,42800,1,0,0:0:0:0:m_042.ogg
109,192,43050,1,0,0:0:0:0:s_030.ogg
329,192,43050,1,0,0:0:0:0:s_047.ogg
36,192,43300,1,0,0:0:0:0:m_022.ogg
182,192,43300,1,0,0:0:0:0:m_034.ogg
256,192,43300,1,0,0:0:0:0:m_054.ogg
402,192,43300,1,0,0:0:0:0:m_042.ogg
36,192,43550,1,0,0:0:0:0:s_030.ogg
329,192,43550,1,0,0:0:0:0:s_049.ogg
109,192,43800,1,0,0:0:0:0:m_020.ogg
182,192,43800,1,0,0:0:0:0:m_032.ogg
256,192,43800,1,0,0:0:0:0:m_047.ogg
475,192,43800,1,0,0:0:0:0:m_059.ogg
109,192,44050,1,0,0:0:0:0:s_023.ogg
329,192,44050,1,0,0:0:0:0:s_051.ogg
36,192,44300,1,0,0:0:0:0:m_020.ogg
182,192,44300,1,0,0:0:0:0:m_032.ogg
256,192,44300,1,0,0:0:0:0:m_047.ogg
475,192,44300,1,0,0:0:0:0:m_061.ogg
182,192,44550,1,0,0:0:0:0:s_023.ogg
402,192,44550,1,0,0:0:0:0:s_053.ogg
36,192,44800,1,0,0:0:0:0:l_018.ogg
256,192,44800,1,0,0:0:0:0:m_046.ogg
329,192,44800,1,0,0:0:0:0:l_054.ogg
109,192,45050,1,0,0:0:0:0:m_022.ogg
402,192,45050,1,0,0:0:0:0:m_049.ogg
182,192,45300,1,0,0:0:0:0:m_025.ogg
256,192,45300,1,0,0:0:0:0:m_046.ogg
36,192,45550,1,0,0:0:0:0:s_030.ogg
402,192,45550,1,0,0:0:0:0:s_049.ogg
182,192,45800,1,0,0:0:0:0:m_034.ogg
256,192,45800,1,0,0:0:0:0:m_046.ogg
109,192,46050,1,0,0:0:0:0:m_037.ogg
402,192,46050,1,0,0:0:0:0:m_049.ogg
182,192,46300,1,0,0:0:0:0:m_034.ogg
256,192,46300,1,0,0:0:0:0:m_046.ogg
475,192,46300,1,0,0:0:0:0:m_055.ogg
109,192,46550,1,0,0:0:0:0:s_037.ogg
402,192,46550,1,0,0:0:0:0:s_049.ogg
36,192,46800,1,0,0:0:0:0:l_016.ogg
256,192,46800,1,0,0:0:0:0:m_046.ogg
475,192,46800,1,0,0:0:0:0:l_056.ogg
109,192,47050,1,0,0:0:0:0:m_022.ogg
402,192,47050,1,0,0:0:0:0:m_049.ogg
182,192,47300,1,0,0:0:0:0:m_025.ogg
256,192,47300,1,0,0:0:0:0:m_046.ogg
36,192,47550,1,0,0:0:0:0:s_028.ogg
402,192,47550,1,0,0:0:0:0:s_049.ogg
182,192,47800,1,0,0:0:0:0:m_034.ogg
329,192,47800,1,0,0:0:0:0:m_046.ogg
402,192,47800,1,0,0:0:0:0:l_049.ogg
109,192,48050,1,0,0:0:0:0:m_037.ogg
256,192,48050,1,0,0:0:0:0:m_042.ogg
182,192,48300,1,0,0:0:0:0:m_034.ogg
402,192,48300,1,0,0:0:0:0:m_046.ogg
36,192,48550,1,0,0:0:0:0:s_030.ogg
256,192,48550,1,0,0:0:0:0:s_042.ogg
329,192,48550,1,0,0:0:0:0:s_051.ogg
402,192,48675,1,0,0:0:0:0:s_052.ogg
109,192,48800,1,0,0:0:0:0:m_027.ogg
256,192,48800,1,0,0:0:0:0:l_054.ogg
475,192,48800,1,0,0:0:0:0:m_047.ogg
182,192,49050,1,0,0:0:0:0:m_030.ogg
329,192,49050,1,0,0:0:0:0:m_042.ogg
109,192,49300,1,0,0:0:0:0:m_027.ogg
475,192,49300,1,0,0:0:0:0:m_047.ogg
182,192,49550,1,0,0:0:0:0:s_030.ogg
329,192,49550,1,0,0:0:0:0:s_042.ogg
36,192,49800,1,0,0:0:0:0:m_027.ogg
109,192,49800,1,0,0:0:0:0:l_020.ogg
329,192,49800,1,0,0:0:0:0:m_042.ogg
402,192,49800,1,0,0:0:0:0:l_048.ogg
182,192,50050,1,0,0:0:0:0:m_032.ogg
256,192,50050,1,0,0:0:0:0:m_039.ogg
36,192,50300,1,0,0:0:0:0:m_027.ogg
402,192,50300,1,0,0:0:0:0:m_042.ogg
182,192,50550,1,0,0:0:0:0:s_032.ogg
256,192,50550,1,0,0:0:0:0:s_039.ogg
36,192,50800,1,0,0:0:0:0:l_025.ogg
109,192,50800,1,0,0:0:0:0:m_028.ogg
402,192,50800,1,0,0:0:0:0:l_052.ogg
475,192,50800,1,0,0:0:0:0:m_044.ogg
256,192,51050,1,0,0:0:0:0:m_032.ogg
329,192,51050,1,0,0:0:0:0:m_040.ogg
109,192,51300,1,0,0:0:0:0:m_028.ogg
475,192,51300,1,0,0:0:0:0:m_044.ogg
256,192,51550,1,0,0:0:0:0:s_032.ogg
329,192,51550,1,0,0:0:0:0:s_040.ogg
36,192,51800,1,0,0:0:0:0:l_018.ogg
109,192,51800,1,0,0:0:0:0:m_025.ogg
329,192,51800,1,0,0:0:0:0:s_040.ogg
475,192,51800,1,0,0:0:0:0:l_051.ogg
182,192,52050,1,0,0:0:0:0:m_030.ogg
329,192,52050,1,0,0:0:0:0:s_040.ogg
402,192,52050,1,0,0:0:0:0:m_049.ogg
36,192,52300,1,0,0:0:0:0:m_025.ogg
256,192,52300,1,0,0:0:0:0:m_047.ogg
329,192,52300,1,0,0:0:0:0:s_040.ogg
182,192,52550,1,0,0:0:0:0:s_030.ogg
329,192,52550,1,0,0:0:0:0:s_046.ogg
402,192,52550,1,0,0:0:0:0:s_040.ogg
36,192,52800,1,0,0:0:0:0:l_023.ogg
329,192,52800,1,0,0:0:0:0:m_040.ogg
475,192,52800,1,0,0:0:0:0:l_049.ogg
109,192,53050,1,0,0:0:0:0:m_030.ogg
402,192,53050,1,0,0:0:0:0:m_042.ogg
182,192,53300,1,0,0:0:0:0:m_034.ogg
329,192,53300,1,0,0:0:0:0:m_040.ogg
109,192,53550,1,0,0:0:0:0:m_030.ogg
402,192,53550,1,0,0:0:0:0:m_042.ogg
182,192,53800,1,0,0:0:0:0:m_035.ogg
256,192,53800,1,0,0:0:0:0:m_039.ogg
475,192,53800,1,0,0:0:0:0:m_047.ogg
36,192,54800,1,0,0:0:0:0:s_015.ogg
329,192,54800,1,0,0:0:0:0:m_039.ogg
182,192,54893,1,0,0:0:0:0:s_027.ogg
36,192,54987,1,0,0:0:0:0:s_015.ogg
182,192,55081,1,0,0:0:0:0:s_027.ogg
36,192,55175,1,0,0:0:0:0:s_015.ogg
182,192,55268,1,0,0:0:0:0:s_027.ogg
36,192,55362,1,0,0:0:0:0:s_015.ogg
256,192,55362,1,0,0:0:0:0:s_037.ogg
329,192,55362,1,0,0:0:0:0:s_043.ogg
182,192,55456,1,0,0:0:0:0:s_027.ogg
36,192,55550,1,0,0:0:0:0:s_015.ogg
256,192,55550,1,0,0:0:0:0:s_035.ogg
402,192,55550,1,0,0:0:0:0:s_044.ogg
182,192,55643,1,0,0:0:0:0:s_027.ogg
36,192,55737,1,0,0:0:0:0:s_015.ogg
329,192,55737,1,0,0:0:0:0:s_046.ogg
402,192,55737,1,0,0:0:0:0:s_043.ogg
182,192,55831,1,0,0:0:0:0:s_027.ogg
36,192,55925,1,0,0:0:0:0:s_015.ogg
329,192,55925,1,0,0:0:0:0:s_044.ogg
475,192,55925,1,0,0:0:0:0:s_047.ogg
182,192,56018,1,0,0:0:0:0:s_027.ogg
36,192,56112,1,0,0:0:0:0:s_015.ogg
402,192,56112,1,0,0:0:0:0:s_041.ogg
475,192,56112,1,0,0:0:0:0:s_050.ogg
182,192,56206,1,0,0:0:0:0:s_027.ogg
36,192,56300,1,0,0:0:0:0:s_015.ogg
256,192,56300,1,0,0:0:0:0:s_042.ogg
475,192,56300,1,0,0:0:0:0:s_051.ogg
182,192,56393,1,0,0:0:0:0:s_027.ogg
36,192,56487,1,0,0:0:0:0:s_015.ogg
256,192,56487,1,0,0:0:0:0:m_042.ogg
475,192,56487,1,0,0:0:0:0:m_051.ogg
182,192,56581,1,0,0:0:0:0:s_027.ogg
36,192,56675,1,0,0:0:0:0:s_015.ogg
182,192,56768,1,0,0:0:0:0:s_027.ogg
36,192,56862,1,0,0:0:0:0:s_015.ogg
256,192,56862,1,0,0:0:0:0:s_049.ogg
329,192,56862,1,0,0:0:0:0:s_055.ogg
182,192,56956,1,0,0:0:0:0:s_027.ogg
36,192,57050,1,0,0:0:0:0:s_015.ogg
256,192,57050,1,0,0:0:0:0:s_056.ogg
402,192,57050,1,0,0:0:0:0:s_047.ogg
182,192,57143,1,0,0:0:0:0:s_027.ogg
36,192,57237,1,0,0:0:0:0:s_015.ogg
329,192,57237,1,0,0:0:0:0:s_055.ogg
402,192,57237,1,0,0:0:0:0:s_058.ogg
182,192,57331,1,0,0:0:0:0:s_027.ogg
36,192,57425,1,0,0:0:0:0:s_015.ogg
329,192,57425,1,0,0:0:0:0:s_056.ogg
475,192,57425,1,0,0:0:0:0:s_059.ogg
182,192,57518,1,0,0:0:0:0:s_027.ogg
36,192,57612,1,0,0:0:0:0:s_015.ogg
402,192,57612,1,0,0:0:0:0:s_053.ogg
475,192,57612,1,0,0:0:0:0:s_062.ogg
182,192,57706,1,0,0:0:0:0:s_027.ogg
36,192,57800,1,0,0:0:0:0:s_015.ogg
256,192,57800,1,0,0:0:0:0:m_051.ogg
329,192,57800,1,0,0:0:0:0:m_063.ogg
402,192,57800,1,0,0:0:0:0:m_058.ogg
475,192,57800,1,0,0:0:0:0:m_054.ogg
182,192,57893,1,0,0:0:0:0:s_027.ogg
36,192,57987,1,0,0:0:0:0:s_015.ogg
182,192,58081,1,0,0:0:0:0:s_027.ogg
36,192,58175,1,0,0:0:0:0:m_050.ogg
109,192,58175,1,0,0:0:0:0:s_017.ogg
329,192,58175,1,0,0:0:0:0:m_058.ogg
402,192,58175,1,0,0:0:0:0:m_056.ogg
475,192,58175,1,0,0:0:0:0:m_053.ogg
256,192,58268,1,0,0:0:0:0:s_029.ogg
109,192,58362,1,0,0:0:0:0:s_017.ogg
256,192,58456,1,0,0:0:0:0:s_029.ogg
36,192,58550,1,0,0:0:0:0:m_054.ogg
182,192,58550,1,0,0:0:0:0:s_018.ogg
402,192,58550,1,0,0:0:0:0:m_046.ogg
475,192,58550,1,0,0:0:0:0:m_051.ogg
329,192,58643,1,0,0:0:0:0:s_030.ogg
182,192,58737,1,0,0:0:0:0:s_018.ogg
329,192,58831,1,0,0:0:0:0:s_030.ogg
36,192,58925,1,0,0:0:0:0:m_044.ogg
109,192,58925,1,0,0:0:0:0:m_047.ogg
256,192,58925,1,0,0:0:0:0:s_020.ogg
475,192,58925,1,0,0:0:0:0:m_053.ogg
402,192,59018,1,0,0:0:0:0:s_032.ogg
256,192,59112,1,0,0:0:0:0:s_020.ogg
402,192,59206,1,0,0:0:0:0:s_032.ogg
36,192,59300,1,0,0:0:0:0:l_051.ogg
109,192,59300,1,0,0:0:0:0:l_042.ogg
182,192,59300,1,0,0:0:0:0:m_046.ogg
329,192,59300,1,0,0:0:0:0:s_022.ogg
475,192,59393,1,0,0:0:0:0:s_034.ogg
329,192,59487,1,0,0:0:0:0:s_022.ogg
475,192,59581,1,0,0:0:0:0:s_034.ogg
109,192,59675,1,0,0:0:0:0:m_045.ogg
402,192,59675,1,0,0:0:0:0:s_023.ogg
256,192,59768,1,0,0:0:0:0:s_035.ogg
402,192,59862,1,0,0:0:0:0:s_023.ogg
256,192,59956,1,0,0:0:0:0:s_035.ogg
182,192,60050,1,0,0:0:0:0:m_048.ogg
329,192,60050,1,0,0:0:0:0:s_021.ogg
475,192,60143,1,0,0:0:0:0:s_033.ogg
329,192,60237,1,0,0:0:0:0:s_021.ogg
475,192,60331,1,0,0:0:0:0:s_033.ogg
36,192,60425,1,0,0:0:0:0:m_050.ogg
109,192,60425,1,0,0:0:0:0:m_046.ogg
182,192,60425,1,0,0:0:0:0:m_041.ogg
402,192,60425,1,0,0:0:0:0:s_022.ogg
329,192,60518,1,0,0:0:0:0:s_034.ogg
402,192,60612,1,0,0:0:0:0:s_022.ogg
329,192,60706,1,0,0:0:0:0:s_034.ogg
36,192,60800,1,0,0:0:0:0:s_015.ogg
256,192,60800,1,0,0:0:0:0:s_042.ogg
109,192,60800,1,0,0:0:0:0:s_051.ogg
475,192,60800,1,0,0:0:0:0:s_039.ogg
182,192,60893,1,0,0:0:0:0:s_027.ogg
36,192,60987,1,0,0:0:0:0:s_015.ogg
256,192,60987,1,0,0:0:0:0:m_039.ogg
182,192,61081,1,0,0:0:0:0:s_027.ogg
36,192,61175,1,0,0:0:0:0:s_015.ogg
182,192,61268,1,0,0:0:0:0:s_027.ogg
36,192,61362,1,0,0:0:0:0:s_015.ogg
256,192,61362,1,0,0:0:0:0:s_037.ogg
329,192,61362,1,0,0:0:0:0:s_043.ogg
182,192,61456,1,0,0:0:0:0:s_027.ogg
36,192,61550,1,0,0:0:0:0:s_015.ogg
256,192,61550,1,0,0:0:0:0:s_035.ogg
402,192,61550,1,0,0:0:0:0:s_044.ogg
182,192,61643,1,0,0:0:0:0:s_027.ogg
36,192,61737,1,0,0:0:0:0:s_015.ogg
329,192,61737,1,0,0:0:0:0:s_043.ogg
402,192,61737,1,0,0:0:0:0:s_046.ogg
182,192,61831,1,0,0:0:0:0:s_027.ogg
36,192,61925,1,0,0:0:0:0:s_015.ogg
329,192,61925,1,0,0:0:0:0:s_047.ogg
475,192,61925,1,0,0:0:0:0:s_044.ogg
182,192,62018,1,0,0:0:0:0:s_027.ogg
36,192,62112,1,0,0:0:0:0:s_015.ogg
402,192,62112,1,0,0:0:0:0:s_050.ogg
475,192,62112,1,0,0:0:0:0:s_041.ogg
182,192,62206,1,0,0:0:0:0:s_027.ogg
36,192,62300,1,0,0:0:0:0:s_015.ogg
256,192,62300,1,0,0:0:0:0:s_042.ogg
475,192,62300,1,0,0:0:0:0:s_051.ogg
182,192,62393,1,0,0:0:0:0:s_027.ogg
36,192,62487,1,0,0:0:0:0:s_015.ogg
256,192,62487,1,0,0:0:0:0:m_042.ogg
475,192,62487,1,0,0:0:0:0:m_051.ogg
182,192,62581,1,0,0:0:0:0:s_027.ogg
36,192,62675,1,0,0:0:0:0:s_015.ogg
182,192,62768,1,0,0:0:0:0:s_027.ogg
36,192,62862,1,0,0:0:0:0:s_015.ogg
256,192,62862,1,0,0:0:0:0:s_049.ogg
329,192,62862,1,0,0:0:0:0:s_055.ogg
182,192,62956,1,0,0:0:0:0:s_027.ogg
36,192,63050,1,0,0:0:0:0:s_015.ogg
256,192,63050,1,0,0:0:0:0:s_056.ogg
402,192,63050,1,0,0:0:0:0:s_047.ogg
182,192,63143,1,0,0:0:0:0:s_027.ogg
36,192,63237,1,0,0:0:0:0:s_015.ogg
329,192,63237,1,0,0:0:0:0:s_055.ogg
402,192,63237,1,0,0:0:0:0:s_058.ogg
182,192,63331,1,0,0:0:0:0:s_027.ogg
36,192,63425,1,0,0:0:0:0:s_015.ogg
329,192,63425,1,0,0:0:0:0:s_056.ogg
475,192,63425,1,0,0:0:0:0:s_059.ogg
182,192,63518,1,0,0:0:0:0:s_027.ogg
36,192,63612,1,0,0:0:0:0:s_015.ogg
402,192,63612,1,0,0:0:0:0:s_053.ogg
475,192,63612,1,0,0:0:0:0:s_062.ogg
182,192,63706,1,0,0:0:0:0:s_027.ogg
36,192,63800,1,0,0:0:0:0:s_015.ogg
256,192,63800,1,0,0:0:0:0:m_051.ogg
329,192,63800,1,0,0:0:0:0:m_063.ogg
402,192,63800,1,0,0:0:0:0:m_058.ogg
475,192,63800,1,0,0:0:0:0:m_054.ogg
182,192,63893,1,0,0:0:0:0:s_027.ogg
36,192,63987,1,0,0:0:0:0:s_015.ogg
182,192,64081,1,0,0:0:0:0:s_027.ogg
36,192,64175,1,0,0:0:0:0:m_050.ogg
109,192,64175,1,0,0:0:0:0:s_017.ogg
329,192,64175,1,0,0:0:0:0:m_058.ogg
402,192,64175,1,0,0:0:0:0:m_056.ogg
475,192,64175,1,0,0:0:0:0:m_053.ogg
256,192,64268,1,0,0:0:0:0:s_029.ogg
109,192,64362,1,0,0:0:0:0:s_017.ogg
256,192,64456,1,0,0:0:0:0:s_029.ogg
36,192,64550,1,0,0:0:0:0:m_054.ogg
182,192,64550,1,0,0:0:0:0:s_018.ogg
402,192,64550,1,0,0:0:0:0:m_046.ogg
475,192,64550,1,0,0:0:0:0:m_051.ogg
329,192,64643,1,0,0:0:0:0:s_030.ogg
182,192,64737,1,0,0:0:0:0:s_018.ogg
329,192,64831,1,0,0:0:0:0:s_030.ogg
36,192,64925,1,0,0:0:0:0:m_047.ogg
109,192,64925,1,0,0:0:0:0:m_044.ogg
256,192,64925,1,0,0:0:0:0:s_020.ogg
475,192,64925,1,0,0:0:0:0:m_053.ogg
402,192,65018,1,0,0:0:0:0:s_032.ogg
256,192,65112,1,0,0:0:0:0:s_020.ogg
402,192,65206,1,0,0:0:0:0:s_032.ogg
36,192,65300,1,0,0:0:0:0:l_051.ogg
109,192,65300,1,0,0:0:0:0:m_046.ogg
182,192,65300,1,0,0:0:0:0:l_042.ogg
329,192,65300,1,0,0:0:0:0:s_022.ogg
475,192,65393,1,0,0:0:0:0:s_034.ogg
329,192,65487,1,0,0:0:0:0:s_022.ogg
475,192,65581,1,0,0:0:0:0:s_034.ogg
109,192,65675,1,0,0:0:0:0:m_045.ogg
402,192,65675,1,0,0:0:0:0:s_023.ogg
256,192,65768,1,0,0:0:0:0:s_035.ogg
402,192,65862,1,0,0:0:0:0:s_023.ogg
256,192,65956,1,0,0:0:0:0:s_035.ogg
36,192,66050,1,0,0:0:0:0:m_048.ogg
329,192,66050,1,0,0:0:0:0:s_021.ogg
475,192,66143,1,0,0:0:0:0:s_033.ogg
329,192,66237,1,0,0:0:0:0:s_021.ogg
475,192,66331,1,0,0:0:0:0:s_033.ogg
329,192,66425,1,0,0:0:0:0:s_021.ogg
475,192,66518,1,0,0:0:0:0:s_033.ogg
329,192,66612,1,0,0:0:0:0:s_021.ogg
475,192,66706,1,0,0:0:0:0:s_033.ogg
36,192,66800,1,0,0:0:0:0:s_022.ogg
182,192,66800,1,0,0:0:0:0:s_034.ogg
256,192,66800,1,0,0:0:0:0:s_050.ogg
329,192,66800,1,0,0:0:0:0:s_046.ogg
402,192,66800,1,0,0:0:0:0:s_041.ogg
109,192,66987,1,0,0:0:0:0:s_041.ogg
182,192,66987,1,0,0:0:0:0:s_038.ogg
109,192,67175,1,0,0:0:0:0:s_041.ogg
182,192,67175,1,0,0:0:0:0:s_038.ogg
475,192,67175,128,0,67737:0:0:0:0:m_058.ogg
329,192,67175,128,0,67737:0:0:0:0:m_046.ogg
109,192,67362,1,0,0:0:0:0:s_041.ogg
182,192,67362,1,0,0:0:0:0:s_038.ogg
36,192,67550,1,0,0:0:0:0:s_034.ogg
109,192,67737,1,0,0:0:0:0:s_042.ogg
256,192,67737,1,0,0:0:0:0:s_039.ogg
109,192,67925,1,0,0:0:0:0:s_039.ogg
256,192,67925,1,0,0:0:0:0:s_042.ogg
475,192,67925,128,0,68300:0:0:0:0:m_058.ogg
329,192,67925,128,0,68300:0:0:0:0:m_046.ogg
109,192,68112,1,0,0:0:0:0:s_039.ogg
256,192,68112,1,0,0:0:0:0:s_042.ogg
182,192,68300,1,0,0:0:0:0:s_041.ogg
36,192,68300,1,0,0:0:0:0:s_044.ogg
475,192,68393,1,0,0:0:0:0:s_056.ogg
402,192,68487,1,0,0:0:0:0:s_053.ogg
329,192,68581,1,0,0:0:0:0:s_050.ogg
256,192,68675,1,0,0:0:0:0:s_046.ogg
182,192,68768,1,0,0:0:0:0:s_044.ogg
109,192,68862,1,0,0:0:0:0:s_041.ogg
36,192,68956,1,0,0:0:0:0:s_038.ogg
182,192,69050,1,0,0:0:0:0:s_039.ogg
329,192,69143,1,0,0:0:0:0:s_042.ogg
256,192,69237,1,0,0:0:0:0:s_039.ogg
182,192,69331,1,0,0:0:0:0:s_034.ogg
109,192,69425,1,0,0:0:0:0:s_033.ogg
329,192,69425,1,0,0:0:0:0:s_011.ogg
256,192,69518,1,0,0:0:0:0:s_039.ogg
475,192,69518,1,0,0:0:0:0:s_023.ogg
182,192,69612,1,0,0:0:0:0:s_035.ogg
329,192,69612,1,0,0:0:0:0:s_011.ogg
109,192,69706,1,0,0:0:0:0:s_033.ogg
475,192,69706,1,0,0:0:0:0:s_023.ogg
36,192,69800,1,0,0:0:0:0:s_010.ogg
256,192,69800,1,0,0:0:0:0:s_041.ogg
402,192,69800,1,0,0:0:0:0:s_022.ogg
109,192,69987,1,0,0:0:0:0:s_041.ogg
182,192,69987,1,0,0:0:0:0:s_038.ogg
109,192,70175,1,0,0:0:0:0:s_041.ogg
182,192,70175,1,0,0:0:0:0:s_038.ogg
475,192,70175,128,0,70737:0:0:0:0:m_058.ogg
329,192,70175,128,0,70737:0:0:0:0:m_046.ogg
109,192,70362,1,0,0:0:0:0:s_041.ogg
182,192,70362,1,0,0:0:0:0:s_038.ogg
36,192,70550,1,0,0:0:0:0:s_034.ogg
109,192,70737,1,0,0:0:0:0:s_042.ogg
256,192,70737,1,0,0:0:0:0:s_039.ogg
109,192,70925,1,0,0:0:0:0:s_039.ogg
256,192,70925,1,0,0:0:0:0:s_042.ogg
475,192,70925,128,0,71300:0:0:0:0:m_058.ogg
329,192,70925,128,0,71300:0:0:0:0:m_046.ogg
109,192,71112,1,0,0:0:0:0:s_039.ogg
256,192,71112,1,0,0:0:0:0:s_042.ogg
182,192,71300,1,0,0:0:0:0:s_041.ogg
36,192,71300,1,0,0:0:0:0:s_044.ogg
475,192,71393,1,0,0:0:0:0:s_056.ogg
402,192,71487,1,0,0:0:0:0:s_053.ogg
329,192,71581,1,0,0:0:0:0:s_050.ogg
256,192,71675,1,0,0:0:0:0:s_046.ogg
182,192,71768,1,0,0:0:0:0:s_044.ogg
109,192,71862,1,0,0:0:0:0:s_041.ogg
36,192,71956,1,0,0:0:0:0:s_038.ogg
182,192,72050,1,0,0:0:0:0:s_039.ogg
329,192,72143,1,0,0:0:0:0:s_042.ogg
256,192,72237,1,0,0:0:0:0:s_039.ogg
182,192,72331,1,0,0:0:0:0:s_034.ogg
109,192,72425,1,0,0:0:0:0:s_033.ogg
329,192,72425,1,0,0:0:0:0:s_011.ogg
256,192,72518,1,0,0:0:0:0:s_039.ogg
475,192,72518,1,0,0:0:0:0:s_023.ogg
182,192,72612,1,0,0:0:0:0:s_035.ogg
329,192,72612,1,0,0:0:0:0:s_011.ogg
109,192,72706,1,0,0:0:0:0:s_033.ogg
475,192,72706,1,0,0:0:0:0:s_023.ogg
36,192,72800,1,0,0:0:0:0:s_010.ogg
256,192,72800,1,0,0:0:0:0:s_034.ogg
182,192,72893,1,0,0:0:0:0:s_022.ogg
36,192,72987,1,0,0:0:0:0:s_010.ogg
329,192,72987,1,0,0:0:0:0:s_045.ogg
182,192,73081,1,0,0:0:0:0:s_022.ogg
36,192,73175,1,0,0:0:0:0:s_010.ogg
402,192,73175,1,0,0:0:0:0:s_046.ogg
182,192,73268,1,0,0:0:0:0:s_022.ogg
36,192,73362,1,0,0:0:0:0:s_010.ogg
329,192,73362,1,0,0:0:0:0:s_045.ogg
475,192,73362,1,0,0:0:0:0:s_051.ogg
182,192,73456,1,0,0:0:0:0:s_022.ogg
36,192,73550,1,0,0:0:0:0:s_010.ogg
256,192,73550,1,0,0:0:0:0:s_046.ogg
402,192,73550,1,0,0:0:0:0:s_050.ogg
182,192,73643,1,0,0:0:0:0:s_022.ogg
36,192,73737,1,0,0:0:0:0:s_010.ogg
256,192,73737,1,0,0:0:0:0:s_057.ogg
329,192,73737,1,0,0:0:0:0:s_051.ogg
182,192,73831,1,0,0:0:0:0:s_022.ogg
36,192,73925,1,0,0:0:0:0:s_010.ogg
256,192,73925,1,0,0:0:0:0:s_058.ogg
402,192,73925,1,0,0:0:0:0:s_050.ogg
182,192,74018,1,0,0:0:0:0:s_022.ogg
36,192,74112,1,0,0:0:0:0:s_010.ogg
329,192,74112,1,0,0:0:0:0:s_057.ogg
475,192,74112,1,0,0:0:0:0:s_063.ogg
182,192,74206,1,0,0:0:0:0:s_022.ogg
36,192,74300,1,0,0:0:0:0:s_010.ogg
329,192,74300,1,0,0:0:0:0:s_058.ogg
402,192,74300,1,0,0:0:0:0:s_062.ogg
182,192,74393,1,0,0:0:0:0:s_022.ogg
36,192,74487,1,0,0:0:0:0:s_010.ogg
182,192,74581,1,0,0:0:0:0:s_022.ogg
36,192,74675,1,0,0:0:0:0:s_010.ogg
182,192,74768,1,0,0:0:0:0:s_022.ogg
36,192,74862,1,0,0:0:0:0:s_010.ogg
182,192,74956,1,0,0:0:0:0:s_022.ogg
36,192,75050,1,0,0:0:0:0:s_010.ogg
402,192,75050,128,0,75612:0:0:0:0:m_042.ogg
329,192,75050,128,0,75612:0:0:0:0:m_040.ogg
256,192,75050,128,0,75612:0:0:0:0:m_037.ogg
182,192,75143,1,0,0:0:0:0:s_022.ogg
36,192,75237,1,0,0:0:0:0:s_010.ogg
182,192,75331,1,0,0:0:0:0:s_022.ogg
36,192,75425,1,0,0:0:0:0:s_010.ogg
182,192,75518,1,0,0:0:0:0:s_022.ogg
36,192,75612,1,0,0:0:0:0:s_010.ogg
182,192,75706,1,0,0:0:0:0:s_022.ogg
36,192,75800,1,0,0:0:0:0:s_011.ogg
402,192,75800,1,0,0:0:0:0:s_039.ogg
109,192,75893,1,0,0:0:0:0:s_023.ogg
36,192,75987,1,0,0:0:0:0:s_011.ogg
329,192,75987,1,0,0:0:0:0:s_046.ogg
475,192,75987,1,0,0:0:0:0:s_052.ogg
109,192,76081,1,0,0:0:0:0:s_023.ogg
36,192,76175,1,0,0:0:0:0:s_011.ogg
256,192,76175,1,0,0:0:0:0:s_051.ogg
402,192,76175,1,0,0:0:0:0:s_047.ogg
109,192,76268,1,0,0:0:0:0:s_023.ogg
36,192,76362,1,0,0:0:0:0:s_011.ogg
256,192,76362,1,0,0:0:0:0:s_058.ogg
329,192,76362,1,0,0:0:0:0:s_052.ogg
109,192,76456,1,0,0:0:0:0:s_023.ogg
36,192,76550,1,0,0:0:0:0:s_011.ogg
256,192,76550,1,0,0:0:0:0:s_059.ogg
402,192,76550,1,0,0:0:0:0:s_051.ogg
109,192,76643,1,0,0:0:0:0:s_023.ogg
36,192,76737,1,0,0:0:0:0:s_011.ogg
329,192,76737,1,0,0:0:0:0:s_064.ogg
475,192,76737,1,0,0:0:0:0:s_058.ogg
109,192,76831,1,0,0:0:0:0:s_023.ogg
36,192,76925,1,0,0:0:0:0:s_011.ogg
329,192,76925,1,0,0:0:0:0:s_063.ogg
402,192,76925,1,0,0:0:0:0:s_059.ogg
109,192,77018,1,0,0:0:0:0:s_023.ogg
36,192,77112,1,0,0:0:0:0:s_011.ogg
256,192,77112,1,0,0:0:0:0:s_058.ogg
475,192,77112,1,0,0:0:0:0:s_064.ogg
109,192,77206,1,0,0:0:0:0:s_023.ogg
36,192,77300,1,0,0:0:0:0:s_011.ogg
329,192,77300,1,0,0:0:0:0:s_063.ogg
402,192,77300,1,0,0:0:0:0:s_059.ogg
109,192,77393,1,0,0:0:0:0:s_023.ogg
36,192,77487,1,0,0:0:0:0:s_011.ogg
109,192,77581,1,0,0:0:0:0:s_023.ogg
36,192,77675,1,0,0:0:0:0:s_011.ogg
109,192,77768,1,0,0:0:0:0:s_023.ogg
36,192,77862,1,0,0:0:0:0:s_011.ogg
109,192,77956,1,0,0:0:0:0:s_023.ogg
36,192,78050,1,0,0:0:0:0:s_012.ogg
402,192,78050,128,0,78612:0:0:0:0:m_045.ogg
329,192,78050,128,0,78612:0:0:0:0:m_042.ogg
256,192,78050,128,0,78612:0:0:0:0:m_039.ogg
182,192,78143,1,0,0:0:0:0:s_024.ogg
36,192,78237,1,0,0:0:0:0:s_012.ogg
182,192,78331,1,0,0:0:0:0:s_024.ogg
36,192,78425,1,0,0:0:0:0:s_012.ogg
182,192,78518,1,0,0:0:0:0:s_024.ogg
36,192,78612,1,0,0:0:0:0:s_012.ogg
182,192,78706,1,0,0:0:0:0:s_024.ogg
109,192,78800,1,0,0:0:0:0:s_013.ogg
256,192,78800,1,0,0:0:0:0:s_041.ogg
402,192,78800,1,0,0:0:0:0:s_044.ogg
182,192,78893,1,0,0:0:0:0:s_025.ogg
109,192,78987,1,0,0:0:0:0:s_013.ogg
329,192,78987,1,0,0:0:0:0:s_048.ogg
475,192,78987,1,0,0:0:0:0:s_054.ogg
182,192,79081,1,0,0:0:0:0:s_025.ogg
109,192,79175,1,0,0:0:0:0:s_013.ogg
256,192,79175,1,0,0:0:0:0:s_053.ogg
402,192,79175,1,0,0:0:0:0:s_049.ogg
182,192,79268,1,0,0:0:0:0:s_025.ogg
109,192,79362,1,0,0:0:0:0:s_013.ogg
256,192,79362,1,0,0:0:0:0:s_054.ogg
329,192,79362,1,0,0:0:0:0:s_060.ogg
182,192,79456,1,0,0:0:0:0:s_025.ogg
109,192,79550,1,0,0:0:0:0:s_013.ogg
256,192,79550,1,0,0:0:0:0:s_053.ogg
402,192,79550,1,0,0:0:0:0:s_061.ogg
182,192,79643,1,0,0:0:0:0:s_025.ogg
109,192,79737,1,0,0:0:0:0:s_013.ogg
329,192,79737,1,0,0:0:0:0:s_066.ogg
475,192,79737,1,0,0:0:0:0:s_060.ogg
182,192,79831,1,0,0:0:0:0:s_025.ogg
109,192,79925,1,0,0:0:0:0:s_013.ogg
329,192,79925,1,0,0:0:0:0:s_061.ogg
402,192,79925,1,0,0:0:0:0:s_065.ogg
182,192,80018,1,0,0:0:0:0:s_025.ogg
109,192,80112,1,0,0:0:0:0:s_013.ogg
256,192,80112,1,0,0:0:0:0:s_060.ogg
475,192,80112,1,0,0:0:0:0:s_066.ogg
182,192,80206,1,0,0:0:0:0:s_025.ogg
109,192,80300,1,0,0:0:0:0:s_013.ogg
329,192,80300,1,0,0:0:0:0:s_061.ogg
402,192,80300,1,0,0:0:0:0:s_065.ogg
182,192,80393,1,0,0:0:0:0:s_025.ogg
109,192,80487,1,0,0:0:0:0:s_013.ogg
182,192,80581,1,0,0:0:0:0:s_025.ogg
109,192,80675,1,0,0:0:0:0:s_013.ogg
256,192,80675,1,0,0:0:0:0:m_054.ogg
402,192,80675,1,0,0:0:0:0:m_060.ogg
182,192,80768,1,0,0:0:0:0:s_025.ogg
109,192,80862,1,0,0:0:0:0:s_013.ogg
182,192,80956,1,0,0:0:0:0:s_025.ogg
109,192,81050,1,0,0:0:0:0:s_013.ogg
329,192,81050,1,0,0:0:0:0:s_053.ogg
475,192,81050,1,0,0:0:0:0:s_061.ogg
182,192,81143,1,0,0:0:0:0:s_025.ogg
109,192,81237,1,0,0:0:0:0:s_013.ogg
182,192,81331,1,0,0:0:0:0:s_025.ogg
109,192,81425,1,0,0:0:0:0:s_013.ogg
256,192,81425,1,0,0:0:0:0:m_048.ogg
475,192,81425,1,0,0:0:0:0:m_054.ogg
182,192,81518,1,0,0:0:0:0:s_025.ogg
109,192,81612,1,0,0:0:0:0:s_013.ogg
182,192,81706,1,0,0:0:0:0:s_025.ogg
109,192,81800,1,0,0:0:0:0:s_013.ogg
329,192,81800,1,0,0:0:0:0:s_049.ogg
402,192,81800,1,0,0:0:0:0:s_053.ogg
182,192,81893,1,0,0:0:0:0:s_025.ogg
109,192,81987,1,0,0:0:0:0:s_013.ogg
182,192,82081,1,0,0:0:0:0:s_025.ogg
109,192,82175,1,0,0:0:0:0:s_013.ogg
256,192,82175,1,0,0:0:0:0:m_042.ogg
329,192,82175,1,0,0:0:0:0:m_048.ogg
182,192,82268,1,0,0:0:0:0:s_025.ogg
109,192,82362,1,0,0:0:0:0:s_013.ogg
182,192,82456,1,0,0:0:0:0:s_025.ogg
109,192,82550,1,0,0:0:0:0:s_013.ogg
256,192,82550,1,0,0:0:0:0:s_041.ogg
475,192,82550,1,0,0:0:0:0:s_049.ogg
182,192,82643,1,0,0:0:0:0:s_025.ogg
109,192,82737,1,0,0:0:0:0:s_013.ogg
182,192,82831,1,0,0:0:0:0:s_025.ogg
109,192,82925,1,0,0:0:0:0:s_013.ogg
256,192,82925,1,0,0:0:0:0:m_036.ogg
402,192,82925,1,0,0:0:0:0:m_042.ogg
182,192,83018,1,0,0:0:0:0:s_025.ogg
109,192,83112,1,0,0:0:0:0:s_013.ogg
182,192,83206,1,0,0:0:0:0:s_025.ogg
36,192,83300,1,0,0:0:0:0:s_013.ogg
109,192,83300,1,0,0:0:0:0:s_025.ogg
329,192,83300,1,0,0:0:0:0:s_037.ogg
475,192,83300,1,0,0:0:0:0:s_041.ogg
256,192,83487,1,0,0:0:0:0:s_036.ogg
329,192,83675,1,0,0:0:0:0:s_037.ogg
256,192,83862,1,0,0:0:0:0:s_036.ogg
329,192,84050,1,0,0:0:0:0:s_037.ogg
256,192,84237,1,0,0:0:0:0:s_036.ogg
329,192,84425,1,0,0:0:0:0:s_037.ogg
256,192,84612,1,0,0:0:0:0:s_036.ogg
36,192,84800,1,0,0:0:0:0:m_037.ogg
109,192,84987,1,0,0:0:0:0:s_045.ogg
182,192,84987,1,0,0:0:0:0:s_042.ogg
256,192,84987,1,0,0:0:0:0:s_025.ogg
109,192,85175,1,0,0:0:0:0:s_042.ogg
182,192,85175,1,0,0:0:0:0:s_045.ogg
329,192,85175,1,0,0:0:0:0:s_030.ogg
109,192,85362,1,0,0:0:0:0:s_042.ogg
182,192,85362,1,0,0:0:0:0:s_045.ogg
402,192,85362,1,0,0:0:0:0:s_032.ogg
36,192,85550,1,0,0:0:0:0:m_037.ogg
475,192,85550,1,0,0:0:0:0:s_033.ogg
109,192,85737,1,0,0:0:0:0:s_045.ogg
182,192,85737,1,0,0:0:0:0:s_042.ogg
256,192,85737,1,0,0:0:0:0:s_049.ogg
109,192,85925,1,0,0:0:0:0:s_042.ogg
182,192,85925,1,0,0:0:0:0:s_045.ogg
329,192,85925,1,0,0:0:0:0:s_054.ogg
109,192,86112,1,0,0:0:0:0:s_042.ogg
182,192,86112,1,0,0:0:0:0:s_045.ogg
402,192,86112,1,0,0:0:0:0:s_056.ogg
36,192,86300,1,0,0:0:0:0:m_037.ogg
256,192,86300,1,0,0:0:0:0:s_049.ogg
475,192,86346,1,0,0:0:0:0:m_057.ogg
109,192,86487,1,0,0:0:0:0:s_045.ogg
182,192,86487,1,0,0:0:0:0:s_042.ogg
109,192,86675,1,0,0:0:0:0:s_042.ogg
182,192,86675,1,0,0:0:0:0:s_045.ogg
109,192,86862,1,0,0:0:0:0:s_042.ogg
182,192,86862,1,0,0:0:0:0:s_045.ogg
402,192,86862,1,0,0:0:0:0:s_054.ogg
36,192,87050,1,0,0:0:0:0:s_049.ogg
256,192,87050,1,0,0:0:0:0:m_037.ogg
475,192,87096,1,0,0:0:0:0:m_057.ogg
109,192,87237,1,0,0:0:0:0:s_045.ogg
182,192,87237,1,0,0:0:0:0:s_042.ogg
109,192,87425,1,0,0:0:0:0:s_042.ogg
182,192,87425,1,0,0:0:0:0:s_045.ogg
109,192,87612,1,0,0:0:0:0:s_042.ogg
182,192,87612,1,0,0:0:0:0:s_045.ogg
402,192,87612,1,0,0:0:0:0:s_054.ogg
109,192,87800,1,0,0:0:0:0:m_037.ogg
329,192,87800,1,0,0:0:0:0:s_053.ogg
36,192,87987,1,0,0:0:0:0:s_044.ogg
182,192,87987,1,0,0:0:0:0:s_047.ogg
256,192,87987,1,0,0:0:0:0:s_025.ogg
36,192,88175,1,0,0:0:0:0:s_044.ogg
182,192,88175,1,0,0:0:0:0:s_047.ogg
329,192,88175,1,0,0:0:0:0:s_032.ogg
36,192,88362,1,0,0:0:0:0:s_044.ogg
182,192,88362,1,0,0:0:0:0:s_047.ogg
402,192,88362,1,0,0:0:0:0:s_033.ogg
109,192,88550,1,0,0:0:0:0:m_037.ogg
475,192,88550,1,0,0:0:0:0:s_035.ogg
36,192,88737,1,0,0:0:0:0:s_044.ogg
182,192,88737,1,0,0:0:0:0:s_047.ogg
329,192,88737,1,0,0:0:0:0:s_049.ogg
36,192,88925,1,0,0:0:0:0:s_044.ogg
182,192,88925,1,0,0:0:0:0:s_047.ogg
475,192,88925,1,0,0:0:0:0:s_059.ogg
36,192,89112,1,0,0:0:0:0:s_044.ogg
182,192,89112,1,0,0:0:0:0:s_047.ogg
402,192,89112,1,0,0:0:0:0:s_057.ogg
109,192,89300,1,0,0:0:0:0:m_037.ogg
402,192,89300,1,0,0:0:0:0:s_057.ogg
475,192,89362,1,0,0:0:0:0:s_059.ogg
402,192,89425,1,0,0:0:0:0:s_057.ogg
36,192,89487,1,0,0:0:0:0:s_044.ogg
182,192,89487,1,0,0:0:0:0:s_047.ogg
329,192,89487,1,0,0:0:0:0:s_056.ogg
36,192,89675,1,0,0:0:0:0:s_044.ogg
182,192,89675,1,0,0:0:0:0:s_047.ogg
329,192,89675,1,0,0:0:0:0:s_056.ogg
402,192,89737,1,0,0:0:0:0:s_057.ogg
329,192,89800,1,0,0:0:0:0:s_056.ogg
36,192,89862,1,0,0:0:0:0:s_044.ogg
182,192,89862,1,0,0:0:0:0:s_047.ogg
256,192,89862,1,0,0:0:0:0:s_054.ogg
109,192,90050,1,0,0:0:0:0:m_037.ogg
256,192,90050,1,0,0:0:0:0:s_054.ogg
329,192,90112,1,0,0:0:0:0:s_056.ogg
256,192,90175,1,0,0:0:0:0:s_054.ogg
36,192,90237,1,0,0:0:0:0:s_044.ogg
182,192,90237,1,0,0:0:0:0:s_047.ogg
475,192,90237,1,0,0:0:0:0:s_053.ogg
36,192,90425,1,0,0:0:0:0:s_044.ogg
182,192,90425,1,0,0:0:0:0:s_047.ogg
329,192,90425,1,0,0:0:0:0:s_051.ogg
36,192,90612,1,0,0:0:0:0:s_044.ogg
182,192,90612,1,0,0:0:0:0:s_047.ogg
402,192,90612,1,0,0:0:0:0:s_053.ogg
109,192,90800,1,0,0:0:0:0:m_037.ogg
329,192,90800,1,0,0:0:0:0:s_054.ogg
36,192,90987,1,0,0:0:0:0:s_025.ogg
402,192,90987,1,0,0:0:0:0:s_045.ogg
475,192,90987,1,0,0:0:0:0:s_042.ogg
109,192,91175,1,0,0:0:0:0:s_030.ogg
402,192,91175,1,0,0:0:0:0:s_042.ogg
475,192,91175,1,0,0:0:0:0:s_045.ogg
182,192,91362,1,0,0:0:0:0:s_032.ogg
402,192,91362,1,0,0:0:0:0:s_042.ogg
475,192,91362,1,0,0:0:0:0:s_045.ogg
256,192,91550,1,0,0:0:0:0:s_033.ogg
329,192,91550,1,0,0:0:0:0:m_037.ogg
36,192,91737,1,0,0:0:0:0:s_049.ogg
402,192,91737,1,0,0:0:0:0:s_045.ogg
475,192,91737,1,0,0:0:0:0:s_042.ogg
109,192,91925,1,0,0:0:0:0:s_054.ogg
402,192,91925,1,0,0:0:0:0:s_042.ogg
475,192,91925,1,0,0:0:0:0:s_045.ogg
182,192,92112,1,0,0:0:0:0:s_056.ogg
402,192,92112,1,0,0:0:0:0:s_042.ogg
475,192,92112,1,0,0:0:0:0:s_045.ogg
36,192,92300,1,0,0:0:0:0:s_049.ogg
329,192,92300,1,0,0:0:0:0:m_037.ogg
256,192,92346,1,0,0:0:0:0:m_057.ogg
402,192,92487,1,0,0:0:0:0:s_045.ogg
475,192,92487,1,0,0:0:0:0:s_042.ogg
402,192,92675,1,0,0:0:0:0:s_042.ogg
475,192,92675,1,0,0:0:0:0:s_045.ogg
182,192,92862,1,0,0:0:0:0:s_054.ogg
402,192,92862,1,0,0:0:0:0:s_042.ogg
475,192,92862,1,0,0:0:0:0:s_045.ogg
36,192,93050,1,0,0:0:0:0:s_049.ogg
329,192,93050,1,0,0:0:0:0:m_037.ogg
256,192,93096,1,0,0:0:0:0:m_057.ogg
402,192,93237,1,0,0:0:0:0:s_045.ogg
475,192,93237,1,0,0:0:0:0:s_042.ogg
402,192,93425,1,0,0:0:0:0:s_042.ogg
475,192,93425,1,0,0:0:0:0:s_045.ogg
182,192,93612,1,0,0:0:0:0:s_054.ogg
402,192,93612,1,0,0:0:0:0:s_042.ogg
475,192,93612,1,0,0:0:0:0:s_045.ogg
109,192,93800,1,0,0:0:0:0:s_051.ogg
329,192,93800,1,0,0:0:0:0:m_035.ogg
36,192,93987,1,0,0:0:0:0:s_023.ogg
402,192,93987,1,0,0:0:0:0:s_045.ogg
475,192,93987,1,0,0:0:0:0:s_042.ogg
109,192,94175,1,0,0:0:0:0:s_030.ogg
402,192,94175,1,0,0:0:0:0:s_042.ogg
475,192,94175,1,0,0:0:0:0:s_045.ogg
182,192,94362,1,0,0:0:0:0:s_032.ogg
402,192,94362,1,0,0:0:0:0:s_042.ogg
475,192,94362,1,0,0:0:0:0:s_045.ogg
256,192,94550,1,0,0:0:0:0:s_033.ogg
329,192,94550,1,0,0:0:0:0:m_035.ogg
109,192,94737,1,0,0:0:0:0:s_047.ogg
402,192,94737,1,0,0:0:0:0:s_042.ogg
475,192,94737,1,0,0:0:0:0:s_045.ogg
256,192,94925,1,0,0:0:0:0:s_057.ogg
402,192,94925,1,0,0:0:0:0:s_042.ogg
475,192,94925,1,0,0:0:0:0:s_045.ogg
182,192,95112,1,0,0:0:0:0:s_056.ogg
402,192,95112,1,0,0:0:0:0:s_042.ogg
475,192,95112,1,0,0:0:0:0:s_045.ogg
182,192,95300,1,0,0:0:0:0:s_056.ogg
329,192,95300,1,0,0:0:0:0:m_035.ogg
256,192,95362,1,0,0:0:0:0:s_057.ogg
182,192,95425,1,0,0:0:0:0:s_056.ogg
109,192,95487,1,0,0:0:0:0:s_054.ogg
402,192,95487,1,0,0:0:0:0:s_045.ogg
475,192,95487,1,0,0:0:0:0:s_042.ogg
109,192,95675,1,0,0:0:0:0:s_054.ogg
402,192,95675,1,0,0:0:0:0:s_042.ogg
475,192,95675,1,0,0:0:0:0:s_045.ogg
182,192,95737,1,0,0:0:0:0:s_056.ogg
109,192,95800,1,0,0:0:0:0:s_054.ogg
36,192,95862,1,0,0:0:0:0:s_052.ogg
402,192,95862,1,0,0:0:0:0:s_045.ogg
475,192,95862,1,0,0:0:0:0:s_042.ogg
36,192,96050,1,0,0:0:0:0:s_052.ogg
329,192,96050,1,0,0:0:0:0:m_035.ogg
109,192,96112,1,0,0:0:0:0:s_054.ogg
36,192,96175,1,0,0:0:0:0:s_052.ogg
256,192,96237,1,0,0:0:0:0:s_051.ogg
402,192,96237,1,0,0:0:0:0:s_042.ogg
475,192,96237,1,0,0:0:0:0:s_045.ogg
109,192,96425,1,0,0:0:0:0:s_049.ogg
402,192,96425,1,0,0:0:0:0:s_042.ogg
475,192,96425,1,0,0:0:0:0:s_045.ogg
182,192,96612,1,0,0:0:0:0:s_051.ogg
402,192,96612,1,0,0:0:0:0:s_042.ogg
475,192,96612,1,0,0:0:0:0:s_045.ogg
36,192,96800,1,0,0:0:0:0:m_035.ogg
329,192,96800,1,0,0:0:0:0:s_052.ogg
109,192,96987,1,0,0:0:0:0:s_040.ogg
182,192,96987,1,0,0:0:0:0:s_044.ogg
256,192,96987,1,0,0:0:0:0:s_023.ogg
109,192,97175,1,0,0:0:0:0:s_040.ogg
182,192,97175,1,0,0:0:0:0:s_044.ogg
329,192,97175,1,0,0:0:0:0:s_028.ogg
109,192,97362,1,0,0:0:0:0:s_040.ogg
182,192,97362,1,0,0:0:0:0:s_044.ogg
402,192,97362,1,0,0:0:0:0:s_030.ogg
36,192,97550,1,0,0:0:0:0:m_035.ogg
475,192,97550,1,0,0:0:0:0:s_032.ogg
109,192,97737,1,0,0:0:0:0:s_040.ogg
182,192,97737,1,0,0:0:0:0:s_044.ogg
256,192,97737,1,0,0:0:0:0:s_047.ogg
109,192,97925,1,0,0:0:0:0:s_040.ogg
182,192,97925,1,0,0:0:0:0:s_044.ogg
329,192,97925,1,0,0:0:0:0:s_052.ogg
109,192,98112,1,0,0:0:0:0:s_040.ogg
182,192,98112,1,0,0:0:0:0:s_044.ogg
402,192,98112,1,0,0:0:0:0:s_054.ogg
36,192,98300,1,0,0:0:0:0:s_047.ogg
256,192,98300,1,0,0:0:0:0:m_035.ogg
475,192,98346,1,0,0:0:0:0:m_056.ogg
109,192,98487,1,0,0:0:0:0:s_040.ogg
182,192,98487,1,0,0:0:0:0:s_044.ogg
109,192,98675,1,0,0:0:0:0:s_040.ogg
182,192,98675,1,0,0:0:0:0:s_044.ogg
109,192,98862,1,0,0:0:0:0:s_040.ogg
182,192,98862,1,0,0:0:0:0:s_044.ogg
402,192,98862,1,0,0:0:0:0:s_052.ogg
36,192,99050,1,0,0:0:0:0:s_047.ogg
256,192,99050,1,0,0:0:0:0:m_035.ogg
475,192,99096,1,0,0:0:0:0:m_056.ogg
109,192,99237,1,0,0:0:0:0:s_040.ogg
182,192,99237,1,0,0:0:0:0:s_044.ogg
109,192,99425,1,0,0:0:0:0:s_040.ogg
182,192,99425,1,0,0:0:0:0:s_044.ogg
109,192,99612,1,0,0:0:0:0:s_040.ogg
182,192,99612,1,0,0:0:0:0:s_044.ogg
402,192,99612,1,0,0:0:0:0:s_052.ogg
109,192,99800,1,0,0:0:0:0:m_035.ogg
329,192,99800,1,0,0:0:0:0:s_051.ogg
36,192,99987,1,0,0:0:0:0:s_045.ogg
182,192,99987,1,0,0:0:0:0:s_042.ogg
256,192,99987,1,0,0:0:0:0:s_023.ogg
36,192,100175,1,0,0:0:0:0:s_045.ogg
182,192,100175,1,0,0:0:0:0:s_042.ogg
329,192,100175,1,0,0:0:0:0:s_030.ogg
36,192,100362,1,0,0:0:0:0:s_045.ogg
182,192,100362,1,0,0:0:0:0:s_042.ogg
402,192,100362,1,0,0:0:0:0:s_032.ogg
109,192,100550,1,0,0:0:0:0:m_035.ogg
475,192,100550,1,0,0:0:0:0:s_033.ogg
36,192,100737,1,0,0:0:0:0:s_045.ogg
182,192,100737,1,0,0:0:0:0:s_042.ogg
329,192,100737,1,0,0:0:0:0:s_047.ogg
36,192,100925,1,0,0:0:0:0:s_045.ogg
182,192,100925,1,0,0:0:0:0:s_042.ogg
475,192,100925,1,0,0:0:0:0:s_057.ogg
36,192,101112,1,0,0:0:0:0:s_045.ogg
182,192,101112,1,0,0:0:0:0:s_042.ogg
402,192,101112,1,0,0:0:0:0:s_056.ogg
109,192,101300,1,0,0:0:0:0:m_035.ogg
402,192,101300,1,0,0:0:0:0:s_056.ogg
475,192,101362,1,0,0:0:0:0:s_057.ogg
402,192,101425,1,0,0:0:0:0:s_056.ogg
36,192,101487,1,0,0:0:0:0:s_045.ogg
182,192,101487,1,0,0:0:0:0:s_042.ogg
329,192,101487,1,0,0:0:0:0:s_054.ogg
36,192,101675,1,0,0:0:0:0:s_045.ogg
182,192,101675,1,0,0:0:0:0:s_042.ogg
329,192,101675,1,0,0:0:0:0:s_054.ogg
402,192,101737,1,0,0:0:0:0:s_056.ogg
329,192,101800,1,0,0:0:0:0:s_054.ogg
36,192,101862,1,0,0:0:0:0:s_045.ogg
182,192,101862,1,0,0:0:0:0:s_042.ogg
256,192,101862,1,0,0:0:0:0:s_052.ogg
109,192,102050,1,0,0:0:0:0:m_035.ogg
256,192,102050,1,0,0:0:0:0:s_052.ogg
329,192,102112,1,0,0:0:0:0:s_054.ogg
256,192,102175,1,0,0:0:0:0:s_052.ogg
36,192,102237,1,0,0:0:0:0:s_045.ogg
182,192,102237,1,0,0:0:0:0:s_042.ogg
475,192,102237,1,0,0:0:0:0:s_051.ogg
36,192,102425,1,0,0:0:0:0:s_045.ogg
182,192,102425,1,0,0:0:0:0:s_042.ogg
329,192,102425,1,0,0:0:0:0:s_049.ogg
36,192,102612,1,0,0:0:0:0:s_045.ogg
182,192,102612,1,0,0:0:0:0:s_042.ogg
402,192,102612,1,0,0:0:0:0:s_051.ogg
256,192,102800,1,0,0:0:0:0:m_040.ogg
329,192,102800,1,0,0:0:0:0:s_052.ogg
109,192,102987,1,0,0:0:0:0:s_028.ogg
402,192,102987,1,0,0:0:0:0:s_047.ogg
475,192,102987,1,0,0:0:0:0:s_044.ogg
182,192,103175,1,0,0:0:0:0:s_035.ogg
329,192,103175,1,0,0:0:0:0:m_038.ogg
109,192,103362,1,0,0:0:0:0:s_026.ogg
402,192,103362,1,0,0:0:0:0:s_044.ogg
475,192,103362,1,0,0:0:0:0:s_047.ogg
36,192,103550,1,0,0:0:0:0:s_025.ogg
329,192,103550,1,0,0:0:0:0:m_037.ogg
109,192,103737,1,0,0:0:0:0:s_049.ogg
402,192,103737,1,0,0:0:0:0:s_047.ogg
475,192,103737,1,0,0:0:0:0:s_044.ogg
256,192,103925,1,0,0:0:0:0:s_059.ogg
402,192,103925,1,0,0:0:0:0:s_044.ogg
475,192,103925,1,0,0:0:0:0:s_047.ogg
182,192,104112,1,0,0:0:0:0:s_057.ogg
402,192,104112,1,0,0:0:0:0:s_044.ogg
475,192,104112,1,0,0:0:0:0:s_047.ogg
182,192,104300,1,0,0:0:0:0:s_057.ogg
329,192,104300,1,0,0:0:0:0:m_037.ogg
256,192,104362,1,0,0:0:0:0:s_059.ogg
182,192,104425,1,0,0:0:0:0:s_057.ogg
109,192,104487,1,0,0:0:0:0:s_056.ogg
402,192,104487,1,0,0:0:0:0:s_047.ogg
475,192,104487,1,0,0:0:0:0:s_044.ogg
109,192,104675,1,0,0:0:0:0:s_056.ogg
402,192,104675,1,0,0:0:0:0:s_044.ogg
475,192,104675,1,0,0:0:0:0:s_047.ogg
182,192,104737,1,0,0:0:0:0:s_057.ogg
109,192,104800,1,0,0:0:0:0:s_056.ogg
36,192,104862,1,0,0:0:0:0:s_054.ogg
402,192,104862,1,0,0:0:0:0:s_044.ogg
475,192,104862,1,0,0:0:0:0:s_047.ogg
36,192,105050,1,0,0:0:0:0:s_054.ogg
329,192,105050,1,0,0:0:0:0:m_037.ogg
109,192,105112,1,0,0:0:0:0:s_056.ogg
36,192,105175,1,0,0:0:0:0:s_054.ogg
256,192,105237,1,0,0:0:0:0:s_053.ogg
402,192,105237,1,0,0:0:0:0:s_047.ogg
475,192,105237,1,0,0:0:0:0:s_044.ogg
109,192,105425,1,0,0:0:0:0:s_051.ogg
402,192,105425,1,0,0:0:0:0:s_044.ogg
475,192,105425,1,0,0:0:0:0:s_047.ogg
182,192,105612,1,0,0:0:0:0:s_053.ogg
402,192,105612,1,0,0:0:0:0:s_044.ogg
475,192,105612,1,0,0:0:0:0:s_047.ogg
36,192,105800,1,0,0:0:0:0:m_042.ogg
256,192,105800,1,0,0:0:0:0:s_054.ogg
109,192,105987,1,0,0:0:0:0:s_049.ogg
182,192,105987,1,0,0:0:0:0:s_045.ogg
402,192,105987,1,0,0:0:0:0:s_030.ogg
36,192,106175,1,0,0:0:0:0:m_040.ogg
475,192,106175,1,0,0:0:0:0:s_037.ogg
109,192,106362,1,0,0:0:0:0:s_044.ogg
182,192,106362,1,0,0:0:0:0:s_049.ogg
329,192,106362,1,0,0:0:0:0:s_028.ogg
182,192,106550,1,0,0:0:0:0:m_039.ogg
256,192,106550,1,0,0:0:0:0:s_027.ogg
36,192,106737,1,0,0:0:0:0:s_046.ogg
109,192,106737,1,0,0:0:0:0:s_049.ogg
329,192,106737,1,0,0:0:0:0:s_051.ogg
36,192,106925,1,0,0:0:0:0:s_046.ogg
109,192,106925,1,0,0:0:0:0:s_049.ogg
475,192,106925,1,0,0:0:0:0:s_061.ogg
36,192,107112,1,0,0:0:0:0:s_046.ogg
109,192,107112,1,0,0:0:0:0:s_049.ogg
402,192,107112,1,0,0:0:0:0:s_059.ogg
182,192,107300,1,0,0:0:0:0:m_039.ogg
329,192,107300,1,0,0:0:0:0:s_059.ogg
475,192,107362,1,0,0:0:0:0:s_061.ogg
329,192,107425,1,0,0:0:0:0:s_059.ogg
36,192,107487,1,0,0:0:0:0:s_046.ogg
109,192,107487,1,0,0:0:0:0:s_049.ogg
256,192,107487,1,0,0:0:0:0:s_058.ogg
36,192,107675,1,0,0:0:0:0:s_046.ogg
109,192,107675,1,0,0:0:0:0:s_049.ogg
256,192,107675,1,0,0:0:0:0:s_058.ogg
402,192,107737,1,0,0:0:0:0:s_059.ogg
256,192,107800,1,0,0:0:0:0:s_058.ogg
36,192,107862,1,0,0:0:0:0:s_046.ogg
109,192,107862,1,0,0:0:0:0:s_049.ogg
182,192,107862,1,0,0:0:0:0:s_056.ogg
182,192,108050,1,0,0:0:0:0:s_056.ogg
475,192,108050,1,0,0:0:0:0:m_039.ogg
329,192,108112,1,0,0:0:0:0:s_058.ogg
182,192,108175,1,0,0:0:0:0:s_056.ogg
36,192,108237,1,0,0:0:0:0:s_046.ogg
109,192,108237,1,0,0:0:0:0:s_055.ogg
402,192,108237,1,0,0:0:0:0:s_049.ogg
36,192,108425,1,0,0:0:0:0:s_046.ogg
182,192,108425,1,0,0:0:0:0:s_053.ogg
402,192,108425,1,0,0:0:0:0:s_049.ogg
36,192,108612,1,0,0:0:0:0:s_046.ogg
256,192,108612,1,0,0:0:0:0:s_055.ogg
402,192,108612,1,0,0:0:0:0:s_049.ogg
109,192,108800,1,0,0:0:0:0:m_044.ogg
256,192,108800,1,0,0:0:0:0:s_058.ogg
402,192,108862,1,0,0:0:0:0:s_059.ogg
256,192,108925,1,0,0:0:0:0:s_058.ogg
36,192,108987,1,0,0:0:0:0:s_051.ogg
182,192,108987,1,0,0:0:0:0:s_056.ogg
475,192,108987,1,0,0:0:0:0:s_047.ogg
36,192,109175,1,0,0:0:0:0:s_047.ogg
182,192,109175,1,0,0:0:0:0:s_056.ogg
475,192,109175,1,0,0:0:0:0:s_051.ogg
329,192,109237,1,0,0:0:0:0:s_058.ogg
182,192,109300,1,0,0:0:0:0:s_056.ogg
36,192,109362,1,0,0:0:0:0:s_047.ogg
109,192,109362,1,0,0:0:0:0:s_054.ogg
475,192,109362,1,0,0:0:0:0:s_051.ogg
109,192,109550,1,0,0:0:0:0:s_054.ogg
402,192,109550,1,0,0:0:0:0:m_037.ogg
256,192,109612,1,0,0:0:0:0:s_056.ogg
109,192,109675,1,0,0:0:0:0:s_054.ogg
36,192,109737,1,0,0:0:0:0:s_053.ogg
329,192,109737,1,0,0:0:0:0:s_047.ogg
475,192,109737,1,0,0:0:0:0:s_044.ogg
109,192,109925,1,0,0:0:0:0:s_051.ogg
256,192,109925,1,0,0:0:0:0:m_038.ogg
329,192,109925,1,0,0:0:0:0:s_044.ogg
475,192,109925,1,0,0:0:0:0:s_047.ogg
182,192,110112,1,0,0:0:0:0:s_053.ogg
329,192,110112,1,0,0:0:0:0:s_044.ogg
475,192,110112,1,0,0:0:0:0:s_047.ogg
36,192,110300,1,0,0:0:0:0:m_039.ogg
402,192,110300,1,0,0:0:0:0:s_056.ogg
475,192,110362,1,0,0:0:0:0:s_058.ogg
402,192,110425,1,0,0:0:0:0:s_056.ogg
109,192,110487,1,0,0:0:0:0:s_046.ogg
182,192,110487,1,0,0:0:0:0:s_042.ogg
329,192,110487,1,0,0:0:0:0:s_054.ogg
109,192,110675,1,0,0:0:0:0:s_042.ogg
182,192,110675,1,0,0:0:0:0:s_046.ogg
329,192,110675,1,0,0:0:0:0:s_054.ogg
402,192,110737,1,0,0:0:0:0:s_056.ogg
329,192,110800,1,0,0:0:0:0:s_054.ogg
109,192,110862,1,0,0:0:0:0:s_042.ogg
182,192,110862,1,0,0:0:0:0:s_046.ogg
256,192,110862,1,0,0:0:0:0:s_053.ogg
36,192,111050,1,0,0:0:0:0:m_035.ogg
256,192,111050,1,0,0:0:0:0:s_053.ogg
329,192,111112,1,0,0:0:0:0:s_054.ogg
256,192,111175,1,0,0:0:0:0:s_053.ogg
182,192,111237,1,0,0:0:0:0:s_051.ogg
402,192,111237,1,0,0:0:0:0:s_044.ogg
475,192,111237,1,0,0:0:0:0:s_042.ogg
182,192,111425,1,0,0:0:0:0:s_051.ogg
402,192,111425,1,0,0:0:0:0:s_042.ogg
475,192,111425,1,0,0:0:0:0:s_044.ogg
256,192,111487,1,0,0:0:0:0:s_053.ogg
182,192,111550,1,0,0:0:0:0:s_051.ogg
109,192,111612,1,0,0:0:0:0:s_050.ogg
402,192,111612,1,0,0:0:0:0:s_042.ogg
475,192,111612,1,0,0:0:0:0:s_044.ogg
109,192,111800,1,0,0:0:0:0:s_051.ogg
475,192,111800,1,0,0:0:0:0:m_037.ogg
182,192,111862,1,0,0:0:0:0:s_053.ogg
109,192,111925,1,0,0:0:0:0:s_051.ogg
36,192,111987,1,0,0:0:0:0:s_049.ogg
329,192,111987,1,0,0:0:0:0:s_046.ogg
402,192,111987,1,0,0:0:0:0:s_042.ogg
36,192,112175,1,0,0:0:0:0:s_046.ogg
329,192,112175,1,0,0:0:0:0:s_049.ogg
402,192,112175,1,0,0:0:0:0:s_042.ogg
36,192,112362,1,0,0:0:0:0:s_046.ogg
329,192,112362,1,0,0:0:0:0:s_049.ogg
402,192,112362,1,0,0:0:0:0:s_042.ogg
109,192,112550,1,0,0:0:0:0:s_051.ogg
402,192,112550,1,0,0:0:0:0:m_037.ogg
182,192,112612,1,0,0:0:0:0:s_053.ogg
109,192,112675,1,0,0:0:0:0:s_051.ogg
36,192,112737,1,0,0:0:0:0:s_049.ogg
329,192,112737,1,0,0:0:0:0:s_044.ogg
475,192,112737,1,0,0:0:0:0:s_041.ogg
36,192,112925,1,0,0:0:0:0:s_049.ogg
329,192,112925,1,0,0:0:0:0:s_041.ogg
475,192,112925,1,0,0:0:0:0:s_044.ogg
36,192,113112,1,0,0:0:0:0:s_049.ogg
329,192,113112,1,0,0:0:0:0:s_041.ogg
475,192,113112,1,0,0:0:0:0:s_044.ogg
109,192,113300,1,0,0:0:0:0:l_030.ogg
182,192,113393,1,0,0:0:0:0:s_037.ogg
256,192,113393,1,0,0:0:0:0:s_042.ogg
36,192,113487,1,0,0:0:0:0:s_034.ogg
402,192,113487,1,0,0:0:0:0:s_046.ogg
182,192,113581,1,0,0:0:0:0:s_037.ogg
256,192,113581,1,0,0:0:0:0:s_042.ogg
36,192,113675,1,0,0:0:0:0:s_034.ogg
329,192,113675,1,0,0:0:0:0:m_054.ogg
182,192,113768,1,0,0:0:0:0:s_037.ogg
256,192,113768,1,0,0:0:0:0:s_042.ogg
36,192,113862,1,0,0:0:0:0:s_034.ogg
402,192,113862,1,0,0:0:0:0:s_046.ogg
182,192,113956,1,0,0:0:0:0:s_037.ogg
256,192,113956,1,0,0:0:0:0:s_042.ogg
36,192,114050,1,0,0:0:0:0:s_034.ogg
402,192,114050,1,0,0:0:0:0:s_046.ogg
182,192,114143,1,0,0:0:0:0:s_037.ogg
256,192,114143,1,0,0:0:0:0:s_042.ogg
36,192,114237,1,0,0:0:0:0:s_034.ogg
402,192,114237,1,0,0:0:0:0:s_046.ogg
182,192,114331,1,0,0:0:0:0:s_037.ogg
256,192,114331,1,0,0:0:0:0:s_042.ogg
109,192,114425,1,0,0:0:0:0:m_030.ogg
329,192,114425,1,0,0:0:0:0:m_054.ogg
182,192,114518,1,0,0:0:0:0:s_037.ogg
256,192,114518,1,0,0:0:0:0:s_042.ogg
36,192,114612,1,0,0:0:0:0:s_034.ogg
402,192,114612,1,0,0:0:0:0:s_046.ogg
182,192,114706,1,0,0:0:0:0:s_037.ogg
256,192,114706,1,0,0:0:0:0:s_042.ogg
109,192,114800,1,0,0:0:0:0:l_028.ogg
182,192,114893,1,0,0:0:0:0:s_037.ogg
256,192,114893,1,0,0:0:0:0:s_042.ogg
36,192,114987,1,0,0:0:0:0:s_034.ogg
402,192,114987,1,0,0:0:0:0:s_046.ogg
182,192,115081,1,0,0:0:0:0:s_037.ogg
256,192,115081,1,0,0:0:0:0:s_042.ogg
36,192,115175,1,0,0:0:0:0:s_034.ogg
329,192,115175,1,0,0:0:0:0:m_054.ogg
182,192,115268,1,0,0:0:0:0:s_037.ogg
256,192,115268,1,0,0:0:0:0:s_042.ogg
36,192,115362,1,0,0:0:0:0:s_034.ogg
402,192,115362,1,0,0:0:0:0:s_046.ogg
182,192,115456,1,0,0:0:0:0:s_037.ogg
256,192,115456,1,0,0:0:0:0:s_042.ogg
36,192,115550,1,0,0:0:0:0:s_034.ogg
402,192,115550,1,0,0:0:0:0:s_046.ogg
182,192,115643,1,0,0:0:0:0:s_037.ogg
256,192,115643,1,0,0:0:0:0:s_042.ogg
36,192,115737,1,0,0:0:0:0:s_034.ogg
402,192,115737,1,0,0:0:0:0:s_046.ogg
182,192,115831,1,0,0:0:0:0:s_037.ogg
256,192,115831,1,0,0:0:0:0:s_042.ogg
109,192,115925,1,0,0:0:0:0:m_028.ogg
329,192,115925,1,0,0:0:0:0:m_054.ogg
182,192,116018,1,0,0:0:0:0:s_037.ogg
256,192,116018,1,0,0:0:0:0:s_042.ogg
36,192,116112,1,0,0:0:0:0:s_034.ogg
402,192,116112,1,0,0:0:0:0:s_046.ogg
182,192,116206,1,0,0:0:0:0:s_037.ogg
256,192,116206,1,0,0:0:0:0:s_042.ogg
36,192,116300,1,0,0:0:0:0:s_027.ogg
402,192,116300,1,0,0:0:0:0:s_054.ogg
256,192,116393,1,0,0:0:0:0:s_035.ogg
329,192,116393,1,0,0:0:0:0:s_042.ogg
36,192,116487,1,0,0:0:0:0:s_030.ogg
475,192,116487,1,0,0:0:0:0:s_047.ogg
256,192,116581,1,0,0:0:0:0:s_035.ogg
329,192,116581,1,0,0:0:0:0:s_042.ogg
109,192,116675,1,0,0:0:0:0:s_055.ogg
475,192,116675,1,0,0:0:0:0:s_025.ogg
329,192,116768,1,0,0:0:0:0:s_034.ogg
402,192,116768,1,0,0:0:0:0:s_043.ogg
36,192,116862,1,0,0:0:0:0:s_051.ogg
109,192,116862,1,0,0:0:0:0:s_027.ogg
329,192,116956,1,0,0:0:0:0:s_034.ogg
402,192,116956,1,0,0:0:0:0:s_043.ogg
36,192,117050,1,0,0:0:0:0:s_056.ogg
182,192,117050,1,0,0:0:0:0:s_023.ogg
402,192,117143,1,0,0:0:0:0:s_044.ogg
475,192,117143,1,0,0:0:0:0:s_035.ogg
109,192,117237,1,0,0:0:0:0:s_051.ogg
182,192,117237,1,0,0:0:0:0:s_027.ogg
402,192,117331,1,0,0:0:0:0:s_044.ogg
475,192,117331,1,0,0:0:0:0:s_035.ogg
109,192,117425,1,0,0:0:0:0:s_022.ogg
256,192,117425,1,0,0:0:0:0:s_058.ogg
36,192,117518,1,0,0:0:0:0:s_034.ogg
475,192,117518,1,0,0:0:0:0:s_046.ogg
182,192,117612,1,0,0:0:0:0:s_051.ogg
256,192,117612,1,0,0:0:0:0:s_027.ogg
36,192,117706,1,0,0:0:0:0:s_034.ogg
475,192,117706,1,0,0:0:0:0:s_046.ogg
182,192,117800,1,0,0:0:0:0:s_020.ogg
329,192,117800,1,0,0:0:0:0:s_059.ogg
36,192,117893,1,0,0:0:0:0:s_032.ogg
109,192,117893,1,0,0:0:0:0:s_047.ogg
256,192,117987,1,0,0:0:0:0:s_051.ogg
329,192,117987,1,0,0:0:0:0:s_027.ogg
36,192,118081,1,0,0:0:0:0:s_032.ogg
109,192,118081,1,0,0:0:0:0:s_047.ogg
256,192,118175,1,0,0:0:0:0:s_060.ogg
402,192,118175,1,0,0:0:0:0:s_018.ogg
109,192,118268,1,0,0:0:0:0:s_030.ogg
182,192,118268,1,0,0:0:0:0:s_048.ogg
329,192,118362,1,0,0:0:0:0:s_051.ogg
402,192,118362,1,0,0:0:0:0:s_020.ogg
109,192,118456,1,0,0:0:0:0:s_030.ogg
182,192,118456,1,0,0:0:0:0:s_048.ogg
329,192,118550,1,0,0:0:0:0:s_061.ogg
475,192,118550,1,0,0:0:0:0:s_017.ogg
182,192,118643,1,0,0:0:0:0:s_029.ogg
256,192,118643,1,0,0:0:0:0:s_049.ogg
402,192,118737,1,0,0:0:0:0:s_056.ogg
475,192,118737,1,0,0:0:0:0:s_020.ogg
182,192,118831,1,0,0:0:0:0:s_029.ogg
256,192,118831,1,0,0:0:0:0:s_049.ogg
36,192,118925,1,0,0:0:0:0:s_015.ogg
402,192,118925,1,0,0:0:0:0:s_063.ogg
256,192,119018,1,0,0:0:0:0:s_027.ogg
329,192,119018,1,0,0:0:0:0:s_051.ogg
36,192,119112,1,0,0:0:0:0:s_056.ogg
475,192,119112,1,0,0:0:0:0:s_020.ogg
256,192,119206,1,0,0:0:0:0:s_027.ogg
329,192,119206,1,0,0:0:0:0:s_051.ogg
109,192,119300,1,0,0:0:0:0:s_064.ogg
475,192,119300,1,0,0:0:0:0:s_013.ogg
329,192,119393,1,0,0:0:0:0:s_025.ogg
402,192,119393,1,0,0:0:0:0:s_052.ogg
36,192,119487,1,0,0:0:0:0:s_020.ogg
109,192,119487,1,0,0:0:0:0:s_056.ogg
329,192,119581,1,0,0:0:0:0:s_025.ogg
402,192,119581,1,0,0:0:0:0:s_052.ogg
36,192,119675,1,0,0:0:0:0:s_065.ogg
182,192,119675,1,0,0:0:0:0:s_011.ogg
402,192,119768,1,0,0:0:0:0:s_053.ogg
475,192,119768,1,0,0:0:0:0:s_023.ogg
109,192,119862,1,0,0:0:0:0:s_020.ogg
182,192,119862,1,0,0:0:0:0:s_056.ogg
402,192,119956,1,0,0:0:0:0:s_053.ogg
475,192,119956,1,0,0:0:0:0:s_023.ogg
109,192,120050,1,0,0:0:0:0:s_066.ogg
256,192,120050,1,0,0:0:0:0:s_010.ogg
36,192,120143,1,0,0:0:0:0:s_022.ogg
475,192,120143,1,0,0:0:0:0:s_054.ogg
182,192,120237,1,0,0:0:0:0:s_061.ogg
256,192,120237,1,0,0:0:0:0:s_018.ogg
36,192,120331,1,0,0:0:0:0:s_022.ogg
475,192,120331,1,0,0:0:0:0:s_054.ogg
109,192,120425,1,0,0:0:0:0:s_062.ogg
256,192,120425,1,0,0:0:0:0:s_010.ogg
402,192,120518,1,0,0:0:0:0:s_050.ogg
475,192,120518,1,0,0:0:0:0:s_022.ogg
109,192,120612,1,0,0:0:0:0:s_054.ogg
182,192,120612,1,0,0:0:0:0:s_018.ogg
402,192,120706,1,0,0:0:0:0:s_050.ogg
475,192,120706,1,0,0:0:0:0:s_022.ogg
256,192,120800,128,0,121456:0:0:0:0:m_023.ogg
36,192,120800,128,0,121456:0:0:0:0:m_011.ogg
329,192,120893,1,0,0:0:0:0:s_051.ogg
402,192,120987,1,0,0:0:0:0:s_054.ogg
329,192,121081,1,0,0:0:0:0:s_051.ogg
475,192,121175,1,0,0:0:0:0:s_063.ogg
329,192,121268,1,0,0:0:0:0:s_051.ogg
402,192,121362,1,0,0:0:0:0:s_054.ogg
329,192,121456,1,0,0:0:0:0:s_051.ogg
182,192,121550,128,0,122206:0:0:0:0:m_013.ogg
109,192,121550,128,0,122206:0:0:0:0:m_025.ogg
256,192,121643,1,0,0:0:0:0:s_044.ogg
329,192,121737,1,0,0:0:0:0:s_047.ogg
256,192,121831,1,0,0:0:0:0:s_044.ogg
402,192,121925,1,0,0:0:0:0:s_053.ogg
256,192,122018,1,0,0:0:0:0:s_044.ogg
329,192,122112,1,0,0:0:0:0:s_047.ogg
256,192,122206,1,0,0:0:0:0:s_044.ogg
109,192,122300,1,0,0:0:0:0:l_030.ogg
182,192,122393,1,0,0:0:0:0:s_037.ogg
256,192,122393,1,0,0:0:0:0:s_042.ogg
36,192,122487,1,0,0:0:0:0:s_034.ogg
402,192,122487,1,0,0:0:0:0:s_046.ogg
182,192,122581,1,0,0:0:0:0:s_037.ogg
256,192,122581,1,0,0:0:0:0:s_042.ogg
36,192,122675,1,0,0:0:0:0:s_034.ogg
329,192,122675,1,0,0:0:0:0:m_054.ogg
182,192,122768,1,0,0:0:0:0:s_037.ogg
256,192,122768,1,0,0:0:0:0:s_042.ogg
36,192,122862,1,0,0:0:0:0:s_034.ogg
402,192,122862,1,0,0:0:0:0:s_046.ogg
182,192,122956,1,0,0:0:0:0:s_037.ogg
256,192,122956,1,0,0:0:0:0:s_042.ogg
36,192,123050,1,0,0:0:0:0:s_034.ogg
402,192,123050,1,0,0:0:0:0:s_046.ogg
182,192,123143,1,0,0:0:0:0:s_037.ogg
256,192,123143,1,0,0:0:0:0:s_042.ogg
36,192,123237,1,0,0:0:0:0:s_034.ogg
402,192,123237,1,0,0:0:0:0:s_046.ogg
182,192,123331,1,0,0:0:0:0:s_037.ogg
256,192,123331,1,0,0:0:0:0:s_042.ogg
109,192,123425,1,0,0:0:0:0:m_030.ogg
329,192,123425,1,0,0:0:0:0:m_054.ogg
182,192,123518,1,0,0:0:0:0:s_037.ogg
256,192,123518,1,0,0:0:0:0:s_042.ogg
36,192,123612,1,0,0:0:0:0:s_034.ogg
402,192,123612,1,0,0:0:0:0:s_046.ogg
182,192,123706,1,0,0:0:0:0:s_037.ogg
256,192,123706,1,0,0:0:0:0:s_042.ogg
109,192,123800,1,0,0:0:0:0:l_028.ogg
182,192,123893,1,0,0:0:0:0:s_037.ogg
256,192,123893,1,0,0:0:0:0:s_042.ogg
36,192,123987,1,0,0:0:0:0:s_034.ogg
402,192,123987,1,0,0:0:0:0:s_046.ogg
182,192,124081,1,0,0:0:0:0:s_037.ogg
256,192,124081,1,0,0:0:0:0:s_042.ogg
36,192,124175,1,0,0:0:0:0:s_034.ogg
329,192,124175,1,0,0:0:0:0:m_054.ogg
182,192,124268,1,0,0:0:0:0:s_037.ogg
256,192,124268,1,0,0:0:0:0:s_042.ogg
36,192,124362,1,0,0:0:0:0:s_034.ogg
402,192,124362,1,0,0:0:0:0:s_046.ogg
182,192,124456,1,0,0:0:0:0:s_037.ogg
256,192,124456,1,0,0:0:0:0:s_042.ogg
36,192,124550,1,0,0:0:0:0:s_034.ogg
402,192,124550,1,0,0:0:0:0:s_046.ogg
182,192,124643,1,0,0:0:0:0:s_037.ogg
256,192,124643,1,0,0:0:0:0:s_042.ogg
36,192,124737,1,0,0:0:0:0:s_034.ogg
402,192,124737,1,0,0:0:0:0:s_046.ogg
182,192,124831,1,0,0:0:0:0:s_037.ogg
256,192,124831,1,0,0:0:0:0:s_042.ogg
109,192,124925,1,0,0:0:0:0:m_028.ogg
329,192,124925,1,0,0:0:0:0:m_054.ogg
182,192,125018,1,0,0:0:0:0:s_037.ogg
256,192,125018,1,0,0:0:0:0:s_042.ogg
36,192,125112,1,0,0:0:0:0:s_034.ogg
402,192,125112,1,0,0:0:0:0:s_046.ogg
182,192,125206,1,0,0:0:0:0:s_037.ogg
256,192,125206,1,0,0:0:0:0:s_042.ogg
36,192,125300,1,0,0:0:0:0:s_027.ogg
402,192,125300,1,0,0:0:0:0:s_054.ogg
256,192,125393,1,0,0:0:0:0:s_035.ogg
329,192,125393,1,0,0:0:0:0:s_042.ogg
36,192,125487,1,0,0:0:0:0:s_030.ogg
475,192,125487,1,0,0:0:0:0:s_047.ogg
256,192,125581,1,0,0:0:0:0:s_035.ogg
329,192,125581,1,0,0:0:0:0:s_042.ogg
109,192,125675,1,0,0:0:0:0:s_055.ogg
475,192,125675,1,0,0:0:0:0:s_025.ogg
329,192,125768,1,0,0:0:0:0:s_043.ogg
402,192,125768,1,0,0:0:0:0:s_034.ogg
36,192,125862,1,0,0:0:0:0:s_051.ogg
109,192,125862,1,0,0:0:0:0:s_027.ogg
329,192,125956,1,0,0:0:0:0:s_043.ogg
402,192,125956,1,0,0:0:0:0:s_034.ogg
36,192,126050,1,0,0:0:0:0:s_023.ogg
182,192,126050,1,0,0:0:0:0:s_056.ogg
402,192,126143,1,0,0:0:0:0:s_044.ogg
475,192,126143,1,0,0:0:0:0:s_035.ogg
109,192,126237,1,0,0:0:0:0:s_027.ogg
182,192,126237,1,0,0:0:0:0:s_051.ogg
402,192,126331,1,0,0:0:0:0:s_044.ogg
475,192,126331,1,0,0:0:0:0:s_035.ogg
109,192,126425,1,0,0:0:0:0:s_022.ogg
256,192,126425,1,0,0:0:0:0:s_058.ogg
36,192,126518,1,0,0:0:0:0:s_034.ogg
475,192,126518,1,0,0:0:0:0:s_046.ogg
182,192,126612,1,0,0:0:0:0:s_027.ogg
256,192,126612,1,0,0:0:0:0:s_051.ogg
36,192,126706,1,0,0:0:0:0:s_034.ogg
475,192,126706,1,0,0:0:0:0:s_046.ogg
182,192,126800,1,0,0:0:0:0:s_020.ogg
329,192,126800,1,0,0:0:0:0:s_059.ogg
36,192,126893,1,0,0:0:0:0:s_032.ogg
109,192,126893,1,0,0:0:0:0:s_047.ogg
256,192,126987,1,0,0:0:0:0:s_027.ogg
329,192,126987,1,0,0:0:0:0:s_051.ogg
36,192,127081,1,0,0:0:0:0:s_032.ogg
109,192,127081,1,0,0:0:0:0:s_047.ogg
256,192,127175,1,0,0:0:0:0:s_018.ogg
402,192,127175,1,0,0:0:0:0:s_060.ogg
109,192,127268,1,0,0:0:0:0:s_030.ogg
182,192,127268,1,0,0:0:0:0:s_048.ogg
329,192,127362,1,0,0:0:0:0:s_051.ogg
402,192,127362,1,0,0:0:0:0:s_020.ogg
109,192,127456,1,0,0:0:0:0:s_030.ogg
182,192,127456,1,0,0:0:0:0:s_048.ogg
329,192,127550,1,0,0:0:0:0:s_017.ogg
475,192,127550,1,0,0:0:0:0:s_061.ogg
182,192,127643,1,0,0:0:0:0:s_049.ogg
256,192,127643,1,0,0:0:0:0:s_029.ogg
402,192,127737,1,0,0:0:0:0:s_020.ogg
475,192,127737,1,0,0:0:0:0:s_056.ogg
182,192,127831,1,0,0:0:0:0:s_049.ogg
256,192,127831,1,0,0:0:0:0:s_029.ogg
36,192,127925,1,0,0:0:0:0:s_015.ogg
402,192,127925,1,0,0:0:0:0:s_063.ogg
256,192,128018,1,0,0:0:0:0:s_027.ogg
329,192,128018,1,0,0:0:0:0:s_051.ogg
36,192,128112,1,0,0:0:0:0:s_056.ogg
475,192,128112,1,0,0:0:0:0:s_020.ogg
256,192,128206,1,0,0:0:0:0:s_027.ogg
329,192,128206,1,0,0:0:0:0:s_051.ogg
109,192,128300,1,0,0:0:0:0:s_064.ogg
475,192,128300,1,0,0:0:0:0:s_013.ogg
329,192,128393,1,0,0:0:0:0:s_025.ogg
402,192,128393,1,0,0:0:0:0:s_052.ogg
36,192,128487,1,0,0:0:0:0:s_056.ogg
109,192,128487,1,0,0:0:0:0:s_020.ogg
329,192,128581,1,0,0:0:0:0:s_025.ogg
402,192,128581,1,0,0:0:0:0:s_052.ogg
36,192,128675,1,0,0:0:0:0:s_011.ogg
182,192,128675,1,0,0:0:0:0:s_065.ogg
402,192,128768,1,0,0:0:0:0:s_053.ogg
475,192,128768,1,0,0:0:0:0:s_023.ogg
109,192,128862,1,0,0:0:0:0:s_020.ogg
182,192,128862,1,0,0:0:0:0:s_056.ogg
402,192,128956,1,0,0:0:0:0:s_053.ogg
475,192,128956,1,0,0:0:0:0:s_023.ogg
109,192,129050,1,0,0:0:0:0:s_010.ogg
256,192,129050,1,0,0:0:0:0:s_066.ogg
36,192,129143,1,0,0:0:0:0:s_054.ogg
475,192,129143,1,0,0:0:0:0:s_022.ogg
182,192,129237,1,0,0:0:0:0:s_018.ogg
256,192,129237,1,0,0:0:0:0:s_061.ogg
36,192,129331,1,0,0:0:0:0:s_054.ogg
475,192,129331,1,0,0:0:0:0:s_022.ogg
256,192,129425,1,0,0:0:0:0:s_010.ogg
402,192,129425,1,0,0:0:0:0:s_067.ogg
109,192,129518,1,0,0:0:0:0:s_022.ogg
182,192,129518,1,0,0:0:0:0:s_055.ogg
329,192,129612,1,0,0:0:0:0:s_010.ogg
402,192,129612,1,0,0:0:0:0:s_061.ogg
109,192,129706,1,0,0:0:0:0:s_022.ogg
182,192,129706,1,0,0:0:0:0:s_055.ogg
256,192,129800,128,0,130456:0:0:0:0:m_023.ogg
36,192,129800,128,0,130456:0:0:0:0:m_011.ogg
329,192,129893,1,0,0:0:0:0:s_059.ogg
402,192,129987,1,0,0:0:0:0:s_063.ogg
329,192,130081,1,0,0:0:0:0:s_059.ogg
475,192,130175,1,0,0:0:0:0:s_068.ogg
329,192,130268,1,0,0:0:0:0:s_059.ogg
402,192,130362,1,0,0:0:0:0:s_063.ogg
329,192,130456,1,0,0:0:0:0:s_059.ogg
182,192,130550,128,0,131206:0:0:0:0:m_013.ogg
109,192,130550,128,0,131206:0:0:0:0:m_025.ogg
256,192,130643,1,0,0:0:0:0:s_056.ogg
329,192,130737,1,0,0:0:0:0:s_059.ogg
256,192,130831,1,0,0:0:0:0:s_056.ogg
402,192,130925,1,0,0:0:0:0:s_065.ogg
256,192,131018,1,0,0:0:0:0:s_056.ogg
329,192,131112,1,0,0:0:0:0:s_059.ogg
256,192,131206,1,0,0:0:0:0:s_056.ogg
36,192,131300,1,0,0:0:0:0:s_018.ogg
182,192,131300,1,0,0:0:0:0:s_030.ogg
402,192,131300,1,0,0:0:0:0:s_058.ogg
109,192,131487,1,0,0:0:0:0:s_046.ogg
182,192,131487,1,0,0:0:0:0:s_042.ogg
475,192,131487,128,0,131768:0:0:0:0:m_066.ogg
109,192,131675,1,0,0:0:0:0:s_042.ogg
182,192,131675,1,0,0:0:0:0:s_046.ogg
109,192,131862,1,0,0:0:0:0:s_042.ogg
182,192,131862,1,0,0:0:0:0:s_046.ogg
329,192,131862,1,0,0:0:0:0:s_065.ogg
402,192,131956,1,0,0:0:0:0:s_066.ogg
36,192,132050,1,0,0:0:0:0:m_039.ogg
475,192,132050,1,0,0:0:0:0:s_068.ogg
402,192,132143,1,0,0:0:0:0:s_066.ogg
109,192,132237,1,0,0:0:0:0:s_042.ogg
182,192,132237,1,0,0:0:0:0:s_046.ogg
329,192,132237,1,0,0:0:0:0:s_065.ogg
256,192,132331,1,0,0:0:0:0:s_063.ogg
109,192,132425,1,0,0:0:0:0:s_042.ogg
182,192,132425,1,0,0:0:0:0:s_046.ogg
475,192,132425,1,0,0:0:0:0:s_062.ogg
329,192,132518,1,0,0:0:0:0:s_063.ogg
109,192,132612,1,0,0:0:0:0:s_042.ogg
182,192,132612,1,0,0:0:0:0:s_046.ogg
402,192,132612,1,0,0:0:0:0:s_065.ogg
329,192,132706,1,0,0:0:0:0:s_063.ogg
109,192,132800,1,0,0:0:0:0:m_035.ogg
256,192,132800,1,0,0:0:0:0:s_061.ogg
475,192,132893,1,0,0:0:0:0:s_059.ogg
36,192,132987,1,0,0:0:0:0:s_044.ogg
182,192,132987,1,0,0:0:0:0:s_042.ogg
402,192,132987,1,0,0:0:0:0:s_058.ogg
329,192,133081,1,0,0:0:0:0:s_056.ogg
36,192,133175,1,0,0:0:0:0:s_042.ogg
182,192,133175,1,0,0:0:0:0:s_044.ogg
256,192,133175,1,0,0:0:0:0:s_055.ogg
329,192,133268,1,0,0:0:0:0:s_056.ogg
36,192,133362,1,0,0:0:0:0:s_042.ogg
182,192,133362,1,0,0:0:0:0:s_044.ogg
402,192,133362,1,0,0:0:0:0:s_058.ogg
329,192,133456,1,0,0:0:0:0:s_056.ogg
182,192,133550,1,0,0:0:0:0:m_037.ogg
256,192,133550,1,0,0:0:0:0:s_054.ogg
475,192,133643,1,0,0:0:0:0:s_053.ogg
36,192,133737,1,0,0:0:0:0:s_044.ogg
109,192,133737,1,0,0:0:0:0:s_041.ogg
402,192,133737,1,0,0:0:0:0:s_051.ogg
329,192,133831,1,0,0:0:0:0:s_049.ogg
36,192,133925,1,0,0:0:0:0:s_041.ogg
109,192,133925,1,0,0:0:0:0:s_044.ogg
256,192,133925,1,0,0:0:0:0:s_048.ogg
402,192,134018,1,0,0:0:0:0:s_049.ogg
36,192,134112,1,0,0:0:0:0:s_041.ogg
109,192,134112,1,0,0:0:0:0:s_044.ogg
475,192,134112,1,0,0:0:0:0:s_051.ogg
329,192,134206,1,0,0:0:0:0:s_047.ogg
36,192,134300,1,0,0:0:0:0:m_030.ogg
256,192,134300,1,0,0:0:0:0:s_046.ogg
109,192,134487,1,0,0:0:0:0:s_042.ogg
182,192,134487,1,0,0:0:0:0:s_034.ogg
475,192,134487,128,0,134768:0:0:0:0:m_066.ogg
402,192,134487,128,0,134768:0:0:0:0:m_054.ogg
109,192,134675,1,0,0:0:0:0:s_034.ogg
182,192,134675,1,0,0:0:0:0:s_042.ogg
109,192,134862,1,0,0:0:0:0:s_034.ogg
182,192,134862,1,0,0:0:0:0:s_042.ogg
329,192,134862,1,0,0:0:0:0:s_065.ogg
402,192,134956,1,0,0:0:0:0:s_066.ogg
36,192,135050,1,0,0:0:0:0:m_027.ogg
475,192,135050,1,0,0:0:0:0:s_068.ogg
402,192,135143,1,0,0:0:0:0:s_066.ogg
36,192,135237,1,0,0:0:0:0:s_030.ogg
109,192,135237,1,0,0:0:0:0:s_034.ogg
182,192,135237,1,0,0:0:0:0:s_039.ogg
329,192,135237,1,0,0:0:0:0:s_065.ogg
256,192,135331,1,0,0:0:0:0:s_063.ogg
36,192,135425,1,0,0:0:0:0:s_030.ogg
109,192,135425,1,0,0:0:0:0:s_034.ogg
182,192,135425,1,0,0:0:0:0:s_039.ogg
475,192,135425,1,0,0:0:0:0:s_062.ogg
329,192,135518,1,0,0:0:0:0:s_063.ogg
36,192,135612,1,0,0:0:0:0:s_030.ogg
109,192,135612,1,0,0:0:0:0:s_034.ogg
182,192,135612,1,0,0:0:0:0:s_039.ogg
402,192,135612,1,0,0:0:0:0:s_065.ogg
329,192,135706,1,0,0:0:0:0:s_063.ogg
109,192,135800,1,0,0:0:0:0:m_023.ogg
256,192,135800,1,0,0:0:0:0:s_061.ogg
475,192,135893,1,0,0:0:0:0:s_059.ogg
36,192,135987,1,0,0:0:0:0:s_030.ogg
109,192,135987,1,0,0:0:0:0:s_032.ogg
182,192,135987,1,0,0:0:0:0:s_035.ogg
402,192,135987,1,0,0:0:0:0:s_058.ogg
329,192,136081,1,0,0:0:0:0:s_056.ogg
36,192,136175,1,0,0:0:0:0:s_030.ogg
109,192,136175,1,0,0:0:0:0:s_032.ogg
182,192,136175,1,0,0:0:0:0:s_035.ogg
256,192,136175,1,0,0:0:0:0:s_055.ogg
329,192,136268,1,0,0:0:0:0:s_056.ogg
36,192,136362,1,0,0:0:0:0:s_030.ogg
109,192,136362,1,0,0:0:0:0:s_032.ogg
182,192,136362,1,0,0:0:0:0:s_035.ogg
402,192,136362,1,0,0:0:0:0:s_058.ogg
329,192,136456,1,0,0:0:0:0:s_056.ogg
182,192,136550,1,0,0:0:0:0:m_025.ogg
256,192,136550,1,0,0:0:0:0:s_054.ogg
475,192,136643,1,0,0:0:0:0:s_053.ogg
36,192,136737,1,0,0:0:0:0:s_029.ogg
109,192,136737,1,0,0:0:0:0:s_032.ogg
182,192,136737,1,0,0:0:0:0:s_037.ogg
402,192,136737,1,0,0:0:0:0:s_051.ogg
329,192,136831,1,0,0:0:0:0:s_049.ogg
36,192,136925,1,0,0:0:0:0:s_029.ogg
109,192,136925,1,0,0:0:0:0:s_032.ogg
182,192,136925,1,0,0:0:0:0:s_037.ogg
256,192,136925,1,0,0:0:0:0:s_048.ogg
329,192,137018,1,0,0:0:0:0:s_049.ogg
36,192,137112,1,0,0:0:0:0:s_029.ogg
109,192,137112,1,0,0:0:0:0:s_032.ogg
182,192,137112,1,0,0:0:0:0:s_037.ogg
402,192,137112,1,0,0:0:0:0:s_051.ogg
329,192,137206,1,0,0:0:0:0:s_049.ogg
36,192,137300,1,0,0:0:0:0:s_018.ogg
475,192,137300,1,0,0:0:0:0:s_054.ogg
182,192,137393,1,0,0:0:0:0:s_030.ogg
36,192,137487,1,0,0:0:0:0:s_018.ogg
256,192,137487,1,0,0:0:0:0:m_042.ogg
182,192,137581,1,0,0:0:0:0:s_030.ogg
36,192,137675,1,0,0:0:0:0:s_018.ogg
182,192,137768,1,0,0:0:0:0:s_030.ogg
36,192,137862,1,0,0:0:0:0:s_018.ogg
256,192,137862,1,0,0:0:0:0:s_040.ogg
329,192,137862,1,0,0:0:0:0:s_046.ogg
182,192,137956,1,0,0:0:0:0:s_030.ogg
36,192,138050,1,0,0:0:0:0:s_018.ogg
256,192,138050,1,0,0:0:0:0:s_039.ogg
402,192,138050,1,0,0:0:0:0:s_047.ogg
182,192,138143,1,0,0:0:0:0:s_030.ogg
36,192,138237,1,0,0:0:0:0:s_018.ogg
329,192,138237,1,0,0:0:0:0:s_046.ogg
402,192,138237,1,0,0:0:0:0:s_049.ogg
182,192,138331,1,0,0:0:0:0:s_030.ogg
36,192,138425,1,0,0:0:0:0:s_018.ogg
329,192,138425,1,0,0:0:0:0:s_051.ogg
475,192,138425,1,0,0:0:0:0:s_047.ogg
182,192,138518,1,0,0:0:0:0:s_030.ogg
36,192,138612,1,0,0:0:0:0:s_018.ogg
402,192,138612,1,0,0:0:0:0:s_047.ogg
475,192,138612,1,0,0:0:0:0:s_053.ogg
182,192,138706,1,0,0:0:0:0:s_030.ogg
36,192,138800,1,0,0:0:0:0:s_018.ogg
256,192,138800,1,0,0:0:0:0:s_046.ogg
475,192,138800,1,0,0:0:0:0:s_054.ogg
182,192,138893,1,0,0:0:0:0:s_030.ogg
36,192,138987,1,0,0:0:0:0:s_018.ogg
256,192,138987,1,0,0:0:0:0:m_054.ogg
182,192,139081,1,0,0:0:0:0:s_030.ogg
36,192,139175,1,0,0:0:0:0:s_018.ogg
182,192,139268,1,0,0:0:0:0:s_030.ogg
36,192,139362,1,0,0:0:0:0:s_018.ogg
256,192,139362,1,0,0:0:0:0:s_052.ogg
329,192,139362,1,0,0:0:0:0:s_058.ogg
182,192,139456,1,0,0:0:0:0:s_030.ogg
36,192,139550,1,0,0:0:0:0:s_018.ogg
256,192,139550,1,0,0:0:0:0:s_051.ogg
402,192,139550,1,0,0:0:0:0:s_059.ogg
182,192,139643,1,0,0:0:0:0:s_030.ogg
36,192,139737,1,0,0:0:0:0:s_018.ogg
329,192,139737,1,0,0:0:0:0:s_058.ogg
402,192,139737,1,0,0:0:0:0:s_061.ogg
182,192,139831,1,0,0:0:0:0:s_030.ogg
36,192,139925,1,0,0:0:0:0:s_018.ogg
329,192,139925,1,0,0:0:0:0:s_063.ogg
475,192,139925,1,0,0:0:0:0:s_059.ogg
182,192,140018,1,0,0:0:0:0:s_030.ogg
36,192,140112,1,0,0:0:0:0:s_018.ogg
402,192,140112,1,0,0:0:0:0:s_065.ogg
475,192,140112,1,0,0:0:0:0:s_059.ogg
182,192,140206,1,0,0:0:0:0:s_030.ogg
36,192,140300,1,0,0:0:0:0:s_018.ogg
475,192,140300,128,0,140956:0:0:0:0:m_066.ogg
256,192,140300,128,0,140956:0:0:0:0:m_058.ogg
182,192,140393,1,0,0:0:0:0:s_030.ogg
36,192,140487,1,0,0:0:0:0:s_018.ogg
182,192,140581,1,0,0:0:0:0:s_030.ogg
36,192,140675,1,0,0:0:0:0:s_018.ogg
182,192,140768,1,0,0:0:0:0:s_030.ogg
36,192,140862,1,0,0:0:0:0:s_018.ogg
182,192,140956,1,0,0:0:0:0:s_030.ogg
109,192,141050,1,0,0:0:0:0:s_017.ogg
402,192,141050,128,0,141706:0:0:0:0:m_054.ogg
329,192,141050,128,0,141706:0:0:0:0:m_046.ogg
182,192,141143,1,0,0:0:0:0:s_029.ogg
109,192,141237,1,0,0:0:0:0:s_017.ogg
182,192,141331,1,0,0:0:0:0:s_029.ogg
109,192,141425,1,0,0:0:0:0:s_017.ogg
182,192,141518,1,0,0:0:0:0:s_029.ogg
109,192,141612,1,0,0:0:0:0:s_017.ogg
182,192,141706,1,0,0:0:0:0:s_029.ogg
36,192,141800,1,0,0:0:0:0:s_015.ogg
475,192,141800,128,0,142456:0:0:0:0:m_066.ogg
256,192,141800,128,0,142456:0:0:0:0:m_058.ogg
182,192,141893,1,0,0:0:0:0:s_027.ogg
36,192,141987,1,0,0:0:0:0:s_015.ogg
182,192,142081,1,0,0:0:0:0:s_027.ogg
36,192,142175,1,0,0:0:0:0:s_015.ogg
182,192,142268,1,0,0:0:0:0:s_027.ogg
36,192,142362,1,0,0:0:0:0:s_015.ogg
182,192,142456,1,0,0:0:0:0:s_027.ogg
36,192,142550,1,0,0:0:0:0:s_013.ogg
402,192,142550,128,0,143206:0:0:0:0:m_054.ogg
329,192,142550,128,0,143206:0:0:0:0:m_046.ogg
109,192,142643,1,0,0:0:0:0:s_025.ogg
36,192,142737,1,0,0:0:0:0:s_013.ogg
109,192,142831,1,0,0:0:0:0:s_025.ogg
36,192,142925,1,0,0:0:0:0:s_013.ogg
109,192,143018,1,0,0:0:0:0:s_025.ogg
36,192,143112,1,0,0:0:0:0:s_013.ogg
109,192,143206,1,0,0:0:0:0:s_025.ogg
36,192,143300,1,0,0:0:0:0:s_011.ogg
475,192,143300,128,0,143956:0:0:0:0:m_066.ogg
402,192,143300,128,0,143956:0:0:0:0:m_063.ogg
182,192,143393,1,0,0:0:0:0:s_023.ogg
36,192,143487,1,0,0:0:0:0:s_011.ogg
182,192,143581,1,0,0:0:0:0:s_023.ogg
36,192,143675,1,0,0:0:0:0:s_011.ogg
182,192,143768,1,0,0:0:0:0:s_023.ogg
36,192,143862,1,0,0:0:0:0:s_011.ogg
182,192,143956,1,0,0:0:0:0:s_023.ogg
109,192,144050,1,0,0:0:0:0:s_010.ogg
329,192,144050,128,0,144706:0:0:0:0:m_054.ogg
256,192,144050,128,0,144706:0:0:0:0:m_051.ogg
182,192,144143,1,0,0:0:0:0:s_022.ogg
109,192,144237,1,0,0:0:0:0:s_010.ogg
182,192,144331,1,0,0:0:0:0:s_022.ogg
109,192,144425,1,0,0:0:0:0:s_010.ogg
182,192,144518,1,0,0:0:0:0:s_022.ogg
109,192,144612,1,0,0:0:0:0:s_010.ogg
182,192,144706,1,0,0:0:0:0:s_022.ogg
36,192,144800,1,0,0:0:0:0:m_021.ogg
256,192,144800,1,0,0:0:0:0:m_009.ogg
329,192,144800,1,0,0:0:0:0:m_065.ogg
402,192,144800,1,0,0:0:0:0:m_060.ogg
475,192,144800,1,0,0:0:0:0:m_063.ogg
36,192,145550,1,0,0:0:0:0:m_010.ogg
109,192,145550,1,0,0:0:0:0:m_022.ogg
256,192,145550,1,0,0:0:0:0:m_034.ogg
329,192,145550,1,0,0:0:0:0:m_038.ogg
402,192,145550,1,0,0:0:0:0:m_041.ogg
36,192,146300,1,0,0:0:0:0:l_011.ogg
182,192,146300,1,0,0:0:0:0:s_027.ogg
402,192,146300,1,0,0:0:0:0:l_023.ogg
475,192,146300,1,0,0:0:0:0:l_039.ogg
256,192,146466,1,0,0:0:0:0:s_030.ogg
256,192,146633,1,0,0:0:0:0:s_030.ogg
329,192,146800,1,0,0:0:0:0:s_035.ogg
182,192,146966,1,0,0:0:0:0:s_030.ogg
182,192,147133,1,0,0:0:0:0:s_030.ogg
109,192,147300,1,0,0:0:0:0:l_028.ogg
256,192,147300,1,0,0:0:0:0:s_034.ogg
402,192,147300,1,0,0:0:0:0:l_037.ogg
182,192,147466,1,0,0:0:0:0:s_030.ogg
182,192,147633,1,0,0:0:0:0:s_030.ogg
256,192,147800,1,0,0:0:0:0:s_034.ogg
182,192,147966,1,0,0:0:0:0:s_030.ogg
182,192,148133,1,0,0:0:0:0:s_030.ogg
36,192,148300,1,0,0:0:0:0:l_027.ogg
329,192,148300,1,0,0:0:0:0:s_035.ogg
475,192,148300,1,0,0:0:0:0:l_042.ogg
182,192,148466,1,0,0:0:0:0:s_030.ogg
182,192,148633,1,0,0:0:0:0:s_030.ogg
329,192,148800,1,0,0:0:0:0:s_035.ogg
182,192,148966,1,0,0:0:0:0:s_030.ogg
182,192,149133,1,0,0:0:0:0:s_030.ogg
109,192,149300,1,0,0:0:0:0:l_022.ogg
402,192,149300,1,0,0:0:0:0:s_037.ogg
182,192,149466,1,0,0:0:0:0:s_030.ogg
182,192,149633,1,0,0:0:0:0:s_030.ogg
329,192,149800,1,0,0:0:0:0:m_040.ogg
402,192,149800,1,0,0:0:0:0:s_037.ogg
182,192,149966,1,0,0:0:0:0:s_030.ogg
182,192,150133,1,0,0:0:0:0:s_030.ogg
36,192,150300,1,0,0:0:0:0:m_023.ogg
256,192,150300,1,0,0:0:0:0:s_035.ogg
329,192,150300,1,0,0:0:0:0:m_039.ogg
182,192,150466,1,0,0:0:0:0:s_030.ogg
182,192,150633,1,0,0:0:0:0:s_030.ogg
109,192,150800,1,0,0:0:0:0:m_022.ogg
256,192,150800,1,0,0:0:0:0:s_037.ogg
402,192,150800,1,0,0:0:0:0:m_042.ogg
182,192,150966,1,0,0:0:0:0:s_030.ogg
182,192,151133,1,0,0:0:0:0:s_030.ogg
36,192,151300,1,0,0:0:0:0:m_020.ogg
329,192,151300,1,0,0:0:0:0:s_039.ogg
475,192,151300,1,0,0:0:0:0:m_047.ogg
256,192,151466,1,0,0:0:0:0:s_035.ogg
256,192,151633,1,0,0:0:0:0:s_035.ogg
109,192,151800,1,0,0:0:0:0:m_032.ogg
402,192,151800,1,0,0:0:0:0:s_041.ogg
475,192,151800,1,0,0:0:0:0:m_049.ogg
256,192,151966,1,0,0:0:0:0:s_035.ogg
256,192,152133,1,0,0:0:0:0:s_035.ogg
36,192,152300,1,0,0:0:0:0:l_030.ogg
182,192,152300,1,0,0:0:0:0:s_034.ogg
402,192,152300,1,0,0:0:0:0:l_042.ogg
329,192,152466,1,0,0:0:0:0:s_037.ogg
329,192,152633,1,0,0:0:0:0:s_037.ogg
182,192,152800,1,0,0:0:0:0:s_034.ogg
329,192,152966,1,0,0:0:0:0:s_037.ogg
329,192,153133,1,0,0:0:0:0:s_037.ogg
109,192,153300,1,0,0:0:0:0:l_018.ogg
182,192,153300,1,0,0:0:0:0:s_034.ogg
329,192,153466,1,0,0:0:0:0:s_037.ogg
329,192,153633,1,0,0:0:0:0:s_037.ogg
182,192,153800,1,0,0:0:0:0:s_034.ogg
402,192,153800,1,0,0:0:0:0:m_043.ogg
329,192,153966,1,0,0:0:0:0:s_037.ogg
329,192,154133,1,0,0:0:0:0:s_037.ogg
36,192,154300,1,0,0:0:0:0:l_016.ogg
182,192,154300,1,0,0:0:0:0:s_034.ogg
475,192,154300,1,0,0:0:0:0:l_044.ogg
329,192,154466,1,0,0:0:0:0:s_037.ogg
329,192,154633,1,0,0:0:0:0:s_037.ogg
182,192,154800,1,0,0:0:0:0:s_034.ogg
329,192,154966,1,0,0:0:0:0:s_037.ogg
329,192,155133,1,0,0:0:0:0:s_037.ogg
109,192,155300,1,0,0:0:0:0:m_037.ogg
256,192,155300,1,0,0:0:0:0:s_034.ogg
329,192,155300,1,0,0:0:0:0:l_028.ogg
182,192,155466,1,0,0:0:0:0:s_030.ogg
182,192,155633,1,0,0:0:0:0:s_030.ogg
329,192,155800,1,0,0:0:0:0:s_034.ogg
182,192,155966,1,0,0:0:0:0:s_030.ogg
256,192,156050,1,0,0:0:0:0:s_039.ogg
182,192,156133,1,0,0:0:0:0:s_030.ogg
329,192,156175,1,0,0:0:0:0:s_040.ogg
36,192,156300,1,0,0:0:0:0:l_027.ogg
402,192,156300,1,0,0:0:0:0:s_035.ogg
475,192,156300,1,0,0:0:0:0:l_042.ogg
329,192,156466,1,0,0:0:0:0:s_030.ogg
329,192,156633,1,0,0:0:0:0:s_030.ogg
475,192,156800,1,0,0:0:0:0:s_035.ogg
329,192,156966,1,0,0:0:0:0:s_030.ogg
329,192,157133,1,0,0:0:0:0:s_030.ogg
109,192,157300,1,0,0:0:0:0:l_020.ogg
256,192,157300,1,0,0:0:0:0:s_030.ogg
329,192,157300,1,0,0:0:0:0:l_036.ogg
182,192,157466,1,0,0:0:0:0:s_027.ogg
182,192,157633,1,0,0:0:0:0:s_027.ogg
329,192,157800,1,0,0:0:0:0:s_030.ogg
182,192,157966,1,0,0:0:0:0:s_027.ogg
182,192,158133,1,0,0:0:0:0:s_027.ogg
36,192,158300,1,0,0:0:0:0:l_013.ogg
402,192,158300,1,0,0:0:0:0:s_032.ogg
475,192,158300,1,0,0:0:0:0:l_040.ogg
256,192,158466,1,0,0:0:0:0:s_028.ogg
256,192,158633,1,0,0:0:0:0:s_028.ogg
402,192,158800,1,0,0:0:0:0:s_032.ogg
256,192,158966,1,0,0:0:0:0:s_028.ogg
256,192,159133,1,0,0:0:0:0:s_028.ogg
109,192,159300,1,0,0:0:0:0:l_018.ogg
182,192,159300,1,0,0:0:0:0:s_034.ogg
329,192,159300,1,0,0:0:0:0:s_040.ogg
256,192,159466,1,0,0:0:0:0:s_028.ogg
475,192,159466,1,0,0:0:0:0:s_039.ogg
256,192,159633,1,0,0:0:0:0:s_028.ogg
402,192,159633,1,0,0:0:0:0:s_037.ogg
256,192,159800,1,0,0:0:0:0:s_028.ogg
402,192,159800,1,0,0:0:0:0:s_037.ogg
256,192,159966,1,0,0:0:0:0:s_028.ogg
329,192,159966,1,0,0:0:0:0:s_035.ogg
182,192,160133,1,0,0:0:0:0:s_034.ogg
256,192,160133,1,0,0:0:0:0:s_028.ogg
36,192,160300,1,0,0:0:0:0:m_011.ogg
256,192,160300,1,0,0:0:0:0:s_028.ogg
402,192,160300,1,0,0:0:0:0:l_034.ogg
475,192,160300,1,0,0:0:0:0:l_037.ogg
329,192,160466,1,0,0:0:0:0:s_030.ogg
329,192,160633,1,0,0:0:0:0:s_030.ogg
109,192,160800,1,0,0:0:0:0:m_023.ogg
256,192,160800,1,0,0:0:0:0:s_028.ogg
329,192,160966,1,0,0:0:0:0:s_030.ogg
329,192,161133,1,0,0:0:0:0:s_030.ogg
36,192,161300,1,0,0:0:0:0:m_011.ogg
182,192,161300,1,0,0:0:0:0:s_027.ogg
402,192,161300,1,0,0:0:0:0:s_035.ogg
109,192,161466,1,0,0:0:0:0:s_030.ogg
182,192,161633,1,0,0:0:0:0:s_035.ogg
256,192,161800,1,0,0:0:0:0:s_039.ogg
329,192,161966,1,0,0:0:0:0:s_042.ogg
402,192,162133,1,0,0:0:0:0:s_047.ogg
36,192,162300,1,0,0:0:0:0:l_023.ogg
182,192,162300,1,0,0:0:0:0:s_035.ogg
256,192,162300,1,0,0:0:0:0:s_039.ogg
475,192,162300,1,0,0:0:0:0:l_051.ogg
109,192,162466,1,0,0:0:0:0:s_030.ogg
329,192,162466,1,0,0:0:0:0:s_042.ogg
109,192,162633,1,0,0:0:0:0:s_030.ogg
329,192,162633,1,0,0:0:0:0:s_042.ogg
182,192,162800,1,0,0:0:0:0:s_035.ogg
256,192,162800,1,0,0:0:0:0:s_039.ogg
109,192,162966,1,0,0:0:0:0:s_030.ogg
329,192,162966,1,0,0:0:0:0:s_042.ogg
109,192,163133,1,0,0:0:0:0:s_030.ogg
329,192,163133,1,0,0:0:0:0:s_042.ogg
36,192,163300,1,0,0:0:0:0:l_028.ogg
182,192,163300,1,0,0:0:0:0:s_034.ogg
256,192,163300,1,0,0:0:0:0:s_037.ogg
402,192,163300,1,0,0:0:0:0:l_049.ogg
109,192,163466,1,0,0:0:0:0:s_030.ogg
329,192,163466,1,0,0:0:0:0:s_042.ogg
109,192,163633,1,0,0:0:0:0:s_030.ogg
329,192,163633,1,0,0:0:0:0:s_042.ogg
182,192,163800,1,0,0:0:0:0:s_034.ogg
256,192,163800,1,0,0:0:0:0:s_037.ogg
109,192,163966,1,0,0:0:0:0:s_030.ogg
329,192,163966,1,0,0:0:0:0:s_042.ogg
109,192,164133,1,0,0:0:0:0:s_030.ogg
329,192,164133,1,0,0:0:0:0:s_042.ogg
36,192,164300,1,0,0:0:0:0:l_027.ogg
182,192,164300,1,0,0:0:0:0:s_035.ogg
329,192,164300,1,0,0:0:0:0:s_042.ogg
475,192,164300,1,0,0:0:0:0:l_054.ogg
109,192,164466,1,0,0:0:0:0:s_030.ogg
402,192,164466,1,0,0:0:0:0:s_047.ogg
109,192,164633,1,0,0:0:0:0:s_030.ogg
402,192,164633,1,0,0:0:0:0:s_047.ogg
182,192,164800,1,0,0:0:0:0:s_035.ogg
329,192,164800,1,0,0:0:0:0:s_042.ogg
109,192,164966,1,0,0:0:0:0:s_030.ogg
402,192,164966,1,0,0:0:0:0:s_047.ogg
109,192,165133,1,0,0:0:0:0:s_030.ogg
402,192,165133,1,0,0:0:0:0:s_047.ogg
36,192,165300,1,0,0:0:0:0:l_022.ogg
182,192,165300,1,0,0:0:0:0:s_034.ogg
329,192,165300,1,0,0:0:0:0:s_042.ogg
109,192,165466,1,0,0:0:0:0:s_030.ogg
475,192,165466,1,0,0:0:0:0:s_049.ogg
109,192,165633,1,0,0:0:0:0:s_030.ogg
475,192,165633,1,0,0:0:0:0:s_049.ogg
182,192,165800,1,0,0:0:0:0:s_034.ogg
256,192,165800,1,0,0:0:0:0:m_052.ogg
329,192,165800,1,0,0:0:0:0:s_042.ogg
109,192,165966,1,0,0:0:0:0:s_030.ogg
475,192,165966,1,0,0:0:0:0:s_049.ogg
109,192,166133,1,0,0:0:0:0:s_030.ogg
475,192,166133,1,0,0:0:0:0:s_049.ogg
36,192,166300,1,0,0:0:0:0:m_023.ogg
182,192,166300,1,0,0:0:0:0:s_035.ogg
329,192,166300,1,0,0:0:0:0:m_051.ogg
402,192,166300,1,0,0:0:0:0:s_042.ogg
109,192,166466,1,0,0:0:0:0:s_030.ogg
256,192,166466,1,0,0:0:0:0:s_047.ogg
109,192,166633,1,0,0:0:0:0:s_030.ogg
256,192,166633,1,0,0:0:0:0:s_047.ogg
36,192,166800,1,0,0:0:0:0:m_022.ogg
182,192,166800,1,0,0:0:0:0:s_034.ogg
402,192,166800,1,0,0:0:0:0:m_054.ogg
475,192,166800,1,0,0:0:0:0:s_042.ogg
109,192,166966,1,0,0:0:0:0:s_030.ogg
329,192,166966,1,0,0:0:0:0:s_049.ogg
109,192,167133,1,0,0:0:0:0:s_030.ogg
329,192,167133,1,0,0:0:0:0:s_049.ogg
182,192,167300,1,0,0:0:0:0:s_032.ogg
256,192,167300,1,0,0:0:0:0:s_047.ogg
402,192,167300,1,0,0:0:0:0:m_059.ogg
475,192,167300,1,0,0:0:0:0:m_020.ogg
36,192,167466,1,0,0:0:0:0:s_023.ogg
329,192,167466,1,0,0:0:0:0:s_051.ogg
36,192,167633,1,0,0:0:0:0:s_023.ogg
329,192,167633,1,0,0:0:0:0:s_051.ogg
109,192,167800,1,0,0:0:0:0:m_020.ogg
182,192,167800,1,0,0:0:0:0:s_032.ogg
256,192,167800,1,0,0:0:0:0:s_047.ogg
475,192,167800,1,0,0:0:0:0:m_061.ogg
36,192,167966,1,0,0:0:0:0:s_023.ogg
402,192,167966,1,0,0:0:0:0:s_053.ogg
36,192,168133,1,0,0:0:0:0:s_023.ogg
402,192,168133,1,0,0:0:0:0:s_053.ogg
109,192,168300,1,0,0:0:0:0:s_018.ogg
256,192,168300,1,0,0:0:0:0:l_054.ogg
475,192,168300,1,0,0:0:0:0:s_046.ogg
36,192,168466,1,0,0:0:0:0:s_022.ogg
329,192,168466,1,0,0:0:0:0:s_049.ogg
109,192,168633,1,0,0:0:0:0:s_025.ogg
329,192,168633,1,0,0:0:0:0:s_049.ogg
182,192,168800,1,0,0:0:0:0:s_030.ogg
256,192,168800,1,0,0:0:0:0:s_046.ogg
36,192,168966,1,0,0:0:0:0:s_034.ogg
329,192,168966,1,0,0:0:0:0:s_049.ogg
109,192,169133,1,0,0:0:0:0:s_037.ogg
329,192,169133,1,0,0:0:0:0:s_049.ogg
256,192,169300,1,0,0:0:0:0:s_046.ogg
182,192,169300,128,0,170300:0:0:0:0:l_042.ogg
329,192,169466,1,0,0:0:0:0:s_049.ogg
329,192,169633,1,0,0:0:0:0:s_049.ogg
256,192,169800,1,0,0:0:0:0:s_046.ogg
402,192,169800,1,0,0:0:0:0:m_055.ogg
329,192,169966,1,0,0:0:0:0:s_049.ogg
329,192,170133,1,0,0:0:0:0:s_049.ogg
109,192,170300,1,0,0:0:0:0:s_016.ogg
256,192,170300,1,0,0:0:0:0:s_046.ogg
475,192,170300,1,0,0:0:0:0:l_056.ogg
36,192,170466,1,0,0:0:0:0:s_022.ogg
329,192,170466,1,0,0:0:0:0:s_049.ogg
109,192,170633,1,0,0:0:0:0:s_025.ogg
329,192,170633,1,0,0:0:0:0:s_049.ogg
182,192,170800,1,0,0:0:0:0:s_028.ogg
256,192,170800,1,0,0:0:0:0:s_046.ogg
36,192,170966,1,0,0:0:0:0:s_034.ogg
329,192,170966,1,0,0:0:0:0:s_049.ogg
109,192,171133,1,0,0:0:0:0:s_037.ogg
329,192,171133,1,0,0:0:0:0:s_049.ogg
329,192,171300,1,0,0:0:0:0:s_046.ogg
402,192,171300,1,0,0:0:0:0:m_049.ogg
182,192,171300,128,0,172300:0:0:0:0:l_040.ogg
256,192,171466,1,0,0:0:0:0:s_042.ogg
256,192,171633,1,0,0:0:0:0:s_042.ogg
402,192,171800,1,0,0:0:0:0:s_046.ogg
256,192,171966,1,0,0:0:0:0:s_042.ogg
329,192,172050,1,0,0:0:0:0:s_051.ogg
256,192,172133,1,0,0:0:0:0:s_042.ogg
402,192,172175,1,0,0:0:0:0:s_052.ogg
329,192,172300,1,0,0:0:0:0:l_054.ogg
475,192,172300,1,0,0:0:0:0:s_047.ogg
109,192,172300,128,0,173300:0:0:0:0:l_039.ogg
402,192,172466,1,0,0:0:0:0:s_042.ogg
402,192,172633,1,0,0:0:0:0:s_042.ogg
475,192,172800,1,0,0:0:0:0:s_047.ogg
402,192,172966,1,0,0:0:0:0:s_042.ogg
402,192,173133,1,0,0:0:0:0:s_042.ogg
329,192,173300,1,0,0:0:0:0:l_048.ogg
402,192,173300,1,0,0:0:0:0:s_042.ogg
36,192,173300,128,0,174300:0:0:0:0:l_032.ogg
256,192,173466,1,0,0:0:0:0:s_039.ogg
256,192,173633,1,0,0:0:0:0:s_039.ogg
402,192,173800,1,0,0:0:0:0:s_042.ogg
256,192,173966,1,0,0:0:0:0:s_039.ogg
256,192,174133,1,0,0:0:0:0:s_039.ogg
402,192,174300,1,0,0:0:0:0:s_044.ogg
475,192,174300,1,0,0:0:0:0:l_052.ogg
182,192,174300,128,0,175300:0:0:0:0:l_025.ogg
329,192,174466,1,0,0:0:0:0:s_040.ogg
329,192,174633,1,0,0:0:0:0:s_040.ogg
475,192,174800,1,0,0:0:0:0:s_044.ogg
329,192,174966,1,0,0:0:0:0:s_040.ogg
329,192,175133,1,0,0:0:0:0:s_040.ogg
36,192,175300,1,0,0:0:0:0:s_025.ogg
109,192,175300,1,0,0:0:0:0:m_018.ogg
256,192,175300,1,0,0:0:0:0:s_052.ogg
402,192,175300,1,0,0:0:0:0:s_046.ogg
182,192,175466,1,0,0:0:0:0:s_030.ogg
329,192,175466,1,0,0:0:0:0:s_040.ogg
475,192,175466,1,0,0:0:0:0:s_051.ogg
182,192,175633,1,0,0:0:0:0:s_030.ogg
329,192,175633,1,0,0:0:0:0:s_040.ogg
402,192,175633,1,0,0:0:0:0:s_049.ogg
36,192,175800,1,0,0:0:0:0:m_018.ogg
329,192,175800,1,0,0:0:0:0:s_040.ogg
402,192,175800,1,0,0:0:0:0:s_049.ogg
182,192,175966,1,0,0:0:0:0:s_030.ogg
256,192,175966,1,0,0:0:0:0:s_047.ogg
329,192,175966,1,0,0:0:0:0:s_040.ogg
182,192,176133,1,0,0:0:0:0:s_030.ogg
329,192,176133,1,0,0:0:0:0:s_040.ogg
402,192,176133,1,0,0:0:0:0:s_046.ogg
36,192,176300,1,0,0:0:0:0:m_039.ogg
256,192,176300,1,0,0:0:0:0:s_023.ogg
475,192,176300,1,0,0:0:0:0:m_047.ogg
182,192,176466,1,0,0:0:0:0:s_030.ogg
182,192,176633,1,0,0:0:0:0:s_030.ogg
182,192,176800,1,0,0:0:0:0:s_030.ogg
182,192,176966,1,0,0:0:0:0:s_030.ogg
182,192,177133,1,0,0:0:0:0:s_030.ogg
182,192,177300,1,0,0:0:0:0:s_030.ogg
182,192,177466,1,0,0:0:0:0:s_030.ogg
182,192,177633,1,0,0:0:0:0:s_030.ogg
182,192,177800,1,0,0:0:0:0:s_030.ogg
329,192,177800,1,0,0:0:0:0:m_054.ogg
182,192,177966,1,0,0:0:0:0:s_030.ogg
182,192,178133,1,0,0:0:0:0:s_030.ogg
402,192,178175,1,0,0:0:0:0:s_055.ogg
36,192,178300,1,0,0:0:0:0:s_018.ogg
109,192,178300,1,0,0:0:0:0:s_030.ogg
182,192,178300,1,0,0:0:0:0:s_028.ogg
475,192,178300,1,0,0:0:0:0:m_056.ogg
36,192,178466,1,0,0:0:0:0:s_018.ogg
109,192,178466,1,0,0:0:0:0:s_030.ogg
182,192,178466,1,0,0:0:0:0:s_028.ogg
36,192,178633,1,0,0:0:0:0:s_018.ogg
109,192,178633,1,0,0:0:0:0:s_030.ogg
182,192,178633,1,0,0:0:0:0:s_028.ogg
36,192,178800,1,0,0:0:0:0:s_018.ogg
109,192,178800,1,0,0:0:0:0:s_030.ogg
182,192,178800,1,0,0:0:0:0:s_028.ogg
36,192,178966,1,0,0:0:0:0:s_018.ogg
109,192,178966,1,0,0:0:0:0:s_028.ogg
182,192,178966,1,0,0:0:0:0:s_030.ogg
475,192,178966,1,0,0:0:0:0:s_054.ogg
36,192,179133,1,0,0:0:0:0:s_018.ogg
109,192,179133,1,0,0:0:0:0:s_028.ogg
182,192,179133,1,0,0:0:0:0:s_030.ogg
402,192,179133,1,0,0:0:0:0:s_052.ogg
36,192,179300,1,0,0:0:0:0:s_018.ogg
109,192,179300,1,0,0:0:0:0:s_028.ogg
182,192,179300,1,0,0:0:0:0:s_030.ogg
329,192,179300,1,0,0:0:0:0:s_051.ogg
36,192,179466,1,0,0:0:0:0:s_018.ogg
109,192,179466,1,0,0:0:0:0:s_028.ogg
182,192,179466,1,0,0:0:0:0:s_030.ogg
402,192,179466,1,0,0:0:0:0:s_049.ogg
36,192,179633,1,0,0:0:0:0:s_018.ogg
109,192,179633,1,0,0:0:0:0:s_028.ogg
182,192,179633,1,0,0:0:0:0:s_030.ogg
329,192,179633,1,0,0:0:0:0:s_047.ogg
36,192,179800,1,0,0:0:0:0:s_018.ogg
109,192,179800,1,0,0:0:0:0:s_028.ogg
182,192,179800,1,0,0:0:0:0:s_030.ogg
256,192,179800,1,0,0:0:0:0:s_046.ogg
475,192,179925,1,0,0:0:0:0:s_052.ogg
36,192,179966,1,0,0:0:0:0:s_028.ogg
109,192,179966,1,0,0:0:0:0:s_018.ogg
182,192,179966,1,0,0:0:0:0:s_030.ogg
402,192,180050,1,0,0:0:0:0:s_049.ogg
36,192,180133,1,0,0:0:0:0:s_028.ogg
109,192,180133,1,0,0:0:0:0:s_018.ogg
182,192,180133,1,0,0:0:0:0:s_030.ogg
256,192,180175,1,0,0:0:0:0:s_046.ogg
36,192,180300,1,0,0:0:0:0:s_023.ogg
109,192,180300,1,0,0:0:0:0:s_027.ogg
182,192,180300,1,0,0:0:0:0:s_030.ogg
329,192,180300,1,0,0:0:0:0:s_047.ogg
402,192,180372,1,0,0:0:0:0:s_049.ogg
329,192,180445,1,0,0:0:0:0:s_047.ogg
182,192,180466,1,0,0:0:0:0:s_030.ogg
256,192,180518,1,0,0:0:0:0:s_046.ogg
329,192,180591,1,0,0:0:0:0:s_047.ogg
182,192,180633,1,0,0:0:0:0:s_030.ogg
475,192,180675,1,0,0:0:0:0:s_051.ogg
182,192,180800,1,0,0:0:0:0:s_030.ogg
402,192,180800,1,0,0:0:0:0:m_042.ogg
182,192,180966,1,0,0:0:0:0:s_030.ogg
182,192,181133,1,0,0:0:0:0:s_030.ogg
182,192,181300,1,0,0:0:0:0:s_030.ogg
182,192,181466,1,0,0:0:0:0:s_030.ogg
182,192,181633,1,0,0:0:0:0:s_030.ogg
182,192,181800,1,0,0:0:0:0:s_030.ogg
256,192,181800,1,0,0:0:0:0:m_066.ogg
329,192,181800,1,0,0:0:0:0:m_054.ogg
182,192,181966,1,0,0:0:0:0:s_030.ogg
182,192,182133,1,0,0:0:0:0:s_030.ogg
256,192,182175,1,0,0:0:0:0:s_055.ogg
402,192,182175,1,0,0:0:0:0:s_067.ogg
36,192,182300,1,0,0:0:0:0:s_028.ogg
109,192,182300,1,0,0:0:0:0:s_018.ogg
182,192,182300,1,0,0:0:0:0:s_030.ogg
329,192,182300,1,0,0:0:0:0:l_068.ogg
475,192,182300,1,0,0:0:0:0:l_056.ogg
36,192,182466,1,0,0:0:0:0:s_028.ogg
109,192,182466,1,0,0:0:0:0:s_018.ogg
182,192,182466,1,0,0:0:0:0:s_030.ogg
36,192,182633,1,0,0:0:0:0:s_028.ogg
109,192,182633,1,0,0:0:0:0:s_018.ogg
182,192,182633,1,0,0:0:0:0:s_030.ogg
36,192,182800,1,0,0:0:0:0:s_028.ogg
109,192,182800,1,0,0:0:0:0:s_018.ogg
182,192,182800,1,0,0:0:0:0:s_030.ogg
36,192,182966,1,0,0:0:0:0:s_028.ogg
109,192,182966,1,0,0:0:0:0:s_018.ogg
182,192,182966,1,0,0:0:0:0:s_030.ogg
256,192,182966,1,0,0:0:0:0:m_066.ogg
329,192,182966,1,0,0:0:0:0:m_054.ogg
36,192,183133,1,0,0:0:0:0:s_028.ogg
109,192,183133,1,0,0:0:0:0:s_018.ogg
182,192,183133,1,0,0:0:0:0:s_030.ogg
402,192,183133,1,0,0:0:0:0:m_064.ogg
475,192,183133,1,0,0:0:0:0:m_052.ogg
36,192,183300,1,0,0:0:0:0:s_028.ogg
109,192,183300,1,0,0:0:0:0:s_018.ogg
182,192,183300,1,0,0:0:0:0:s_030.ogg
329,192,183300,1,0,0:0:0:0:m_051.ogg
475,192,183300,1,0,0:0:0:0:m_063.ogg
36,192,183466,1,0,0:0:0:0:s_028.ogg
109,192,183466,1,0,0:0:0:0:s_018.ogg
182,192,183466,1,0,0:0:0:0:s_030.ogg
329,192,183466,1,0,0:0:0:0:m_061.ogg
402,192,183466,1,0,0:0:0:0:m_049.ogg
36,192,183633,1,0,0:0:0:0:s_028.ogg
109,192,183633,1,0,0:0:0:0:s_018.ogg
182,192,183633,1,0,0:0:0:0:s_030.ogg
256,192,183633,1,0,0:0:0:0:s_059.ogg
402,192,183633,1,0,0:0:0:0:s_047.ogg
36,192,183800,1,0,0:0:0:0:s_028.ogg
109,192,183800,1,0,0:0:0:0:s_018.ogg
182,192,183800,1,0,0:0:0:0:s_030.ogg
256,192,183800,1,0,0:0:0:0:m_046.ogg
329,192,183800,1,0,0:0:0:0:m_058.ogg
36,192,183966,1,0,0:0:0:0:s_028.ogg
109,192,183966,1,0,0:0:0:0:s_018.ogg
182,192,183966,1,0,0:0:0:0:s_030.ogg
402,192,183966,1,0,0:0:0:0:m_052.ogg
475,192,183966,1,0,0:0:0:0:m_064.ogg
36,192,184133,1,0,0:0:0:0:s_028.ogg
109,192,184133,1,0,0:0:0:0:s_018.ogg
182,192,184133,1,0,0:0:0:0:s_030.ogg
256,192,184133,1,0,0:0:0:0:s_058.ogg
329,192,184133,1,0,0:0:0:0:s_046.ogg
36,192,184300,1,0,0:0:0:0:m_027.ogg
109,192,184300,1,0,0:0:0:0:m_023.ogg
182,192,184300,1,0,0:0:0:0:m_030.ogg
329,192,184300,1,0,0:0:0:0:m_059.ogg
402,192,184300,1,0,0:0:0:0:m_047.ogg
475,192,185237,1,0,0:0:0:0:s_054.ogg
402,192,185300,1,0,0:0:0:0:s_052.ogg
182,192,185300,128,0,186300:0:0:0:0:l_042.ogg
109,192,185300,128,0,186300:0:0:0:0:l_046.ogg
329,192,185466,1,0,0:0:0:0:s_051.ogg
402,192,185633,1,0,0:0:0:0:s_052.ogg
475,192,185800,1,0,0:0:0:0:s_056.ogg
402,192,185966,1,0,0:0:0:0:s_054.ogg
329,192,186133,1,0,0:0:0:0:s_052.ogg
36,192,186300,1,0,0:0:0:0:m_035.ogg
256,192,186300,1,0,0:0:0:0:m_047.ogg
475,192,186300,1,0,0:0:0:0:m_051.ogg
402,192,187247,1,0,0:0:0:0:s_051.ogg
329,192,187300,1,0,0:0:0:0:s_049.ogg
475,192,187300,1,0,0:0:0:0:l_046.ogg
109,192,187300,128,0,188300:0:0:0:0:l_040.ogg
36,192,187300,128,0,188300:0:0:0:0:l_030.ogg
256,192,187466,1,0,0:0:0:0:s_048.ogg
329,192,187633,1,0,0:0:0:0:s_049.ogg
402,192,187800,1,0,0:0:0:0:s_052.ogg
329,192,187966,1,0,0:0:0:0:s_051.ogg
256,192,188133,1,0,0:0:0:0:s_049.ogg
182,192,188300,1,0,0:0:0:0:m_047.ogg
402,192,188300,1,0,0:0:0:0:m_035.ogg
475,192,188300,1,0,0:0:0:0:m_039.ogg
329,192,189237,1,0,0:0:0:0:s_039.ogg
109,192,189300,1,0,0:0:0:0:l_028.ogg
256,192,189300,1,0,0:0:0:0:s_037.ogg
475,192,189300,128,0,190300:0:0:0:0:l_018.ogg
36,192,189300,128,0,190300:0:0:0:0:l_034.ogg
182,192,189466,1,0,0:0:0:0:s_036.ogg
256,192,189633,1,0,0:0:0:0:s_037.ogg
329,192,189800,1,0,0:0:0:0:s_040.ogg
256,192,189966,1,0,0:0:0:0:s_039.ogg
182,192,190133,1,0,0:0:0:0:s_037.ogg
109,192,190300,1,0,0:0:0:0:s_035.ogg
329,192,190300,1,0,0:0:0:0:s_027.ogg
402,192,190300,1,0,0:0:0:0:s_023.ogg
109,192,190800,1,0,0:0:0:0:s_027.ogg
182,192,190800,1,0,0:0:0:0:s_035.ogg
256,192,190800,1,0,0:0:0:0:s_030.ogg
402,192,190800,1,0,0:0:0:0:s_011.ogg
109,192,191300,1,0,0:0:0:0:m_023.ogg
182,192,191300,1,0,0:0:0:0:m_035.ogg
329,192,191300,1,0,0:0:0:0:m_027.ogg
402,192,191300,1,0,0:0:0:0:m_011.ogg
