osu file format v14

[General]
AudioFilename: virtual
AudioLeadIn: 0
PreviewTime: 0
Countdown: 0
SampleSet: Soft
StackLeniency: 0.7
Mode: 3
LetterboxInBreaks: 0
SpecialStyle: 0
WidescreenStoryboard: 1

[Editor]
DistanceSpacing: 0.8
BeatDivisor: 4
GridSize: 16
TimelineZoom: 1.300006

[Metadata]
Title:Piano Beatmap Set
TitleUnicode:Piano Beatmap Set
Artist:Collection
ArtistUnicode:Collection
Creator:CircusGalop
Version:Pathetique (Medley ver.) - 10K NM
Source:BMS
Tags:
BeatmapID:1325635
BeatmapSetID:332673

[Difficulty]
HPDrainRate:5
CircleSize:10
OverallDifficulty:5
ApproachRate:5
SliderMultiplier:1.4
SliderTickRate:1

[Events]
//Background and Video events
0,0,"CircusGalop.jpg",0,0
//Break Periods
//Storyboard Layer 0 (Background)
//Storyboard Layer 1 (Fail)
//Storyboard Layer 2 (Pass)
//Storyboard Layer 3 (Foreground)
//Storyboard Sound Samples
Sample,2400,0,"s_027.ogg",100
Sample,2550,0,"s_030.ogg",100
Sample,2700,0,"s_034.ogg",100
Sample,2850,0,"s_039.ogg",100
Sample,3000,0,"s_027.ogg",100
Sample,3150,0,"s_032.ogg",100
Sample,3300,0,"s_034.ogg",100
Sample,3450,0,"s_038.ogg",100
Sample,3600,0,"s_027.ogg",100
Sample,3750,0,"s_030.ogg",100
Sample,3900,0,"s_034.ogg",100
Sample,4050,0,"s_039.ogg",100
Sample,4200,0,"s_042.ogg",100
Sample,4350,0,"s_046.ogg",100
Sample,4500,0,"s_042.ogg",100
Sample,4650,0,"s_041.ogg",100
Sample,4800,0,"s_039.ogg",100
Sample,4950,0,"s_046.ogg",100
Sample,5100,0,"s_042.ogg",100
Sample,5100,0,"s_039.ogg",100
Sample,5250,0,"s_046.ogg",100
Sample,5400,0,"s_038.ogg",100
Sample,5550,0,"s_046.ogg",100
Sample,5700,0,"s_035.ogg",100
Sample,5850,0,"s_046.ogg",100
Sample,6150,0,"s_038.ogg",100
Sample,6300,0,"s_041.ogg",100
Sample,6450,0,"s_046.ogg",100
Sample,6600,0,"s_034.ogg",100
Sample,6750,0,"s_038.ogg",100
Sample,7237,0,"s_058.ogg",100
Sample,7275,0,"m_059.ogg",100
Sample,7350,0,"s_035.ogg",100
Sample,7500,0,"s_038.ogg",100
Sample,7650,0,"s_041.ogg",100
Sample,7950,0,"s_035.ogg",100
Sample,8437,0,"s_056.ogg",100
Sample,8475,0,"m_058.ogg",100
Sample,8550,0,"s_034.ogg",100
Sample,8700,0,"s_039.ogg",100
Sample,8850,0,"s_042.ogg",100
Sample,9150,0,"s_039.ogg",100
Sample,9750,0,"s_039.ogg",100
Sample,10350,0,"s_038.ogg",100
Sample,12000,0,"m_047.ogg",100
Sample,13200,0,"m_046.ogg",100
Sample,15750,0,"s_039.ogg",100
Sample,16050,0,"s_039.ogg",100
Sample,16200,0,"s_031.ogg",100
Sample,16350,0,"s_039.ogg",100
Sample,16650,0,"s_039.ogg",100
Sample,16800,0,"s_032.ogg",100
Sample,16950,0,"s_039.ogg",100
Sample,17100,0,"s_035.ogg",100
Sample,17250,0,"s_039.ogg",100
Sample,17400,0,"s_034.ogg",100
Sample,17550,0,"s_044.ogg",100
Sample,17700,0,"s_039.ogg",100
Sample,17850,0,"s_044.ogg",100
Sample,18000,0,"s_035.ogg",100
Sample,18150,0,"s_042.ogg",100
Sample,18300,0,"s_039.ogg",100
Sample,18450,0,"s_042.ogg",100
Sample,18600,0,"s_034.ogg",100
Sample,18750,0,"s_043.ogg",100
Sample,19050,0,"s_043.ogg",100
Sample,19200,0,"s_032.ogg",100
Sample,19350,0,"s_044.ogg",100
Sample,19500,0,"s_039.ogg",100
Sample,19650,0,"s_044.ogg",100
Sample,19800,0,"s_034.ogg",100
Sample,19950,0,"s_046.ogg",100
Sample,20100,0,"s_034.ogg",100
Sample,20250,0,"s_046.ogg",100
Sample,20400,0,"s_039.ogg",100
Sample,20700,0,"s_034.ogg",100
Sample,20700,0,"s_038.ogg",100
Sample,21000,0,"s_039.ogg",100
Sample,21000,0,"s_027.ogg",100
Sample,21300,0,"s_022.ogg",100
Sample,21300,0,"s_034.ogg",100
Sample,21600,0,"m_015.ogg",100
Sample,21600,0,"m_027.ogg",100
Sample,22800,0,"l_023.ogg",100
Sample,23800,0,"l_028.ogg",100
Sample,24800,0,"l_027.ogg",100
Sample,25800,0,"l_022.ogg",100
Sample,26800,0,"m_023.ogg",100
Sample,27300,0,"m_022.ogg",100
Sample,27800,0,"m_020.ogg",100
Sample,28300,0,"m_032.ogg",100
Sample,28800,0,"l_030.ogg",100
Sample,29800,0,"l_018.ogg",100
Sample,30800,0,"l_016.ogg",100
Sample,31800,0,"l_028.ogg",100
Sample,32800,0,"l_027.ogg",100
Sample,33800,0,"l_020.ogg",100
Sample,34800,0,"l_013.ogg",100
Sample,35800,0,"l_018.ogg",100
Sample,36800,0,"m_011.ogg",100
Sample,36800,0,"l_034.ogg",100
Sample,37300,0,"m_023.ogg",100
Sample,37800,0,"l_011.ogg",100
Sample,38800,0,"l_023.ogg",100
Sample,38800,0,"m_039.ogg",100
Sample,39800,0,"l_028.ogg",100
Sample,39800,0,"l_049.ogg",100
Sample,40800,0,"l_027.ogg",100
Sample,40800,0,"m_042.ogg",100
Sample,41800,0,"l_022.ogg",100
Sample,42300,0,"m_042.ogg",100
Sample,42800,0,"m_042.ogg",100
Sample,42800,0,"m_023.ogg",100
Sample,43300,0,"m_034.ogg",100
Sample,43300,0,"m_042.ogg",100
Sample,43800,0,"m_047.ogg",100
Sample,43800,0,"m_032.ogg",100
Sample,44300,0,"m_032.ogg",100
Sample,44300,0,"m_047.ogg",100
Sample,44800,0,"m_046.ogg",100
Sample,46300,0,"m_046.ogg",100
Sample,46800,0,"m_046.ogg",100
Sample,47800,0,"m_046.ogg",100
Sample,48550,0,"s_042.ogg",100
Sample,48800,0,"m_047.ogg",100
Sample,49800,0,"l_020.ogg",100
Sample,49800,0,"m_042.ogg",100
Sample,50800,0,"m_044.ogg",100
Sample,50800,0,"l_025.ogg",100
Sample,51800,0,"m_025.ogg",100
Sample,51800,0,"s_040.ogg",100
Sample,52050,0,"s_040.ogg",100
Sample,52300,0,"s_040.ogg",100
Sample,52550,0,"s_040.ogg",100
Sample,52800,0,"m_040.ogg",100
Sample,53800,0,"m_039.ogg",100
Sample,54800,0,"s_015.ogg",100
Sample,54893,0,"s_027.ogg",100
Sample,54987,0,"s_015.ogg",100
Sample,55081,0,"s_027.ogg",100
Sample,55175,0,"s_015.ogg",100
Sample,55268,0,"s_027.ogg",100
Sample,55362,0,"s_015.ogg",100
Sample,55456,0,"s_027.ogg",100
Sample,55550,0,"s_015.ogg",100
Sample,55643,0,"s_027.ogg",100
Sample,55737,0,"s_015.ogg",100
Sample,55831,0,"s_027.ogg",100
Sample,55925,0,"s_015.ogg",100
Sample,56018,0,"s_027.ogg",100
Sample,56112,0,"s_015.ogg",100
Sample,56206,0,"s_027.ogg",100
Sample,56300,0,"s_015.ogg",100
Sample,56393,0,"s_027.ogg",100
Sample,56487,0,"s_015.ogg",100
Sample,56581,0,"s_027.ogg",100
Sample,56675,0,"s_015.ogg",100
Sample,56768,0,"s_027.ogg",100
Sample,56862,0,"s_015.ogg",100
Sample,56956,0,"s_027.ogg",100
Sample,57050,0,"s_015.ogg",100
Sample,57143,0,"s_027.ogg",100
Sample,57237,0,"s_015.ogg",100
Sample,57331,0,"s_027.ogg",100
Sample,57425,0,"s_015.ogg",100
Sample,57518,0,"s_027.ogg",100
Sample,57612,0,"s_015.ogg",100
Sample,57706,0,"s_027.ogg",100
Sample,57800,0,"s_015.ogg",100
Sample,57800,0,"m_051.ogg",100
Sample,57893,0,"s_027.ogg",100
Sample,57987,0,"s_015.ogg",100
Sample,58081,0,"s_027.ogg",100
Sample,58175,0,"s_017.ogg",100
Sample,58175,0,"m_050.ogg",100
Sample,58268,0,"s_029.ogg",100
Sample,58362,0,"s_017.ogg",100
Sample,58456,0,"s_029.ogg",100
Sample,58550,0,"s_018.ogg",100
Sample,58643,0,"s_030.ogg",100
Sample,58737,0,"s_018.ogg",100
Sample,58831,0,"s_030.ogg",100
Sample,58925,0,"s_020.ogg",100
Sample,59018,0,"s_032.ogg",100
Sample,59112,0,"s_020.ogg",100
Sample,59206,0,"s_032.ogg",100
Sample,59300,0,"l_042.ogg",100
Sample,59393,0,"s_034.ogg",100
Sample,59487,0,"s_022.ogg",100
Sample,59581,0,"s_034.ogg",100
Sample,59675,0,"s_023.ogg",100
Sample,59768,0,"s_035.ogg",100
Sample,59862,0,"s_023.ogg",100
Sample,59956,0,"s_035.ogg",100
Sample,60050,0,"s_021.ogg",100
Sample,60143,0,"s_033.ogg",100
Sample,60237,0,"s_021.ogg",100
Sample,60331,0,"s_033.ogg",100
Sample,60425,0,"s_022.ogg",100
Sample,60518,0,"s_034.ogg",100
Sample,60612,0,"s_022.ogg",100
Sample,60706,0,"s_034.ogg",100
Sample,60800,0,"s_015.ogg",100
Sample,60893,0,"s_027.ogg",100
Sample,60987,0,"s_015.ogg",100
Sample,61081,0,"s_027.ogg",100
Sample,61175,0,"s_015.ogg",100
Sample,61268,0,"s_027.ogg",100
Sample,61362,0,"s_015.ogg",100
Sample,61456,0,"s_027.ogg",100
Sample,61550,0,"s_015.ogg",100
Sample,61643,0,"s_027.ogg",100
Sample,61737,0,"s_015.ogg",100
Sample,61831,0,"s_027.ogg",100
Sample,61925,0,"s_015.ogg",100
Sample,62018,0,"s_027.ogg",100
Sample,62112,0,"s_015.ogg",100
Sample,62206,0,"s_027.ogg",100
Sample,62300,0,"s_015.ogg",100
Sample,62393,0,"s_027.ogg",100
Sample,62487,0,"s_015.ogg",100
Sample,62581,0,"s_027.ogg",100
Sample,62675,0,"s_015.ogg",100
Sample,62768,0,"s_027.ogg",100
Sample,62862,0,"s_015.ogg",100
Sample,62956,0,"s_027.ogg",100
Sample,63050,0,"s_015.ogg",100
Sample,63143,0,"s_027.ogg",100
Sample,63237,0,"s_015.ogg",100
Sample,63331,0,"s_027.ogg",100
Sample,63425,0,"s_015.ogg",100
Sample,63518,0,"s_027.ogg",100
Sample,63612,0,"s_015.ogg",100
Sample,63706,0,"s_027.ogg",100
Sample,63800,0,"s_015.ogg",100
Sample,63800,0,"m_051.ogg",100
Sample,63893,0,"s_027.ogg",100
Sample,63987,0,"s_015.ogg",100
Sample,64081,0,"s_027.ogg",100
Sample,64175,0,"m_050.ogg",100
Sample,64175,0,"s_017.ogg",100
Sample,64268,0,"s_029.ogg",100
Sample,64362,0,"s_017.ogg",100
Sample,64456,0,"s_029.ogg",100
Sample,64550,0,"s_018.ogg",100
Sample,64643,0,"s_030.ogg",100
Sample,64737,0,"s_018.ogg",100
Sample,64831,0,"s_030.ogg",100
Sample,64925,0,"s_020.ogg",100
Sample,65018,0,"s_032.ogg",100
Sample,65112,0,"s_020.ogg",100
Sample,65206,0,"s_032.ogg",100
Sample,65300,0,"s_022.ogg",100
Sample,65393,0,"s_034.ogg",100
Sample,65487,0,"s_022.ogg",100
Sample,65581,0,"s_034.ogg",100
Sample,65675,0,"s_023.ogg",100
Sample,65768,0,"s_035.ogg",100
Sample,65862,0,"s_023.ogg",100
Sample,65956,0,"s_035.ogg",100
Sample,66050,0,"s_021.ogg",100
Sample,66143,0,"s_033.ogg",100
Sample,66237,0,"s_021.ogg",100
Sample,66331,0,"s_033.ogg",100
Sample,66425,0,"s_021.ogg",100
Sample,66518,0,"s_033.ogg",100
Sample,66612,0,"s_021.ogg",100
Sample,66706,0,"s_033.ogg",100
Sample,66800,0,"s_022.ogg",100
Sample,66800,0,"s_034.ogg",100
Sample,66987,0,"s_041.ogg",100
Sample,66987,0,"s_038.ogg",100
Sample,67175,0,"s_038.ogg",100
Sample,67175,0,"s_041.ogg",100
Sample,67362,0,"s_041.ogg",100
Sample,67362,0,"s_038.ogg",100
Sample,67550,0,"s_034.ogg",100
Sample,67737,0,"s_042.ogg",100
Sample,67737,0,"s_039.ogg",100
Sample,67925,0,"s_042.ogg",100
Sample,67925,0,"s_039.ogg",100
Sample,68112,0,"s_039.ogg",100
Sample,68112,0,"s_042.ogg",100
Sample,68300,0,"s_041.ogg",100
Sample,68300,0,"s_044.ogg",100
Sample,69425,0,"s_011.ogg",100
Sample,69518,0,"s_023.ogg",100
Sample,69612,0,"s_011.ogg",100
Sample,69706,0,"s_023.ogg",100
Sample,69800,0,"s_022.ogg",100
Sample,69800,0,"s_010.ogg",100
Sample,69987,0,"s_041.ogg",100
Sample,69987,0,"s_038.ogg",100
Sample,70175,0,"s_038.ogg",100
Sample,70175,0,"s_041.ogg",100
Sample,70362,0,"s_041.ogg",100
Sample,70362,0,"s_038.ogg",100
Sample,70550,0,"s_034.ogg",100
Sample,70737,0,"s_042.ogg",100
Sample,70737,0,"s_039.ogg",100
Sample,70925,0,"s_042.ogg",100
Sample,70925,0,"s_039.ogg",100
Sample,71112,0,"s_039.ogg",100
Sample,71112,0,"s_042.ogg",100
Sample,71300,0,"s_041.ogg",100
Sample,71300,0,"s_044.ogg",100
Sample,72425,0,"s_011.ogg",100
Sample,72518,0,"s_023.ogg",100
Sample,72612,0,"s_011.ogg",100
Sample,72706,0,"s_023.ogg",100
Sample,72800,0,"s_010.ogg",100
Sample,72893,0,"s_022.ogg",100
Sample,72987,0,"s_010.ogg",100
Sample,73081,0,"s_022.ogg",100
Sample,73175,0,"s_010.ogg",100
Sample,73268,0,"s_022.ogg",100
Sample,73362,0,"s_010.ogg",100
Sample,73456,0,"s_022.ogg",100
Sample,73550,0,"s_010.ogg",100
Sample,73643,0,"s_022.ogg",100
Sample,73737,0,"s_010.ogg",100
Sample,73831,0,"s_022.ogg",100
Sample,73925,0,"s_010.ogg",100
Sample,74018,0,"s_022.ogg",100
Sample,74112,0,"s_010.ogg",100
Sample,74206,0,"s_022.ogg",100
Sample,74300,0,"s_010.ogg",100
Sample,74393,0,"s_022.ogg",100
Sample,74487,0,"s_010.ogg",100
Sample,74581,0,"s_022.ogg",100
Sample,74675,0,"s_010.ogg",100
Sample,74768,0,"s_022.ogg",100
Sample,74862,0,"s_010.ogg",100
Sample,74956,0,"s_022.ogg",100
Sample,75050,0,"s_010.ogg",100
Sample,75143,0,"s_022.ogg",100
Sample,75237,0,"s_010.ogg",100
Sample,75331,0,"s_022.ogg",100
Sample,75425,0,"s_010.ogg",100
Sample,75518,0,"s_022.ogg",100
Sample,75612,0,"s_010.ogg",100
Sample,75706,0,"s_022.ogg",100
Sample,75800,0,"s_011.ogg",100
Sample,75893,0,"s_023.ogg",100
Sample,75987,0,"s_011.ogg",100
Sample,76081,0,"s_023.ogg",100
Sample,76175,0,"s_011.ogg",100
Sample,76268,0,"s_023.ogg",100
Sample,76362,0,"s_011.ogg",100
Sample,76456,0,"s_023.ogg",100
Sample,76550,0,"s_011.ogg",100
Sample,76643,0,"s_023.ogg",100
Sample,76737,0,"s_011.ogg",100
Sample,76831,0,"s_023.ogg",100
Sample,76925,0,"s_011.ogg",100
Sample,77018,0,"s_023.ogg",100
Sample,77112,0,"s_011.ogg",100
Sample,77206,0,"s_023.ogg",100
Sample,77300,0,"s_011.ogg",100
Sample,77393,0,"s_023.ogg",100
Sample,77487,0,"s_011.ogg",100
Sample,77581,0,"s_023.ogg",100
Sample,77675,0,"s_011.ogg",100
Sample,77768,0,"s_023.ogg",100
Sample,77862,0,"s_011.ogg",100
Sample,77956,0,"s_023.ogg",100
Sample,78050,0,"s_012.ogg",100
Sample,78143,0,"s_024.ogg",100
Sample,78237,0,"s_012.ogg",100
Sample,78331,0,"s_024.ogg",100
Sample,78425,0,"s_012.ogg",100
Sample,78518,0,"s_024.ogg",100
Sample,78612,0,"s_012.ogg",100
Sample,78706,0,"s_024.ogg",100
Sample,78800,0,"s_013.ogg",100
Sample,78893,0,"s_025.ogg",100
Sample,78987,0,"s_013.ogg",100
Sample,79081,0,"s_025.ogg",100
Sample,79175,0,"s_013.ogg",100
Sample,79268,0,"s_025.ogg",100
Sample,79362,0,"s_013.ogg",100
Sample,79456,0,"s_025.ogg",100
Sample,79550,0,"s_013.ogg",100
Sample,79643,0,"s_025.ogg",100
Sample,79737,0,"s_013.ogg",100
Sample,79831,0,"s_025.ogg",100
Sample,79925,0,"s_013.ogg",100
Sample,80018,0,"s_025.ogg",100
Sample,80112,0,"s_013.ogg",100
Sample,80206,0,"s_025.ogg",100
Sample,80300,0,"s_013.ogg",100
Sample,80393,0,"s_025.ogg",100
Sample,80487,0,"s_013.ogg",100
Sample,80581,0,"s_025.ogg",100
Sample,80675,0,"s_013.ogg",100
Sample,80768,0,"s_025.ogg",100
Sample,80862,0,"s_013.ogg",100
Sample,80956,0,"s_025.ogg",100
Sample,81050,0,"s_013.ogg",100
Sample,81143,0,"s_025.ogg",100
Sample,81237,0,"s_013.ogg",100
Sample,81331,0,"s_025.ogg",100
Sample,81425,0,"s_013.ogg",100
Sample,81518,0,"s_025.ogg",100
Sample,81612,0,"s_013.ogg",100
Sample,81706,0,"s_025.ogg",100
Sample,81800,0,"s_013.ogg",100
Sample,81893,0,"s_025.ogg",100
Sample,81987,0,"s_013.ogg",100
Sample,82081,0,"s_025.ogg",100
Sample,82175,0,"s_013.ogg",100
Sample,82268,0,"s_025.ogg",100
Sample,82362,0,"s_013.ogg",100
Sample,82456,0,"s_025.ogg",100
Sample,82550,0,"s_013.ogg",100
Sample,82643,0,"s_025.ogg",100
Sample,82737,0,"s_013.ogg",100
Sample,82831,0,"s_025.ogg",100
Sample,82925,0,"s_013.ogg",100
Sample,83018,0,"s_025.ogg",100
Sample,83112,0,"s_013.ogg",100
Sample,83206,0,"s_025.ogg",100
Sample,83300,0,"s_013.ogg",100
Sample,83300,0,"s_025.ogg",100
Sample,84987,0,"s_045.ogg",100
Sample,84987,0,"s_042.ogg",100
Sample,85175,0,"s_045.ogg",100
Sample,85175,0,"s_042.ogg",100
Sample,85362,0,"s_042.ogg",100
Sample,85362,0,"s_045.ogg",100
Sample,85550,0,"m_037.ogg",100
Sample,85737,0,"s_045.ogg",100
Sample,85737,0,"s_042.ogg",100
Sample,85925,0,"s_045.ogg",100
Sample,85925,0,"s_042.ogg",100
Sample,86112,0,"s_042.ogg",100
Sample,86112,0,"s_045.ogg",100
Sample,86300,0,"m_037.ogg",100
Sample,86487,0,"s_045.ogg",100
Sample,86487,0,"s_042.ogg",100
Sample,86675,0,"s_045.ogg",100
Sample,86675,0,"s_042.ogg",100
Sample,86862,0,"s_042.ogg",100
Sample,86862,0,"s_045.ogg",100
Sample,87050,0,"s_049.ogg",100
Sample,87237,0,"s_045.ogg",100
Sample,87237,0,"s_042.ogg",100
Sample,87425,0,"s_045.ogg",100
Sample,87425,0,"s_042.ogg",100
Sample,87612,0,"s_042.ogg",100
Sample,87612,0,"s_045.ogg",100
Sample,87800,0,"m_037.ogg",100
Sample,87987,0,"s_044.ogg",100
Sample,87987,0,"s_047.ogg",100
Sample,88175,0,"s_047.ogg",100
Sample,88175,0,"s_044.ogg",100
Sample,88362,0,"s_044.ogg",100
Sample,88362,0,"s_047.ogg",100
Sample,88550,0,"m_037.ogg",100
Sample,88737,0,"s_044.ogg",100
Sample,88737,0,"s_047.ogg",100
Sample,88925,0,"s_047.ogg",100
Sample,88925,0,"s_044.ogg",100
Sample,89112,0,"s_044.ogg",100
Sample,89112,0,"s_047.ogg",100
Sample,89300,0,"m_037.ogg",100
Sample,89487,0,"s_044.ogg",100
Sample,89487,0,"s_047.ogg",100
Sample,89675,0,"s_047.ogg",100
Sample,89675,0,"s_044.ogg",100
Sample,89862,0,"s_044.ogg",100
Sample,89862,0,"s_047.ogg",100
Sample,90050,0,"m_037.ogg",100
Sample,90237,0,"s_044.ogg",100
Sample,90237,0,"s_047.ogg",100
Sample,90425,0,"s_047.ogg",100
Sample,90425,0,"s_044.ogg",100
Sample,90612,0,"s_044.ogg",100
Sample,90612,0,"s_047.ogg",100
Sample,90800,0,"m_037.ogg",100
Sample,90987,0,"s_045.ogg",100
Sample,90987,0,"s_042.ogg",100
Sample,91175,0,"s_045.ogg",100
Sample,91175,0,"s_042.ogg",100
Sample,91362,0,"s_042.ogg",100
Sample,91362,0,"s_045.ogg",100
Sample,91550,0,"m_037.ogg",100
Sample,91737,0,"s_045.ogg",100
Sample,91737,0,"s_042.ogg",100
Sample,91925,0,"s_045.ogg",100
Sample,91925,0,"s_042.ogg",100
Sample,92112,0,"s_042.ogg",100
Sample,92112,0,"s_045.ogg",100
Sample,92300,0,"m_037.ogg",100
Sample,92487,0,"s_045.ogg",100
Sample,92487,0,"s_042.ogg",100
Sample,92675,0,"s_045.ogg",100
Sample,92675,0,"s_042.ogg",100
Sample,92862,0,"s_042.ogg",100
Sample,92862,0,"s_045.ogg",100
Sample,93050,0,"m_037.ogg",100
Sample,93237,0,"s_045.ogg",100
Sample,93237,0,"s_042.ogg",100
Sample,93425,0,"s_045.ogg",100
Sample,93425,0,"s_042.ogg",100
Sample,93612,0,"s_042.ogg",100
Sample,93612,0,"s_045.ogg",100
Sample,93800,0,"m_035.ogg",100
Sample,93987,0,"s_045.ogg",100
Sample,93987,0,"s_042.ogg",100
Sample,94175,0,"s_045.ogg",100
Sample,94175,0,"s_042.ogg",100
Sample,94362,0,"s_042.ogg",100
Sample,94362,0,"s_045.ogg",100
Sample,94550,0,"m_035.ogg",100
Sample,94737,0,"s_042.ogg",100
Sample,94737,0,"s_045.ogg",100
Sample,94925,0,"s_045.ogg",100
Sample,94925,0,"s_042.ogg",100
Sample,95112,0,"s_042.ogg",100
Sample,95112,0,"s_045.ogg",100
Sample,95300,0,"m_035.ogg",100
Sample,95487,0,"s_045.ogg",100
Sample,95487,0,"s_042.ogg",100
Sample,95675,0,"s_045.ogg",100
Sample,95675,0,"s_042.ogg",100
Sample,95862,0,"s_045.ogg",100
Sample,95862,0,"s_042.ogg",100
Sample,96050,0,"m_035.ogg",100
Sample,96237,0,"s_042.ogg",100
Sample,96237,0,"s_045.ogg",100
Sample,96425,0,"s_045.ogg",100
Sample,96425,0,"s_042.ogg",100
Sample,96612,0,"s_042.ogg",100
Sample,96612,0,"s_045.ogg",100
Sample,96800,0,"m_035.ogg",100
Sample,96987,0,"s_040.ogg",100
Sample,96987,0,"s_044.ogg",100
Sample,97175,0,"s_044.ogg",100
Sample,97175,0,"s_040.ogg",100
Sample,97362,0,"s_040.ogg",100
Sample,97362,0,"s_044.ogg",100
Sample,97550,0,"m_035.ogg",100
Sample,97737,0,"s_040.ogg",100
Sample,97737,0,"s_044.ogg",100
Sample,97925,0,"s_044.ogg",100
Sample,97925,0,"s_040.ogg",100
Sample,98112,0,"s_040.ogg",100
Sample,98112,0,"s_044.ogg",100
Sample,98300,0,"s_047.ogg",100
Sample,98487,0,"s_040.ogg",100
Sample,98487,0,"s_044.ogg",100
Sample,98675,0,"s_044.ogg",100
Sample,98675,0,"s_040.ogg",100
Sample,98862,0,"s_040.ogg",100
Sample,98862,0,"s_044.ogg",100
Sample,99050,0,"s_047.ogg",100
Sample,99237,0,"s_040.ogg",100
Sample,99237,0,"s_044.ogg",100
Sample,99425,0,"s_044.ogg",100
Sample,99425,0,"s_040.ogg",100
Sample,99612,0,"s_040.ogg",100
Sample,99612,0,"s_044.ogg",100
Sample,99800,0,"m_035.ogg",100
Sample,99987,0,"s_045.ogg",100
Sample,99987,0,"s_042.ogg",100
Sample,100175,0,"s_042.ogg",100
Sample,100175,0,"s_045.ogg",100
Sample,100362,0,"s_045.ogg",100
Sample,100362,0,"s_042.ogg",100
Sample,100550,0,"m_035.ogg",100
Sample,100737,0,"s_045.ogg",100
Sample,100737,0,"s_042.ogg",100
Sample,100925,0,"s_042.ogg",100
Sample,100925,0,"s_045.ogg",100
Sample,101112,0,"s_045.ogg",100
Sample,101112,0,"s_042.ogg",100
Sample,101300,0,"m_035.ogg",100
Sample,101487,0,"s_045.ogg",100
Sample,101487,0,"s_042.ogg",100
Sample,101675,0,"s_042.ogg",100
Sample,101675,0,"s_045.ogg",100
Sample,101862,0,"s_045.ogg",100
Sample,101862,0,"s_042.ogg",100
Sample,102050,0,"m_035.ogg",100
Sample,102237,0,"s_045.ogg",100
Sample,102237,0,"s_042.ogg",100
Sample,102425,0,"s_042.ogg",100
Sample,102425,0,"s_045.ogg",100
Sample,102612,0,"s_045.ogg",100
Sample,102612,0,"s_042.ogg",100
Sample,102987,0,"s_047.ogg",100
Sample,102987,0,"s_028.ogg",100
Sample,102987,0,"s_044.ogg",100
Sample,103175,0,"s_035.ogg",100
Sample,103362,0,"s_047.ogg",100
Sample,103362,0,"s_026.ogg",100
Sample,103362,0,"s_044.ogg",100
Sample,103550,0,"s_025.ogg",100
Sample,103737,0,"s_047.ogg",100
Sample,103737,0,"s_044.ogg",100
Sample,103925,0,"s_047.ogg",100
Sample,103925,0,"s_044.ogg",100
Sample,104112,0,"s_044.ogg",100
Sample,104112,0,"s_047.ogg",100
Sample,104300,0,"m_037.ogg",100
Sample,104487,0,"s_047.ogg",100
Sample,104487,0,"s_044.ogg",100
Sample,104675,0,"s_047.ogg",100
Sample,104675,0,"s_044.ogg",100
Sample,104862,0,"s_044.ogg",100
Sample,104862,0,"s_047.ogg",100
Sample,105050,0,"m_037.ogg",100
Sample,105237,0,"s_047.ogg",100
Sample,105237,0,"s_044.ogg",100
Sample,105425,0,"s_047.ogg",100
Sample,105425,0,"s_044.ogg",100
Sample,105612,0,"s_044.ogg",100
Sample,105612,0,"s_047.ogg",100
Sample,105987,0,"s_030.ogg",100
Sample,105987,0,"s_045.ogg",100
Sample,105987,0,"s_049.ogg",100
Sample,106175,0,"s_037.ogg",100
Sample,106362,0,"s_049.ogg",100
Sample,106362,0,"s_028.ogg",100
Sample,106362,0,"s_044.ogg",100
Sample,106550,0,"s_027.ogg",100
Sample,106737,0,"s_046.ogg",100
Sample,106737,0,"s_049.ogg",100
Sample,106925,0,"s_046.ogg",100
Sample,106925,0,"s_049.ogg",100
Sample,107112,0,"s_046.ogg",100
Sample,107112,0,"s_049.ogg",100
Sample,107300,0,"m_039.ogg",100
Sample,107487,0,"s_046.ogg",100
Sample,107487,0,"s_049.ogg",100
Sample,107675,0,"s_049.ogg",100
Sample,107675,0,"s_046.ogg",100
Sample,107862,0,"s_046.ogg",100
Sample,107862,0,"s_049.ogg",100
Sample,108050,0,"m_039.ogg",100
Sample,108237,0,"s_046.ogg",100
Sample,108237,0,"s_049.ogg",100
Sample,108425,0,"s_049.ogg",100
Sample,108425,0,"s_046.ogg",100
Sample,108612,0,"s_046.ogg",100
Sample,108612,0,"s_049.ogg",100
Sample,108800,0,"m_044.ogg",100
Sample,108987,0,"s_047.ogg",100
Sample,108987,0,"s_051.ogg",100
Sample,109175,0,"s_047.ogg",100
Sample,109175,0,"s_051.ogg",100
Sample,109362,0,"s_051.ogg",100
Sample,109362,0,"s_047.ogg",100
Sample,109550,0,"s_054.ogg",100
Sample,109737,0,"s_044.ogg",100
Sample,109737,0,"s_047.ogg",100
Sample,109925,0,"s_044.ogg",100
Sample,109925,0,"m_038.ogg",100
Sample,109925,0,"s_047.ogg",100
Sample,110112,0,"s_044.ogg",100
Sample,110112,0,"s_047.ogg",100
Sample,110300,0,"m_039.ogg",100
Sample,110487,0,"s_054.ogg",100
Sample,110487,0,"s_046.ogg",100
Sample,110675,0,"s_046.ogg",100
Sample,110675,0,"s_042.ogg",100
Sample,110862,0,"s_042.ogg",100
Sample,110862,0,"s_053.ogg",100
Sample,111050,0,"m_035.ogg",100
Sample,111237,0,"s_044.ogg",100
Sample,111237,0,"s_042.ogg",100
Sample,111425,0,"s_044.ogg",100
Sample,111425,0,"s_042.ogg",100
Sample,111612,0,"s_042.ogg",100
Sample,111612,0,"s_044.ogg",100
Sample,111800,0,"m_037.ogg",100
Sample,111987,0,"s_042.ogg",100
Sample,111987,0,"s_046.ogg",100
Sample,112175,0,"s_049.ogg",100
Sample,112175,0,"s_042.ogg",100
Sample,112362,0,"s_042.ogg",100
Sample,112362,0,"s_049.ogg",100
Sample,112550,0,"m_037.ogg",100
Sample,112737,0,"s_044.ogg",100
Sample,112737,0,"s_041.ogg",100
Sample,112925,0,"s_044.ogg",100
Sample,112925,0,"s_041.ogg",100
Sample,113112,0,"s_041.ogg",100
Sample,113112,0,"s_044.ogg",100
Sample,113393,0,"s_037.ogg",100
Sample,113487,0,"s_034.ogg",100
Sample,113581,0,"s_037.ogg",100
Sample,113675,0,"s_034.ogg",100
Sample,113768,0,"s_037.ogg",100
Sample,113862,0,"s_034.ogg",100
Sample,113956,0,"s_037.ogg",100
Sample,114050,0,"s_034.ogg",100
Sample,114143,0,"s_037.ogg",100
Sample,114237,0,"s_034.ogg",100
Sample,114331,0,"s_037.ogg",100
Sample,114425,0,"m_030.ogg",100
Sample,114518,0,"s_037.ogg",100
Sample,114612,0,"s_034.ogg",100
Sample,114706,0,"s_037.ogg",100
Sample,114893,0,"s_037.ogg",100
Sample,114987,0,"s_034.ogg",100
Sample,115081,0,"s_037.ogg",100
Sample,115175,0,"s_034.ogg",100
Sample,115268,0,"s_037.ogg",100
Sample,115362,0,"s_034.ogg",100
Sample,115456,0,"s_037.ogg",100
Sample,115550,0,"s_034.ogg",100
Sample,115643,0,"s_037.ogg",100
Sample,115737,0,"s_034.ogg",100
Sample,115831,0,"s_037.ogg",100
Sample,115925,0,"m_028.ogg",100
Sample,116018,0,"s_037.ogg",100
Sample,116112,0,"s_034.ogg",100
Sample,116206,0,"s_037.ogg",100
Sample,116300,0,"s_027.ogg",100
Sample,116393,0,"s_035.ogg",100
Sample,116487,0,"s_030.ogg",100
Sample,116581,0,"s_035.ogg",100
Sample,116675,0,"s_025.ogg",100
Sample,116768,0,"s_034.ogg",100
Sample,116862,0,"s_027.ogg",100
Sample,116956,0,"s_034.ogg",100
Sample,117050,0,"s_023.ogg",100
Sample,117143,0,"s_035.ogg",100
Sample,117237,0,"s_027.ogg",100
Sample,117331,0,"s_035.ogg",100
Sample,117425,0,"s_022.ogg",100
Sample,117518,0,"s_034.ogg",100
Sample,117612,0,"s_027.ogg",100
Sample,117706,0,"s_034.ogg",100
Sample,117800,0,"s_020.ogg",100
Sample,117893,0,"s_032.ogg",100
Sample,117987,0,"s_027.ogg",100
Sample,118081,0,"s_032.ogg",100
Sample,118175,0,"s_018.ogg",100
Sample,118268,0,"s_030.ogg",100
Sample,118362,0,"s_020.ogg",100
Sample,118456,0,"s_030.ogg",100
Sample,118550,0,"s_017.ogg",100
Sample,118643,0,"s_029.ogg",100
Sample,118737,0,"s_020.ogg",100
Sample,118831,0,"s_029.ogg",100
Sample,118925,0,"s_015.ogg",100
Sample,119018,0,"s_027.ogg",100
Sample,119112,0,"s_020.ogg",100
Sample,119206,0,"s_027.ogg",100
Sample,119300,0,"s_013.ogg",100
Sample,119393,0,"s_025.ogg",100
Sample,119487,0,"s_020.ogg",100
Sample,119581,0,"s_025.ogg",100
Sample,119675,0,"s_011.ogg",100
Sample,119768,0,"s_023.ogg",100
Sample,119862,0,"s_020.ogg",100
Sample,119956,0,"s_023.ogg",100
Sample,120050,0,"s_010.ogg",100
Sample,120143,0,"s_022.ogg",100
Sample,120237,0,"s_018.ogg",100
Sample,120331,0,"s_022.ogg",100
Sample,120425,0,"s_010.ogg",100
Sample,120518,0,"s_022.ogg",100
Sample,120612,0,"s_018.ogg",100
Sample,120706,0,"s_022.ogg",100
Sample,120800,0,"m_023.ogg",100
Sample,121550,0,"m_013.ogg",100
Sample,122393,0,"s_037.ogg",100
Sample,122487,0,"s_034.ogg",100
Sample,122581,0,"s_037.ogg",100
Sample,122675,0,"s_034.ogg",100
Sample,122768,0,"s_037.ogg",100
Sample,122862,0,"s_034.ogg",100
Sample,122956,0,"s_037.ogg",100
Sample,123050,0,"s_034.ogg",100
Sample,123143,0,"s_037.ogg",100
Sample,123237,0,"s_034.ogg",100
Sample,123331,0,"s_037.ogg",100
Sample,123425,0,"m_030.ogg",100
Sample,123518,0,"s_037.ogg",100
Sample,123612,0,"s_034.ogg",100
Sample,123706,0,"s_037.ogg",100
Sample,123893,0,"s_037.ogg",100
Sample,123987,0,"s_034.ogg",100
Sample,124081,0,"s_037.ogg",100
Sample,124175,0,"s_034.ogg",100
Sample,124268,0,"s_037.ogg",100
Sample,124362,0,"s_034.ogg",100
Sample,124456,0,"s_037.ogg",100
Sample,124550,0,"s_034.ogg",100
Sample,124643,0,"s_037.ogg",100
Sample,124737,0,"s_034.ogg",100
Sample,124831,0,"s_037.ogg",100
Sample,124925,0,"m_028.ogg",100
Sample,125018,0,"s_037.ogg",100
Sample,125112,0,"s_034.ogg",100
Sample,125206,0,"s_037.ogg",100
Sample,125300,0,"s_027.ogg",100
Sample,125393,0,"s_035.ogg",100
Sample,125487,0,"s_030.ogg",100
Sample,125581,0,"s_035.ogg",100
Sample,125675,0,"s_025.ogg",100
Sample,125768,0,"s_034.ogg",100
Sample,125862,0,"s_027.ogg",100
Sample,125956,0,"s_034.ogg",100
Sample,126050,0,"s_023.ogg",100
Sample,126143,0,"s_035.ogg",100
Sample,126237,0,"s_027.ogg",100
Sample,126331,0,"s_035.ogg",100
Sample,126425,0,"s_022.ogg",100
Sample,126518,0,"s_034.ogg",100
Sample,126612,0,"s_027.ogg",100
Sample,126706,0,"s_034.ogg",100
Sample,126800,0,"s_020.ogg",100
Sample,126893,0,"s_032.ogg",100
Sample,126987,0,"s_027.ogg",100
Sample,127081,0,"s_032.ogg",100
Sample,127175,0,"s_018.ogg",100
Sample,127268,0,"s_030.ogg",100
Sample,127362,0,"s_020.ogg",100
Sample,127456,0,"s_030.ogg",100
Sample,127550,0,"s_017.ogg",100
Sample,127643,0,"s_029.ogg",100
Sample,127737,0,"s_020.ogg",100
Sample,127831,0,"s_029.ogg",100
Sample,127925,0,"s_015.ogg",100
Sample,128018,0,"s_027.ogg",100
Sample,128112,0,"s_020.ogg",100
Sample,128206,0,"s_027.ogg",100
Sample,128300,0,"s_013.ogg",100
Sample,128393,0,"s_025.ogg",100
Sample,128487,0,"s_020.ogg",100
Sample,128581,0,"s_025.ogg",100
Sample,128675,0,"s_011.ogg",100
Sample,128768,0,"s_023.ogg",100
Sample,128862,0,"s_020.ogg",100
Sample,128956,0,"s_023.ogg",100
Sample,129050,0,"s_010.ogg",100
Sample,129143,0,"s_022.ogg",100
Sample,129237,0,"s_018.ogg",100
Sample,129331,0,"s_022.ogg",100
Sample,129425,0,"s_010.ogg",100
Sample,129518,0,"s_022.ogg",100
Sample,129612,0,"s_010.ogg",100
Sample,129706,0,"s_022.ogg",100
Sample,129800,0,"m_011.ogg",100
Sample,130550,0,"m_013.ogg",100
Sample,131300,0,"s_018.ogg",100
Sample,131300,0,"s_030.ogg",100
Sample,131487,0,"s_046.ogg",100
Sample,131487,0,"s_042.ogg",100
Sample,131675,0,"s_046.ogg",100
Sample,131675,0,"s_042.ogg",100
Sample,131862,0,"s_042.ogg",100
Sample,131862,0,"s_046.ogg",100
Sample,132050,0,"m_039.ogg",100
Sample,132237,0,"s_042.ogg",100
Sample,132237,0,"s_046.ogg",100
Sample,132425,0,"s_046.ogg",100
Sample,132425,0,"s_042.ogg",100
Sample,132612,0,"s_042.ogg",100
Sample,132612,0,"s_046.ogg",100
Sample,132800,0,"m_035.ogg",100
Sample,132987,0,"s_044.ogg",100
Sample,132987,0,"s_042.ogg",100
Sample,133175,0,"s_044.ogg",100
Sample,133175,0,"s_042.ogg",100
Sample,133362,0,"s_042.ogg",100
Sample,133362,0,"s_044.ogg",100
Sample,133550,0,"m_037.ogg",100
Sample,133737,0,"s_044.ogg",100
Sample,133737,0,"s_041.ogg",100
Sample,133925,0,"s_044.ogg",100
Sample,133925,0,"s_041.ogg",100
Sample,134112,0,"s_041.ogg",100
Sample,134112,0,"s_044.ogg",100
Sample,134300,0,"m_030.ogg",100
Sample,134487,0,"s_034.ogg",100
Sample,134487,0,"s_042.ogg",100
Sample,134675,0,"s_034.ogg",100
Sample,134675,0,"s_042.ogg",100
Sample,134862,0,"s_042.ogg",100
Sample,134862,0,"s_034.ogg",100
Sample,135050,0,"m_027.ogg",100
Sample,135237,0,"s_039.ogg",100
Sample,135237,0,"s_030.ogg",100
Sample,135237,0,"s_034.ogg",100
Sample,135425,0,"s_030.ogg",100
Sample,135425,0,"s_034.ogg",100
Sample,135425,0,"s_039.ogg",100
Sample,135612,0,"s_039.ogg",100
Sample,135612,0,"s_030.ogg",100
Sample,135612,0,"s_034.ogg",100
Sample,135800,0,"m_023.ogg",100
Sample,135987,0,"s_035.ogg",100
Sample,135987,0,"s_030.ogg",100
Sample,135987,0,"s_032.ogg",100
Sample,136175,0,"s_030.ogg",100
Sample,136175,0,"s_032.ogg",100
Sample,136175,0,"s_035.ogg",100
Sample,136362,0,"s_035.ogg",100
Sample,136362,0,"s_030.ogg",100
Sample,136362,0,"s_032.ogg",100
Sample,136550,0,"m_025.ogg",100
Sample,136737,0,"s_037.ogg",100
Sample,136737,0,"s_029.ogg",100
Sample,136737,0,"s_032.ogg",100
Sample,136925,0,"s_029.ogg",100
Sample,136925,0,"s_032.ogg",100
Sample,136925,0,"s_037.ogg",100
Sample,137112,0,"s_037.ogg",100
Sample,137112,0,"s_029.ogg",100
Sample,137112,0,"s_032.ogg",100
Sample,137300,0,"s_018.ogg",100
Sample,137393,0,"s_030.ogg",100
Sample,137487,0,"s_018.ogg",100
Sample,137581,0,"s_030.ogg",100
Sample,137675,0,"s_018.ogg",100
Sample,137768,0,"s_030.ogg",100
Sample,137862,0,"s_018.ogg",100
Sample,137956,0,"s_030.ogg",100
Sample,138050,0,"s_018.ogg",100
Sample,138143,0,"s_030.ogg",100
Sample,138237,0,"s_018.ogg",100
Sample,138331,0,"s_030.ogg",100
Sample,138425,0,"s_018.ogg",100
Sample,138518,0,"s_030.ogg",100
Sample,138612,0,"s_018.ogg",100
Sample,138706,0,"s_030.ogg",100
Sample,138800,0,"s_018.ogg",100
Sample,138893,0,"s_030.ogg",100
Sample,139081,0,"s_030.ogg",100
Sample,139175,0,"s_018.ogg",100
Sample,139268,0,"s_030.ogg",100
Sample,139362,0,"s_018.ogg",100
Sample,139456,0,"s_030.ogg",100
Sample,139550,0,"s_018.ogg",100
Sample,139643,0,"s_030.ogg",100
Sample,139737,0,"s_018.ogg",100
Sample,139831,0,"s_030.ogg",100
Sample,139925,0,"s_018.ogg",100
Sample,140018,0,"s_030.ogg",100
Sample,140112,0,"s_018.ogg",100
Sample,140206,0,"s_030.ogg",100
Sample,140300,0,"s_018.ogg",100
Sample,140393,0,"s_030.ogg",100
Sample,140487,0,"s_018.ogg",100
Sample,140581,0,"s_030.ogg",100
Sample,140675,0,"s_018.ogg",100
Sample,140768,0,"s_030.ogg",100
Sample,140862,0,"s_018.ogg",100
Sample,140956,0,"s_030.ogg",100
Sample,141050,0,"s_017.ogg",100
Sample,141143,0,"s_029.ogg",100
Sample,141237,0,"s_017.ogg",100
Sample,141331,0,"s_029.ogg",100
Sample,141425,0,"s_017.ogg",100
Sample,141518,0,"s_029.ogg",100
Sample,141612,0,"s_017.ogg",100
Sample,141706,0,"s_029.ogg",100
Sample,141800,0,"s_015.ogg",100
Sample,141893,0,"s_027.ogg",100
Sample,141987,0,"s_015.ogg",100
Sample,142081,0,"s_027.ogg",100
Sample,142175,0,"s_015.ogg",100
Sample,142268,0,"s_027.ogg",100
Sample,142362,0,"s_015.ogg",100
Sample,142456,0,"s_027.ogg",100
Sample,142550,0,"s_013.ogg",100
Sample,142643,0,"s_025.ogg",100
Sample,142737,0,"s_013.ogg",100
Sample,142831,0,"s_025.ogg",100
Sample,142925,0,"s_013.ogg",100
Sample,143018,0,"s_025.ogg",100
Sample,143112,0,"s_013.ogg",100
Sample,143206,0,"s_025.ogg",100
Sample,143300,0,"s_011.ogg",100
Sample,143393,0,"s_023.ogg",100
Sample,143487,0,"s_011.ogg",100
Sample,143581,0,"s_023.ogg",100
Sample,143675,0,"s_011.ogg",100
Sample,143768,0,"s_023.ogg",100
Sample,143862,0,"s_011.ogg",100
Sample,143956,0,"s_023.ogg",100
Sample,144050,0,"s_010.ogg",100
Sample,144143,0,"s_022.ogg",100
Sample,144237,0,"s_010.ogg",100
Sample,144331,0,"s_022.ogg",100
Sample,144425,0,"s_010.ogg",100
Sample,144518,0,"s_022.ogg",100
Sample,144612,0,"s_010.ogg",100
Sample,144706,0,"s_022.ogg",100
Sample,144800,0,"m_021.ogg",100
Sample,144800,0,"m_009.ogg",100
Sample,145550,0,"m_010.ogg",100
Sample,145550,0,"m_022.ogg",100
Sample,146300,0,"l_011.ogg",100
Sample,146300,0,"l_023.ogg",100
Sample,147300,0,"l_028.ogg",100
Sample,148300,0,"l_027.ogg",100
Sample,149300,0,"l_022.ogg",100
Sample,150300,0,"m_023.ogg",100
Sample,150800,0,"m_022.ogg",100
Sample,151300,0,"m_020.ogg",100
Sample,151800,0,"m_032.ogg",100
Sample,152300,0,"l_030.ogg",100
Sample,153300,0,"l_018.ogg",100
Sample,154300,0,"l_016.ogg",100
Sample,155300,0,"l_028.ogg",100
Sample,156300,0,"l_027.ogg",100
Sample,157300,0,"l_020.ogg",100
Sample,158300,0,"l_013.ogg",100
Sample,159300,0,"l_018.ogg",100
Sample,160300,0,"l_034.ogg",100
Sample,160300,0,"m_011.ogg",100
Sample,160800,0,"m_023.ogg",100
Sample,161300,0,"m_011.ogg",100
Sample,162300,0,"s_035.ogg",100
Sample,162300,0,"l_023.ogg",100
Sample,162466,0,"s_030.ogg",100
Sample,162633,0,"s_030.ogg",100
Sample,162800,0,"s_035.ogg",100
Sample,162966,0,"s_030.ogg",100
Sample,163133,0,"s_030.ogg",100
Sample,163300,0,"s_034.ogg",100
Sample,163300,0,"l_049.ogg",100
Sample,163466,0,"s_030.ogg",100
Sample,163633,0,"s_030.ogg",100
Sample,163800,0,"s_034.ogg",100
Sample,163966,0,"s_030.ogg",100
Sample,164133,0,"s_030.ogg",100
Sample,164300,0,"s_035.ogg",100
Sample,164300,0,"l_027.ogg",100
Sample,164466,0,"s_030.ogg",100
Sample,164633,0,"s_030.ogg",100
Sample,164800,0,"s_035.ogg",100
Sample,164966,0,"s_030.ogg",100
Sample,165133,0,"s_030.ogg",100
Sample,165300,0,"s_034.ogg",100
Sample,165300,0,"l_022.ogg",100
Sample,165466,0,"s_030.ogg",100
Sample,165633,0,"s_030.ogg",100
Sample,165800,0,"s_034.ogg",100
Sample,165966,0,"s_030.ogg",100
Sample,166133,0,"s_030.ogg",100
Sample,166300,0,"m_023.ogg",100
Sample,166300,0,"s_035.ogg",100
Sample,166466,0,"s_030.ogg",100
Sample,166633,0,"s_030.ogg",100
Sample,166800,0,"s_034.ogg",100
Sample,166800,0,"m_054.ogg",100
Sample,166966,0,"s_030.ogg",100
Sample,167133,0,"s_030.ogg",100
Sample,167300,0,"s_032.ogg",100
Sample,167300,0,"m_020.ogg",100
Sample,167466,0,"s_023.ogg",100
Sample,167633,0,"s_023.ogg",100
Sample,167800,0,"m_020.ogg",100
Sample,167800,0,"s_032.ogg",100
Sample,167966,0,"s_023.ogg",100
Sample,168133,0,"s_023.ogg",100
Sample,168300,0,"l_054.ogg",100
Sample,170300,0,"l_056.ogg",100
Sample,171300,0,"m_049.ogg",100
Sample,172300,0,"l_054.ogg",100
Sample,173300,0,"l_048.ogg",100
Sample,174300,0,"l_025.ogg",100
Sample,175300,0,"s_025.ogg",100
Sample,175300,0,"m_018.ogg",100
Sample,175466,0,"s_030.ogg",100
Sample,175633,0,"s_030.ogg",100
Sample,175800,0,"m_018.ogg",100
Sample,175966,0,"s_030.ogg",100
Sample,176133,0,"s_030.ogg",100
Sample,176300,0,"s_023.ogg",100
Sample,176466,0,"s_030.ogg",100
Sample,176633,0,"s_030.ogg",100
Sample,176800,0,"s_030.ogg",100
Sample,176966,0,"s_030.ogg",100
Sample,177133,0,"s_030.ogg",100
Sample,177300,0,"s_030.ogg",100
Sample,177466,0,"s_030.ogg",100
Sample,177633,0,"s_030.ogg",100
Sample,177800,0,"s_030.ogg",100
Sample,177966,0,"s_030.ogg",100
Sample,178133,0,"s_030.ogg",100
Sample,178300,0,"s_030.ogg",100
Sample,178300,0,"s_028.ogg",100
Sample,178466,0,"s_028.ogg",100
Sample,178466,0,"s_030.ogg",100
Sample,178633,0,"s_030.ogg",100
Sample,178633,0,"s_028.ogg",100
Sample,178800,0,"s_028.ogg",100
Sample,178800,0,"s_030.ogg",100
Sample,178966,0,"s_028.ogg",100
Sample,178966,0,"s_030.ogg",100
Sample,179133,0,"s_030.ogg",100
Sample,179133,0,"s_028.ogg",100
Sample,179300,0,"s_028.ogg",100
Sample,179300,0,"s_030.ogg",100
Sample,179466,0,"s_030.ogg",100
Sample,179466,0,"s_028.ogg",100
Sample,179633,0,"s_028.ogg",100
Sample,179633,0,"s_030.ogg",100
Sample,179800,0,"s_030.ogg",100
Sample,179800,0,"s_028.ogg",100
Sample,179966,0,"s_018.ogg",100
Sample,179966,0,"s_030.ogg",100
Sample,180133,0,"s_030.ogg",100
Sample,180133,0,"s_018.ogg",100
Sample,180300,0,"s_030.ogg",100
Sample,180466,0,"s_030.ogg",100
Sample,180633,0,"s_030.ogg",100
Sample,180800,0,"s_030.ogg",100
Sample,180966,0,"s_030.ogg",100
Sample,181133,0,"s_030.ogg",100
Sample,181300,0,"s_030.ogg",100
Sample,181466,0,"s_030.ogg",100
Sample,181633,0,"s_030.ogg",100
Sample,181800,0,"s_030.ogg",100
Sample,181800,0,"m_054.ogg",100
Sample,181966,0,"s_030.ogg",100
Sample,182133,0,"s_030.ogg",100
Sample,182175,0,"s_055.ogg",100
Sample,182300,0,"s_030.ogg",100
Sample,182300,0,"l_056.ogg",100
Sample,182300,0,"s_028.ogg",100
Sample,182466,0,"s_030.ogg",100
Sample,182466,0,"s_028.ogg",100
Sample,182633,0,"s_028.ogg",100
Sample,182633,0,"s_030.ogg",100
Sample,182800,0,"s_030.ogg",100
Sample,182800,0,"s_028.ogg",100
Sample,182966,0,"s_030.ogg",100
Sample,182966,0,"m_054.ogg",100
Sample,182966,0,"s_028.ogg",100
Sample,183133,0,"s_028.ogg",100
Sample,183133,0,"m_052.ogg",100
Sample,183133,0,"s_030.ogg",100
Sample,183300,0,"m_051.ogg",100
Sample,183300,0,"s_030.ogg",100
Sample,183300,0,"s_028.ogg",100
Sample,183466,0,"s_028.ogg",100
Sample,183466,0,"s_030.ogg",100
Sample,183466,0,"m_049.ogg",100
Sample,183633,0,"s_047.ogg",100
Sample,183633,0,"s_030.ogg",100
Sample,183633,0,"s_028.ogg",100
Sample,183800,0,"s_028.ogg",100
Sample,183800,0,"s_030.ogg",100
Sample,183800,0,"m_046.ogg",100
Sample,183966,0,"m_052.ogg",100
Sample,183966,0,"s_030.ogg",100
Sample,183966,0,"s_028.ogg",100
Sample,184133,0,"s_028.ogg",100
Sample,184133,0,"s_030.ogg",100
Sample,184133,0,"s_046.ogg",100
Sample,184300,0,"m_047.ogg",100
Sample,184300,0,"m_030.ogg",100
Sample,185300,0,"l_042.ogg",100
Sample,186300,0,"m_035.ogg",100
Sample,187300,0,"l_030.ogg",100
Sample,187300,0,"l_040.ogg",100
Sample,188300,0,"m_035.ogg",100
Sample,189300,0,"l_034.ogg",100
Sample,189300,0,"l_018.ogg",100
Sample,190300,0,"s_027.ogg",100
Sample,190800,0,"s_011.ogg",100
Sample,190800,0,"s_030.ogg",100
Sample,191300,0,"m_011.ogg",100
Sample,191300,0,"m_027.ogg",100

[TimingPoints]
0,300.000000000001,4,2,0,100,1,0
0,-125,4,2,0,100,0,0
22800,500.000000000001,4,2,0,100,1,0
22800,-75,4,2,0,100,0,0
54800,375.000000000001,4,2,0,100,1,0
146300,500.000000000001,4,2,0,100,1,0
146300,-75,4,2,0,100,0,0

[HitObjects]
25,192,1950,5,0,0:0:0:0:s_046.ogg
76,192,2100,1,0,0:0:0:0:s_051.ogg
128,192,2250,1,0,0:0:0:0:s_053.ogg
179,192,2400,1,0,0:0:0:0:m_054.ogg
486,192,2850,1,0,0:0:0:0:s_056.ogg
384,192,3000,1,0,0:0:0:0:m_053.ogg
435,192,3450,1,0,0:0:0:0:s_054.ogg
332,192,3600,1,0,0:0:0:0:m_051.ogg
384,192,4200,1,0,0:0:0:0:s_053.ogg
332,192,4237,1,0,0:0:0:0:s_051.ogg
281,192,4350,1,0,0:0:0:0:s_050.ogg
435,192,4500,1,0,0:0:0:0:s_051.ogg
486,192,4650,1,0,0:0:0:0:s_053.ogg
128,192,4800,1,0,0:0:0:0:s_056.ogg
76,192,4837,1,0,0:0:0:0:s_054.ogg
25,192,4950,1,0,0:0:0:0:s_053.ogg
179,192,5100,1,0,0:0:0:0:s_054.ogg
230,192,5250,1,0,0:0:0:0:s_056.ogg
332,192,5400,1,0,0:0:0:0:s_041.ogg
435,192,5400,1,0,0:0:0:0:s_058.ogg
332,192,5700,1,0,0:0:0:0:s_039.ogg
435,192,5700,1,0,0:0:0:0:s_058.ogg
332,192,6000,1,0,0:0:0:0:s_034.ogg
435,192,6000,1,0,0:0:0:0:m_058.ogg
128,192,6900,1,0,0:0:0:0:s_041.ogg
384,192,6900,1,0,0:0:0:0:s_056.ogg
179,192,7050,1,0,0:0:0:0:s_046.ogg
435,192,7050,1,0,0:0:0:0:s_058.ogg
230,192,7200,1,0,0:0:0:0:s_032.ogg
486,192,7200,1,0,0:0:0:0:s_056.ogg
128,192,7800,1,0,0:0:0:0:s_032.ogg
384,192,7800,1,0,0:0:0:0:s_053.ogg
76,192,8100,1,0,0:0:0:0:s_054.ogg
332,192,8100,1,0,0:0:0:0:s_038.ogg
128,192,8250,1,0,0:0:0:0:s_056.ogg
384,192,8250,1,0,0:0:0:0:s_041.ogg
179,192,8400,1,0,0:0:0:0:s_054.ogg
435,192,8400,1,0,0:0:0:0:s_030.ogg
25,192,9000,1,0,0:0:0:0:s_051.ogg
281,192,9000,1,0,0:0:0:0:s_035.ogg
25,192,9300,1,0,0:0:0:0:s_051.ogg
281,192,9300,1,0,0:0:0:0:s_042.ogg
76,192,9450,1,0,0:0:0:0:s_053.ogg
332,192,9450,1,0,0:0:0:0:s_045.ogg
128,192,9600,1,0,0:0:0:0:s_054.ogg
384,192,9600,1,0,0:0:0:0:s_034.ogg
128,192,9900,1,0,0:0:0:0:s_054.ogg
384,192,9900,1,0,0:0:0:0:s_042.ogg
179,192,10050,1,0,0:0:0:0:s_056.ogg
435,192,10050,1,0,0:0:0:0:s_046.ogg
76,192,10200,1,0,0:0:0:0:s_053.ogg
332,192,10200,1,0,0:0:0:0:s_034.ogg
76,192,10500,1,0,0:0:0:0:s_053.ogg
332,192,10500,1,0,0:0:0:0:s_041.ogg
128,192,10650,1,0,0:0:0:0:s_054.ogg
384,192,10650,1,0,0:0:0:0:s_046.ogg
281,192,10800,1,0,0:0:0:0:m_051.ogg
25,192,10950,1,0,0:0:0:0:s_027.ogg
76,192,11100,1,0,0:0:0:0:s_030.ogg
128,192,11250,1,0,0:0:0:0:s_034.ogg
179,192,11400,1,0,0:0:0:0:m_039.ogg
384,192,11700,1,0,0:0:0:0:s_056.ogg
435,192,11850,1,0,0:0:0:0:s_058.ogg
486,192,12000,1,0,0:0:0:0:m_059.ogg
25,192,12150,1,0,0:0:0:0:s_020.ogg
76,192,12300,1,0,0:0:0:0:s_026.ogg
128,192,12450,1,0,0:0:0:0:s_029.ogg
179,192,12600,1,0,0:0:0:0:s_032.ogg
281,192,12600,1,0,0:0:0:0:s_053.ogg
230,192,12750,1,0,0:0:0:0:s_035.ogg
179,192,12900,1,0,0:0:0:0:s_034.ogg
332,192,12900,1,0,0:0:0:0:s_054.ogg
128,192,13050,1,0,0:0:0:0:s_032.ogg
384,192,13050,1,0,0:0:0:0:s_056.ogg
435,192,13200,1,0,0:0:0:0:m_058.ogg
25,192,13350,1,0,0:0:0:0:s_018.ogg
76,192,13500,1,0,0:0:0:0:s_022.ogg
128,192,13650,1,0,0:0:0:0:s_027.ogg
179,192,13800,1,0,0:0:0:0:s_051.ogg
332,192,13800,1,0,0:0:0:0:s_030.ogg
128,192,13950,1,0,0:0:0:0:s_034.ogg
230,192,14100,1,0,0:0:0:0:s_051.ogg
332,192,14100,1,0,0:0:0:0:s_035.ogg
179,192,14250,1,0,0:0:0:0:s_053.ogg
384,192,14250,1,0,0:0:0:0:s_033.ogg
76,192,14400,1,0,0:0:0:0:s_054.ogg
435,192,14400,1,0,0:0:0:0:s_022.ogg
128,192,14550,1,0,0:0:0:0:s_034.ogg
230,192,14700,1,0,0:0:0:0:s_054.ogg
384,192,14700,1,0,0:0:0:0:s_039.ogg
128,192,14850,1,0,0:0:0:0:s_056.ogg
435,192,14850,1,0,0:0:0:0:s_034.ogg
76,192,15000,1,0,0:0:0:0:s_053.ogg
332,192,15000,1,0,0:0:0:0:s_022.ogg
128,192,15150,1,0,0:0:0:0:s_034.ogg
179,192,15300,1,0,0:0:0:0:s_053.ogg
332,192,15300,1,0,0:0:0:0:s_038.ogg
128,192,15450,1,0,0:0:0:0:s_054.ogg
384,192,15450,1,0,0:0:0:0:s_034.ogg
25,192,15600,1,0,0:0:0:0:s_051.ogg
281,192,15600,1,0,0:0:0:0:s_027.ogg
230,192,15900,1,0,0:0:0:0:s_038.ogg
486,192,15900,1,0,0:0:0:0:m_061.ogg
230,192,16500,1,0,0:0:0:0:s_034.ogg
486,192,16500,1,0,0:0:0:0:m_061.ogg
384,192,16950,1,0,0:0:0:0:s_059.ogg
332,192,17100,1,0,0:0:0:0:s_058.ogg
281,192,17250,1,0,0:0:0:0:s_056.ogg
230,192,17400,1,0,0:0:0:0:s_054.ogg
179,192,17550,1,0,0:0:0:0:s_053.ogg
128,192,17700,1,0,0:0:0:0:s_051.ogg
76,192,17850,1,0,0:0:0:0:s_050.ogg
435,192,18000,1,0,0:0:0:0:s_051.ogg
25,192,18300,1,0,0:0:0:0:m_051.ogg
486,192,18300,1,0,0:0:0:0:m_063.ogg
25,192,18900,1,0,0:0:0:0:s_039.ogg
435,192,18900,1,0,0:0:0:0:m_061.ogg
384,192,19350,1,0,0:0:0:0:s_059.ogg
332,192,19500,1,0,0:0:0:0:s_058.ogg
281,192,19650,1,0,0:0:0:0:s_056.ogg
230,192,19800,1,0,0:0:0:0:s_054.ogg
179,192,19950,1,0,0:0:0:0:s_053.ogg
128,192,20100,1,0,0:0:0:0:s_051.ogg
76,192,20250,1,0,0:0:0:0:s_050.ogg
435,192,20400,1,0,0:0:0:0:s_051.ogg
281,192,20700,1,0,0:0:0:0:s_053.ogg
384,192,20756,1,0,0:0:0:0:s_054.ogg
230,192,20812,1,0,0:0:0:0:s_053.ogg
128,192,20868,1,0,0:0:0:0:s_051.ogg
281,192,20931,1,0,0:0:0:0:s_053.ogg
384,192,21000,1,0,0:0:0:0:s_054.ogg
76,192,21300,1,0,0:0:0:0:s_050.ogg
179,192,21300,1,0,0:0:0:0:s_053.ogg
435,192,21300,1,0,0:0:0:0:s_062.ogg
76,192,21600,1,0,0:0:0:0:m_063.ogg
179,192,21600,1,0,0:0:0:0:m_054.ogg
486,192,21600,1,0,0:0:0:0:m_058.ogg
179,192,22800,1,0,0:0:0:0:s_035.ogg
332,192,22800,1,0,0:0:0:0:l_039.ogg
76,192,23050,1,0,0:0:0:0:s_030.ogg
179,192,23300,1,0,0:0:0:0:s_035.ogg
76,192,23550,1,0,0:0:0:0:s_030.ogg
128,192,23800,1,0,0:0:0:0:s_034.ogg
281,192,23800,1,0,0:0:0:0:l_037.ogg
76,192,24050,1,0,0:0:0:0:s_030.ogg
128,192,24300,1,0,0:0:0:0:s_034.ogg
76,192,24550,1,0,0:0:0:0:s_030.ogg
179,192,24800,1,0,0:0:0:0:s_035.ogg
435,192,24800,1,0,0:0:0:0:l_042.ogg
76,192,25050,1,0,0:0:0:0:s_030.ogg
179,192,25300,1,0,0:0:0:0:s_035.ogg
76,192,25550,1,0,0:0:0:0:s_030.ogg
230,192,25800,1,0,0:0:0:0:s_037.ogg
76,192,26050,1,0,0:0:0:0:s_030.ogg
230,192,26300,1,0,0:0:0:0:s_037.ogg
384,192,26300,1,0,0:0:0:0:m_040.ogg
76,192,26550,1,0,0:0:0:0:s_030.ogg
128,192,26800,1,0,0:0:0:0:s_035.ogg
281,192,26800,1,0,0:0:0:0:m_039.ogg
76,192,27050,1,0,0:0:0:0:s_030.ogg
179,192,27300,1,0,0:0:0:0:s_037.ogg
332,192,27300,1,0,0:0:0:0:m_042.ogg
76,192,27550,1,0,0:0:0:0:s_030.ogg
230,192,27800,1,0,0:0:0:0:s_039.ogg
435,192,27800,1,0,0:0:0:0:m_047.ogg
128,192,28050,1,0,0:0:0:0:s_035.ogg
230,192,28300,1,0,0:0:0:0:s_041.ogg
486,192,28300,1,0,0:0:0:0:m_049.ogg
179,192,28550,1,0,0:0:0:0:s_037.ogg
128,192,28800,1,0,0:0:0:0:s_034.ogg
384,192,28800,1,0,0:0:0:0:l_042.ogg
230,192,29050,1,0,0:0:0:0:s_037.ogg
128,192,29300,1,0,0:0:0:0:s_034.ogg
230,192,29550,1,0,0:0:0:0:s_037.ogg
128,192,29800,1,0,0:0:0:0:s_034.ogg
230,192,30050,1,0,0:0:0:0:s_037.ogg
128,192,30300,1,0,0:0:0:0:s_034.ogg
435,192,30300,1,0,0:0:0:0:m_043.ogg
230,192,30550,1,0,0:0:0:0:s_037.ogg
128,192,30800,1,0,0:0:0:0:s_034.ogg
486,192,30800,1,0,0:0:0:0:l_044.ogg
230,192,31050,1,0,0:0:0:0:s_037.ogg
128,192,31300,1,0,0:0:0:0:s_034.ogg
230,192,31550,1,0,0:0:0:0:s_037.ogg
128,192,31800,1,0,0:0:0:0:s_034.ogg
332,192,31800,1,0,0:0:0:0:m_037.ogg
76,192,32050,1,0,0:0:0:0:s_030.ogg
128,192,32300,1,0,0:0:0:0:s_034.ogg
76,192,32550,1,0,0:0:0:0:s_030.ogg
384,192,32550,1,0,0:0:0:0:s_039.ogg
435,192,32675,1,0,0:0:0:0:s_040.ogg
179,192,32800,1,0,0:0:0:0:s_035.ogg
486,192,32800,1,0,0:0:0:0:l_042.ogg
76,192,33050,1,0,0:0:0:0:s_030.ogg
179,192,33300,1,0,0:0:0:0:s_035.ogg
76,192,33550,1,0,0:0:0:0:s_030.ogg
76,192,33800,1,0,0:0:0:0:s_030.ogg
281,192,33800,1,0,0:0:0:0:l_036.ogg
25,192,34050,1,0,0:0:0:0:s_027.ogg
76,192,34300,1,0,0:0:0:0:s_030.ogg
25,192,34550,1,0,0:0:0:0:s_027.ogg
179,192,34800,1,0,0:0:0:0:s_032.ogg
486,192,34800,1,0,0:0:0:0:l_040.ogg
76,192,35050,1,0,0:0:0:0:s_028.ogg
179,192,35300,1,0,0:0:0:0:s_032.ogg
76,192,35550,1,0,0:0:0:0:s_028.ogg
76,192,35800,1,0,0:0:0:0:s_028.ogg
435,192,35800,1,0,0:0:0:0:s_039.ogg
76,192,36050,1,0,0:0:0:0:s_028.ogg
384,192,36050,1,0,0:0:0:0:s_037.ogg
76,192,36300,1,0,0:0:0:0:s_028.ogg
332,192,36300,1,0,0:0:0:0:s_035.ogg
76,192,36550,1,0,0:0:0:0:s_028.ogg
281,192,36550,1,0,0:0:0:0:s_034.ogg
76,192,36800,1,0,0:0:0:0:s_028.ogg
435,192,36800,1,0,0:0:0:0:l_037.ogg
179,192,37050,1,0,0:0:0:0:s_030.ogg
76,192,37300,1,0,0:0:0:0:s_028.ogg
179,192,37550,1,0,0:0:0:0:s_030.ogg
128,192,37800,1,0,0:0:0:0:l_027.ogg
384,192,37800,1,0,0:0:0:0:m_035.ogg
179,192,37966,1,0,0:0:0:0:m_030.ogg
230,192,38133,1,0,0:0:0:0:s_035.ogg
281,192,38300,1,0,0:0:0:0:m_039.ogg
332,192,38466,1,0,0:0:0:0:m_042.ogg
384,192,38633,1,0,0:0:0:0:s_047.ogg
179,192,38800,1,0,0:0:0:0:m_035.ogg
486,192,38800,1,0,0:0:0:0:l_051.ogg
76,192,39050,1,0,0:0:0:0:m_030.ogg
384,192,39050,1,0,0:0:0:0:m_042.ogg
179,192,39300,1,0,0:0:0:0:m_035.ogg
332,192,39300,1,0,0:0:0:0:m_039.ogg
76,192,39550,1,0,0:0:0:0:s_030.ogg
384,192,39550,1,0,0:0:0:0:s_042.ogg
128,192,39800,1,0,0:0:0:0:m_034.ogg
435,192,39800,1,0,0:0:0:0:m_037.ogg
76,192,40050,1,0,0:0:0:0:m_030.ogg
384,192,40050,1,0,0:0:0:0:m_042.ogg
128,192,40300,1,0,0:0:0:0:m_034.ogg
281,192,40300,1,0,0:0:0:0:m_037.ogg
76,192,40550,1,0,0:0:0:0:s_030.ogg
384,192,40550,1,0,0:0:0:0:s_042.ogg
179,192,40800,1,0,0:0:0:0:m_035.ogg
486,192,40800,1,0,0:0:0:0:l_054.ogg
76,192,41050,1,0,0:0:0:0:m_030.ogg
435,192,41050,1,0,0:0:0:0:m_047.ogg
179,192,41300,1,0,0:0:0:0:m_035.ogg
384,192,41300,1,0,0:0:0:0:m_042.ogg
76,192,41550,1,0,0:0:0:0:s_030.ogg
435,192,41550,1,0,0:0:0:0:s_047.ogg
230,192,41800,1,0,0:0:0:0:m_034.ogg
281,192,41800,1,0,0:0:0:0:m_042.ogg
76,192,42050,1,0,0:0:0:0:m_030.ogg
486,192,42050,1,0,0:0:0:0:m_049.ogg
230,192,42300,1,0,0:0:0:0:m_034.ogg
384,192,42300,1,0,0:0:0:0:m_052.ogg
76,192,42550,1,0,0:0:0:0:s_030.ogg
486,192,42550,1,0,0:0:0:0:s_049.ogg
128,192,42800,1,0,0:0:0:0:m_035.ogg
332,192,42800,1,0,0:0:0:0:m_051.ogg
25,192,43050,1,0,0:0:0:0:s_030.ogg
281,192,43050,1,0,0:0:0:0:s_047.ogg
179,192,43300,1,0,0:0:0:0:m_022.ogg
384,192,43300,1,0,0:0:0:0:m_054.ogg
25,192,43550,1,0,0:0:0:0:s_030.ogg
332,192,43550,1,0,0:0:0:0:s_049.ogg
179,192,43800,1,0,0:0:0:0:m_020.ogg
435,192,43800,1,0,0:0:0:0:m_059.ogg
76,192,44050,1,0,0:0:0:0:s_023.ogg
384,192,44050,1,0,0:0:0:0:s_051.ogg
230,192,44300,1,0,0:0:0:0:m_020.ogg
486,192,44300,1,0,0:0:0:0:m_061.ogg
128,192,44550,1,0,0:0:0:0:s_023.ogg
435,192,44550,1,0,0:0:0:0:s_053.ogg
25,192,44800,1,0,0:0:0:0:l_018.ogg
281,192,44800,1,0,0:0:0:0:l_054.ogg
76,192,45050,1,0,0:0:0:0:m_022.ogg
384,192,45050,1,0,0:0:0:0:m_049.ogg
128,192,45300,1,0,0:0:0:0:m_025.ogg
332,192,45300,1,0,0:0:0:0:m_046.ogg
179,192,45550,1,0,0:0:0:0:s_030.ogg
384,192,45550,1,0,0:0:0:0:s_049.ogg
128,192,45800,1,0,0:0:0:0:m_034.ogg
332,192,45800,1,0,0:0:0:0:m_046.ogg
230,192,46050,1,0,0:0:0:0:m_037.ogg
384,192,46050,1,0,0:0:0:0:m_049.ogg
128,192,46300,1,0,0:0:0:0:m_034.ogg
435,192,46300,1,0,0:0:0:0:m_055.ogg
230,192,46550,1,0,0:0:0:0:s_037.ogg
384,192,46550,1,0,0:0:0:0:s_049.ogg
25,192,46800,1,0,0:0:0:0:l_016.ogg
486,192,46800,1,0,0:0:0:0:l_056.ogg
76,192,47050,1,0,0:0:0:0:m_022.ogg
384,192,47050,1,0,0:0:0:0:m_049.ogg
128,192,47300,1,0,0:0:0:0:m_025.ogg
332,192,47300,1,0,0:0:0:0:m_046.ogg
179,192,47550,1,0,0:0:0:0:s_028.ogg
384,192,47550,1,0,0:0:0:0:s_049.ogg
128,192,47800,1,0,0:0:0:0:m_034.ogg
435,192,47800,1,0,0:0:0:0:l_049.ogg
230,192,48050,1,0,0:0:0:0:m_037.ogg
281,192,48050,1,0,0:0:0:0:m_042.ogg
179,192,48300,1,0,0:0:0:0:m_034.ogg
332,192,48300,1,0,0:0:0:0:m_046.ogg
128,192,48550,1,0,0:0:0:0:s_030.ogg
384,192,48550,1,0,0:0:0:0:s_051.ogg
435,192,48675,1,0,0:0:0:0:s_052.ogg
76,192,48800,1,0,0:0:0:0:m_027.ogg
486,192,48800,1,0,0:0:0:0:l_054.ogg
179,192,49050,1,0,0:0:0:0:m_030.ogg
332,192,49050,1,0,0:0:0:0:m_042.ogg
76,192,49300,1,0,0:0:0:0:m_027.ogg
384,192,49300,1,0,0:0:0:0:m_047.ogg
179,192,49550,1,0,0:0:0:0:s_030.ogg
332,192,49550,1,0,0:0:0:0:s_042.ogg
76,192,49800,1,0,0:0:0:0:m_027.ogg
435,192,49800,1,0,0:0:0:0:l_048.ogg
230,192,50050,1,0,0:0:0:0:m_032.ogg
281,192,50050,1,0,0:0:0:0:m_039.ogg
76,192,50300,1,0,0:0:0:0:m_027.ogg
384,192,50300,1,0,0:0:0:0:m_042.ogg
230,192,50550,1,0,0:0:0:0:s_032.ogg
281,192,50550,1,0,0:0:0:0:s_039.ogg
128,192,50800,1,0,0:0:0:0:m_028.ogg
486,192,50800,1,0,0:0:0:0:l_052.ogg
230,192,51050,1,0,0:0:0:0:m_032.ogg
332,192,51050,1,0,0:0:0:0:m_040.ogg
128,192,51300,1,0,0:0:0:0:m_028.ogg
384,192,51300,1,0,0:0:0:0:m_044.ogg
230,192,51550,1,0,0:0:0:0:s_032.ogg
332,192,51550,1,0,0:0:0:0:s_040.ogg
25,192,51800,1,0,0:0:0:0:l_018.ogg
435,192,51800,1,0,0:0:0:0:l_051.ogg
128,192,52050,1,0,0:0:0:0:m_030.ogg
384,192,52050,1,0,0:0:0:0:m_049.ogg
25,192,52300,1,0,0:0:0:0:m_025.ogg
332,192,52300,1,0,0:0:0:0:m_047.ogg
128,192,52550,1,0,0:0:0:0:s_030.ogg
281,192,52550,1,0,0:0:0:0:s_046.ogg
76,192,52800,1,0,0:0:0:0:l_023.ogg
384,192,52800,1,0,0:0:0:0:l_049.ogg
128,192,53050,1,0,0:0:0:0:m_030.ogg
332,192,53050,1,0,0:0:0:0:m_042.ogg
179,192,53300,1,0,0:0:0:0:m_034.ogg
281,192,53300,1,0,0:0:0:0:m_040.ogg
128,192,53550,1,0,0:0:0:0:m_030.ogg
332,192,53550,1,0,0:0:0:0:m_042.ogg
230,192,53800,1,0,0:0:0:0:m_035.ogg
384,192,53800,1,0,0:0:0:0:m_047.ogg
281,192,54800,1,0,0:0:0:0:m_039.ogg
25,192,55362,1,0,0:0:0:0:s_043.ogg
230,192,55362,1,0,0:0:0:0:s_037.ogg
76,192,55550,1,0,0:0:0:0:s_035.ogg
281,192,55550,1,0,0:0:0:0:s_044.ogg
128,192,55737,1,0,0:0:0:0:s_046.ogg
332,192,55737,1,0,0:0:0:0:s_043.ogg
179,192,55925,1,0,0:0:0:0:s_044.ogg
384,192,55925,1,0,0:0:0:0:s_047.ogg
230,192,56112,1,0,0:0:0:0:s_041.ogg
435,192,56112,1,0,0:0:0:0:s_050.ogg
281,192,56300,1,0,0:0:0:0:s_042.ogg
486,192,56300,1,0,0:0:0:0:s_051.ogg
281,192,56487,1,0,0:0:0:0:m_042.ogg
486,192,56487,1,0,0:0:0:0:m_051.ogg
25,192,56862,1,0,0:0:0:0:s_049.ogg
230,192,56862,1,0,0:0:0:0:s_055.ogg
76,192,57050,1,0,0:0:0:0:s_056.ogg
281,192,57050,1,0,0:0:0:0:s_047.ogg
128,192,57237,1,0,0:0:0:0:s_055.ogg
332,192,57237,1,0,0:0:0:0:s_058.ogg
179,192,57425,1,0,0:0:0:0:s_056.ogg
384,192,57425,1,0,0:0:0:0:s_059.ogg
230,192,57612,1,0,0:0:0:0:s_053.ogg
435,192,57612,1,0,0:0:0:0:s_062.ogg
281,192,57800,1,0,0:0:0:0:m_063.ogg
384,192,57800,1,0,0:0:0:0:m_058.ogg
486,192,57800,1,0,0:0:0:0:m_054.ogg
230,192,58175,1,0,0:0:0:0:m_058.ogg
332,192,58175,1,0,0:0:0:0:m_056.ogg
435,192,58175,1,0,0:0:0:0:m_053.ogg
179,192,58550,1,0,0:0:0:0:m_051.ogg
281,192,58550,1,0,0:0:0:0:m_054.ogg
384,192,58550,1,0,0:0:0:0:m_046.ogg
128,192,58925,1,0,0:0:0:0:m_053.ogg
230,192,58925,1,0,0:0:0:0:m_044.ogg
332,192,58925,1,0,0:0:0:0:m_047.ogg
76,192,59300,1,0,0:0:0:0:l_051.ogg
179,192,59300,1,0,0:0:0:0:m_046.ogg
281,192,59300,1,0,0:0:0:0:s_022.ogg
128,192,59675,1,0,0:0:0:0:m_045.ogg
384,192,60050,1,0,0:0:0:0:m_048.ogg
25,192,60425,1,0,0:0:0:0:m_041.ogg
76,192,60425,1,0,0:0:0:0:m_046.ogg
128,192,60425,1,0,0:0:0:0:m_050.ogg
281,192,60800,1,0,0:0:0:0:s_051.ogg
332,192,60800,1,0,0:0:0:0:s_039.ogg
384,192,60800,1,0,0:0:0:0:s_042.ogg
281,192,60987,1,0,0:0:0:0:m_039.ogg
25,192,61362,1,0,0:0:0:0:s_037.ogg
230,192,61362,1,0,0:0:0:0:s_043.ogg
76,192,61550,1,0,0:0:0:0:s_035.ogg
281,192,61550,1,0,0:0:0:0:s_044.ogg
128,192,61737,1,0,0:0:0:0:s_043.ogg
332,192,61737,1,0,0:0:0:0:s_046.ogg
179,192,61925,1,0,0:0:0:0:s_047.ogg
384,192,61925,1,0,0:0:0:0:s_044.ogg
230,192,62112,1,0,0:0:0:0:s_041.ogg
435,192,62112,1,0,0:0:0:0:s_050.ogg
281,192,62300,1,0,0:0:0:0:s_042.ogg
486,192,62300,1,0,0:0:0:0:s_051.ogg
281,192,62487,1,0,0:0:0:0:m_042.ogg
486,192,62487,1,0,0:0:0:0:m_051.ogg
25,192,62862,1,0,0:0:0:0:s_049.ogg
230,192,62862,1,0,0:0:0:0:s_055.ogg
76,192,63050,1,0,0:0:0:0:s_056.ogg
281,192,63050,1,0,0:0:0:0:s_047.ogg
128,192,63237,1,0,0:0:0:0:s_055.ogg
332,192,63237,1,0,0:0:0:0:s_058.ogg
179,192,63425,1,0,0:0:0:0:s_056.ogg
384,192,63425,1,0,0:0:0:0:s_059.ogg
230,192,63612,1,0,0:0:0:0:s_053.ogg
435,192,63612,1,0,0:0:0:0:s_062.ogg
281,192,63800,1,0,0:0:0:0:m_063.ogg
384,192,63800,1,0,0:0:0:0:m_058.ogg
486,192,63800,1,0,0:0:0:0:m_054.ogg
230,192,64175,1,0,0:0:0:0:m_053.ogg
332,192,64175,1,0,0:0:0:0:m_058.ogg
435,192,64175,1,0,0:0:0:0:m_056.ogg
179,192,64550,1,0,0:0:0:0:m_051.ogg
281,192,64550,1,0,0:0:0:0:m_054.ogg
384,192,64550,1,0,0:0:0:0:m_046.ogg
128,192,64925,1,0,0:0:0:0:m_044.ogg
230,192,64925,1,0,0:0:0:0:m_047.ogg
332,192,64925,1,0,0:0:0:0:m_053.ogg
76,192,65300,1,0,0:0:0:0:l_042.ogg
179,192,65300,1,0,0:0:0:0:l_051.ogg
281,192,65300,1,0,0:0:0:0:m_046.ogg
128,192,65675,1,0,0:0:0:0:m_045.ogg
384,192,66050,1,0,0:0:0:0:m_048.ogg
25,192,66800,1,0,0:0:0:0:s_046.ogg
76,192,66800,1,0,0:0:0:0:s_050.ogg
128,192,66800,1,0,0:0:0:0:s_041.ogg
486,192,67175,128,0,67737:0:0:0:0:m_058.ogg
384,192,67175,128,0,67737:0:0:0:0:m_046.ogg
486,192,67925,128,0,68300:0:0:0:0:m_058.ogg
384,192,67925,128,0,68300:0:0:0:0:m_046.ogg
486,192,68393,1,0,0:0:0:0:s_056.ogg
435,192,68487,1,0,0:0:0:0:s_053.ogg
384,192,68581,1,0,0:0:0:0:s_050.ogg
332,192,68675,1,0,0:0:0:0:s_046.ogg
281,192,68768,1,0,0:0:0:0:s_044.ogg
230,192,68862,1,0,0:0:0:0:s_041.ogg
179,192,68956,1,0,0:0:0:0:s_038.ogg
384,192,69050,1,0,0:0:0:0:s_039.ogg
332,192,69143,1,0,0:0:0:0:s_042.ogg
281,192,69237,1,0,0:0:0:0:s_039.ogg
230,192,69331,1,0,0:0:0:0:s_034.ogg
179,192,69425,1,0,0:0:0:0:s_033.ogg
128,192,69518,1,0,0:0:0:0:s_039.ogg
76,192,69612,1,0,0:0:0:0:s_035.ogg
25,192,69706,1,0,0:0:0:0:s_033.ogg
281,192,69800,1,0,0:0:0:0:s_041.ogg
486,192,70175,128,0,70737:0:0:0:0:m_058.ogg
384,192,70175,128,0,70737:0:0:0:0:m_046.ogg
486,192,70925,128,0,71300:0:0:0:0:m_058.ogg
384,192,70925,128,0,71300:0:0:0:0:m_046.ogg
486,192,71393,1,0,0:0:0:0:s_056.ogg
435,192,71487,1,0,0:0:0:0:s_053.ogg
384,192,71581,1,0,0:0:0:0:s_050.ogg
332,192,71675,1,0,0:0:0:0:s_046.ogg
281,192,71768,1,0,0:0:0:0:s_044.ogg
230,192,71862,1,0,0:0:0:0:s_041.ogg
179,192,71956,1,0,0:0:0:0:s_038.ogg
128,192,72050,1,0,0:0:0:0:s_039.ogg
332,192,72143,1,0,0:0:0:0:s_042.ogg
281,192,72237,1,0,0:0:0:0:s_039.ogg
230,192,72331,1,0,0:0:0:0:s_034.ogg
179,192,72425,1,0,0:0:0:0:s_033.ogg
128,192,72518,1,0,0:0:0:0:s_039.ogg
76,192,72612,1,0,0:0:0:0:s_035.ogg
25,192,72706,1,0,0:0:0:0:s_033.ogg
281,192,72800,1,0,0:0:0:0:s_034.ogg
332,192,72987,1,0,0:0:0:0:s_045.ogg
435,192,73175,1,0,0:0:0:0:s_046.ogg
25,192,73362,1,0,0:0:0:0:s_045.ogg
486,192,73362,1,0,0:0:0:0:s_051.ogg
128,192,73550,1,0,0:0:0:0:s_046.ogg
384,192,73550,1,0,0:0:0:0:s_050.ogg
179,192,73737,1,0,0:0:0:0:s_057.ogg
332,192,73737,1,0,0:0:0:0:s_051.ogg
76,192,73925,1,0,0:0:0:0:s_058.ogg
435,192,73925,1,0,0:0:0:0:s_050.ogg
128,192,74112,1,0,0:0:0:0:s_057.ogg
486,192,74112,1,0,0:0:0:0:s_063.ogg
230,192,74300,1,0,0:0:0:0:s_062.ogg
384,192,74300,1,0,0:0:0:0:s_058.ogg
128,192,75050,128,0,75612:0:0:0:0:m_042.ogg
76,192,75050,128,0,75612:0:0:0:0:m_040.ogg
25,192,75050,128,0,75612:0:0:0:0:m_037.ogg
281,192,75800,1,0,0:0:0:0:s_039.ogg
25,192,75987,1,0,0:0:0:0:s_046.ogg
332,192,75987,1,0,0:0:0:0:s_052.ogg
128,192,76175,1,0,0:0:0:0:s_051.ogg
281,192,76175,1,0,0:0:0:0:s_047.ogg
179,192,76362,1,0,0:0:0:0:s_058.ogg
384,192,76362,1,0,0:0:0:0:s_052.ogg
76,192,76550,1,0,0:0:0:0:s_059.ogg
435,192,76550,1,0,0:0:0:0:s_051.ogg
128,192,76737,1,0,0:0:0:0:s_064.ogg
486,192,76737,1,0,0:0:0:0:s_058.ogg
230,192,76925,1,0,0:0:0:0:s_063.ogg
384,192,76925,1,0,0:0:0:0:s_059.ogg
128,192,77112,1,0,0:0:0:0:s_058.ogg
486,192,77112,1,0,0:0:0:0:s_064.ogg
230,192,77300,1,0,0:0:0:0:s_063.ogg
384,192,77300,1,0,0:0:0:0:s_059.ogg
179,192,78050,128,0,78612:0:0:0:0:m_045.ogg
128,192,78050,128,0,78612:0:0:0:0:m_042.ogg
76,192,78050,128,0,78612:0:0:0:0:m_039.ogg
25,192,78800,1,0,0:0:0:0:s_044.ogg
332,192,78800,1,0,0:0:0:0:s_041.ogg
76,192,78987,1,0,0:0:0:0:s_048.ogg
384,192,78987,1,0,0:0:0:0:s_054.ogg
128,192,79175,1,0,0:0:0:0:s_053.ogg
281,192,79175,1,0,0:0:0:0:s_049.ogg
179,192,79362,1,0,0:0:0:0:s_054.ogg
332,192,79362,1,0,0:0:0:0:s_060.ogg
76,192,79550,1,0,0:0:0:0:s_053.ogg
384,192,79550,1,0,0:0:0:0:s_061.ogg
128,192,79737,1,0,0:0:0:0:s_066.ogg
486,192,79737,1,0,0:0:0:0:s_060.ogg
230,192,79925,1,0,0:0:0:0:s_061.ogg
435,192,79925,1,0,0:0:0:0:s_065.ogg
128,192,80112,1,0,0:0:0:0:s_060.ogg
486,192,80112,1,0,0:0:0:0:s_066.ogg
230,192,80300,1,0,0:0:0:0:s_061.ogg
435,192,80300,1,0,0:0:0:0:s_065.ogg
281,192,80675,1,0,0:0:0:0:m_054.ogg
384,192,80675,1,0,0:0:0:0:m_060.ogg
179,192,81050,1,0,0:0:0:0:s_053.ogg
486,192,81050,1,0,0:0:0:0:s_061.ogg
230,192,81425,1,0,0:0:0:0:m_048.ogg
384,192,81425,1,0,0:0:0:0:m_054.ogg
281,192,81800,1,0,0:0:0:0:s_049.ogg
332,192,81800,1,0,0:0:0:0:s_053.ogg
128,192,82175,1,0,0:0:0:0:m_042.ogg
230,192,82175,1,0,0:0:0:0:m_048.ogg
25,192,82550,1,0,0:0:0:0:s_041.ogg
384,192,82550,1,0,0:0:0:0:s_049.ogg
76,192,82925,1,0,0:0:0:0:m_042.ogg
230,192,82925,1,0,0:0:0:0:m_036.ogg
128,192,83300,1,0,0:0:0:0:s_037.ogg
179,192,83300,1,0,0:0:0:0:s_041.ogg
25,192,83487,1,0,0:0:0:0:s_036.ogg
128,192,83675,1,0,0:0:0:0:s_037.ogg
25,192,83862,1,0,0:0:0:0:s_036.ogg
128,192,84050,1,0,0:0:0:0:s_037.ogg
25,192,84237,1,0,0:0:0:0:s_036.ogg
128,192,84425,1,0,0:0:0:0:s_037.ogg
25,192,84612,1,0,0:0:0:0:s_036.ogg
128,192,84800,1,0,0:0:0:0:m_037.ogg
25,192,84987,1,0,0:0:0:0:s_025.ogg
76,192,85175,1,0,0:0:0:0:s_030.ogg
128,192,85362,1,0,0:0:0:0:s_032.ogg
179,192,85550,1,0,0:0:0:0:s_033.ogg
332,192,85737,1,0,0:0:0:0:s_049.ogg
384,192,85925,1,0,0:0:0:0:s_054.ogg
435,192,86112,1,0,0:0:0:0:s_056.ogg
332,192,86300,1,0,0:0:0:0:s_049.ogg
486,192,86346,1,0,0:0:0:0:m_057.ogg
435,192,86862,1,0,0:0:0:0:s_054.ogg
332,192,87050,1,0,0:0:0:0:m_037.ogg
486,192,87096,1,0,0:0:0:0:m_057.ogg
435,192,87612,1,0,0:0:0:0:s_054.ogg
384,192,87800,1,0,0:0:0:0:s_053.ogg
25,192,87987,1,0,0:0:0:0:s_025.ogg
76,192,88175,1,0,0:0:0:0:s_032.ogg
128,192,88362,1,0,0:0:0:0:s_033.ogg
179,192,88550,1,0,0:0:0:0:s_035.ogg
384,192,88737,1,0,0:0:0:0:s_049.ogg
486,192,88925,1,0,0:0:0:0:s_059.ogg
435,192,89112,1,0,0:0:0:0:s_057.ogg
486,192,89300,1,0,0:0:0:0:s_057.ogg
435,192,89362,1,0,0:0:0:0:s_059.ogg
384,192,89425,1,0,0:0:0:0:s_057.ogg
230,192,89487,1,0,0:0:0:0:s_056.ogg
435,192,89675,1,0,0:0:0:0:s_056.ogg
384,192,89737,1,0,0:0:0:0:s_057.ogg
332,192,89800,1,0,0:0:0:0:s_056.ogg
179,192,89862,1,0,0:0:0:0:s_054.ogg
384,192,90050,1,0,0:0:0:0:s_054.ogg
332,192,90112,1,0,0:0:0:0:s_056.ogg
281,192,90175,1,0,0:0:0:0:s_054.ogg
128,192,90237,1,0,0:0:0:0:s_053.ogg
76,192,90425,1,0,0:0:0:0:s_051.ogg
128,192,90612,1,0,0:0:0:0:s_053.ogg
179,192,90800,1,0,0:0:0:0:s_054.ogg
332,192,90987,1,0,0:0:0:0:s_025.ogg
384,192,91175,1,0,0:0:0:0:s_030.ogg
435,192,91362,1,0,0:0:0:0:s_032.ogg
486,192,91550,1,0,0:0:0:0:s_033.ogg
76,192,91737,1,0,0:0:0:0:s_049.ogg
128,192,91925,1,0,0:0:0:0:s_054.ogg
179,192,92112,1,0,0:0:0:0:s_056.ogg
76,192,92300,1,0,0:0:0:0:s_049.ogg
230,192,92346,1,0,0:0:0:0:m_057.ogg
179,192,92862,1,0,0:0:0:0:s_054.ogg
76,192,93050,1,0,0:0:0:0:s_049.ogg
230,192,93096,1,0,0:0:0:0:m_057.ogg
179,192,93612,1,0,0:0:0:0:s_054.ogg
128,192,93800,1,0,0:0:0:0:s_051.ogg
332,192,93987,1,0,0:0:0:0:s_023.ogg
384,192,94175,1,0,0:0:0:0:s_030.ogg
435,192,94362,1,0,0:0:0:0:s_032.ogg
486,192,94550,1,0,0:0:0:0:s_033.ogg
128,192,94737,1,0,0:0:0:0:s_047.ogg
230,192,94925,1,0,0:0:0:0:s_057.ogg
179,192,95112,1,0,0:0:0:0:s_056.ogg
230,192,95300,1,0,0:0:0:0:s_056.ogg
179,192,95362,1,0,0:0:0:0:s_057.ogg
128,192,95425,1,0,0:0:0:0:s_056.ogg
384,192,95487,1,0,0:0:0:0:s_054.ogg
179,192,95675,1,0,0:0:0:0:s_054.ogg
128,192,95737,1,0,0:0:0:0:s_056.ogg
76,192,95800,1,0,0:0:0:0:s_054.ogg
332,192,95862,1,0,0:0:0:0:s_052.ogg
128,192,96050,1,0,0:0:0:0:s_052.ogg
76,192,96112,1,0,0:0:0:0:s_054.ogg
25,192,96175,1,0,0:0:0:0:s_052.ogg
281,192,96237,1,0,0:0:0:0:s_051.ogg
332,192,96425,1,0,0:0:0:0:s_049.ogg
384,192,96612,1,0,0:0:0:0:s_051.ogg
435,192,96800,1,0,0:0:0:0:s_052.ogg
25,192,96987,1,0,0:0:0:0:s_023.ogg
76,192,97175,1,0,0:0:0:0:s_028.ogg
128,192,97362,1,0,0:0:0:0:s_030.ogg
179,192,97550,1,0,0:0:0:0:s_032.ogg
332,192,97737,1,0,0:0:0:0:s_047.ogg
384,192,97925,1,0,0:0:0:0:s_052.ogg
435,192,98112,1,0,0:0:0:0:s_054.ogg
332,192,98300,1,0,0:0:0:0:m_035.ogg
486,192,98346,1,0,0:0:0:0:m_056.ogg
435,192,98862,1,0,0:0:0:0:s_052.ogg
332,192,99050,1,0,0:0:0:0:m_035.ogg
486,192,99096,1,0,0:0:0:0:m_056.ogg
435,192,99612,1,0,0:0:0:0:s_052.ogg
384,192,99800,1,0,0:0:0:0:s_051.ogg
25,192,99987,1,0,0:0:0:0:s_023.ogg
76,192,100175,1,0,0:0:0:0:s_030.ogg
128,192,100362,1,0,0:0:0:0:s_032.ogg
179,192,100550,1,0,0:0:0:0:s_033.ogg
384,192,100737,1,0,0:0:0:0:s_047.ogg
486,192,100925,1,0,0:0:0:0:s_057.ogg
435,192,101112,1,0,0:0:0:0:s_056.ogg
486,192,101300,1,0,0:0:0:0:s_056.ogg
435,192,101362,1,0,0:0:0:0:s_057.ogg
384,192,101425,1,0,0:0:0:0:s_056.ogg
230,192,101487,1,0,0:0:0:0:s_054.ogg
435,192,101675,1,0,0:0:0:0:s_054.ogg
384,192,101737,1,0,0:0:0:0:s_056.ogg
332,192,101800,1,0,0:0:0:0:s_054.ogg
179,192,101862,1,0,0:0:0:0:s_052.ogg
384,192,102050,1,0,0:0:0:0:s_052.ogg
332,192,102112,1,0,0:0:0:0:s_054.ogg
281,192,102175,1,0,0:0:0:0:s_052.ogg
128,192,102237,1,0,0:0:0:0:s_051.ogg
76,192,102425,1,0,0:0:0:0:s_049.ogg
128,192,102612,1,0,0:0:0:0:s_051.ogg
179,192,102800,1,0,0:0:0:0:s_052.ogg
435,192,102800,1,0,0:0:0:0:m_040.ogg
384,192,103175,1,0,0:0:0:0:m_038.ogg
332,192,103550,1,0,0:0:0:0:m_037.ogg
128,192,103737,1,0,0:0:0:0:s_049.ogg
230,192,103925,1,0,0:0:0:0:s_059.ogg
179,192,104112,1,0,0:0:0:0:s_057.ogg
230,192,104300,1,0,0:0:0:0:s_057.ogg
179,192,104362,1,0,0:0:0:0:s_059.ogg
128,192,104425,1,0,0:0:0:0:s_057.ogg
384,192,104487,1,0,0:0:0:0:s_056.ogg
179,192,104675,1,0,0:0:0:0:s_056.ogg
128,192,104737,1,0,0:0:0:0:s_057.ogg
76,192,104800,1,0,0:0:0:0:s_056.ogg
332,192,104862,1,0,0:0:0:0:s_054.ogg
128,192,105050,1,0,0:0:0:0:s_054.ogg
76,192,105112,1,0,0:0:0:0:s_056.ogg
25,192,105175,1,0,0:0:0:0:s_054.ogg
281,192,105237,1,0,0:0:0:0:s_053.ogg
332,192,105425,1,0,0:0:0:0:s_051.ogg
384,192,105612,1,0,0:0:0:0:s_053.ogg
179,192,105800,1,0,0:0:0:0:m_042.ogg
435,192,105800,1,0,0:0:0:0:s_054.ogg
128,192,106175,1,0,0:0:0:0:m_040.ogg
76,192,106550,1,0,0:0:0:0:m_039.ogg
281,192,106737,1,0,0:0:0:0:s_051.ogg
384,192,106925,1,0,0:0:0:0:s_061.ogg
332,192,107112,1,0,0:0:0:0:s_059.ogg
486,192,107300,1,0,0:0:0:0:s_059.ogg
435,192,107362,1,0,0:0:0:0:s_061.ogg
384,192,107425,1,0,0:0:0:0:s_059.ogg
230,192,107487,1,0,0:0:0:0:s_058.ogg
435,192,107675,1,0,0:0:0:0:s_058.ogg
384,192,107737,1,0,0:0:0:0:s_059.ogg
332,192,107800,1,0,0:0:0:0:s_058.ogg
179,192,107862,1,0,0:0:0:0:s_056.ogg
384,192,108050,1,0,0:0:0:0:s_056.ogg
332,192,108112,1,0,0:0:0:0:s_058.ogg
281,192,108175,1,0,0:0:0:0:s_056.ogg
128,192,108237,1,0,0:0:0:0:s_055.ogg
25,192,108425,1,0,0:0:0:0:s_053.ogg
76,192,108612,1,0,0:0:0:0:s_055.ogg
230,192,108800,1,0,0:0:0:0:s_058.ogg
179,192,108862,1,0,0:0:0:0:s_059.ogg
128,192,108925,1,0,0:0:0:0:s_058.ogg
486,192,108987,1,0,0:0:0:0:s_056.ogg
179,192,109175,1,0,0:0:0:0:s_056.ogg
128,192,109237,1,0,0:0:0:0:s_058.ogg
76,192,109300,1,0,0:0:0:0:s_056.ogg
435,192,109362,1,0,0:0:0:0:s_054.ogg
128,192,109550,1,0,0:0:0:0:m_037.ogg
76,192,109612,1,0,0:0:0:0:s_056.ogg
25,192,109675,1,0,0:0:0:0:s_054.ogg
384,192,109737,1,0,0:0:0:0:s_053.ogg
281,192,109925,1,0,0:0:0:0:s_051.ogg
332,192,110112,1,0,0:0:0:0:s_053.ogg
486,192,110300,1,0,0:0:0:0:s_056.ogg
435,192,110362,1,0,0:0:0:0:s_058.ogg
384,192,110425,1,0,0:0:0:0:s_056.ogg
128,192,110487,1,0,0:0:0:0:s_042.ogg
435,192,110675,1,0,0:0:0:0:s_054.ogg
384,192,110737,1,0,0:0:0:0:s_056.ogg
332,192,110800,1,0,0:0:0:0:s_054.ogg
76,192,110862,1,0,0:0:0:0:s_046.ogg
384,192,111050,1,0,0:0:0:0:s_053.ogg
332,192,111112,1,0,0:0:0:0:s_054.ogg
281,192,111175,1,0,0:0:0:0:s_053.ogg
25,192,111237,1,0,0:0:0:0:s_051.ogg
230,192,111425,1,0,0:0:0:0:s_051.ogg
179,192,111487,1,0,0:0:0:0:s_053.ogg
128,192,111550,1,0,0:0:0:0:s_051.ogg
486,192,111612,1,0,0:0:0:0:s_050.ogg
179,192,111800,1,0,0:0:0:0:s_051.ogg
128,192,111862,1,0,0:0:0:0:s_053.ogg
76,192,111925,1,0,0:0:0:0:s_051.ogg
435,192,111987,1,0,0:0:0:0:s_049.ogg
435,192,112175,1,0,0:0:0:0:s_046.ogg
435,192,112362,1,0,0:0:0:0:s_046.ogg
179,192,112550,1,0,0:0:0:0:s_051.ogg
128,192,112612,1,0,0:0:0:0:s_053.ogg
76,192,112675,1,0,0:0:0:0:s_051.ogg
384,192,112737,1,0,0:0:0:0:s_049.ogg
384,192,112925,1,0,0:0:0:0:s_049.ogg
384,192,113112,1,0,0:0:0:0:s_049.ogg
76,192,113300,1,0,0:0:0:0:l_030.ogg
332,192,113393,1,0,0:0:0:0:s_042.ogg
384,192,113487,1,0,0:0:0:0:s_046.ogg
281,192,113581,1,0,0:0:0:0:s_042.ogg
179,192,113675,1,0,0:0:0:0:m_054.ogg
332,192,113768,1,0,0:0:0:0:s_042.ogg
384,192,113862,1,0,0:0:0:0:s_046.ogg
281,192,113956,1,0,0:0:0:0:s_042.ogg
76,192,114050,1,0,0:0:0:0:s_046.ogg
332,192,114143,1,0,0:0:0:0:s_042.ogg
384,192,114237,1,0,0:0:0:0:s_046.ogg
281,192,114331,1,0,0:0:0:0:s_042.ogg
179,192,114425,1,0,0:0:0:0:m_054.ogg
332,192,114518,1,0,0:0:0:0:s_042.ogg
384,192,114612,1,0,0:0:0:0:s_046.ogg
281,192,114706,1,0,0:0:0:0:s_042.ogg
76,192,114800,1,0,0:0:0:0:l_028.ogg
332,192,114893,1,0,0:0:0:0:s_042.ogg
384,192,114987,1,0,0:0:0:0:s_046.ogg
281,192,115081,1,0,0:0:0:0:s_042.ogg
179,192,115175,1,0,0:0:0:0:m_054.ogg
332,192,115268,1,0,0:0:0:0:s_042.ogg
384,192,115362,1,0,0:0:0:0:s_046.ogg
281,192,115456,1,0,0:0:0:0:s_042.ogg
76,192,115550,1,0,0:0:0:0:s_046.ogg
332,192,115643,1,0,0:0:0:0:s_042.ogg
384,192,115737,1,0,0:0:0:0:s_046.ogg
281,192,115831,1,0,0:0:0:0:s_042.ogg
179,192,115925,1,0,0:0:0:0:m_054.ogg
332,192,116018,1,0,0:0:0:0:s_042.ogg
384,192,116112,1,0,0:0:0:0:s_046.ogg
281,192,116206,1,0,0:0:0:0:s_042.ogg
76,192,116300,1,0,0:0:0:0:s_054.ogg
384,192,116393,1,0,0:0:0:0:s_042.ogg
435,192,116487,1,0,0:0:0:0:s_047.ogg
179,192,116581,1,0,0:0:0:0:s_042.ogg
128,192,116675,1,0,0:0:0:0:s_055.ogg
435,192,116768,1,0,0:0:0:0:s_043.ogg
486,192,116862,1,0,0:0:0:0:s_051.ogg
230,192,116956,1,0,0:0:0:0:s_043.ogg
179,192,117050,1,0,0:0:0:0:s_056.ogg
486,192,117143,1,0,0:0:0:0:s_044.ogg
25,192,117237,1,0,0:0:0:0:s_051.ogg
281,192,117331,1,0,0:0:0:0:s_044.ogg
230,192,117425,1,0,0:0:0:0:s_058.ogg
25,192,117518,1,0,0:0:0:0:s_046.ogg
76,192,117612,1,0,0:0:0:0:s_051.ogg
332,192,117706,1,0,0:0:0:0:s_046.ogg
281,192,117800,1,0,0:0:0:0:s_059.ogg
76,192,117893,1,0,0:0:0:0:s_047.ogg
128,192,117987,1,0,0:0:0:0:s_051.ogg
384,192,118081,1,0,0:0:0:0:s_047.ogg
332,192,118175,1,0,0:0:0:0:s_060.ogg
128,192,118268,1,0,0:0:0:0:s_048.ogg
179,192,118362,1,0,0:0:0:0:s_051.ogg
435,192,118456,1,0,0:0:0:0:s_048.ogg
384,192,118550,1,0,0:0:0:0:s_061.ogg
179,192,118643,1,0,0:0:0:0:s_049.ogg
230,192,118737,1,0,0:0:0:0:s_056.ogg
486,192,118831,1,0,0:0:0:0:s_049.ogg
435,192,118925,1,0,0:0:0:0:s_063.ogg
230,192,119018,1,0,0:0:0:0:s_051.ogg
281,192,119112,1,0,0:0:0:0:s_056.ogg
486,192,119206,1,0,0:0:0:0:s_051.ogg
25,192,119300,1,0,0:0:0:0:s_064.ogg
281,192,119393,1,0,0:0:0:0:s_052.ogg
332,192,119487,1,0,0:0:0:0:s_056.ogg
76,192,119581,1,0,0:0:0:0:s_052.ogg
25,192,119675,1,0,0:0:0:0:s_065.ogg
332,192,119768,1,0,0:0:0:0:s_053.ogg
384,192,119862,1,0,0:0:0:0:s_056.ogg
128,192,119956,1,0,0:0:0:0:s_053.ogg
76,192,120050,1,0,0:0:0:0:s_066.ogg
384,192,120143,1,0,0:0:0:0:s_054.ogg
435,192,120237,1,0,0:0:0:0:s_061.ogg
179,192,120331,1,0,0:0:0:0:s_054.ogg
128,192,120425,1,0,0:0:0:0:s_062.ogg
281,192,120518,1,0,0:0:0:0:s_050.ogg
332,192,120612,1,0,0:0:0:0:s_054.ogg
76,192,120706,1,0,0:0:0:0:s_050.ogg
25,192,120800,1,0,0:0:0:0:m_011.ogg
281,192,120893,1,0,0:0:0:0:s_051.ogg
384,192,120987,1,0,0:0:0:0:s_054.ogg
230,192,121081,1,0,0:0:0:0:s_051.ogg
128,192,121175,1,0,0:0:0:0:s_063.ogg
281,192,121268,1,0,0:0:0:0:s_051.ogg
384,192,121362,1,0,0:0:0:0:s_054.ogg
230,192,121456,1,0,0:0:0:0:s_051.ogg
128,192,121550,1,0,0:0:0:0:m_025.ogg
332,192,121643,1,0,0:0:0:0:s_044.ogg
435,192,121737,1,0,0:0:0:0:s_047.ogg
179,192,121831,1,0,0:0:0:0:s_044.ogg
76,192,121925,1,0,0:0:0:0:s_053.ogg
332,192,122018,1,0,0:0:0:0:s_044.ogg
435,192,122112,1,0,0:0:0:0:s_047.ogg
179,192,122206,1,0,0:0:0:0:s_044.ogg
76,192,122300,1,0,0:0:0:0:l_030.ogg
332,192,122393,1,0,0:0:0:0:s_042.ogg
384,192,122487,1,0,0:0:0:0:s_046.ogg
281,192,122581,1,0,0:0:0:0:s_042.ogg
179,192,122675,1,0,0:0:0:0:m_054.ogg
332,192,122768,1,0,0:0:0:0:s_042.ogg
384,192,122862,1,0,0:0:0:0:s_046.ogg
281,192,122956,1,0,0:0:0:0:s_042.ogg
76,192,123050,1,0,0:0:0:0:s_046.ogg
332,192,123143,1,0,0:0:0:0:s_042.ogg
384,192,123237,1,0,0:0:0:0:s_046.ogg
281,192,123331,1,0,0:0:0:0:s_042.ogg
179,192,123425,1,0,0:0:0:0:m_054.ogg
332,192,123518,1,0,0:0:0:0:s_042.ogg
384,192,123612,1,0,0:0:0:0:s_046.ogg
281,192,123706,1,0,0:0:0:0:s_042.ogg
76,192,123800,1,0,0:0:0:0:l_028.ogg
332,192,123893,1,0,0:0:0:0:s_042.ogg
384,192,123987,1,0,0:0:0:0:s_046.ogg
281,192,124081,1,0,0:0:0:0:s_042.ogg
179,192,124175,1,0,0:0:0:0:m_054.ogg
332,192,124268,1,0,0:0:0:0:s_042.ogg
384,192,124362,1,0,0:0:0:0:s_046.ogg
281,192,124456,1,0,0:0:0:0:s_042.ogg
76,192,124550,1,0,0:0:0:0:s_046.ogg
332,192,124643,1,0,0:0:0:0:s_042.ogg
384,192,124737,1,0,0:0:0:0:s_046.ogg
281,192,124831,1,0,0:0:0:0:s_042.ogg
179,192,124925,1,0,0:0:0:0:m_054.ogg
332,192,125018,1,0,0:0:0:0:s_042.ogg
384,192,125112,1,0,0:0:0:0:s_046.ogg
281,192,125206,1,0,0:0:0:0:s_042.ogg
76,192,125300,1,0,0:0:0:0:s_054.ogg
384,192,125393,1,0,0:0:0:0:s_042.ogg
435,192,125487,1,0,0:0:0:0:s_047.ogg
179,192,125581,1,0,0:0:0:0:s_042.ogg
128,192,125675,1,0,0:0:0:0:s_055.ogg
435,192,125768,1,0,0:0:0:0:s_043.ogg
486,192,125862,1,0,0:0:0:0:s_051.ogg
230,192,125956,1,0,0:0:0:0:s_043.ogg
179,192,126050,1,0,0:0:0:0:s_056.ogg
486,192,126143,1,0,0:0:0:0:s_044.ogg
25,192,126237,1,0,0:0:0:0:s_051.ogg
281,192,126331,1,0,0:0:0:0:s_044.ogg
230,192,126425,1,0,0:0:0:0:s_058.ogg
25,192,126518,1,0,0:0:0:0:s_046.ogg
76,192,126612,1,0,0:0:0:0:s_051.ogg
332,192,126706,1,0,0:0:0:0:s_046.ogg
281,192,126800,1,0,0:0:0:0:s_059.ogg
76,192,126893,1,0,0:0:0:0:s_047.ogg
128,192,126987,1,0,0:0:0:0:s_051.ogg
384,192,127081,1,0,0:0:0:0:s_047.ogg
332,192,127175,1,0,0:0:0:0:s_060.ogg
128,192,127268,1,0,0:0:0:0:s_048.ogg
179,192,127362,1,0,0:0:0:0:s_051.ogg
435,192,127456,1,0,0:0:0:0:s_048.ogg
384,192,127550,1,0,0:0:0:0:s_061.ogg
179,192,127643,1,0,0:0:0:0:s_049.ogg
230,192,127737,1,0,0:0:0:0:s_056.ogg
486,192,127831,1,0,0:0:0:0:s_049.ogg
435,192,127925,1,0,0:0:0:0:s_063.ogg
230,192,128018,1,0,0:0:0:0:s_051.ogg
281,192,128112,1,0,0:0:0:0:s_056.ogg
25,192,128206,1,0,0:0:0:0:s_051.ogg
486,192,128300,1,0,0:0:0:0:s_064.ogg
281,192,128393,1,0,0:0:0:0:s_052.ogg
332,192,128487,1,0,0:0:0:0:s_056.ogg
76,192,128581,1,0,0:0:0:0:s_052.ogg
25,192,128675,1,0,0:0:0:0:s_065.ogg
332,192,128768,1,0,0:0:0:0:s_053.ogg
384,192,128862,1,0,0:0:0:0:s_056.ogg
128,192,128956,1,0,0:0:0:0:s_053.ogg
76,192,129050,1,0,0:0:0:0:s_066.ogg
384,192,129143,1,0,0:0:0:0:s_054.ogg
435,192,129237,1,0,0:0:0:0:s_061.ogg
179,192,129331,1,0,0:0:0:0:s_054.ogg
128,192,129425,1,0,0:0:0:0:s_067.ogg
435,192,129518,1,0,0:0:0:0:s_055.ogg
486,192,129612,1,0,0:0:0:0:s_061.ogg
230,192,129706,1,0,0:0:0:0:s_055.ogg
179,192,129800,1,0,0:0:0:0:m_023.ogg
281,192,129893,1,0,0:0:0:0:s_059.ogg
384,192,129987,1,0,0:0:0:0:s_063.ogg
230,192,130081,1,0,0:0:0:0:s_059.ogg
128,192,130175,1,0,0:0:0:0:s_068.ogg
281,192,130268,1,0,0:0:0:0:s_059.ogg
384,192,130362,1,0,0:0:0:0:s_063.ogg
230,192,130456,1,0,0:0:0:0:s_059.ogg
128,192,130550,1,0,0:0:0:0:m_025.ogg
332,192,130643,1,0,0:0:0:0:s_056.ogg
435,192,130737,1,0,0:0:0:0:s_059.ogg
179,192,130831,1,0,0:0:0:0:s_056.ogg
76,192,130925,1,0,0:0:0:0:s_065.ogg
332,192,131018,1,0,0:0:0:0:s_056.ogg
435,192,131112,1,0,0:0:0:0:s_059.ogg
179,192,131206,1,0,0:0:0:0:s_056.ogg
128,192,131300,1,0,0:0:0:0:s_058.ogg
486,192,131487,128,0,131768:0:0:0:0:m_066.ogg
281,192,131862,1,0,0:0:0:0:s_065.ogg
332,192,131956,1,0,0:0:0:0:s_066.ogg
384,192,132050,1,0,0:0:0:0:s_068.ogg
179,192,132143,1,0,0:0:0:0:s_066.ogg
128,192,132237,1,0,0:0:0:0:s_065.ogg
76,192,132331,1,0,0:0:0:0:s_063.ogg
25,192,132425,1,0,0:0:0:0:s_062.ogg
486,192,132518,1,0,0:0:0:0:s_063.ogg
435,192,132612,1,0,0:0:0:0:s_065.ogg
384,192,132706,1,0,0:0:0:0:s_063.ogg
332,192,132800,1,0,0:0:0:0:s_061.ogg
281,192,132893,1,0,0:0:0:0:s_059.ogg
230,192,132987,1,0,0:0:0:0:s_058.ogg
179,192,133081,1,0,0:0:0:0:s_056.ogg
128,192,133175,1,0,0:0:0:0:s_055.ogg
384,192,133268,1,0,0:0:0:0:s_056.ogg
332,192,133362,1,0,0:0:0:0:s_058.ogg
281,192,133456,1,0,0:0:0:0:s_056.ogg
230,192,133550,1,0,0:0:0:0:s_054.ogg
179,192,133643,1,0,0:0:0:0:s_053.ogg
128,192,133737,1,0,0:0:0:0:s_051.ogg
76,192,133831,1,0,0:0:0:0:s_049.ogg
25,192,133925,1,0,0:0:0:0:s_048.ogg
128,192,134018,1,0,0:0:0:0:s_049.ogg
179,192,134112,1,0,0:0:0:0:s_051.ogg
76,192,134206,1,0,0:0:0:0:s_047.ogg
25,192,134300,1,0,0:0:0:0:s_046.ogg
486,192,134487,128,0,134768:0:0:0:0:m_066.ogg
435,192,134487,128,0,134768:0:0:0:0:m_054.ogg
281,192,134862,1,0,0:0:0:0:s_065.ogg
332,192,134956,1,0,0:0:0:0:s_066.ogg
384,192,135050,1,0,0:0:0:0:s_068.ogg
230,192,135143,1,0,0:0:0:0:s_066.ogg
179,192,135237,1,0,0:0:0:0:s_065.ogg
128,192,135331,1,0,0:0:0:0:s_063.ogg
76,192,135425,1,0,0:0:0:0:s_062.ogg
486,192,135518,1,0,0:0:0:0:s_063.ogg
435,192,135612,1,0,0:0:0:0:s_065.ogg
384,192,135706,1,0,0:0:0:0:s_063.ogg
332,192,135800,1,0,0:0:0:0:s_061.ogg
281,192,135893,1,0,0:0:0:0:s_059.ogg
230,192,135987,1,0,0:0:0:0:s_058.ogg
179,192,136081,1,0,0:0:0:0:s_056.ogg
128,192,136175,1,0,0:0:0:0:s_055.ogg
384,192,136268,1,0,0:0:0:0:s_056.ogg
332,192,136362,1,0,0:0:0:0:s_058.ogg
281,192,136456,1,0,0:0:0:0:s_056.ogg
230,192,136550,1,0,0:0:0:0:s_054.ogg
179,192,136643,1,0,0:0:0:0:s_053.ogg
128,192,136737,1,0,0:0:0:0:s_051.ogg
76,192,136831,1,0,0:0:0:0:s_049.ogg
25,192,136925,1,0,0:0:0:0:s_048.ogg
76,192,137018,1,0,0:0:0:0:s_049.ogg
128,192,137112,1,0,0:0:0:0:s_051.ogg
25,192,137206,1,0,0:0:0:0:s_049.ogg
179,192,137300,1,0,0:0:0:0:s_054.ogg
281,192,137487,1,0,0:0:0:0:m_042.ogg
25,192,137862,1,0,0:0:0:0:s_040.ogg
230,192,137862,1,0,0:0:0:0:s_046.ogg
76,192,138050,1,0,0:0:0:0:s_039.ogg
281,192,138050,1,0,0:0:0:0:s_047.ogg
128,192,138237,1,0,0:0:0:0:s_046.ogg
332,192,138237,1,0,0:0:0:0:s_049.ogg
179,192,138425,1,0,0:0:0:0:s_047.ogg
384,192,138425,1,0,0:0:0:0:s_051.ogg
230,192,138612,1,0,0:0:0:0:s_047.ogg
435,192,138612,1,0,0:0:0:0:s_053.ogg
281,192,138800,1,0,0:0:0:0:s_046.ogg
486,192,138800,1,0,0:0:0:0:s_054.ogg
281,192,138987,1,0,0:0:0:0:s_018.ogg
486,192,138987,1,0,0:0:0:0:m_054.ogg
25,192,139362,1,0,0:0:0:0:s_052.ogg
230,192,139362,1,0,0:0:0:0:s_058.ogg
76,192,139550,1,0,0:0:0:0:s_051.ogg
281,192,139550,1,0,0:0:0:0:s_059.ogg
128,192,139737,1,0,0:0:0:0:s_058.ogg
332,192,139737,1,0,0:0:0:0:s_061.ogg
179,192,139925,1,0,0:0:0:0:s_059.ogg
384,192,139925,1,0,0:0:0:0:s_063.ogg
230,192,140112,1,0,0:0:0:0:s_059.ogg
435,192,140112,1,0,0:0:0:0:s_065.ogg
486,192,140300,128,0,140956:0:0:0:0:m_066.ogg
281,192,140300,128,0,140956:0:0:0:0:m_058.ogg
230,192,141050,128,0,141706:0:0:0:0:m_046.ogg
25,192,141050,128,0,141706:0:0:0:0:m_054.ogg
486,192,141800,128,0,142456:0:0:0:0:m_066.ogg
281,192,141800,128,0,142456:0:0:0:0:m_058.ogg
230,192,142550,128,0,143206:0:0:0:0:m_046.ogg
25,192,142550,128,0,143206:0:0:0:0:m_054.ogg
486,192,143300,128,0,143956:0:0:0:0:m_066.ogg
384,192,143300,128,0,143956:0:0:0:0:m_063.ogg
230,192,144050,128,0,144706:0:0:0:0:m_051.ogg
128,192,144050,128,0,144706:0:0:0:0:m_054.ogg
332,192,144800,1,0,0:0:0:0:m_065.ogg
435,192,144800,1,0,0:0:0:0:m_060.ogg
486,192,144800,1,0,0:0:0:0:m_063.ogg
25,192,145550,1,0,0:0:0:0:m_034.ogg
76,192,145550,1,0,0:0:0:0:m_038.ogg
179,192,145550,1,0,0:0:0:0:m_041.ogg
76,192,146300,1,0,0:0:0:0:s_027.ogg
332,192,146300,1,0,0:0:0:0:l_039.ogg
128,192,146466,1,0,0:0:0:0:s_030.ogg
128,192,146633,1,0,0:0:0:0:s_030.ogg
179,192,146800,1,0,0:0:0:0:s_035.ogg
76,192,146966,1,0,0:0:0:0:s_030.ogg
76,192,147133,1,0,0:0:0:0:s_030.ogg
128,192,147300,1,0,0:0:0:0:s_034.ogg
281,192,147300,1,0,0:0:0:0:l_037.ogg
76,192,147466,1,0,0:0:0:0:s_030.ogg
76,192,147633,1,0,0:0:0:0:s_030.ogg
128,192,147800,1,0,0:0:0:0:s_034.ogg
76,192,147966,1,0,0:0:0:0:s_030.ogg
76,192,148133,1,0,0:0:0:0:s_030.ogg
179,192,148300,1,0,0:0:0:0:s_035.ogg
435,192,148300,1,0,0:0:0:0:l_042.ogg
76,192,148466,1,0,0:0:0:0:s_030.ogg
76,192,148633,1,0,0:0:0:0:s_030.ogg
179,192,148800,1,0,0:0:0:0:s_035.ogg
76,192,148966,1,0,0:0:0:0:s_030.ogg
76,192,149133,1,0,0:0:0:0:s_030.ogg
230,192,149300,1,0,0:0:0:0:s_037.ogg
76,192,149466,1,0,0:0:0:0:s_030.ogg
76,192,149633,1,0,0:0:0:0:s_030.ogg
230,192,149800,1,0,0:0:0:0:s_037.ogg
384,192,149800,1,0,0:0:0:0:m_040.ogg
76,192,149966,1,0,0:0:0:0:s_030.ogg
76,192,150133,1,0,0:0:0:0:s_030.ogg
128,192,150300,1,0,0:0:0:0:s_035.ogg
332,192,150300,1,0,0:0:0:0:m_039.ogg
76,192,150466,1,0,0:0:0:0:s_030.ogg
76,192,150633,1,0,0:0:0:0:s_030.ogg
179,192,150800,1,0,0:0:0:0:s_037.ogg
384,192,150800,1,0,0:0:0:0:m_042.ogg
76,192,150966,1,0,0:0:0:0:s_030.ogg
76,192,151133,1,0,0:0:0:0:s_030.ogg
179,192,151300,1,0,0:0:0:0:s_039.ogg
435,192,151300,1,0,0:0:0:0:m_047.ogg
128,192,151466,1,0,0:0:0:0:s_035.ogg
128,192,151633,1,0,0:0:0:0:s_035.ogg
230,192,151800,1,0,0:0:0:0:s_041.ogg
486,192,151800,1,0,0:0:0:0:m_049.ogg
128,192,151966,1,0,0:0:0:0:s_035.ogg
128,192,152133,1,0,0:0:0:0:s_035.ogg
76,192,152300,1,0,0:0:0:0:s_034.ogg
384,192,152300,1,0,0:0:0:0:l_042.ogg
230,192,152466,1,0,0:0:0:0:s_037.ogg
230,192,152633,1,0,0:0:0:0:s_037.ogg
76,192,152800,1,0,0:0:0:0:s_034.ogg
230,192,152966,1,0,0:0:0:0:s_037.ogg
230,192,153133,1,0,0:0:0:0:s_037.ogg
76,192,153300,1,0,0:0:0:0:s_034.ogg
230,192,153466,1,0,0:0:0:0:s_037.ogg
230,192,153633,1,0,0:0:0:0:s_037.ogg
76,192,153800,1,0,0:0:0:0:s_034.ogg
435,192,153800,1,0,0:0:0:0:m_043.ogg
230,192,153966,1,0,0:0:0:0:s_037.ogg
230,192,154133,1,0,0:0:0:0:s_037.ogg
76,192,154300,1,0,0:0:0:0:s_034.ogg
486,192,154300,1,0,0:0:0:0:l_044.ogg
230,192,154466,1,0,0:0:0:0:s_037.ogg
230,192,154633,1,0,0:0:0:0:s_037.ogg
76,192,154800,1,0,0:0:0:0:s_034.ogg
230,192,154966,1,0,0:0:0:0:s_037.ogg
230,192,155133,1,0,0:0:0:0:s_037.ogg
128,192,155300,1,0,0:0:0:0:s_034.ogg
332,192,155300,1,0,0:0:0:0:m_037.ogg
76,192,155466,1,0,0:0:0:0:s_030.ogg
76,192,155633,1,0,0:0:0:0:s_030.ogg
128,192,155800,1,0,0:0:0:0:s_034.ogg
76,192,155966,1,0,0:0:0:0:s_030.ogg
384,192,156050,1,0,0:0:0:0:s_039.ogg
76,192,156133,1,0,0:0:0:0:s_030.ogg
435,192,156175,1,0,0:0:0:0:s_040.ogg
179,192,156300,1,0,0:0:0:0:s_035.ogg
486,192,156300,1,0,0:0:0:0:l_042.ogg
76,192,156466,1,0,0:0:0:0:s_030.ogg
76,192,156633,1,0,0:0:0:0:s_030.ogg
179,192,156800,1,0,0:0:0:0:s_035.ogg
76,192,156966,1,0,0:0:0:0:s_030.ogg
76,192,157133,1,0,0:0:0:0:s_030.ogg
128,192,157300,1,0,0:0:0:0:s_030.ogg
281,192,157300,1,0,0:0:0:0:l_036.ogg
25,192,157466,1,0,0:0:0:0:s_027.ogg
25,192,157633,1,0,0:0:0:0:s_027.ogg
128,192,157800,1,0,0:0:0:0:s_030.ogg
25,192,157966,1,0,0:0:0:0:s_027.ogg
25,192,158133,1,0,0:0:0:0:s_027.ogg
179,192,158300,1,0,0:0:0:0:s_032.ogg
486,192,158300,1,0,0:0:0:0:l_040.ogg
128,192,158466,1,0,0:0:0:0:s_028.ogg
128,192,158633,1,0,0:0:0:0:s_028.ogg
179,192,158800,1,0,0:0:0:0:s_032.ogg
128,192,158966,1,0,0:0:0:0:s_028.ogg
128,192,159133,1,0,0:0:0:0:s_028.ogg
230,192,159300,1,0,0:0:0:0:s_034.ogg
486,192,159300,1,0,0:0:0:0:s_040.ogg
128,192,159466,1,0,0:0:0:0:s_028.ogg
435,192,159466,1,0,0:0:0:0:s_039.ogg
128,192,159633,1,0,0:0:0:0:s_028.ogg
384,192,159633,1,0,0:0:0:0:s_037.ogg
128,192,159800,1,0,0:0:0:0:s_028.ogg
384,192,159800,1,0,0:0:0:0:s_037.ogg
128,192,159966,1,0,0:0:0:0:s_028.ogg
332,192,159966,1,0,0:0:0:0:s_035.ogg
128,192,160133,1,0,0:0:0:0:s_028.ogg
281,192,160133,1,0,0:0:0:0:s_034.ogg
76,192,160300,1,0,0:0:0:0:s_028.ogg
435,192,160300,1,0,0:0:0:0:l_037.ogg
179,192,160466,1,0,0:0:0:0:s_030.ogg
179,192,160633,1,0,0:0:0:0:s_030.ogg
76,192,160800,1,0,0:0:0:0:s_028.ogg
179,192,160966,1,0,0:0:0:0:s_030.ogg
179,192,161133,1,0,0:0:0:0:s_030.ogg
25,192,161300,1,0,0:0:0:0:s_027.ogg
332,192,161300,1,0,0:0:0:0:s_035.ogg
76,192,161466,1,0,0:0:0:0:s_030.ogg
128,192,161633,1,0,0:0:0:0:s_035.ogg
384,192,161800,1,0,0:0:0:0:s_039.ogg
435,192,161966,1,0,0:0:0:0:s_042.ogg
486,192,162133,1,0,0:0:0:0:s_047.ogg
179,192,162300,1,0,0:0:0:0:l_051.ogg
332,192,162300,1,0,0:0:0:0:s_039.ogg
384,192,162466,1,0,0:0:0:0:s_042.ogg
384,192,162633,1,0,0:0:0:0:s_042.ogg
332,192,162800,1,0,0:0:0:0:s_039.ogg
384,192,162966,1,0,0:0:0:0:s_042.ogg
384,192,163133,1,0,0:0:0:0:s_042.ogg
128,192,163300,1,0,0:0:0:0:l_028.ogg
281,192,163300,1,0,0:0:0:0:s_037.ogg
384,192,163466,1,0,0:0:0:0:s_042.ogg
384,192,163633,1,0,0:0:0:0:s_042.ogg
281,192,163800,1,0,0:0:0:0:s_037.ogg
384,192,163966,1,0,0:0:0:0:s_042.ogg
384,192,164133,1,0,0:0:0:0:s_042.ogg
230,192,164300,1,0,0:0:0:0:l_054.ogg
332,192,164300,1,0,0:0:0:0:s_042.ogg
435,192,164466,1,0,0:0:0:0:s_047.ogg
435,192,164633,1,0,0:0:0:0:s_047.ogg
332,192,164800,1,0,0:0:0:0:s_042.ogg
435,192,164966,1,0,0:0:0:0:s_047.ogg
435,192,165133,1,0,0:0:0:0:s_047.ogg
332,192,165300,1,0,0:0:0:0:s_042.ogg
486,192,165466,1,0,0:0:0:0:s_049.ogg
486,192,165633,1,0,0:0:0:0:s_049.ogg
76,192,165800,1,0,0:0:0:0:m_052.ogg
332,192,165800,1,0,0:0:0:0:s_042.ogg
486,192,165966,1,0,0:0:0:0:s_049.ogg
486,192,166133,1,0,0:0:0:0:s_049.ogg
25,192,166300,1,0,0:0:0:0:m_051.ogg
281,192,166300,1,0,0:0:0:0:s_042.ogg
332,192,166466,1,0,0:0:0:0:s_047.ogg
332,192,166633,1,0,0:0:0:0:s_047.ogg
76,192,166800,1,0,0:0:0:0:m_022.ogg
281,192,166800,1,0,0:0:0:0:s_042.ogg
384,192,166966,1,0,0:0:0:0:s_049.ogg
384,192,167133,1,0,0:0:0:0:s_049.ogg
128,192,167300,1,0,0:0:0:0:m_059.ogg
332,192,167300,1,0,0:0:0:0:s_047.ogg
435,192,167466,1,0,0:0:0:0:s_051.ogg
435,192,167633,1,0,0:0:0:0:s_051.ogg
230,192,167800,1,0,0:0:0:0:m_061.ogg
332,192,167800,1,0,0:0:0:0:s_047.ogg
486,192,167966,1,0,0:0:0:0:s_053.ogg
486,192,168133,1,0,0:0:0:0:s_053.ogg
179,192,168300,1,0,0:0:0:0:s_018.ogg
281,192,168300,1,0,0:0:0:0:s_046.ogg
25,192,168466,1,0,0:0:0:0:s_022.ogg
384,192,168466,1,0,0:0:0:0:s_049.ogg
76,192,168633,1,0,0:0:0:0:s_025.ogg
384,192,168633,1,0,0:0:0:0:s_049.ogg
179,192,168800,1,0,0:0:0:0:s_030.ogg
281,192,168800,1,0,0:0:0:0:s_046.ogg
76,192,168966,1,0,0:0:0:0:s_034.ogg
384,192,168966,1,0,0:0:0:0:s_049.ogg
128,192,169133,1,0,0:0:0:0:s_037.ogg
384,192,169133,1,0,0:0:0:0:s_049.ogg
230,192,169300,1,0,0:0:0:0:l_042.ogg
281,192,169300,1,0,0:0:0:0:s_046.ogg
384,192,169466,1,0,0:0:0:0:s_049.ogg
384,192,169633,1,0,0:0:0:0:s_049.ogg
179,192,169800,1,0,0:0:0:0:m_055.ogg
281,192,169800,1,0,0:0:0:0:s_046.ogg
384,192,169966,1,0,0:0:0:0:s_049.ogg
384,192,170133,1,0,0:0:0:0:s_049.ogg
230,192,170300,1,0,0:0:0:0:s_016.ogg
281,192,170300,1,0,0:0:0:0:s_046.ogg
25,192,170466,1,0,0:0:0:0:s_022.ogg
384,192,170466,1,0,0:0:0:0:s_049.ogg
128,192,170633,1,0,0:0:0:0:s_025.ogg
384,192,170633,1,0,0:0:0:0:s_049.ogg
179,192,170800,1,0,0:0:0:0:s_028.ogg
281,192,170800,1,0,0:0:0:0:s_046.ogg
76,192,170966,1,0,0:0:0:0:s_034.ogg
384,192,170966,1,0,0:0:0:0:s_049.ogg
128,192,171133,1,0,0:0:0:0:s_037.ogg
384,192,171133,1,0,0:0:0:0:s_049.ogg
230,192,171300,1,0,0:0:0:0:l_040.ogg
435,192,171300,1,0,0:0:0:0:s_046.ogg
332,192,171466,1,0,0:0:0:0:s_042.ogg
332,192,171633,1,0,0:0:0:0:s_042.ogg
435,192,171800,1,0,0:0:0:0:s_046.ogg
332,192,171966,1,0,0:0:0:0:s_042.ogg
76,192,172050,1,0,0:0:0:0:s_051.ogg
332,192,172133,1,0,0:0:0:0:s_042.ogg
128,192,172175,1,0,0:0:0:0:s_052.ogg
179,192,172300,1,0,0:0:0:0:l_039.ogg
486,192,172300,1,0,0:0:0:0:s_047.ogg
332,192,172466,1,0,0:0:0:0:s_042.ogg
332,192,172633,1,0,0:0:0:0:s_042.ogg
486,192,172800,1,0,0:0:0:0:s_047.ogg
332,192,172966,1,0,0:0:0:0:s_042.ogg
332,192,173133,1,0,0:0:0:0:s_042.ogg
25,192,173300,1,0,0:0:0:0:l_032.ogg
384,192,173300,1,0,0:0:0:0:s_042.ogg
281,192,173466,1,0,0:0:0:0:s_039.ogg
281,192,173633,1,0,0:0:0:0:s_039.ogg
384,192,173800,1,0,0:0:0:0:s_042.ogg
281,192,173966,1,0,0:0:0:0:s_039.ogg
281,192,174133,1,0,0:0:0:0:s_039.ogg
230,192,174300,1,0,0:0:0:0:l_052.ogg
435,192,174300,1,0,0:0:0:0:s_044.ogg
332,192,174466,1,0,0:0:0:0:s_040.ogg
332,192,174633,1,0,0:0:0:0:s_040.ogg
435,192,174800,1,0,0:0:0:0:s_044.ogg
332,192,174966,1,0,0:0:0:0:s_040.ogg
332,192,175133,1,0,0:0:0:0:s_040.ogg
230,192,175300,1,0,0:0:0:0:s_052.ogg
486,192,175300,1,0,0:0:0:0:s_046.ogg
179,192,175466,1,0,0:0:0:0:s_051.ogg
332,192,175466,1,0,0:0:0:0:s_040.ogg
128,192,175633,1,0,0:0:0:0:s_049.ogg
332,192,175633,1,0,0:0:0:0:s_040.ogg
128,192,175800,1,0,0:0:0:0:s_049.ogg
332,192,175800,1,0,0:0:0:0:s_040.ogg
76,192,175966,1,0,0:0:0:0:s_047.ogg
332,192,175966,1,0,0:0:0:0:s_040.ogg
25,192,176133,1,0,0:0:0:0:s_046.ogg
332,192,176133,1,0,0:0:0:0:s_040.ogg
230,192,176300,1,0,0:0:0:0:m_047.ogg
435,192,176300,1,0,0:0:0:0:m_039.ogg
281,192,177800,1,0,0:0:0:0:m_054.ogg
332,192,178175,1,0,0:0:0:0:s_055.ogg
128,192,178300,1,0,0:0:0:0:s_018.ogg
384,192,178300,1,0,0:0:0:0:m_056.ogg
128,192,178466,1,0,0:0:0:0:s_018.ogg
128,192,178633,1,0,0:0:0:0:s_018.ogg
128,192,178800,1,0,0:0:0:0:s_018.ogg
128,192,178966,1,0,0:0:0:0:s_018.ogg
486,192,178966,1,0,0:0:0:0:s_054.ogg
128,192,179133,1,0,0:0:0:0:s_018.ogg
435,192,179133,1,0,0:0:0:0:s_052.ogg
128,192,179300,1,0,0:0:0:0:s_018.ogg
384,192,179300,1,0,0:0:0:0:s_051.ogg
128,192,179466,1,0,0:0:0:0:s_018.ogg
332,192,179466,1,0,0:0:0:0:s_049.ogg
128,192,179633,1,0,0:0:0:0:s_018.ogg
281,192,179633,1,0,0:0:0:0:s_047.ogg
128,192,179800,1,0,0:0:0:0:s_018.ogg
435,192,179800,1,0,0:0:0:0:s_046.ogg
384,192,179925,1,0,0:0:0:0:s_052.ogg
128,192,179966,1,0,0:0:0:0:s_028.ogg
332,192,180050,1,0,0:0:0:0:s_049.ogg
128,192,180133,1,0,0:0:0:0:s_028.ogg
281,192,180175,1,0,0:0:0:0:s_046.ogg
76,192,180300,1,0,0:0:0:0:s_023.ogg
179,192,180300,1,0,0:0:0:0:s_027.ogg
486,192,180300,1,0,0:0:0:0:s_047.ogg
435,192,180372,1,0,0:0:0:0:s_049.ogg
384,192,180445,1,0,0:0:0:0:s_047.ogg
281,192,180518,1,0,0:0:0:0:s_046.ogg
332,192,180591,1,0,0:0:0:0:s_047.ogg
384,192,180675,1,0,0:0:0:0:s_051.ogg
281,192,180800,1,0,0:0:0:0:m_042.ogg
332,192,181800,1,0,0:0:0:0:m_066.ogg
384,192,182175,1,0,0:0:0:0:s_067.ogg
128,192,182300,1,0,0:0:0:0:s_018.ogg
435,192,182300,1,0,0:0:0:0:l_068.ogg
128,192,182466,1,0,0:0:0:0:s_018.ogg
128,192,182633,1,0,0:0:0:0:s_018.ogg
128,192,182800,1,0,0:0:0:0:s_018.ogg
128,192,182966,1,0,0:0:0:0:s_018.ogg
486,192,182966,1,0,0:0:0:0:m_066.ogg
128,192,183133,1,0,0:0:0:0:s_018.ogg
435,192,183133,1,0,0:0:0:0:m_064.ogg
128,192,183300,1,0,0:0:0:0:s_018.ogg
384,192,183300,1,0,0:0:0:0:m_063.ogg
128,192,183466,1,0,0:0:0:0:s_018.ogg
332,192,183466,1,0,0:0:0:0:m_061.ogg
128,192,183633,1,0,0:0:0:0:s_018.ogg
281,192,183633,1,0,0:0:0:0:s_059.ogg
128,192,183800,1,0,0:0:0:0:s_018.ogg
384,192,183800,1,0,0:0:0:0:m_058.ogg
128,192,183966,1,0,0:0:0:0:s_018.ogg
435,192,183966,1,0,0:0:0:0:m_064.ogg
128,192,184133,1,0,0:0:0:0:s_018.ogg
332,192,184133,1,0,0:0:0:0:s_058.ogg
76,192,184300,1,0,0:0:0:0:m_027.ogg
179,192,184300,1,0,0:0:0:0:m_023.ogg
384,192,184300,1,0,0:0:0:0:m_059.ogg
230,192,185237,1,0,0:0:0:0:s_054.ogg
179,192,185300,1,0,0:0:0:0:s_052.ogg
486,192,185300,1,0,0:0:0:0:l_046.ogg
128,192,185466,1,0,0:0:0:0:s_051.ogg
179,192,185633,1,0,0:0:0:0:s_052.ogg
435,192,185800,1,0,0:0:0:0:s_056.ogg
384,192,185966,1,0,0:0:0:0:s_054.ogg
332,192,186133,1,0,0:0:0:0:s_052.ogg
128,192,186300,1,0,0:0:0:0:m_047.ogg
281,192,186300,1,0,0:0:0:0:m_051.ogg
179,192,187247,1,0,0:0:0:0:s_051.ogg
128,192,187300,1,0,0:0:0:0:s_049.ogg
435,192,187300,1,0,0:0:0:0:l_046.ogg
76,192,187466,1,0,0:0:0:0:s_048.ogg
128,192,187633,1,0,0:0:0:0:s_049.ogg
384,192,187800,1,0,0:0:0:0:s_052.ogg
332,192,187966,1,0,0:0:0:0:s_051.ogg
281,192,188133,1,0,0:0:0:0:s_049.ogg
76,192,188300,1,0,0:0:0:0:m_039.ogg
230,192,188300,1,0,0:0:0:0:m_047.ogg
128,192,189237,1,0,0:0:0:0:s_039.ogg
76,192,189300,1,0,0:0:0:0:s_037.ogg
384,192,189300,1,0,0:0:0:0:l_028.ogg
25,192,189466,1,0,0:0:0:0:s_036.ogg
76,192,189633,1,0,0:0:0:0:s_037.ogg
332,192,189800,1,0,0:0:0:0:s_040.ogg
281,192,189966,1,0,0:0:0:0:s_039.ogg
230,192,190133,1,0,0:0:0:0:s_037.ogg
25,192,190300,1,0,0:0:0:0:s_023.ogg
179,192,190300,1,0,0:0:0:0:s_035.ogg
25,192,190800,1,0,0:0:0:0:s_027.ogg
179,192,190800,1,0,0:0:0:0:s_035.ogg
25,192,191300,1,0,0:0:0:0:m_023.ogg
179,192,191300,1,0,0:0:0:0:m_035.ogg
