osu file format v14

[General]
AudioFilename: virtual
AudioLeadIn: 0
PreviewTime: 0
Countdown: 0
SampleSet: Soft
StackLeniency: 0.7
Mode: 3
LetterboxInBreaks: 0
SpecialStyle: 0
WidescreenStoryboard: 1

[Editor]
DistanceSpacing: 0.8
BeatDivisor: 4
GridSize: 32
TimelineZoom: 1.800006

[Metadata]
Title:Piano Beatmap Set
TitleUnicode:Piano Beatmap Set
Artist:Collection
ArtistUnicode:Collection
Creator:CircusGalop
Version:Moonlight 3rd movement - 10K HD
Source:BMS
Tags:
BeatmapID:1316781
BeatmapSetID:332673

[Difficulty]
HPDrainRate:7
CircleSize:10
OverallDifficulty:5
ApproachRate:5
SliderMultiplier:1.4
SliderTickRate:1

[Events]
//Background and Video events
0,0,"CircusGalop.jpg",0,0
//Break Periods
//Storyboard Layer 0 (Background)
//Storyboard Layer 1 (Fail)
//Storyboard Layer 2 (Pass)
//Storyboard Layer 3 (Foreground)
//Storyboard Sound Samples
Sample,1454,0,"s_016.ogg",100
Sample,1636,0,"s_023.ogg",100
Sample,1818,0,"s_016.ogg",100
Sample,2000,0,"s_023.ogg",100
Sample,2181,0,"s_016.ogg",100
Sample,2363,0,"s_023.ogg",100
Sample,2545,0,"s_016.ogg",100
Sample,2727,0,"s_023.ogg",100
Sample,2909,0,"s_016.ogg",100
Sample,3090,0,"s_023.ogg",100
Sample,3272,0,"s_016.ogg",100
Sample,3454,0,"s_023.ogg",100
Sample,3636,0,"s_016.ogg",100
Sample,3818,0,"s_023.ogg",100
Sample,4000,0,"s_016.ogg",100
Sample,4000,0,"s_059.ogg",100
Sample,4000,0,"s_028.ogg",100
Sample,4181,0,"s_059.ogg",100
Sample,4181,0,"s_023.ogg",100
Sample,4363,0,"s_015.ogg",100
Sample,4545,0,"s_023.ogg",100
Sample,4727,0,"s_015.ogg",100
Sample,4909,0,"s_023.ogg",100
Sample,5090,0,"s_015.ogg",100
Sample,5272,0,"s_023.ogg",100
Sample,5454,0,"s_015.ogg",100
Sample,5636,0,"s_023.ogg",100
Sample,5818,0,"s_015.ogg",100
Sample,6000,0,"s_023.ogg",100
Sample,6181,0,"s_015.ogg",100
Sample,6363,0,"s_023.ogg",100
Sample,6545,0,"s_015.ogg",100
Sample,6727,0,"s_023.ogg",100
Sample,6909,0,"s_027.ogg",100
Sample,6909,0,"s_059.ogg",100
Sample,6909,0,"s_015.ogg",100
Sample,7090,0,"s_047.ogg",100
Sample,7090,0,"s_023.ogg",100
Sample,7272,0,"s_014.ogg",100
Sample,7454,0,"s_023.ogg",100
Sample,7636,0,"s_014.ogg",100
Sample,7818,0,"s_023.ogg",100
Sample,8000,0,"s_014.ogg",100
Sample,8181,0,"s_023.ogg",100
Sample,8363,0,"s_014.ogg",100
Sample,8545,0,"s_023.ogg",100
Sample,8727,0,"s_014.ogg",100
Sample,8909,0,"s_023.ogg",100
Sample,9090,0,"s_014.ogg",100
Sample,9272,0,"s_023.ogg",100
Sample,9454,0,"s_014.ogg",100
Sample,9636,0,"s_023.ogg",100
Sample,9818,0,"s_064.ogg",100
Sample,9818,0,"s_026.ogg",100
Sample,9818,0,"s_059.ogg",100
Sample,10000,0,"s_064.ogg",100
Sample,10000,0,"s_052.ogg",100
Sample,10181,0,"s_012.ogg",100
Sample,10363,0,"s_024.ogg",100
Sample,10545,0,"s_012.ogg",100
Sample,10727,0,"s_024.ogg",100
Sample,10909,0,"s_012.ogg",100
Sample,11090,0,"s_024.ogg",100
Sample,11272,0,"s_012.ogg",100
Sample,11454,0,"s_024.ogg",100
Sample,11636,0,"s_012.ogg",100
Sample,11818,0,"s_024.ogg",100
Sample,12000,0,"s_012.ogg",100
Sample,12181,0,"s_024.ogg",100
Sample,12363,0,"s_012.ogg",100
Sample,12545,0,"s_024.ogg",100
Sample,12727,0,"s_012.ogg",100
Sample,12909,0,"s_024.ogg",100
Sample,13090,0,"s_063.ogg",100
Sample,13272,0,"l_035.ogg",100
Sample,16000,0,"l_035.ogg",100
Sample,18909,0,"s_039.ogg",100
Sample,19090,0,"s_035.ogg",100
Sample,19272,0,"s_039.ogg",100
Sample,19454,0,"s_035.ogg",100
Sample,19636,0,"s_039.ogg",100
Sample,19818,0,"s_035.ogg",100
Sample,20000,0,"s_039.ogg",100
Sample,20181,0,"s_035.ogg",100
Sample,20363,0,"s_039.ogg",100
Sample,23272,0,"s_016.ogg",100
Sample,23454,0,"s_023.ogg",100
Sample,23636,0,"s_016.ogg",100
Sample,23818,0,"s_023.ogg",100
Sample,24000,0,"s_016.ogg",100
Sample,24181,0,"s_023.ogg",100
Sample,24363,0,"s_016.ogg",100
Sample,24545,0,"s_023.ogg",100
Sample,24727,0,"s_016.ogg",100
Sample,24909,0,"s_023.ogg",100
Sample,25090,0,"s_016.ogg",100
Sample,25272,0,"s_023.ogg",100
Sample,25454,0,"s_016.ogg",100
Sample,25636,0,"s_023.ogg",100
Sample,25818,0,"s_016.ogg",100
Sample,26181,0,"s_013.ogg",100
Sample,26363,0,"s_028.ogg",100
Sample,26545,0,"s_025.ogg",100
Sample,26727,0,"s_028.ogg",100
Sample,26909,0,"s_025.ogg",100
Sample,27090,0,"s_028.ogg",100
Sample,27272,0,"s_025.ogg",100
Sample,27454,0,"s_028.ogg",100
Sample,27636,0,"s_025.ogg",100
Sample,27818,0,"s_028.ogg",100
Sample,28000,0,"s_025.ogg",100
Sample,28181,0,"s_028.ogg",100
Sample,28363,0,"s_025.ogg",100
Sample,28545,0,"s_028.ogg",100
Sample,28727,0,"s_013.ogg",100
Sample,29090,0,"s_010.ogg",100
Sample,29272,0,"s_030.ogg",100
Sample,29454,0,"s_022.ogg",100
Sample,29636,0,"s_030.ogg",100
Sample,29818,0,"s_022.ogg",100
Sample,30000,0,"s_030.ogg",100
Sample,30181,0,"s_022.ogg",100
Sample,30363,0,"s_030.ogg",100
Sample,30545,0,"s_022.ogg",100
Sample,30727,0,"s_030.ogg",100
Sample,30909,0,"s_022.ogg",100
Sample,31090,0,"s_030.ogg",100
Sample,31272,0,"s_022.ogg",100
Sample,31454,0,"s_030.ogg",100
Sample,31636,0,"s_022.ogg",100
Sample,31818,0,"s_030.ogg",100
Sample,32363,0,"m_054.ogg",100
Sample,33090,0,"m_050.ogg",100
Sample,33363,0,"s_047.ogg",100
Sample,33454,0,"s_046.ogg",100
Sample,33515,0,"s_047.ogg",100
Sample,33575,0,"s_049.ogg",100
Sample,33636,0,"s_047.ogg",100
Sample,33818,0,"m_046.ogg",100
Sample,34363,0,"s_046.ogg",100
Sample,34545,0,"m_054.ogg",100
Sample,34818,0,"s_046.ogg",100
Sample,34909,0,"m_049.ogg",100
Sample,35272,0,"m_047.ogg",100
Sample,35818,0,"s_047.ogg",100
Sample,36000,0,"m_054.ogg",100
Sample,36272,0,"s_047.ogg",100
Sample,36363,0,"m_050.ogg",100
Sample,36727,0,"m_049.ogg",100
Sample,37272,0,"s_049.ogg",100
Sample,37454,0,"m_054.ogg",100
Sample,37727,0,"s_049.ogg",100
Sample,37818,0,"s_050.ogg",100
Sample,38000,0,"m_066.ogg",100
Sample,38000,0,"m_054.ogg",100
Sample,38363,0,"m_054.ogg",100
Sample,38363,0,"m_066.ogg",100
Sample,38727,0,"s_066.ogg",100
Sample,38727,0,"s_054.ogg",100
Sample,38909,0,"s_062.ogg",100
Sample,38909,0,"s_050.ogg",100
Sample,39090,0,"s_047.ogg",100
Sample,39090,0,"s_059.ogg",100
Sample,39272,0,"s_059.ogg",100
Sample,39272,0,"s_047.ogg",100
Sample,39454,0,"m_046.ogg",100
Sample,39454,0,"m_058.ogg",100
Sample,39818,0,"m_046.ogg",100
Sample,39818,0,"m_058.ogg",100
Sample,40181,0,"s_046.ogg",100
Sample,40181,0,"s_058.ogg",100
Sample,40363,0,"s_054.ogg",100
Sample,40363,0,"s_066.ogg",100
Sample,40545,0,"s_046.ogg",100
Sample,40545,0,"s_058.ogg",100
Sample,40727,0,"s_061.ogg",100
Sample,40727,0,"s_049.ogg",100
Sample,40909,0,"m_047.ogg",100
Sample,40909,0,"m_059.ogg",100
Sample,41272,0,"m_047.ogg",100
Sample,41272,0,"m_059.ogg",100
Sample,41636,0,"s_047.ogg",100
Sample,41636,0,"s_059.ogg",100
Sample,41818,0,"s_054.ogg",100
Sample,41818,0,"s_066.ogg",100
Sample,42000,0,"s_047.ogg",100
Sample,42000,0,"s_059.ogg",100
Sample,42181,0,"s_062.ogg",100
Sample,42181,0,"s_050.ogg",100
Sample,42363,0,"m_049.ogg",100
Sample,42363,0,"m_061.ogg",100
Sample,42727,0,"m_061.ogg",100
Sample,42727,0,"m_049.ogg",100
Sample,43090,0,"s_061.ogg",100
Sample,43090,0,"s_049.ogg",100
Sample,43272,0,"s_054.ogg",100
Sample,43272,0,"s_066.ogg",100
Sample,43454,0,"s_049.ogg",100
Sample,43454,0,"s_061.ogg",100
Sample,43636,0,"m_063.ogg",100
Sample,43636,0,"m_051.ogg",100
Sample,44363,0,"m_052.ogg",100
Sample,44363,0,"m_064.ogg",100
Sample,45090,0,"m_049.ogg",100
Sample,45090,0,"s_061.ogg",100
Sample,45181,0,"s_061.ogg",100
Sample,45272,0,"s_059.ogg",100
Sample,45363,0,"s_061.ogg",100
Sample,45454,0,"l_050.ogg",100
Sample,46545,0,"m_059.ogg",100
Sample,46545,0,"m_047.ogg",100
Sample,47272,0,"m_048.ogg",100
Sample,47272,0,"m_060.ogg",100
Sample,48000,0,"m_046.ogg",100
Sample,48000,0,"s_058.ogg",100
Sample,48090,0,"s_058.ogg",100
Sample,48181,0,"s_056.ogg",100
Sample,48272,0,"s_058.ogg",100
Sample,48363,0,"l_047.ogg",100
Sample,49454,0,"m_048.ogg",100
Sample,49454,0,"m_060.ogg",100
Sample,50909,0,"s_048.ogg",100
Sample,50909,0,"s_040.ogg",100
Sample,50909,0,"s_043.ogg",100
Sample,51636,0,"s_043.ogg",100
Sample,51636,0,"s_040.ogg",100
Sample,51636,0,"s_048.ogg",100
Sample,52363,0,"m_048.ogg",100
Sample,52363,0,"m_040.ogg",100
Sample,52363,0,"m_043.ogg",100
Sample,52727,0,"m_043.ogg",100
Sample,52727,0,"m_040.ogg",100
Sample,52727,0,"m_048.ogg",100
Sample,53090,0,"m_043.ogg",100
Sample,53090,0,"m_040.ogg",100
Sample,53090,0,"m_048.ogg",100
Sample,53454,0,"m_043.ogg",100
Sample,53454,0,"m_040.ogg",100
Sample,53454,0,"m_048.ogg",100
Sample,53818,0,"m_059.ogg",100
Sample,54545,0,"s_061.ogg",100
Sample,54636,0,"s_061.ogg",100
Sample,54727,0,"s_061.ogg",100
Sample,54818,0,"s_061.ogg",100
Sample,54909,0,"s_061.ogg",100
Sample,55000,0,"s_061.ogg",100
Sample,55090,0,"s_059.ogg",100
Sample,55181,0,"s_061.ogg",100
Sample,55272,0,"s_043.ogg",100
Sample,55636,0,"m_036.ogg",100
Sample,55636,0,"m_028.ogg",100
Sample,57090,0,"s_036.ogg",100
Sample,57090,0,"s_028.ogg",100
Sample,57090,0,"s_031.ogg",100
Sample,57818,0,"s_031.ogg",100
Sample,57818,0,"s_036.ogg",100
Sample,57818,0,"s_028.ogg",100
Sample,58363,0,"s_028.ogg",100
Sample,58363,0,"s_036.ogg",100
Sample,58363,0,"s_031.ogg",100
Sample,58727,0,"s_031.ogg",100
Sample,58727,0,"s_036.ogg",100
Sample,58727,0,"s_028.ogg",100
Sample,59090,0,"s_031.ogg",100
Sample,59090,0,"s_036.ogg",100
Sample,59090,0,"s_028.ogg",100
Sample,59454,0,"s_031.ogg",100
Sample,59454,0,"s_036.ogg",100
Sample,59454,0,"s_028.ogg",100
Sample,59636,0,"m_031.ogg",100
Sample,59636,0,"m_036.ogg",100
Sample,59636,0,"m_028.ogg",100
Sample,61818,0,"m_047.ogg",100
Sample,61818,0,"m_059.ogg",100
Sample,62545,0,"m_062.ogg",100
Sample,62545,0,"m_050.ogg",100
Sample,63272,0,"m_034.ogg",100
Sample,63272,0,"m_040.ogg",100
Sample,63272,0,"m_046.ogg",100
Sample,64000,0,"s_038.ogg",100
Sample,64181,0,"s_042.ogg",100
Sample,64363,0,"s_042.ogg",100
Sample,64545,0,"s_042.ogg",100
Sample,64727,0,"s_042.ogg",100
Sample,64909,0,"s_042.ogg",100
Sample,65090,0,"s_042.ogg",100
Sample,65272,0,"s_042.ogg",100
Sample,65454,0,"s_042.ogg",100
Sample,65636,0,"s_040.ogg",100
Sample,65818,0,"s_040.ogg",100
Sample,66000,0,"s_040.ogg",100
Sample,66181,0,"s_040.ogg",100
Sample,66363,0,"s_040.ogg",100
Sample,66545,0,"s_042.ogg",100
Sample,66727,0,"s_042.ogg",100
Sample,66909,0,"s_050.ogg",100
Sample,67090,0,"s_042.ogg",100
Sample,67272,0,"s_042.ogg",100
Sample,67454,0,"s_042.ogg",100
Sample,67636,0,"s_042.ogg",100
Sample,67818,0,"s_042.ogg",100
Sample,68000,0,"s_042.ogg",100
Sample,68181,0,"s_042.ogg",100
Sample,68363,0,"s_042.ogg",100
Sample,68545,0,"s_040.ogg",100
Sample,68727,0,"s_040.ogg",100
Sample,68909,0,"s_040.ogg",100
Sample,69090,0,"s_040.ogg",100
Sample,69272,0,"s_040.ogg",100
Sample,69454,0,"s_042.ogg",100
Sample,69636,0,"s_042.ogg",100
Sample,70000,0,"s_038.ogg",100
Sample,70181,0,"s_038.ogg",100
Sample,70363,0,"s_050.ogg",100
Sample,70545,0,"s_028.ogg",100
Sample,70727,0,"s_035.ogg",100
Sample,70909,0,"s_035.ogg",100
Sample,71090,0,"s_052.ogg",100
Sample,71272,0,"s_030.ogg",100
Sample,71454,0,"s_035.ogg",100
Sample,71636,0,"s_035.ogg",100
Sample,71818,0,"s_050.ogg",100
Sample,72000,0,"s_030.ogg",100
Sample,72181,0,"s_037.ogg",100
Sample,72363,0,"s_037.ogg",100
Sample,72545,0,"s_049.ogg",100
Sample,72727,0,"s_011.ogg",100
Sample,72909,0,"s_050.ogg",100
Sample,72909,0,"s_030.ogg",100
Sample,73090,0,"s_030.ogg",100
Sample,73090,0,"s_062.ogg",100
Sample,73272,0,"s_062.ogg",100
Sample,73272,0,"s_030.ogg",100
Sample,73454,0,"s_030.ogg",100
Sample,73454,0,"s_062.ogg",100
Sample,73636,0,"s_062.ogg",100
Sample,73636,0,"s_030.ogg",100
Sample,73818,0,"s_025.ogg",100
Sample,73818,0,"s_052.ogg",100
Sample,74000,0,"s_050.ogg",100
Sample,74000,0,"s_030.ogg",100
Sample,74181,0,"s_046.ogg",100
Sample,74181,0,"s_049.ogg",100
Sample,74181,0,"s_058.ogg",100
Sample,74363,0,"s_055.ogg",100
Sample,74363,0,"s_030.ogg",100
Sample,74545,0,"s_030.ogg",100
Sample,74545,0,"s_067.ogg",100
Sample,74727,0,"s_067.ogg",100
Sample,74727,0,"s_030.ogg",100
Sample,74909,0,"s_030.ogg",100
Sample,74909,0,"s_067.ogg",100
Sample,75090,0,"s_067.ogg",100
Sample,75090,0,"s_030.ogg",100
Sample,75272,0,"s_058.ogg",100
Sample,75272,0,"s_054.ogg",100
Sample,75454,0,"s_064.ogg",100
Sample,75454,0,"s_058.ogg",100
Sample,75636,0,"s_011.ogg",100
Sample,75636,0,"s_062.ogg",100
Sample,75818,0,"s_030.ogg",100
Sample,75818,0,"s_054.ogg",100
Sample,76000,0,"s_030.ogg",100
Sample,76000,0,"s_054.ogg",100
Sample,76181,0,"s_054.ogg",100
Sample,76181,0,"s_030.ogg",100
Sample,76363,0,"s_054.ogg",100
Sample,76363,0,"s_030.ogg",100
Sample,76545,0,"s_030.ogg",100
Sample,76545,0,"s_054.ogg",100
Sample,76727,0,"s_052.ogg",100
Sample,76727,0,"s_025.ogg",100
Sample,76909,0,"s_050.ogg",100
Sample,76909,0,"s_026.ogg",100
Sample,77090,0,"s_049.ogg",100
Sample,77090,0,"s_046.ogg",100
Sample,77090,0,"s_030.ogg",100
Sample,77272,0,"s_040.ogg",100
Sample,77272,0,"s_067.ogg",100
Sample,77454,0,"s_067.ogg",100
Sample,77454,0,"s_040.ogg",100
Sample,77636,0,"s_040.ogg",100
Sample,77636,0,"s_067.ogg",100
Sample,77818,0,"s_067.ogg",100
Sample,77818,0,"s_040.ogg",100
Sample,78000,0,"s_040.ogg",100
Sample,78000,0,"s_067.ogg",100
Sample,78181,0,"s_066.ogg",100
Sample,78181,0,"s_030.ogg",100
Sample,78363,0,"s_030.ogg",100
Sample,78363,0,"s_064.ogg",100
Sample,78545,0,"s_059.ogg",100
Sample,78545,0,"s_035.ogg",100
Sample,78727,0,"s_042.ogg",100
Sample,78909,0,"s_042.ogg",100
Sample,79090,0,"s_035.ogg",100
Sample,79272,0,"s_028.ogg",100
Sample,79454,0,"s_064.ogg",100
Sample,79636,0,"s_059.ogg",100
Sample,79818,0,"s_064.ogg",100
Sample,80000,0,"s_030.ogg",100
Sample,80181,0,"s_038.ogg",100
Sample,80363,0,"s_038.ogg",100
Sample,80545,0,"s_035.ogg",100
Sample,80727,0,"s_028.ogg",100
Sample,80909,0,"s_037.ogg",100
Sample,81090,0,"s_037.ogg",100
Sample,81272,0,"s_061.ogg",100
Sample,81454,0,"s_026.ogg",100
Sample,81636,0,"s_062.ogg",100
Sample,81818,0,"s_062.ogg",100
Sample,82000,0,"s_038.ogg",100
Sample,82181,0,"s_028.ogg",100
Sample,82363,0,"s_060.ogg",100
Sample,82545,0,"s_060.ogg",100
Sample,82727,0,"s_040.ogg",100
Sample,82909,0,"s_030.ogg",100
Sample,83090,0,"s_059.ogg",100
Sample,83272,0,"s_050.ogg",100
Sample,83454,0,"s_062.ogg",100
Sample,83636,0,"s_030.ogg",100
Sample,83818,0,"s_058.ogg",100
Sample,84000,0,"s_049.ogg",100
Sample,84181,0,"s_052.ogg",100
Sample,84363,0,"m_059.ogg",100
Sample,86181,0,"m_046.ogg",100
Sample,86545,0,"m_046.ogg",100
Sample,86909,0,"m_046.ogg",100
Sample,89090,0,"m_058.ogg",100
Sample,89454,0,"m_058.ogg",100
Sample,89818,0,"m_058.ogg",100
Sample,93181,0,"s_028.ogg",100
Sample,93363,0,"s_028.ogg",100
Sample,93545,0,"s_028.ogg",100
Sample,93727,0,"s_028.ogg",100
Sample,93909,0,"s_028.ogg",100
Sample,94090,0,"s_028.ogg",100
Sample,94272,0,"s_028.ogg",100
Sample,94454,0,"s_028.ogg",100
Sample,94545,0,"m_032.ogg",100
Sample,94636,0,"s_040.ogg",100
Sample,94818,0,"s_040.ogg",100
Sample,94909,0,"m_028.ogg",100
Sample,95000,0,"s_040.ogg",100
Sample,95181,0,"s_040.ogg",100
Sample,95272,0,"m_028.ogg",100
Sample,95363,0,"s_040.ogg",100
Sample,95545,0,"s_040.ogg",100
Sample,95636,0,"m_028.ogg",100
Sample,95727,0,"s_040.ogg",100
Sample,95909,0,"s_040.ogg",100
Sample,96000,0,"s_012.ogg",100
Sample,96000,0,"s_024.ogg",100
Sample,96000,0,"s_040.ogg",100
Sample,96000,0,"s_036.ogg",100
Sample,96181,0,"s_021.ogg",100
Sample,96363,0,"s_012.ogg",100
Sample,96545,0,"s_021.ogg",100
Sample,96727,0,"s_012.ogg",100
Sample,96909,0,"s_021.ogg",100
Sample,97090,0,"s_012.ogg",100
Sample,97272,0,"s_021.ogg",100
Sample,97454,0,"s_012.ogg",100
Sample,97636,0,"s_021.ogg",100
Sample,97818,0,"s_012.ogg",100
Sample,98000,0,"s_021.ogg",100
Sample,98181,0,"s_012.ogg",100
Sample,98363,0,"s_021.ogg",100
Sample,98545,0,"s_012.ogg",100
Sample,98545,0,"s_060.ogg",100
Sample,98545,0,"s_024.ogg",100
Sample,98727,0,"s_060.ogg",100
Sample,98727,0,"s_021.ogg",100
Sample,98909,0,"s_011.ogg",100
Sample,99090,0,"s_019.ogg",100
Sample,99272,0,"s_011.ogg",100
Sample,99454,0,"s_019.ogg",100
Sample,99636,0,"s_011.ogg",100
Sample,99818,0,"s_019.ogg",100
Sample,100000,0,"s_011.ogg",100
Sample,100181,0,"s_019.ogg",100
Sample,100363,0,"s_011.ogg",100
Sample,100545,0,"s_019.ogg",100
Sample,100727,0,"s_011.ogg",100
Sample,100909,0,"s_019.ogg",100
Sample,101090,0,"s_011.ogg",100
Sample,101272,0,"s_019.ogg",100
Sample,101454,0,"s_059.ogg",100
Sample,101454,0,"s_011.ogg",100
Sample,101454,0,"s_023.ogg",100
Sample,101636,0,"s_059.ogg",100
Sample,101636,0,"s_019.ogg",100
Sample,101818,0,"m_010.ogg",100
Sample,103636,0,"l_034.ogg",100
Sample,103636,0,"l_040.ogg",100
Sample,103636,0,"l_037.ogg",100
Sample,103636,0,"l_043.ogg",100
Sample,104727,0,"m_009.ogg",100
Sample,106545,0,"l_039.ogg",100
Sample,106545,0,"l_036.ogg",100
Sample,106545,0,"l_042.ogg",100
Sample,109454,0,"m_035.ogg",100
Sample,110181,0,"m_031.ogg",100
Sample,110454,0,"s_028.ogg",100
Sample,110545,0,"m_028.ogg",100
Sample,110909,0,"m_027.ogg",100
Sample,111454,0,"s_027.ogg",100
Sample,111636,0,"m_035.ogg",100
Sample,111909,0,"s_027.ogg",100
Sample,112000,0,"m_030.ogg",100
Sample,112363,0,"m_028.ogg",100
Sample,112909,0,"s_028.ogg",100
Sample,113090,0,"m_035.ogg",100
Sample,113363,0,"s_028.ogg",100
Sample,113454,0,"m_031.ogg",100
Sample,113818,0,"m_030.ogg",100
Sample,114363,0,"s_030.ogg",100
Sample,114545,0,"m_035.ogg",100
Sample,114818,0,"s_030.ogg",100
Sample,114909,0,"s_043.ogg",100
Sample,114909,0,"s_040.ogg",100
Sample,114909,0,"s_047.ogg",100
Sample,115272,0,"m_047.ogg",100
Sample,115272,0,"m_059.ogg",100
Sample,116000,0,"m_043.ogg",100
Sample,116000,0,"m_055.ogg",100
Sample,116272,0,"s_052.ogg",100
Sample,116272,0,"s_040.ogg",100
Sample,116363,0,"m_040.ogg",100
Sample,116363,0,"m_052.ogg",100
Sample,116727,0,"m_039.ogg",100
Sample,116727,0,"m_051.ogg",100
Sample,117272,0,"s_051.ogg",100
Sample,117272,0,"s_039.ogg",100
Sample,117454,0,"m_047.ogg",100
Sample,117454,0,"m_059.ogg",100
Sample,117727,0,"s_051.ogg",100
Sample,117727,0,"s_039.ogg",100
Sample,117818,0,"m_054.ogg",100
Sample,117818,0,"m_042.ogg",100
Sample,118181,0,"m_040.ogg",100
Sample,118181,0,"m_052.ogg",100
Sample,118727,0,"s_052.ogg",100
Sample,118727,0,"s_040.ogg",100
Sample,118909,0,"m_059.ogg",100
Sample,118909,0,"m_047.ogg",100
Sample,119181,0,"s_052.ogg",100
Sample,119181,0,"s_040.ogg",100
Sample,119272,0,"m_055.ogg",100
Sample,119272,0,"m_043.ogg",100
Sample,119636,0,"m_054.ogg",100
Sample,119636,0,"m_042.ogg",100
Sample,120181,0,"s_054.ogg",100
Sample,120181,0,"s_042.ogg",100
Sample,120363,0,"m_059.ogg",100
Sample,120363,0,"m_047.ogg",100
Sample,120636,0,"s_042.ogg",100
Sample,120636,0,"s_054.ogg",100
Sample,120727,0,"s_045.ogg",100
Sample,120727,0,"s_057.ogg",100
Sample,120909,0,"s_055.ogg",100
Sample,120909,0,"s_043.ogg",100
Sample,121090,0,"s_064.ogg",100
Sample,121090,0,"s_052.ogg",100
Sample,121272,0,"s_043.ogg",100
Sample,121272,0,"s_055.ogg",100
Sample,121454,0,"s_057.ogg",100
Sample,121454,0,"s_045.ogg",100
Sample,121636,0,"s_056.ogg",100
Sample,121636,0,"s_044.ogg",100
Sample,121818,0,"s_052.ogg",100
Sample,121818,0,"s_064.ogg",100
Sample,122000,0,"s_044.ogg",100
Sample,122000,0,"s_056.ogg",100
Sample,122181,0,"s_047.ogg",100
Sample,122181,0,"s_059.ogg",100
Sample,122363,0,"s_057.ogg",100
Sample,122363,0,"s_045.ogg",100
Sample,122545,0,"s_064.ogg",100
Sample,122545,0,"s_052.ogg",100
Sample,122727,0,"s_045.ogg",100
Sample,122727,0,"s_057.ogg",100
Sample,122909,0,"s_060.ogg",100
Sample,122909,0,"s_048.ogg",100
Sample,123090,0,"s_047.ogg",100
Sample,123090,0,"s_059.ogg",100
Sample,123272,0,"s_052.ogg",100
Sample,123272,0,"s_064.ogg",100
Sample,123454,0,"s_047.ogg",100
Sample,123454,0,"s_059.ogg",100
Sample,123636,0,"l_009.ogg",100
Sample,126545,0,"l_021.ogg",100
Sample,129454,0,"l_016.ogg",100
Sample,132363,0,"l_023.ogg",100
Sample,138181,0,"l_039.ogg",100
Sample,148727,0,"m_039.ogg",100
Sample,149090,0,"m_039.ogg",100
Sample,149454,0,"m_039.ogg",100
Sample,151636,0,"m_051.ogg",100
Sample,152000,0,"m_051.ogg",100
Sample,152363,0,"m_051.ogg",100
Sample,155636,0,"l_023.ogg",100
Sample,155636,0,"l_016.ogg",100
Sample,155666,0,"s_052.ogg",100
Sample,155681,0,"m_059.ogg",100
Sample,160727,0,"m_028.ogg",100
Sample,160727,0,"m_059.ogg",100
Sample,161454,0,"m_016.ogg",100
Sample,161454,0,"m_047.ogg",100

[TimingPoints]
0,363.636363636366,4,2,0,100,1,0

[HitObjects]
25,192,1545,5,0,0:0:0:0:s_023.ogg
76,192,1636,1,0,0:0:0:0:s_028.ogg
128,192,1727,1,0,0:0:0:0:s_031.ogg
179,192,1818,1,0,0:0:0:0:s_035.ogg
76,192,1909,1,0,0:0:0:0:s_028.ogg
128,192,2000,1,0,0:0:0:0:s_031.ogg
179,192,2090,1,0,0:0:0:0:s_035.ogg
230,192,2181,1,0,0:0:0:0:s_040.ogg
128,192,2272,1,0,0:0:0:0:s_031.ogg
179,192,2363,1,0,0:0:0:0:s_035.ogg
230,192,2454,1,0,0:0:0:0:s_040.ogg
281,192,2545,1,0,0:0:0:0:s_043.ogg
179,192,2636,1,0,0:0:0:0:s_035.ogg
230,192,2727,1,0,0:0:0:0:s_040.ogg
281,192,2818,1,0,0:0:0:0:s_043.ogg
332,192,2909,1,0,0:0:0:0:s_047.ogg
230,192,3000,1,0,0:0:0:0:s_040.ogg
281,192,3090,1,0,0:0:0:0:s_043.ogg
332,192,3181,1,0,0:0:0:0:s_047.ogg
384,192,3272,1,0,0:0:0:0:s_052.ogg
281,192,3363,1,0,0:0:0:0:s_043.ogg
332,192,3454,1,0,0:0:0:0:s_047.ogg
384,192,3545,1,0,0:0:0:0:s_052.ogg
435,192,3636,1,0,0:0:0:0:s_055.ogg
332,192,3727,1,0,0:0:0:0:s_047.ogg
384,192,3818,1,0,0:0:0:0:s_052.ogg
435,192,3909,1,0,0:0:0:0:s_055.ogg
76,192,4000,1,0,0:0:0:0:s_055.ogg
179,192,4000,1,0,0:0:0:0:s_047.ogg
486,192,4000,1,0,0:0:0:0:s_052.ogg
76,192,4181,1,0,0:0:0:0:s_055.ogg
179,192,4181,1,0,0:0:0:0:s_047.ogg
486,192,4181,1,0,0:0:0:0:s_052.ogg
25,192,4454,1,0,0:0:0:0:s_023.ogg
76,192,4545,1,0,0:0:0:0:s_027.ogg
128,192,4636,1,0,0:0:0:0:s_030.ogg
179,192,4727,1,0,0:0:0:0:s_035.ogg
76,192,4818,1,0,0:0:0:0:s_027.ogg
128,192,4909,1,0,0:0:0:0:s_030.ogg
179,192,5000,1,0,0:0:0:0:s_035.ogg
230,192,5090,1,0,0:0:0:0:s_039.ogg
128,192,5181,1,0,0:0:0:0:s_030.ogg
179,192,5272,1,0,0:0:0:0:s_035.ogg
230,192,5363,1,0,0:0:0:0:s_039.ogg
281,192,5454,1,0,0:0:0:0:s_042.ogg
179,192,5545,1,0,0:0:0:0:s_035.ogg
230,192,5636,1,0,0:0:0:0:s_039.ogg
281,192,5727,1,0,0:0:0:0:s_042.ogg
332,192,5818,1,0,0:0:0:0:s_047.ogg
230,192,5909,1,0,0:0:0:0:s_039.ogg
281,192,6000,1,0,0:0:0:0:s_042.ogg
332,192,6090,1,0,0:0:0:0:s_047.ogg
384,192,6181,1,0,0:0:0:0:s_051.ogg
281,192,6272,1,0,0:0:0:0:s_042.ogg
332,192,6363,1,0,0:0:0:0:s_047.ogg
384,192,6454,1,0,0:0:0:0:s_051.ogg
435,192,6545,1,0,0:0:0:0:s_054.ogg
332,192,6636,1,0,0:0:0:0:s_047.ogg
384,192,6727,1,0,0:0:0:0:s_051.ogg
435,192,6818,1,0,0:0:0:0:s_054.ogg
76,192,6909,1,0,0:0:0:0:s_051.ogg
179,192,6909,1,0,0:0:0:0:s_047.ogg
486,192,6909,1,0,0:0:0:0:s_054.ogg
76,192,7090,1,0,0:0:0:0:s_054.ogg
179,192,7090,1,0,0:0:0:0:s_059.ogg
486,192,7090,1,0,0:0:0:0:s_051.ogg
332,192,7363,1,0,0:0:0:0:s_028.ogg
384,192,7454,1,0,0:0:0:0:s_032.ogg
435,192,7545,1,0,0:0:0:0:s_035.ogg
486,192,7636,1,0,0:0:0:0:s_040.ogg
281,192,7727,1,0,0:0:0:0:s_032.ogg
332,192,7818,1,0,0:0:0:0:s_035.ogg
384,192,7909,1,0,0:0:0:0:s_040.ogg
435,192,8000,1,0,0:0:0:0:s_044.ogg
230,192,8090,1,0,0:0:0:0:s_035.ogg
281,192,8181,1,0,0:0:0:0:s_040.ogg
332,192,8272,1,0,0:0:0:0:s_044.ogg
384,192,8363,1,0,0:0:0:0:s_047.ogg
179,192,8454,1,0,0:0:0:0:s_040.ogg
230,192,8545,1,0,0:0:0:0:s_044.ogg
281,192,8636,1,0,0:0:0:0:s_047.ogg
332,192,8727,1,0,0:0:0:0:s_052.ogg
128,192,8818,1,0,0:0:0:0:s_044.ogg
179,192,8909,1,0,0:0:0:0:s_047.ogg
230,192,9000,1,0,0:0:0:0:s_052.ogg
281,192,9090,1,0,0:0:0:0:s_056.ogg
76,192,9181,1,0,0:0:0:0:s_047.ogg
128,192,9272,1,0,0:0:0:0:s_052.ogg
179,192,9363,1,0,0:0:0:0:s_056.ogg
230,192,9454,1,0,0:0:0:0:s_059.ogg
25,192,9545,1,0,0:0:0:0:s_052.ogg
76,192,9636,1,0,0:0:0:0:s_056.ogg
128,192,9727,1,0,0:0:0:0:s_059.ogg
179,192,9818,1,0,0:0:0:0:s_014.ogg
332,192,9818,1,0,0:0:0:0:s_052.ogg
435,192,9818,1,0,0:0:0:0:s_056.ogg
179,192,10000,1,0,0:0:0:0:s_023.ogg
332,192,10000,1,0,0:0:0:0:s_059.ogg
435,192,10000,1,0,0:0:0:0:s_056.ogg
332,192,10272,1,0,0:0:0:0:s_028.ogg
384,192,10363,1,0,0:0:0:0:s_033.ogg
435,192,10454,1,0,0:0:0:0:s_036.ogg
486,192,10545,1,0,0:0:0:0:s_040.ogg
281,192,10636,1,0,0:0:0:0:s_040.ogg
332,192,10727,1,0,0:0:0:0:s_045.ogg
435,192,10818,1,0,0:0:0:0:s_048.ogg
486,192,10909,1,0,0:0:0:0:s_052.ogg
281,192,11000,1,0,0:0:0:0:s_052.ogg
332,192,11090,1,0,0:0:0:0:s_057.ogg
384,192,11181,1,0,0:0:0:0:s_060.ogg
76,192,11272,1,0,0:0:0:0:s_064.ogg
179,192,11272,1,0,0:0:0:0:s_057.ogg
435,192,11272,1,0,0:0:0:0:s_052.ogg
76,192,11454,1,0,0:0:0:0:s_064.ogg
179,192,11454,1,0,0:0:0:0:s_057.ogg
435,192,11454,1,0,0:0:0:0:s_052.ogg
25,192,11727,1,0,0:0:0:0:s_028.ogg
76,192,11818,1,0,0:0:0:0:s_031.ogg
128,192,11909,1,0,0:0:0:0:s_034.ogg
179,192,12000,1,0,0:0:0:0:s_040.ogg
25,192,12090,1,0,0:0:0:0:s_040.ogg
76,192,12181,1,0,0:0:0:0:s_043.ogg
179,192,12272,1,0,0:0:0:0:s_046.ogg
230,192,12363,1,0,0:0:0:0:s_052.ogg
76,192,12454,1,0,0:0:0:0:s_052.ogg
128,192,12545,1,0,0:0:0:0:s_055.ogg
179,192,12636,1,0,0:0:0:0:s_058.ogg
230,192,12727,1,0,0:0:0:0:s_052.ogg
332,192,12727,1,0,0:0:0:0:s_058.ogg
435,192,12727,1,0,0:0:0:0:s_064.ogg
230,192,12909,1,0,0:0:0:0:s_052.ogg
332,192,12909,1,0,0:0:0:0:s_058.ogg
435,192,12909,1,0,0:0:0:0:s_064.ogg
76,192,13090,1,0,0:0:0:0:s_011.ogg
179,192,13090,1,0,0:0:0:0:s_023.ogg
281,192,13090,1,0,0:0:0:0:s_059.ogg
384,192,13090,1,0,0:0:0:0:s_051.ogg
25,192,13272,1,0,0:0:0:0:s_047.ogg
230,192,13272,1,0,0:0:0:0:s_039.ogg
486,192,13363,1,0,0:0:0:0:s_059.ogg
25,192,13454,1,0,0:0:0:0:s_047.ogg
230,192,13454,1,0,0:0:0:0:s_039.ogg
486,192,13545,1,0,0:0:0:0:s_059.ogg
76,192,13636,1,0,0:0:0:0:s_049.ogg
281,192,13636,1,0,0:0:0:0:s_040.ogg
486,192,13727,1,0,0:0:0:0:s_059.ogg
128,192,13818,1,0,0:0:0:0:s_051.ogg
332,192,13818,1,0,0:0:0:0:s_042.ogg
486,192,13909,1,0,0:0:0:0:s_059.ogg
179,192,14000,1,0,0:0:0:0:s_052.ogg
384,192,14000,1,0,0:0:0:0:s_043.ogg
486,192,14090,1,0,0:0:0:0:s_059.ogg
128,192,14181,1,0,0:0:0:0:s_054.ogg
332,192,14181,1,0,0:0:0:0:s_045.ogg
486,192,14272,1,0,0:0:0:0:s_059.ogg
25,192,14363,1,0,0:0:0:0:s_051.ogg
230,192,14363,1,0,0:0:0:0:s_042.ogg
486,192,14454,1,0,0:0:0:0:s_059.ogg
128,192,14545,1,0,0:0:0:0:s_054.ogg
332,192,14545,1,0,0:0:0:0:s_045.ogg
486,192,14636,1,0,0:0:0:0:s_059.ogg
76,192,14727,1,0,0:0:0:0:s_052.ogg
281,192,14727,1,0,0:0:0:0:s_043.ogg
486,192,14818,1,0,0:0:0:0:s_059.ogg
179,192,14909,1,0,0:0:0:0:s_057.ogg
384,192,14909,1,0,0:0:0:0:s_048.ogg
486,192,15000,1,0,0:0:0:0:s_059.ogg
128,192,15090,1,0,0:0:0:0:s_055.ogg
332,192,15090,1,0,0:0:0:0:s_047.ogg
486,192,15181,1,0,0:0:0:0:s_059.ogg
76,192,15272,1,0,0:0:0:0:s_054.ogg
281,192,15272,1,0,0:0:0:0:s_045.ogg
486,192,15363,1,0,0:0:0:0:s_059.ogg
25,192,15454,1,0,0:0:0:0:s_052.ogg
230,192,15454,1,0,0:0:0:0:s_043.ogg
486,192,15545,1,0,0:0:0:0:s_059.ogg
128,192,15636,1,0,0:0:0:0:s_051.ogg
332,192,15636,1,0,0:0:0:0:s_042.ogg
486,192,15727,1,0,0:0:0:0:s_059.ogg
76,192,15818,1,0,0:0:0:0:s_048.ogg
281,192,15818,1,0,0:0:0:0:s_040.ogg
435,192,15909,1,0,0:0:0:0:s_058.ogg
25,192,16000,1,0,0:0:0:0:s_047.ogg
230,192,16000,1,0,0:0:0:0:s_039.ogg
486,192,16090,1,0,0:0:0:0:s_059.ogg
25,192,16181,1,0,0:0:0:0:s_047.ogg
230,192,16181,1,0,0:0:0:0:s_039.ogg
486,192,16272,1,0,0:0:0:0:s_059.ogg
25,192,16363,1,0,0:0:0:0:s_047.ogg
230,192,16363,1,0,0:0:0:0:s_039.ogg
486,192,16454,1,0,0:0:0:0:s_059.ogg
76,192,16545,1,0,0:0:0:0:s_049.ogg
281,192,16545,1,0,0:0:0:0:s_040.ogg
486,192,16636,1,0,0:0:0:0:s_059.ogg
128,192,16727,1,0,0:0:0:0:s_051.ogg
332,192,16727,1,0,0:0:0:0:s_042.ogg
486,192,16818,1,0,0:0:0:0:s_059.ogg
179,192,16909,1,0,0:0:0:0:s_052.ogg
384,192,16909,1,0,0:0:0:0:s_043.ogg
486,192,17000,1,0,0:0:0:0:s_059.ogg
128,192,17090,1,0,0:0:0:0:s_054.ogg
332,192,17090,1,0,0:0:0:0:s_045.ogg
486,192,17181,1,0,0:0:0:0:s_059.ogg
25,192,17272,1,0,0:0:0:0:s_051.ogg
230,192,17272,1,0,0:0:0:0:s_042.ogg
486,192,17363,1,0,0:0:0:0:s_059.ogg
128,192,17454,1,0,0:0:0:0:s_054.ogg
332,192,17454,1,0,0:0:0:0:s_045.ogg
486,192,17545,1,0,0:0:0:0:s_059.ogg
76,192,17636,1,0,0:0:0:0:s_052.ogg
281,192,17636,1,0,0:0:0:0:s_043.ogg
486,192,17727,1,0,0:0:0:0:s_059.ogg
179,192,17818,1,0,0:0:0:0:s_057.ogg
384,192,17818,1,0,0:0:0:0:s_048.ogg
486,192,17909,1,0,0:0:0:0:s_059.ogg
128,192,18000,1,0,0:0:0:0:s_055.ogg
332,192,18000,1,0,0:0:0:0:s_047.ogg
486,192,18090,1,0,0:0:0:0:s_059.ogg
76,192,18181,1,0,0:0:0:0:s_054.ogg
281,192,18181,1,0,0:0:0:0:s_045.ogg
486,192,18272,1,0,0:0:0:0:s_059.ogg
25,192,18363,1,0,0:0:0:0:s_052.ogg
230,192,18363,1,0,0:0:0:0:s_043.ogg
486,192,18454,1,0,0:0:0:0:s_059.ogg
179,192,18545,1,0,0:0:0:0:s_042.ogg
384,192,18545,1,0,0:0:0:0:s_051.ogg
486,192,18636,1,0,0:0:0:0:s_059.ogg
128,192,18727,1,0,0:0:0:0:s_040.ogg
332,192,18727,1,0,0:0:0:0:s_048.ogg
435,192,18818,1,0,0:0:0:0:s_058.ogg
76,192,18909,1,0,0:0:0:0:s_035.ogg
281,192,18909,1,0,0:0:0:0:s_047.ogg
486,192,19000,1,0,0:0:0:0:s_059.ogg
179,192,19090,1,0,0:0:0:0:s_040.ogg
332,192,19090,1,0,0:0:0:0:s_048.ogg
435,192,19181,1,0,0:0:0:0:s_058.ogg
76,192,19272,1,0,0:0:0:0:s_035.ogg
281,192,19272,1,0,0:0:0:0:s_047.ogg
486,192,19363,1,0,0:0:0:0:s_059.ogg
179,192,19454,1,0,0:0:0:0:s_040.ogg
332,192,19454,1,0,0:0:0:0:s_048.ogg
435,192,19545,1,0,0:0:0:0:s_058.ogg
76,192,19636,1,0,0:0:0:0:s_035.ogg
281,192,19636,1,0,0:0:0:0:s_047.ogg
486,192,19727,1,0,0:0:0:0:s_059.ogg
179,192,19818,1,0,0:0:0:0:s_040.ogg
332,192,19818,1,0,0:0:0:0:s_048.ogg
435,192,19909,1,0,0:0:0:0:s_058.ogg
76,192,20000,1,0,0:0:0:0:s_035.ogg
281,192,20000,1,0,0:0:0:0:s_047.ogg
486,192,20090,1,0,0:0:0:0:s_059.ogg
179,192,20181,1,0,0:0:0:0:s_040.ogg
332,192,20181,1,0,0:0:0:0:s_048.ogg
435,192,20272,1,0,0:0:0:0:s_058.ogg
76,192,20363,1,0,0:0:0:0:s_035.ogg
281,192,20363,1,0,0:0:0:0:s_047.ogg
486,192,20363,1,0,0:0:0:0:s_059.ogg
25,192,20727,1,0,0:0:0:0:l_023.ogg
384,192,20727,1,0,0:0:0:0:l_035.ogg
25,192,23363,1,0,0:0:0:0:s_023.ogg
76,192,23454,1,0,0:0:0:0:s_028.ogg
128,192,23545,1,0,0:0:0:0:s_031.ogg
179,192,23636,1,0,0:0:0:0:s_035.ogg
76,192,23727,1,0,0:0:0:0:s_028.ogg
128,192,23818,1,0,0:0:0:0:s_031.ogg
179,192,23909,1,0,0:0:0:0:s_035.ogg
230,192,24000,1,0,0:0:0:0:s_040.ogg
128,192,24090,1,0,0:0:0:0:s_031.ogg
179,192,24181,1,0,0:0:0:0:s_035.ogg
230,192,24272,1,0,0:0:0:0:s_040.ogg
281,192,24363,1,0,0:0:0:0:s_043.ogg
179,192,24454,1,0,0:0:0:0:s_035.ogg
230,192,24545,1,0,0:0:0:0:s_040.ogg
281,192,24636,1,0,0:0:0:0:s_043.ogg
332,192,24727,1,0,0:0:0:0:s_047.ogg
230,192,24818,1,0,0:0:0:0:s_040.ogg
281,192,24909,1,0,0:0:0:0:s_043.ogg
332,192,25000,1,0,0:0:0:0:s_047.ogg
384,192,25090,1,0,0:0:0:0:s_052.ogg
281,192,25181,1,0,0:0:0:0:s_043.ogg
332,192,25272,1,0,0:0:0:0:s_047.ogg
384,192,25363,1,0,0:0:0:0:s_052.ogg
435,192,25454,1,0,0:0:0:0:s_055.ogg
332,192,25545,1,0,0:0:0:0:s_055.ogg
384,192,25636,1,0,0:0:0:0:s_059.ogg
435,192,25727,1,0,0:0:0:0:s_064.ogg
76,192,25818,1,0,0:0:0:0:s_028.ogg
179,192,25818,1,0,0:0:0:0:s_055.ogg
486,192,25818,1,0,0:0:0:0:s_067.ogg
76,192,26000,1,0,0:0:0:0:s_023.ogg
179,192,26000,1,0,0:0:0:0:s_067.ogg
486,192,26000,1,0,0:0:0:0:s_055.ogg
332,192,26272,1,0,0:0:0:0:s_031.ogg
384,192,26363,1,0,0:0:0:0:s_034.ogg
435,192,26454,1,0,0:0:0:0:s_040.ogg
486,192,26545,1,0,0:0:0:0:s_043.ogg
281,192,26636,1,0,0:0:0:0:s_034.ogg
332,192,26727,1,0,0:0:0:0:s_040.ogg
384,192,26818,1,0,0:0:0:0:s_043.ogg
435,192,26909,1,0,0:0:0:0:s_046.ogg
230,192,27000,1,0,0:0:0:0:s_040.ogg
281,192,27090,1,0,0:0:0:0:s_043.ogg
332,192,27181,1,0,0:0:0:0:s_046.ogg
384,192,27272,1,0,0:0:0:0:s_052.ogg
179,192,27363,1,0,0:0:0:0:s_043.ogg
230,192,27454,1,0,0:0:0:0:s_046.ogg
281,192,27545,1,0,0:0:0:0:s_052.ogg
332,192,27636,1,0,0:0:0:0:s_055.ogg
128,192,27727,1,0,0:0:0:0:s_046.ogg
179,192,27818,1,0,0:0:0:0:s_052.ogg
230,192,27909,1,0,0:0:0:0:s_055.ogg
281,192,28000,1,0,0:0:0:0:s_058.ogg
76,192,28090,1,0,0:0:0:0:s_052.ogg
128,192,28181,1,0,0:0:0:0:s_055.ogg
179,192,28272,1,0,0:0:0:0:s_058.ogg
230,192,28363,1,0,0:0:0:0:s_064.ogg
25,192,28454,1,0,0:0:0:0:s_055.ogg
76,192,28545,1,0,0:0:0:0:s_058.ogg
128,192,28636,1,0,0:0:0:0:s_064.ogg
179,192,28727,1,0,0:0:0:0:s_055.ogg
332,192,28727,1,0,0:0:0:0:s_025.ogg
435,192,28727,1,0,0:0:0:0:s_067.ogg
179,192,28909,1,0,0:0:0:0:s_067.ogg
332,192,28909,1,0,0:0:0:0:s_028.ogg
435,192,28909,1,0,0:0:0:0:s_055.ogg
25,192,29181,1,0,0:0:0:0:s_030.ogg
76,192,29272,1,0,0:0:0:0:s_037.ogg
128,192,29363,1,0,0:0:0:0:s_040.ogg
179,192,29454,1,0,0:0:0:0:s_042.ogg
76,192,29545,1,0,0:0:0:0:s_037.ogg
128,192,29636,1,0,0:0:0:0:s_040.ogg
179,192,29727,1,0,0:0:0:0:s_042.ogg
230,192,29818,1,0,0:0:0:0:s_049.ogg
128,192,29909,1,0,0:0:0:0:s_040.ogg
179,192,30000,1,0,0:0:0:0:s_042.ogg
230,192,30090,1,0,0:0:0:0:s_049.ogg
281,192,30181,1,0,0:0:0:0:s_052.ogg
179,192,30272,1,0,0:0:0:0:s_042.ogg
230,192,30363,1,0,0:0:0:0:s_049.ogg
281,192,30454,1,0,0:0:0:0:s_052.ogg
332,192,30545,1,0,0:0:0:0:s_054.ogg
230,192,30636,1,0,0:0:0:0:s_049.ogg
281,192,30727,1,0,0:0:0:0:s_052.ogg
332,192,30818,1,0,0:0:0:0:s_054.ogg
384,192,30909,1,0,0:0:0:0:s_061.ogg
281,192,31000,1,0,0:0:0:0:s_052.ogg
332,192,31090,1,0,0:0:0:0:s_054.ogg
384,192,31181,1,0,0:0:0:0:s_061.ogg
486,192,31272,1,0,0:0:0:0:s_064.ogg
435,192,31363,1,0,0:0:0:0:s_061.ogg
384,192,31454,1,0,0:0:0:0:s_054.ogg
332,192,31545,1,0,0:0:0:0:s_052.ogg
435,192,31636,1,0,0:0:0:0:s_061.ogg
384,192,31727,1,0,0:0:0:0:s_054.ogg
332,192,31818,1,0,0:0:0:0:s_052.ogg
281,192,31909,1,0,0:0:0:0:s_049.ogg
25,192,32000,1,0,0:0:0:0:s_023.ogg
332,192,32000,1,0,0:0:0:0:s_050.ogg
384,192,32090,1,0,0:0:0:0:s_030.ogg
128,192,32181,1,0,0:0:0:0:s_026.ogg
486,192,32272,1,0,0:0:0:0:s_030.ogg
25,192,32363,1,0,0:0:0:0:s_023.ogg
384,192,32454,1,0,0:0:0:0:s_030.ogg
128,192,32545,1,0,0:0:0:0:s_026.ogg
486,192,32636,1,0,0:0:0:0:s_030.ogg
25,192,32727,1,0,0:0:0:0:s_023.ogg
384,192,32818,1,0,0:0:0:0:s_030.ogg
128,192,32909,1,0,0:0:0:0:s_026.ogg
486,192,33000,1,0,0:0:0:0:s_030.ogg
25,192,33090,1,0,0:0:0:0:s_023.ogg
384,192,33181,1,0,0:0:0:0:s_030.ogg
128,192,33272,1,0,0:0:0:0:s_026.ogg
486,192,33363,1,0,0:0:0:0:s_030.ogg
76,192,33454,1,0,0:0:0:0:s_025.ogg
332,192,33545,1,0,0:0:0:0:s_030.ogg
179,192,33636,1,0,0:0:0:0:s_028.ogg
435,192,33727,1,0,0:0:0:0:s_030.ogg
76,192,33818,1,0,0:0:0:0:s_025.ogg
332,192,33909,1,0,0:0:0:0:s_030.ogg
179,192,34000,1,0,0:0:0:0:s_028.ogg
435,192,34090,1,0,0:0:0:0:s_030.ogg
76,192,34181,1,0,0:0:0:0:s_025.ogg
332,192,34272,1,0,0:0:0:0:s_030.ogg
179,192,34363,1,0,0:0:0:0:s_028.ogg
435,192,34454,1,0,0:0:0:0:s_030.ogg
76,192,34545,1,0,0:0:0:0:s_025.ogg
332,192,34636,1,0,0:0:0:0:s_030.ogg
179,192,34727,1,0,0:0:0:0:s_028.ogg
435,192,34818,1,0,0:0:0:0:s_030.ogg
128,192,34909,1,0,0:0:0:0:s_026.ogg
384,192,35000,1,0,0:0:0:0:s_030.ogg
128,192,35090,1,0,0:0:0:0:s_026.ogg
384,192,35181,1,0,0:0:0:0:s_030.ogg
128,192,35272,1,0,0:0:0:0:s_026.ogg
384,192,35363,1,0,0:0:0:0:s_030.ogg
128,192,35454,1,0,0:0:0:0:s_026.ogg
384,192,35545,1,0,0:0:0:0:s_030.ogg
128,192,35636,1,0,0:0:0:0:s_026.ogg
384,192,35727,1,0,0:0:0:0:s_030.ogg
128,192,35818,1,0,0:0:0:0:s_026.ogg
384,192,35909,1,0,0:0:0:0:s_030.ogg
128,192,36000,1,0,0:0:0:0:s_026.ogg
384,192,36090,1,0,0:0:0:0:s_030.ogg
128,192,36181,1,0,0:0:0:0:s_026.ogg
384,192,36272,1,0,0:0:0:0:s_030.ogg
25,192,36363,1,0,0:0:0:0:s_022.ogg
281,192,36454,1,0,0:0:0:0:s_030.ogg
25,192,36545,1,0,0:0:0:0:s_022.ogg
281,192,36636,1,0,0:0:0:0:s_030.ogg
25,192,36727,1,0,0:0:0:0:s_022.ogg
281,192,36818,1,0,0:0:0:0:s_030.ogg
25,192,36909,1,0,0:0:0:0:s_022.ogg
281,192,37000,1,0,0:0:0:0:s_030.ogg
25,192,37090,1,0,0:0:0:0:s_022.ogg
281,192,37181,1,0,0:0:0:0:s_030.ogg
25,192,37272,1,0,0:0:0:0:s_022.ogg
281,192,37363,1,0,0:0:0:0:s_030.ogg
25,192,37454,1,0,0:0:0:0:s_022.ogg
281,192,37545,1,0,0:0:0:0:s_030.ogg
25,192,37636,1,0,0:0:0:0:s_022.ogg
281,192,37727,1,0,0:0:0:0:s_030.ogg
76,192,37818,1,0,0:0:0:0:s_023.ogg
332,192,37909,1,0,0:0:0:0:s_030.ogg
179,192,38000,1,0,0:0:0:0:s_026.ogg
435,192,38090,1,0,0:0:0:0:s_030.ogg
76,192,38181,1,0,0:0:0:0:s_023.ogg
332,192,38272,1,0,0:0:0:0:s_030.ogg
179,192,38363,1,0,0:0:0:0:s_026.ogg
435,192,38454,1,0,0:0:0:0:s_030.ogg
76,192,38545,1,0,0:0:0:0:s_023.ogg
332,192,38636,1,0,0:0:0:0:s_030.ogg
179,192,38727,1,0,0:0:0:0:s_026.ogg
435,192,38818,1,0,0:0:0:0:s_030.ogg
76,192,38909,1,0,0:0:0:0:s_023.ogg
332,192,39000,1,0,0:0:0:0:s_030.ogg
179,192,39090,1,0,0:0:0:0:s_026.ogg
435,192,39181,1,0,0:0:0:0:s_030.ogg
128,192,39272,1,0,0:0:0:0:s_025.ogg
384,192,39363,1,0,0:0:0:0:s_030.ogg
230,192,39454,1,0,0:0:0:0:s_028.ogg
486,192,39545,1,0,0:0:0:0:s_030.ogg
128,192,39636,1,0,0:0:0:0:s_025.ogg
384,192,39727,1,0,0:0:0:0:s_030.ogg
230,192,39818,1,0,0:0:0:0:s_028.ogg
486,192,39909,1,0,0:0:0:0:s_030.ogg
128,192,40000,1,0,0:0:0:0:s_025.ogg
384,192,40090,1,0,0:0:0:0:s_030.ogg
230,192,40181,1,0,0:0:0:0:s_028.ogg
486,192,40272,1,0,0:0:0:0:s_030.ogg
128,192,40363,1,0,0:0:0:0:s_025.ogg
384,192,40454,1,0,0:0:0:0:s_030.ogg
230,192,40545,1,0,0:0:0:0:s_028.ogg
486,192,40636,1,0,0:0:0:0:s_030.ogg
179,192,40727,1,0,0:0:0:0:s_026.ogg
435,192,40818,1,0,0:0:0:0:s_030.ogg
179,192,40909,1,0,0:0:0:0:s_026.ogg
435,192,41000,1,0,0:0:0:0:s_030.ogg
179,192,41090,1,0,0:0:0:0:s_026.ogg
435,192,41181,1,0,0:0:0:0:s_030.ogg
179,192,41272,1,0,0:0:0:0:s_026.ogg
435,192,41363,1,0,0:0:0:0:s_030.ogg
179,192,41454,1,0,0:0:0:0:s_026.ogg
435,192,41545,1,0,0:0:0:0:s_030.ogg
179,192,41636,1,0,0:0:0:0:s_026.ogg
435,192,41727,1,0,0:0:0:0:s_030.ogg
179,192,41818,1,0,0:0:0:0:s_026.ogg
435,192,41909,1,0,0:0:0:0:s_030.ogg
179,192,42000,1,0,0:0:0:0:s_026.ogg
435,192,42090,1,0,0:0:0:0:s_030.ogg
76,192,42181,1,0,0:0:0:0:s_022.ogg
332,192,42272,1,0,0:0:0:0:s_030.ogg
76,192,42363,1,0,0:0:0:0:s_022.ogg
332,192,42454,1,0,0:0:0:0:s_030.ogg
76,192,42545,1,0,0:0:0:0:s_022.ogg
332,192,42636,1,0,0:0:0:0:s_030.ogg
76,192,42727,1,0,0:0:0:0:s_022.ogg
332,192,42818,1,0,0:0:0:0:s_030.ogg
76,192,42909,1,0,0:0:0:0:s_022.ogg
332,192,43000,1,0,0:0:0:0:s_030.ogg
76,192,43090,1,0,0:0:0:0:s_022.ogg
332,192,43181,1,0,0:0:0:0:s_030.ogg
76,192,43272,1,0,0:0:0:0:s_022.ogg
332,192,43363,1,0,0:0:0:0:s_030.ogg
76,192,43454,1,0,0:0:0:0:s_022.ogg
332,192,43545,1,0,0:0:0:0:s_030.ogg
281,192,43636,1,0,0:0:0:0:m_021.ogg
486,192,43727,1,0,0:0:0:0:s_030.ogg
332,192,43818,1,0,0:0:0:0:m_023.ogg
435,192,43909,1,0,0:0:0:0:s_030.ogg
281,192,44000,1,0,0:0:0:0:m_021.ogg
486,192,44090,1,0,0:0:0:0:s_030.ogg
332,192,44181,1,0,0:0:0:0:s_023.ogg
435,192,44272,1,0,0:0:0:0:s_030.ogg
25,192,44363,1,0,0:0:0:0:m_019.ogg
230,192,44454,1,0,0:0:0:0:s_028.ogg
76,192,44545,1,0,0:0:0:0:m_023.ogg
179,192,44636,1,0,0:0:0:0:s_028.ogg
25,192,44727,1,0,0:0:0:0:m_019.ogg
230,192,44818,1,0,0:0:0:0:s_028.ogg
76,192,44909,1,0,0:0:0:0:s_023.ogg
179,192,45000,1,0,0:0:0:0:s_028.ogg
332,192,45090,1,0,0:0:0:0:s_019.ogg
384,192,45136,1,0,0:0:0:0:s_062.ogg
435,192,45181,1,0,0:0:0:0:s_028.ogg
486,192,45227,1,0,0:0:0:0:s_062.ogg
281,192,45272,1,0,0:0:0:0:s_021.ogg
332,192,45363,1,0,0:0:0:0:s_028.ogg
384,192,45454,1,0,0:0:0:0:l_062.ogg
25,192,45454,1,0,0:0:0:0:m_018.ogg
230,192,45545,1,0,0:0:0:0:s_026.ogg
76,192,45636,1,0,0:0:0:0:m_021.ogg
179,192,45727,1,0,0:0:0:0:s_026.ogg
281,192,45818,1,0,0:0:0:0:m_018.ogg
486,192,45909,1,0,0:0:0:0:s_026.ogg
332,192,46000,1,0,0:0:0:0:m_021.ogg
435,192,46090,1,0,0:0:0:0:s_026.ogg
281,192,46181,1,0,0:0:0:0:m_018.ogg
486,192,46272,1,0,0:0:0:0:s_026.ogg
332,192,46363,1,0,0:0:0:0:s_021.ogg
435,192,46454,1,0,0:0:0:0:s_026.ogg
76,192,46545,1,0,0:0:0:0:m_017.ogg
179,192,46636,1,0,0:0:0:0:s_026.ogg
128,192,46727,1,0,0:0:0:0:m_019.ogg
230,192,46818,1,0,0:0:0:0:s_026.ogg
76,192,46909,1,0,0:0:0:0:m_017.ogg
179,192,47000,1,0,0:0:0:0:s_026.ogg
128,192,47090,1,0,0:0:0:0:s_019.ogg
230,192,47181,1,0,0:0:0:0:s_026.ogg
281,192,47272,1,0,0:0:0:0:m_016.ogg
384,192,47363,1,0,0:0:0:0:s_024.ogg
332,192,47454,1,0,0:0:0:0:m_019.ogg
435,192,47545,1,0,0:0:0:0:s_024.ogg
281,192,47636,1,0,0:0:0:0:m_016.ogg
384,192,47727,1,0,0:0:0:0:s_024.ogg
332,192,47818,1,0,0:0:0:0:s_019.ogg
435,192,47909,1,0,0:0:0:0:s_024.ogg
76,192,48000,1,0,0:0:0:0:s_016.ogg
128,192,48045,1,0,0:0:0:0:s_059.ogg
179,192,48090,1,0,0:0:0:0:s_025.ogg
230,192,48136,1,0,0:0:0:0:s_059.ogg
25,192,48181,1,0,0:0:0:0:s_019.ogg
76,192,48272,1,0,0:0:0:0:s_025.ogg
128,192,48363,1,0,0:0:0:0:l_059.ogg
281,192,48363,1,0,0:0:0:0:m_014.ogg
384,192,48454,1,0,0:0:0:0:s_023.ogg
332,192,48545,1,0,0:0:0:0:m_018.ogg
435,192,48636,1,0,0:0:0:0:s_023.ogg
281,192,48727,1,0,0:0:0:0:m_014.ogg
384,192,48818,1,0,0:0:0:0:s_023.ogg
332,192,48909,1,0,0:0:0:0:m_018.ogg
435,192,49000,1,0,0:0:0:0:s_023.ogg
281,192,49090,1,0,0:0:0:0:m_014.ogg
384,192,49181,1,0,0:0:0:0:s_023.ogg
332,192,49272,1,0,0:0:0:0:s_018.ogg
435,192,49363,1,0,0:0:0:0:s_023.ogg
76,192,49454,1,0,0:0:0:0:l_024.ogg
179,192,49454,1,0,0:0:0:0:m_055.ogg
230,192,49454,1,0,0:0:0:0:l_028.ogg
281,192,49454,1,0,0:0:0:0:l_016.ogg
25,192,49454,1,0,0:0:0:0:m_052.ogg
486,192,49454,1,0,0:0:0:0:l_019.ogg
76,192,50272,1,0,0:0:0:0:s_055.ogg
128,192,50363,1,0,0:0:0:0:s_057.ogg
179,192,50454,1,0,0:0:0:0:s_059.ogg
332,192,50545,1,0,0:0:0:0:s_060.ogg
384,192,50636,1,0,0:0:0:0:s_062.ogg
435,192,50727,1,0,0:0:0:0:s_064.ogg
384,192,50818,1,0,0:0:0:0:s_062.ogg
332,192,50909,1,0,0:0:0:0:s_060.ogg
76,192,51000,1,0,0:0:0:0:s_055.ogg
128,192,51090,1,0,0:0:0:0:s_057.ogg
179,192,51181,1,0,0:0:0:0:s_059.ogg
332,192,51272,1,0,0:0:0:0:s_060.ogg
384,192,51363,1,0,0:0:0:0:s_062.ogg
435,192,51454,1,0,0:0:0:0:s_064.ogg
384,192,51545,1,0,0:0:0:0:s_062.ogg
332,192,51636,1,0,0:0:0:0:s_060.ogg
76,192,51727,1,0,0:0:0:0:s_055.ogg
128,192,51818,1,0,0:0:0:0:s_057.ogg
179,192,51909,1,0,0:0:0:0:s_059.ogg
332,192,52000,1,0,0:0:0:0:s_060.ogg
384,192,52090,1,0,0:0:0:0:s_062.ogg
435,192,52181,1,0,0:0:0:0:s_064.ogg
384,192,52272,1,0,0:0:0:0:s_062.ogg
332,192,52363,1,0,0:0:0:0:s_060.ogg
25,192,52454,1,0,0:0:0:0:s_055.ogg
76,192,52545,1,0,0:0:0:0:s_057.ogg
128,192,52636,1,0,0:0:0:0:s_059.ogg
179,192,52727,1,0,0:0:0:0:s_060.ogg
230,192,52818,1,0,0:0:0:0:s_062.ogg
281,192,52909,1,0,0:0:0:0:s_064.ogg
332,192,53000,1,0,0:0:0:0:s_065.ogg
384,192,53090,1,0,0:0:0:0:s_067.ogg
435,192,53181,1,0,0:0:0:0:s_066.ogg
486,192,53272,1,0,0:0:0:0:s_067.ogg
435,192,53363,1,0,0:0:0:0:s_066.ogg
486,192,53454,1,0,0:0:0:0:s_067.ogg
384,192,53545,1,0,0:0:0:0:s_064.ogg
332,192,53636,1,0,0:0:0:0:s_062.ogg
281,192,53727,1,0,0:0:0:0:s_060.ogg
76,192,53818,1,0,0:0:0:0:s_042.ogg
179,192,53909,1,0,0:0:0:0:s_050.ogg
128,192,54000,1,0,0:0:0:0:s_047.ogg
230,192,54090,1,0,0:0:0:0:s_050.ogg
76,192,54181,1,0,0:0:0:0:s_042.ogg
179,192,54272,1,0,0:0:0:0:s_050.ogg
128,192,54363,1,0,0:0:0:0:s_047.ogg
230,192,54454,1,0,0:0:0:0:s_050.ogg
281,192,54545,1,0,0:0:0:0:s_042.ogg
332,192,54590,1,0,0:0:0:0:s_062.ogg
384,192,54636,1,0,0:0:0:0:s_052.ogg
435,192,54681,1,0,0:0:0:0:s_062.ogg
486,192,54727,1,0,0:0:0:0:s_046.ogg
281,192,54772,1,0,0:0:0:0:s_062.ogg
332,192,54818,1,0,0:0:0:0:s_052.ogg
384,192,54863,1,0,0:0:0:0:s_062.ogg
435,192,54909,1,0,0:0:0:0:s_042.ogg
486,192,54954,1,0,0:0:0:0:s_062.ogg
281,192,55000,1,0,0:0:0:0:s_052.ogg
332,192,55045,1,0,0:0:0:0:s_062.ogg
384,192,55090,1,0,0:0:0:0:s_046.ogg
435,192,55181,1,0,0:0:0:0:s_052.ogg
76,192,55272,1,0,0:0:0:0:s_050.ogg
179,192,55272,1,0,0:0:0:0:s_059.ogg
486,192,55272,1,0,0:0:0:0:s_047.ogg
25,192,55636,1,0,0:0:0:0:m_016.ogg
128,192,55636,1,0,0:0:0:0:m_024.ogg
230,192,55636,1,0,0:0:0:0:m_019.ogg
281,192,55636,1,0,0:0:0:0:m_040.ogg
384,192,55636,1,0,0:0:0:0:m_043.ogg
486,192,55636,1,0,0:0:0:0:m_048.ogg
128,192,56090,1,0,0:0:0:0:s_043.ogg
179,192,56181,1,0,0:0:0:0:s_045.ogg
230,192,56272,1,0,0:0:0:0:s_047.ogg
281,192,56363,1,0,0:0:0:0:s_048.ogg
332,192,56454,1,0,0:0:0:0:s_050.ogg
384,192,56545,1,0,0:0:0:0:s_052.ogg
332,192,56636,1,0,0:0:0:0:s_050.ogg
281,192,56727,1,0,0:0:0:0:s_048.ogg
128,192,56818,1,0,0:0:0:0:s_043.ogg
179,192,56909,1,0,0:0:0:0:s_045.ogg
230,192,57000,1,0,0:0:0:0:s_047.ogg
281,192,57090,1,0,0:0:0:0:s_048.ogg
332,192,57181,1,0,0:0:0:0:s_050.ogg
384,192,57272,1,0,0:0:0:0:s_052.ogg
332,192,57363,1,0,0:0:0:0:s_050.ogg
281,192,57454,1,0,0:0:0:0:s_048.ogg
128,192,57545,1,0,0:0:0:0:s_043.ogg
179,192,57636,1,0,0:0:0:0:s_045.ogg
230,192,57727,1,0,0:0:0:0:s_047.ogg
281,192,57818,1,0,0:0:0:0:s_048.ogg
332,192,57909,1,0,0:0:0:0:s_050.ogg
384,192,58000,1,0,0:0:0:0:s_052.ogg
332,192,58090,1,0,0:0:0:0:s_050.ogg
281,192,58181,1,0,0:0:0:0:s_048.ogg
128,192,58272,1,0,0:0:0:0:s_043.ogg
179,192,58363,1,0,0:0:0:0:s_045.ogg
230,192,58454,1,0,0:0:0:0:s_047.ogg
281,192,58545,1,0,0:0:0:0:s_048.ogg
332,192,58636,1,0,0:0:0:0:s_050.ogg
384,192,58727,1,0,0:0:0:0:s_052.ogg
332,192,58818,1,0,0:0:0:0:s_050.ogg
281,192,58909,1,0,0:0:0:0:s_048.ogg
128,192,59000,1,0,0:0:0:0:s_043.ogg
179,192,59090,1,0,0:0:0:0:s_045.ogg
230,192,59181,1,0,0:0:0:0:s_047.ogg
281,192,59272,1,0,0:0:0:0:s_048.ogg
332,192,59363,1,0,0:0:0:0:s_050.ogg
384,192,59454,1,0,0:0:0:0:s_052.ogg
332,192,59545,1,0,0:0:0:0:s_050.ogg
281,192,59636,1,0,0:0:0:0:s_048.ogg
25,192,59727,1,0,0:0:0:0:s_043.ogg
76,192,59818,1,0,0:0:0:0:s_045.ogg
128,192,59909,1,0,0:0:0:0:s_047.ogg
179,192,60000,1,0,0:0:0:0:s_048.ogg
230,192,60090,1,0,0:0:0:0:s_050.ogg
281,192,60181,1,0,0:0:0:0:s_052.ogg
332,192,60272,1,0,0:0:0:0:s_053.ogg
384,192,60363,1,0,0:0:0:0:s_055.ogg
128,192,60454,1,0,0:0:0:0:s_057.ogg
179,192,60545,1,0,0:0:0:0:s_059.ogg
230,192,60636,1,0,0:0:0:0:s_060.ogg
281,192,60727,1,0,0:0:0:0:s_062.ogg
332,192,60818,1,0,0:0:0:0:s_064.ogg
384,192,60909,1,0,0:0:0:0:s_065.ogg
435,192,61000,1,0,0:0:0:0:s_066.ogg
25,192,61090,1,0,0:0:0:0:m_028.ogg
281,192,61090,1,0,0:0:0:0:m_055.ogg
486,192,61090,1,0,0:0:0:0:m_067.ogg
128,192,61181,1,0,0:0:0:0:s_036.ogg
76,192,61272,1,0,0:0:0:0:m_031.ogg
179,192,61363,1,0,0:0:0:0:s_036.ogg
25,192,61454,1,0,0:0:0:0:m_028.ogg
128,192,61545,1,0,0:0:0:0:s_036.ogg
76,192,61636,1,0,0:0:0:0:s_031.ogg
179,192,61727,1,0,0:0:0:0:s_036.ogg
332,192,61818,1,0,0:0:0:0:m_029.ogg
435,192,61909,1,0,0:0:0:0:s_038.ogg
384,192,62000,1,0,0:0:0:0:m_032.ogg
486,192,62090,1,0,0:0:0:0:s_038.ogg
332,192,62181,1,0,0:0:0:0:m_029.ogg
435,192,62272,1,0,0:0:0:0:s_038.ogg
384,192,62363,1,0,0:0:0:0:s_032.ogg
486,192,62454,1,0,0:0:0:0:s_038.ogg
76,192,62545,1,0,0:0:0:0:m_030.ogg
179,192,62636,1,0,0:0:0:0:s_038.ogg
128,192,62727,1,0,0:0:0:0:m_035.ogg
230,192,62818,1,0,0:0:0:0:s_038.ogg
76,192,62909,1,0,0:0:0:0:m_030.ogg
179,192,63000,1,0,0:0:0:0:s_038.ogg
128,192,63090,1,0,0:0:0:0:s_035.ogg
230,192,63181,1,0,0:0:0:0:s_038.ogg
281,192,63272,1,0,0:0:0:0:m_018.ogg
435,192,63363,1,0,0:0:0:0:s_030.ogg
332,192,63454,1,0,0:0:0:0:s_029.ogg
435,192,63545,1,0,0:0:0:0:s_030.ogg
332,192,63636,1,0,0:0:0:0:s_029.ogg
435,192,63727,1,0,0:0:0:0:s_030.ogg
332,192,63818,1,0,0:0:0:0:s_029.ogg
435,192,63909,1,0,0:0:0:0:s_030.ogg
25,192,64000,1,0,0:0:0:0:s_023.ogg
230,192,64000,1,0,0:0:0:0:s_035.ogg
281,192,64000,1,0,0:0:0:0:s_047.ogg
76,192,64181,1,0,0:0:0:0:s_035.ogg
486,192,64181,1,0,0:0:0:0:s_050.ogg
76,192,64363,1,0,0:0:0:0:s_035.ogg
486,192,64363,1,0,0:0:0:0:s_050.ogg
76,192,64545,1,0,0:0:0:0:s_035.ogg
486,192,64545,1,0,0:0:0:0:s_050.ogg
76,192,64727,1,0,0:0:0:0:s_035.ogg
486,192,64727,1,0,0:0:0:0:s_050.ogg
76,192,64909,1,0,0:0:0:0:s_035.ogg
486,192,64909,1,0,0:0:0:0:s_050.ogg
128,192,65090,1,0,0:0:0:0:s_037.ogg
435,192,65090,1,0,0:0:0:0:s_049.ogg
179,192,65272,1,0,0:0:0:0:s_038.ogg
384,192,65272,1,0,0:0:0:0:s_047.ogg
25,192,65454,1,0,0:0:0:0:s_040.ogg
230,192,65454,1,0,0:0:0:0:s_030.ogg
332,192,65454,1,0,0:0:0:0:s_046.ogg
179,192,65636,1,0,0:0:0:0:s_042.ogg
281,192,65636,1,0,0:0:0:0:s_054.ogg
486,192,65636,1,0,0:0:0:0:s_046.ogg
179,192,65818,1,0,0:0:0:0:s_042.ogg
281,192,65818,1,0,0:0:0:0:s_054.ogg
486,192,65818,1,0,0:0:0:0:s_046.ogg
179,192,66000,1,0,0:0:0:0:s_042.ogg
281,192,66000,1,0,0:0:0:0:s_054.ogg
486,192,66000,1,0,0:0:0:0:s_046.ogg
179,192,66181,1,0,0:0:0:0:s_042.ogg
281,192,66181,1,0,0:0:0:0:s_054.ogg
486,192,66181,1,0,0:0:0:0:s_046.ogg
179,192,66363,1,0,0:0:0:0:s_042.ogg
281,192,66363,1,0,0:0:0:0:s_054.ogg
486,192,66363,1,0,0:0:0:0:s_046.ogg
128,192,66545,1,0,0:0:0:0:s_038.ogg
332,192,66545,1,0,0:0:0:0:s_047.ogg
486,192,66545,1,0,0:0:0:0:s_054.ogg
76,192,66727,1,0,0:0:0:0:s_037.ogg
384,192,66727,1,0,0:0:0:0:s_049.ogg
486,192,66727,1,0,0:0:0:0:s_054.ogg
25,192,66909,1,0,0:0:0:0:s_023.ogg
230,192,66909,1,0,0:0:0:0:s_035.ogg
435,192,66909,1,0,0:0:0:0:s_054.ogg
25,192,67090,1,0,0:0:0:0:s_035.ogg
435,192,67090,1,0,0:0:0:0:s_050.ogg
25,192,67272,1,0,0:0:0:0:s_035.ogg
435,192,67272,1,0,0:0:0:0:s_050.ogg
25,192,67454,1,0,0:0:0:0:s_035.ogg
435,192,67454,1,0,0:0:0:0:s_050.ogg
25,192,67636,1,0,0:0:0:0:s_035.ogg
435,192,67636,1,0,0:0:0:0:s_050.ogg
25,192,67818,1,0,0:0:0:0:s_035.ogg
435,192,67818,1,0,0:0:0:0:s_050.ogg
76,192,68000,1,0,0:0:0:0:s_037.ogg
384,192,68000,1,0,0:0:0:0:s_049.ogg
128,192,68181,1,0,0:0:0:0:s_038.ogg
332,192,68181,1,0,0:0:0:0:s_047.ogg
25,192,68363,1,0,0:0:0:0:s_030.ogg
179,192,68363,1,0,0:0:0:0:s_040.ogg
281,192,68363,1,0,0:0:0:0:s_046.ogg
128,192,68545,1,0,0:0:0:0:s_042.ogg
230,192,68545,1,0,0:0:0:0:s_054.ogg
384,192,68545,1,0,0:0:0:0:s_046.ogg
128,192,68727,1,0,0:0:0:0:s_042.ogg
230,192,68727,1,0,0:0:0:0:s_054.ogg
384,192,68727,1,0,0:0:0:0:s_046.ogg
128,192,68909,1,0,0:0:0:0:s_042.ogg
230,192,68909,1,0,0:0:0:0:s_054.ogg
384,192,68909,1,0,0:0:0:0:s_046.ogg
128,192,69090,1,0,0:0:0:0:s_042.ogg
230,192,69090,1,0,0:0:0:0:s_054.ogg
384,192,69090,1,0,0:0:0:0:s_046.ogg
128,192,69272,1,0,0:0:0:0:s_042.ogg
230,192,69272,1,0,0:0:0:0:s_054.ogg
384,192,69272,1,0,0:0:0:0:s_046.ogg
76,192,69454,1,0,0:0:0:0:s_038.ogg
230,192,69454,1,0,0:0:0:0:s_054.ogg
435,192,69454,1,0,0:0:0:0:s_047.ogg
25,192,69636,1,0,0:0:0:0:s_037.ogg
230,192,69636,1,0,0:0:0:0:s_054.ogg
486,192,69636,1,0,0:0:0:0:s_049.ogg
332,192,69818,1,0,0:0:0:0:s_050.ogg
384,192,69818,1,0,0:0:0:0:s_023.ogg
435,192,69818,1,0,0:0:0:0:s_054.ogg
332,192,70000,1,0,0:0:0:0:s_050.ogg
384,192,70000,1,0,0:0:0:0:s_035.ogg
435,192,70000,1,0,0:0:0:0:s_054.ogg
332,192,70181,1,0,0:0:0:0:s_050.ogg
384,192,70181,1,0,0:0:0:0:s_035.ogg
435,192,70181,1,0,0:0:0:0:s_054.ogg
76,192,70363,1,0,0:0:0:0:s_047.ogg
128,192,70363,1,0,0:0:0:0:s_038.ogg
179,192,70363,1,0,0:0:0:0:s_042.ogg
384,192,70727,1,0,0:0:0:0:s_040.ogg
435,192,70727,1,0,0:0:0:0:s_052.ogg
486,192,70727,1,0,0:0:0:0:s_055.ogg
384,192,70909,1,0,0:0:0:0:s_040.ogg
435,192,70909,1,0,0:0:0:0:s_052.ogg
486,192,70909,1,0,0:0:0:0:s_055.ogg
128,192,71090,1,0,0:0:0:0:s_047.ogg
179,192,71090,1,0,0:0:0:0:s_043.ogg
230,192,71090,1,0,0:0:0:0:s_040.ogg
332,192,71454,1,0,0:0:0:0:s_050.ogg
384,192,71454,1,0,0:0:0:0:s_038.ogg
435,192,71454,1,0,0:0:0:0:s_054.ogg
332,192,71636,1,0,0:0:0:0:s_050.ogg
384,192,71636,1,0,0:0:0:0:s_038.ogg
435,192,71636,1,0,0:0:0:0:s_054.ogg
76,192,71818,1,0,0:0:0:0:s_047.ogg
128,192,71818,1,0,0:0:0:0:s_038.ogg
179,192,71818,1,0,0:0:0:0:s_042.ogg
281,192,72181,1,0,0:0:0:0:s_034.ogg
332,192,72181,1,0,0:0:0:0:s_049.ogg
384,192,72181,1,0,0:0:0:0:s_054.ogg
281,192,72363,1,0,0:0:0:0:s_034.ogg
332,192,72363,1,0,0:0:0:0:s_049.ogg
384,192,72363,1,0,0:0:0:0:s_054.ogg
25,192,72545,1,0,0:0:0:0:s_037.ogg
76,192,72545,1,0,0:0:0:0:s_042.ogg
128,192,72545,1,0,0:0:0:0:s_046.ogg
179,192,72727,1,0,0:0:0:0:s_023.ogg
281,192,72727,1,0,0:0:0:0:s_050.ogg
332,192,72727,1,0,0:0:0:0:s_047.ogg
230,192,72909,1,0,0:0:0:0:s_023.ogg
384,192,72909,1,0,0:0:0:0:s_054.ogg
486,192,72909,1,0,0:0:0:0:s_062.ogg
230,192,73090,1,0,0:0:0:0:s_023.ogg
384,192,73090,1,0,0:0:0:0:s_054.ogg
486,192,73090,1,0,0:0:0:0:s_050.ogg
230,192,73272,1,0,0:0:0:0:s_023.ogg
384,192,73272,1,0,0:0:0:0:s_054.ogg
486,192,73272,1,0,0:0:0:0:s_050.ogg
230,192,73454,1,0,0:0:0:0:s_023.ogg
384,192,73454,1,0,0:0:0:0:s_054.ogg
486,192,73454,1,0,0:0:0:0:s_050.ogg
230,192,73636,1,0,0:0:0:0:s_023.ogg
384,192,73636,1,0,0:0:0:0:s_054.ogg
486,192,73636,1,0,0:0:0:0:s_050.ogg
179,192,73818,1,0,0:0:0:0:s_030.ogg
332,192,73818,1,0,0:0:0:0:s_049.ogg
435,192,73818,1,0,0:0:0:0:s_061.ogg
128,192,74000,1,0,0:0:0:0:s_026.ogg
281,192,74000,1,0,0:0:0:0:s_047.ogg
384,192,74000,1,0,0:0:0:0:s_059.ogg
25,192,74181,1,0,0:0:0:0:s_018.ogg
76,192,74181,1,0,0:0:0:0:s_028.ogg
332,192,74181,1,0,0:0:0:0:s_030.ogg
128,192,74363,1,0,0:0:0:0:s_040.ogg
230,192,74363,1,0,0:0:0:0:s_067.ogg
486,192,74363,1,0,0:0:0:0:s_058.ogg
128,192,74545,1,0,0:0:0:0:s_040.ogg
230,192,74545,1,0,0:0:0:0:s_055.ogg
486,192,74545,1,0,0:0:0:0:s_058.ogg
128,192,74727,1,0,0:0:0:0:s_040.ogg
230,192,74727,1,0,0:0:0:0:s_055.ogg
486,192,74727,1,0,0:0:0:0:s_058.ogg
128,192,74909,1,0,0:0:0:0:s_040.ogg
230,192,74909,1,0,0:0:0:0:s_055.ogg
486,192,74909,1,0,0:0:0:0:s_058.ogg
128,192,75090,1,0,0:0:0:0:s_040.ogg
230,192,75090,1,0,0:0:0:0:s_055.ogg
486,192,75090,1,0,0:0:0:0:s_058.ogg
76,192,75272,1,0,0:0:0:0:s_038.ogg
179,192,75272,1,0,0:0:0:0:s_030.ogg
486,192,75272,1,0,0:0:0:0:s_066.ogg
25,192,75454,1,0,0:0:0:0:s_030.ogg
128,192,75454,1,0,0:0:0:0:s_037.ogg
435,192,75454,1,0,0:0:0:0:s_052.ogg
179,192,75636,1,0,0:0:0:0:s_023.ogg
281,192,75636,1,0,0:0:0:0:s_050.ogg
332,192,75636,1,0,0:0:0:0:s_059.ogg
230,192,75818,1,0,0:0:0:0:s_023.ogg
384,192,75818,1,0,0:0:0:0:s_050.ogg
486,192,75818,1,0,0:0:0:0:s_062.ogg
230,192,76000,1,0,0:0:0:0:s_023.ogg
384,192,76000,1,0,0:0:0:0:s_050.ogg
486,192,76000,1,0,0:0:0:0:s_062.ogg
230,192,76181,1,0,0:0:0:0:s_023.ogg
384,192,76181,1,0,0:0:0:0:s_050.ogg
486,192,76181,1,0,0:0:0:0:s_062.ogg
230,192,76363,1,0,0:0:0:0:s_023.ogg
384,192,76363,1,0,0:0:0:0:s_050.ogg
486,192,76363,1,0,0:0:0:0:s_062.ogg
230,192,76545,1,0,0:0:0:0:s_023.ogg
384,192,76545,1,0,0:0:0:0:s_050.ogg
486,192,76545,1,0,0:0:0:0:s_062.ogg
179,192,76727,1,0,0:0:0:0:s_030.ogg
332,192,76727,1,0,0:0:0:0:s_049.ogg
435,192,76727,1,0,0:0:0:0:s_061.ogg
128,192,76909,1,0,0:0:0:0:s_030.ogg
281,192,76909,1,0,0:0:0:0:s_047.ogg
384,192,76909,1,0,0:0:0:0:s_059.ogg
25,192,77090,1,0,0:0:0:0:s_018.ogg
76,192,77090,1,0,0:0:0:0:s_028.ogg
332,192,77090,1,0,0:0:0:0:s_058.ogg
128,192,77272,1,0,0:0:0:0:s_030.ogg
230,192,77272,1,0,0:0:0:0:s_055.ogg
486,192,77272,1,0,0:0:0:0:s_058.ogg
128,192,77454,1,0,0:0:0:0:s_030.ogg
230,192,77454,1,0,0:0:0:0:s_055.ogg
486,192,77454,1,0,0:0:0:0:s_058.ogg
128,192,77636,1,0,0:0:0:0:s_030.ogg
230,192,77636,1,0,0:0:0:0:s_055.ogg
486,192,77636,1,0,0:0:0:0:s_058.ogg
128,192,77818,1,0,0:0:0:0:s_030.ogg
230,192,77818,1,0,0:0:0:0:s_055.ogg
486,192,77818,1,0,0:0:0:0:s_058.ogg
128,192,78000,1,0,0:0:0:0:s_030.ogg
230,192,78000,1,0,0:0:0:0:s_055.ogg
486,192,78000,1,0,0:0:0:0:s_058.ogg
76,192,78181,1,0,0:0:0:0:s_038.ogg
179,192,78181,1,0,0:0:0:0:s_054.ogg
435,192,78181,1,0,0:0:0:0:s_058.ogg
25,192,78363,1,0,0:0:0:0:s_037.ogg
281,192,78363,1,0,0:0:0:0:s_052.ogg
384,192,78363,1,0,0:0:0:0:s_058.ogg
76,192,78545,1,0,0:0:0:0:s_023.ogg
128,192,78545,1,0,0:0:0:0:s_050.ogg
179,192,78545,1,0,0:0:0:0:s_062.ogg
76,192,78727,1,0,0:0:0:0:s_038.ogg
128,192,78727,1,0,0:0:0:0:s_059.ogg
179,192,78727,1,0,0:0:0:0:s_062.ogg
76,192,78909,1,0,0:0:0:0:s_038.ogg
128,192,78909,1,0,0:0:0:0:s_059.ogg
179,192,78909,1,0,0:0:0:0:s_062.ogg
332,192,79090,1,0,0:0:0:0:s_038.ogg
384,192,79090,1,0,0:0:0:0:s_066.ogg
435,192,79090,1,0,0:0:0:0:s_062.ogg
128,192,79454,1,0,0:0:0:0:s_040.ogg
179,192,79454,1,0,0:0:0:0:s_043.ogg
230,192,79454,1,0,0:0:0:0:s_059.ogg
128,192,79636,1,0,0:0:0:0:s_040.ogg
179,192,79636,1,0,0:0:0:0:s_043.ogg
230,192,79636,1,0,0:0:0:0:s_064.ogg
384,192,79818,1,0,0:0:0:0:s_040.ogg
435,192,79818,1,0,0:0:0:0:s_035.ogg
486,192,79818,1,0,0:0:0:0:s_067.ogg
76,192,80181,1,0,0:0:0:0:s_042.ogg
128,192,80181,1,0,0:0:0:0:s_059.ogg
179,192,80181,1,0,0:0:0:0:s_062.ogg
76,192,80363,1,0,0:0:0:0:s_042.ogg
128,192,80363,1,0,0:0:0:0:s_059.ogg
179,192,80363,1,0,0:0:0:0:s_062.ogg
332,192,80545,1,0,0:0:0:0:s_038.ogg
384,192,80545,1,0,0:0:0:0:s_066.ogg
435,192,80545,1,0,0:0:0:0:s_062.ogg
25,192,80909,1,0,0:0:0:0:s_058.ogg
76,192,80909,1,0,0:0:0:0:s_061.ogg
128,192,80909,1,0,0:0:0:0:s_042.ogg
25,192,81090,1,0,0:0:0:0:s_061.ogg
76,192,81090,1,0,0:0:0:0:s_058.ogg
128,192,81090,1,0,0:0:0:0:s_042.ogg
281,192,81272,1,0,0:0:0:0:s_034.ogg
332,192,81272,1,0,0:0:0:0:s_037.ogg
384,192,81272,1,0,0:0:0:0:s_066.ogg
128,192,81636,1,0,0:0:0:0:s_054.ogg
179,192,81636,1,0,0:0:0:0:s_042.ogg
230,192,81636,1,0,0:0:0:0:s_047.ogg
128,192,81818,1,0,0:0:0:0:s_054.ogg
179,192,81818,1,0,0:0:0:0:s_042.ogg
230,192,81818,1,0,0:0:0:0:s_047.ogg
384,192,82000,1,0,0:0:0:0:s_059.ogg
435,192,82000,1,0,0:0:0:0:s_066.ogg
486,192,82000,1,0,0:0:0:0:s_042.ogg
76,192,82363,1,0,0:0:0:0:s_052.ogg
128,192,82363,1,0,0:0:0:0:s_048.ogg
179,192,82363,1,0,0:0:0:0:s_043.ogg
76,192,82545,1,0,0:0:0:0:s_052.ogg
128,192,82545,1,0,0:0:0:0:s_043.ogg
179,192,82545,1,0,0:0:0:0:s_048.ogg
332,192,82727,1,0,0:0:0:0:s_055.ogg
384,192,82727,1,0,0:0:0:0:s_043.ogg
435,192,82727,1,0,0:0:0:0:s_064.ogg
25,192,83090,1,0,0:0:0:0:s_042.ogg
76,192,83090,1,0,0:0:0:0:s_047.ogg
128,192,83090,1,0,0:0:0:0:s_050.ogg
25,192,83272,1,0,0:0:0:0:s_042.ogg
76,192,83272,1,0,0:0:0:0:s_047.ogg
128,192,83272,1,0,0:0:0:0:s_059.ogg
281,192,83454,1,0,0:0:0:0:s_054.ogg
332,192,83454,1,0,0:0:0:0:s_038.ogg
384,192,83454,1,0,0:0:0:0:s_042.ogg
76,192,83818,1,0,0:0:0:0:s_046.ogg
128,192,83818,1,0,0:0:0:0:s_049.ogg
179,192,83818,1,0,0:0:0:0:s_040.ogg
76,192,84000,1,0,0:0:0:0:s_040.ogg
128,192,84000,1,0,0:0:0:0:s_058.ogg
179,192,84000,1,0,0:0:0:0:s_046.ogg
332,192,84181,1,0,0:0:0:0:s_037.ogg
384,192,84181,1,0,0:0:0:0:s_061.ogg
435,192,84181,1,0,0:0:0:0:s_040.ogg
76,192,84363,1,0,0:0:0:0:s_023.ogg
281,192,84363,1,0,0:0:0:0:m_050.ogg
179,192,84454,1,0,0:0:0:0:s_035.ogg
128,192,84545,1,0,0:0:0:0:s_030.ogg
230,192,84636,1,0,0:0:0:0:s_035.ogg
76,192,84727,1,0,0:0:0:0:s_023.ogg
179,192,84818,1,0,0:0:0:0:s_035.ogg
128,192,84909,1,0,0:0:0:0:s_030.ogg
230,192,85000,1,0,0:0:0:0:s_035.ogg
76,192,85090,1,0,0:0:0:0:s_023.ogg
179,192,85181,1,0,0:0:0:0:s_035.ogg
128,192,85272,1,0,0:0:0:0:s_030.ogg
230,192,85363,1,0,0:0:0:0:s_035.ogg
76,192,85454,1,0,0:0:0:0:s_023.ogg
435,192,85454,1,0,0:0:0:0:m_050.ogg
179,192,85545,1,0,0:0:0:0:s_035.ogg
128,192,85636,1,0,0:0:0:0:s_030.ogg
230,192,85727,1,0,0:0:0:0:s_035.ogg
384,192,85727,1,0,0:0:0:0:s_047.ogg
332,192,85818,1,0,0:0:0:0:s_023.ogg
25,192,85818,1,0,0:0:0:0:m_046.ogg
435,192,85909,1,0,0:0:0:0:s_037.ogg
384,192,86000,1,0,0:0:0:0:s_030.ogg
486,192,86090,1,0,0:0:0:0:s_037.ogg
332,192,86181,1,0,0:0:0:0:m_023.ogg
230,192,86181,1,0,0:0:0:0:m_040.ogg
128,192,86181,1,0,0:0:0:0:m_054.ogg
435,192,86272,1,0,0:0:0:0:s_037.ogg
384,192,86363,1,0,0:0:0:0:m_030.ogg
486,192,86454,1,0,0:0:0:0:s_037.ogg
332,192,86545,1,0,0:0:0:0:m_023.ogg
128,192,86545,1,0,0:0:0:0:m_054.ogg
230,192,86545,1,0,0:0:0:0:m_040.ogg
435,192,86636,1,0,0:0:0:0:s_037.ogg
384,192,86727,1,0,0:0:0:0:m_030.ogg
486,192,86818,1,0,0:0:0:0:s_037.ogg
332,192,86909,1,0,0:0:0:0:m_023.ogg
128,192,86909,1,0,0:0:0:0:m_054.ogg
230,192,86909,1,0,0:0:0:0:m_040.ogg
435,192,87000,1,0,0:0:0:0:s_037.ogg
384,192,87090,1,0,0:0:0:0:s_030.ogg
486,192,87181,1,0,0:0:0:0:s_037.ogg
76,192,87272,1,0,0:0:0:0:m_023.ogg
281,192,87272,1,0,0:0:0:0:s_038.ogg
332,192,87318,1,0,0:0:0:0:s_047.ogg
179,192,87363,1,0,0:0:0:0:s_035.ogg
384,192,87363,1,0,0:0:0:0:m_054.ogg
128,192,87454,1,0,0:0:0:0:m_030.ogg
230,192,87545,1,0,0:0:0:0:s_035.ogg
76,192,87636,1,0,0:0:0:0:m_023.ogg
179,192,87727,1,0,0:0:0:0:s_035.ogg
128,192,87818,1,0,0:0:0:0:m_030.ogg
230,192,87909,1,0,0:0:0:0:s_035.ogg
76,192,88000,1,0,0:0:0:0:m_023.ogg
179,192,88090,1,0,0:0:0:0:s_035.ogg
128,192,88181,1,0,0:0:0:0:m_030.ogg
230,192,88272,1,0,0:0:0:0:s_035.ogg
76,192,88363,1,0,0:0:0:0:m_023.ogg
435,192,88363,1,0,0:0:0:0:m_062.ogg
179,192,88454,1,0,0:0:0:0:s_035.ogg
128,192,88545,1,0,0:0:0:0:s_030.ogg
230,192,88636,1,0,0:0:0:0:s_035.ogg
384,192,88636,1,0,0:0:0:0:s_059.ogg
332,192,88727,1,0,0:0:0:0:s_023.ogg
25,192,88727,1,0,0:0:0:0:m_058.ogg
435,192,88818,1,0,0:0:0:0:s_037.ogg
384,192,88909,1,0,0:0:0:0:s_030.ogg
486,192,89000,1,0,0:0:0:0:s_037.ogg
332,192,89090,1,0,0:0:0:0:m_023.ogg
128,192,89090,1,0,0:0:0:0:m_052.ogg
230,192,89090,1,0,0:0:0:0:m_066.ogg
435,192,89181,1,0,0:0:0:0:s_037.ogg
384,192,89272,1,0,0:0:0:0:m_030.ogg
486,192,89363,1,0,0:0:0:0:s_037.ogg
332,192,89454,1,0,0:0:0:0:m_023.ogg
230,192,89454,1,0,0:0:0:0:m_066.ogg
128,192,89454,1,0,0:0:0:0:m_052.ogg
435,192,89545,1,0,0:0:0:0:s_037.ogg
384,192,89636,1,0,0:0:0:0:m_030.ogg
486,192,89727,1,0,0:0:0:0:s_037.ogg
332,192,89818,1,0,0:0:0:0:m_023.ogg
230,192,89818,1,0,0:0:0:0:m_066.ogg
128,192,89818,1,0,0:0:0:0:m_052.ogg
435,192,89909,1,0,0:0:0:0:s_037.ogg
384,192,90000,1,0,0:0:0:0:s_030.ogg
486,192,90090,1,0,0:0:0:0:s_037.ogg
76,192,90181,1,0,0:0:0:0:m_023.ogg
281,192,90181,1,0,0:0:0:0:s_050.ogg
332,192,90227,1,0,0:0:0:0:s_059.ogg
179,192,90272,1,0,0:0:0:0:s_035.ogg
384,192,90272,1,0,0:0:0:0:m_066.ogg
128,192,90363,1,0,0:0:0:0:m_030.ogg
230,192,90454,1,0,0:0:0:0:s_035.ogg
76,192,90545,1,0,0:0:0:0:m_023.ogg
179,192,90636,1,0,0:0:0:0:s_035.ogg
128,192,90727,1,0,0:0:0:0:s_030.ogg
230,192,90818,1,0,0:0:0:0:s_035.ogg
332,192,90909,1,0,0:0:0:0:m_023.ogg
25,192,90909,1,0,0:0:0:0:s_052.ogg
76,192,90954,1,0,0:0:0:0:s_058.ogg
435,192,91000,1,0,0:0:0:0:s_037.ogg
128,192,91000,1,0,0:0:0:0:m_066.ogg
384,192,91090,1,0,0:0:0:0:m_030.ogg
486,192,91181,1,0,0:0:0:0:s_037.ogg
332,192,91272,1,0,0:0:0:0:m_023.ogg
435,192,91363,1,0,0:0:0:0:s_037.ogg
384,192,91454,1,0,0:0:0:0:s_030.ogg
486,192,91545,1,0,0:0:0:0:s_037.ogg
76,192,91636,1,0,0:0:0:0:m_023.ogg
281,192,91636,1,0,0:0:0:0:s_050.ogg
332,192,91681,1,0,0:0:0:0:s_059.ogg
179,192,91727,1,0,0:0:0:0:s_035.ogg
384,192,91727,1,0,0:0:0:0:m_066.ogg
128,192,91818,1,0,0:0:0:0:m_030.ogg
230,192,91909,5,0,0:0:0:0:s_035.ogg
76,192,92000,1,0,0:0:0:0:m_023.ogg
179,192,92090,1,0,0:0:0:0:s_035.ogg
128,192,92181,1,0,0:0:0:0:s_030.ogg
230,192,92272,1,0,0:0:0:0:s_035.ogg
332,192,92363,1,0,0:0:0:0:m_023.ogg
25,192,92363,1,0,0:0:0:0:s_052.ogg
76,192,92409,1,0,0:0:0:0:s_058.ogg
435,192,92454,1,0,0:0:0:0:s_037.ogg
128,192,92454,1,0,0:0:0:0:m_066.ogg
384,192,92545,1,0,0:0:0:0:m_030.ogg
486,192,92636,1,0,0:0:0:0:s_037.ogg
332,192,92727,1,0,0:0:0:0:m_023.ogg
435,192,92818,1,0,0:0:0:0:s_037.ogg
384,192,92909,1,0,0:0:0:0:s_030.ogg
486,192,93000,1,0,0:0:0:0:s_037.ogg
25,192,93090,5,0,0:0:0:0:s_016.ogg
281,192,93090,1,0,0:0:0:0:s_031.ogg
384,192,93181,1,0,0:0:0:0:s_040.ogg
128,192,93272,1,0,0:0:0:0:s_023.ogg
332,192,93272,1,0,0:0:0:0:s_035.ogg
435,192,93363,1,0,0:0:0:0:s_040.ogg
25,192,93454,1,0,0:0:0:0:s_016.ogg
281,192,93454,1,0,0:0:0:0:s_031.ogg
384,192,93545,1,0,0:0:0:0:s_040.ogg
128,192,93636,1,0,0:0:0:0:s_023.ogg
332,192,93636,1,0,0:0:0:0:s_035.ogg
435,192,93727,1,0,0:0:0:0:s_040.ogg
25,192,93818,1,0,0:0:0:0:s_016.ogg
281,192,93818,1,0,0:0:0:0:s_031.ogg
384,192,93909,1,0,0:0:0:0:s_040.ogg
128,192,94000,1,0,0:0:0:0:s_023.ogg
332,192,94000,1,0,0:0:0:0:s_035.ogg
435,192,94090,1,0,0:0:0:0:s_040.ogg
25,192,94181,1,0,0:0:0:0:s_016.ogg
281,192,94181,1,0,0:0:0:0:s_031.ogg
384,192,94272,1,0,0:0:0:0:s_040.ogg
128,192,94363,1,0,0:0:0:0:s_023.ogg
332,192,94363,1,0,0:0:0:0:s_035.ogg
435,192,94454,1,0,0:0:0:0:s_040.ogg
76,192,94545,1,0,0:0:0:0:m_016.ogg
384,192,94545,1,0,0:0:0:0:m_028.ogg
179,192,94636,1,0,0:0:0:0:s_026.ogg
128,192,94727,1,0,0:0:0:0:m_023.ogg
486,192,94727,1,0,0:0:0:0:m_035.ogg
230,192,94818,1,0,0:0:0:0:s_026.ogg
76,192,94909,1,0,0:0:0:0:m_016.ogg
384,192,94909,1,0,0:0:0:0:m_032.ogg
179,192,95000,1,0,0:0:0:0:s_026.ogg
128,192,95090,1,0,0:0:0:0:m_023.ogg
486,192,95090,1,0,0:0:0:0:m_035.ogg
230,192,95181,1,0,0:0:0:0:s_026.ogg
76,192,95272,1,0,0:0:0:0:m_016.ogg
384,192,95272,1,0,0:0:0:0:m_032.ogg
179,192,95363,1,0,0:0:0:0:s_026.ogg
128,192,95454,1,0,0:0:0:0:m_023.ogg
486,192,95454,1,0,0:0:0:0:m_035.ogg
230,192,95545,1,0,0:0:0:0:s_026.ogg
76,192,95636,1,0,0:0:0:0:m_016.ogg
384,192,95636,1,0,0:0:0:0:m_032.ogg
179,192,95727,1,0,0:0:0:0:s_026.ogg
128,192,95818,1,0,0:0:0:0:s_023.ogg
486,192,95818,1,0,0:0:0:0:s_035.ogg
230,192,95909,1,0,0:0:0:0:s_026.ogg
281,192,96000,1,0,0:0:0:0:s_033.ogg
332,192,96000,1,0,0:0:0:0:s_028.ogg
25,192,96090,1,0,0:0:0:0:s_028.ogg
76,192,96181,1,0,0:0:0:0:s_033.ogg
128,192,96272,1,0,0:0:0:0:s_036.ogg
179,192,96363,1,0,0:0:0:0:s_040.ogg
76,192,96454,1,0,0:0:0:0:s_033.ogg
128,192,96545,1,0,0:0:0:0:s_036.ogg
179,192,96636,1,0,0:0:0:0:s_040.ogg
230,192,96727,1,0,0:0:0:0:s_045.ogg
128,192,96818,1,0,0:0:0:0:s_036.ogg
179,192,96909,1,0,0:0:0:0:s_040.ogg
230,192,97000,1,0,0:0:0:0:s_045.ogg
281,192,97090,1,0,0:0:0:0:s_048.ogg
179,192,97181,1,0,0:0:0:0:s_040.ogg
230,192,97272,1,0,0:0:0:0:s_045.ogg
281,192,97363,1,0,0:0:0:0:s_048.ogg
332,192,97454,1,0,0:0:0:0:s_052.ogg
230,192,97545,1,0,0:0:0:0:s_045.ogg
281,192,97636,1,0,0:0:0:0:s_048.ogg
332,192,97727,1,0,0:0:0:0:s_052.ogg
384,192,97818,1,0,0:0:0:0:s_057.ogg
281,192,97909,1,0,0:0:0:0:s_048.ogg
332,192,98000,1,0,0:0:0:0:s_052.ogg
384,192,98090,1,0,0:0:0:0:s_057.ogg
435,192,98181,1,0,0:0:0:0:s_060.ogg
332,192,98272,1,0,0:0:0:0:s_052.ogg
384,192,98363,1,0,0:0:0:0:s_057.ogg
435,192,98454,1,0,0:0:0:0:s_060.ogg
76,192,98545,1,0,0:0:0:0:s_052.ogg
179,192,98545,1,0,0:0:0:0:s_064.ogg
486,192,98545,1,0,0:0:0:0:s_057.ogg
76,192,98727,1,0,0:0:0:0:s_052.ogg
179,192,98727,1,0,0:0:0:0:s_064.ogg
486,192,98727,1,0,0:0:0:0:s_057.ogg
332,192,99000,1,0,0:0:0:0:s_028.ogg
384,192,99090,1,0,0:0:0:0:s_031.ogg
435,192,99181,1,0,0:0:0:0:s_035.ogg
486,192,99272,1,0,0:0:0:0:s_040.ogg
281,192,99363,1,0,0:0:0:0:s_031.ogg
332,192,99454,1,0,0:0:0:0:s_035.ogg
384,192,99545,1,0,0:0:0:0:s_040.ogg
435,192,99636,1,0,0:0:0:0:s_043.ogg
230,192,99727,1,0,0:0:0:0:s_035.ogg
281,192,99818,1,0,0:0:0:0:s_040.ogg
332,192,99909,1,0,0:0:0:0:s_043.ogg
384,192,100000,1,0,0:0:0:0:s_047.ogg
179,192,100090,1,0,0:0:0:0:s_040.ogg
230,192,100181,1,0,0:0:0:0:s_043.ogg
281,192,100272,1,0,0:0:0:0:s_047.ogg
332,192,100363,1,0,0:0:0:0:s_052.ogg
128,192,100454,1,0,0:0:0:0:s_043.ogg
179,192,100545,1,0,0:0:0:0:s_047.ogg
230,192,100636,1,0,0:0:0:0:s_052.ogg
281,192,100727,1,0,0:0:0:0:s_055.ogg
76,192,100818,1,0,0:0:0:0:s_047.ogg
128,192,100909,1,0,0:0:0:0:s_052.ogg
179,192,101000,1,0,0:0:0:0:s_055.ogg
230,192,101090,1,0,0:0:0:0:s_059.ogg
25,192,101181,1,0,0:0:0:0:s_052.ogg
76,192,101272,1,0,0:0:0:0:s_055.ogg
128,192,101363,1,0,0:0:0:0:s_059.ogg
179,192,101454,1,0,0:0:0:0:s_052.ogg
332,192,101454,1,0,0:0:0:0:s_064.ogg
435,192,101454,1,0,0:0:0:0:s_055.ogg
179,192,101636,1,0,0:0:0:0:s_052.ogg
332,192,101636,1,0,0:0:0:0:s_064.ogg
435,192,101636,1,0,0:0:0:0:s_055.ogg
25,192,102000,128,0,102545:0:0:0:0:l_028.ogg
76,192,102045,128,0,102545:0:0:0:0:l_031.ogg
128,192,102090,128,0,102545:0:0:0:0:l_034.ogg
179,192,102136,128,0,102545:0:0:0:0:l_037.ogg
230,192,102181,128,0,102545:0:0:0:0:m_040.ogg
281,192,102363,128,0,102909:0:0:0:0:l_010.ogg
332,192,102409,128,0,102909:0:0:0:0:l_013.ogg
384,192,102454,128,0,102909:0:0:0:0:l_016.ogg
435,192,102500,128,0,102909:0:0:0:0:l_019.ogg
486,192,102545,128,0,102909:0:0:0:0:m_022.ogg
25,192,102727,128,0,103272:0:0:0:0:l_040.ogg
76,192,102772,128,0,103272:0:0:0:0:l_043.ogg
128,192,102818,128,0,103272:0:0:0:0:l_046.ogg
179,192,102863,128,0,103272:0:0:0:0:l_049.ogg
230,192,102909,128,0,103272:0:0:0:0:m_052.ogg
281,192,103090,128,0,103636:0:0:0:0:l_022.ogg
332,192,103136,128,0,103636:0:0:0:0:l_025.ogg
384,192,103181,128,0,103636:0:0:0:0:l_028.ogg
435,192,103227,128,0,103636:0:0:0:0:l_031.ogg
486,192,103272,128,0,103636:0:0:0:0:m_034.ogg
25,192,103454,128,0,104545:0:0:0:0:l_052.ogg
76,192,103500,128,0,104545:0:0:0:0:l_055.ogg
128,192,103545,128,0,104545:0:0:0:0:l_058.ogg
179,192,103590,128,0,104545:0:0:0:0:l_061.ogg
230,192,103636,128,0,104545:0:0:0:0:l_064.ogg
281,192,104909,128,0,105454:0:0:0:0:l_024.ogg
332,192,104954,128,0,105454:0:0:0:0:l_027.ogg
384,192,105000,128,0,105454:0:0:0:0:l_030.ogg
435,192,105045,128,0,105454:0:0:0:0:l_033.ogg
486,192,105090,128,0,105454:0:0:0:0:m_036.ogg
25,192,105272,128,0,105818:0:0:0:0:l_009.ogg
76,192,105318,128,0,105818:0:0:0:0:l_012.ogg
128,192,105363,128,0,105818:0:0:0:0:l_015.ogg
179,192,105409,128,0,105818:0:0:0:0:l_018.ogg
230,192,105454,128,0,105818:0:0:0:0:m_021.ogg
281,192,105636,128,0,106181:0:0:0:0:l_036.ogg
332,192,105681,128,0,106181:0:0:0:0:l_039.ogg
384,192,105727,128,0,106181:0:0:0:0:l_042.ogg
435,192,105772,128,0,106181:0:0:0:0:l_045.ogg
486,192,105818,128,0,106181:0:0:0:0:m_048.ogg
25,192,106000,128,0,106545:0:0:0:0:l_021.ogg
76,192,106045,128,0,106545:0:0:0:0:l_024.ogg
128,192,106090,128,0,106545:0:0:0:0:l_027.ogg
179,192,106136,128,0,106545:0:0:0:0:l_030.ogg
230,192,106181,128,0,106545:0:0:0:0:m_033.ogg
281,192,106272,128,0,108727:0:0:0:0:l_048.ogg
332,192,106363,128,0,108727:0:0:0:0:l_051.ogg
384,192,106454,128,0,108727:0:0:0:0:l_054.ogg
435,192,106545,128,0,108727:0:0:0:0:l_060.ogg
486,192,106545,128,0,108727:0:0:0:0:l_033.ogg
25,192,109090,1,0,0:0:0:0:s_028.ogg
281,192,109181,1,0,0:0:0:0:s_047.ogg
128,192,109272,1,0,0:0:0:0:s_043.ogg
384,192,109363,1,0,0:0:0:0:s_047.ogg
25,192,109454,1,0,0:0:0:0:s_040.ogg
281,192,109545,1,0,0:0:0:0:s_047.ogg
128,192,109636,1,0,0:0:0:0:s_043.ogg
384,192,109727,1,0,0:0:0:0:s_047.ogg
25,192,109818,1,0,0:0:0:0:s_040.ogg
281,192,109909,1,0,0:0:0:0:s_047.ogg
128,192,110000,1,0,0:0:0:0:s_043.ogg
384,192,110090,1,0,0:0:0:0:s_047.ogg
25,192,110181,1,0,0:0:0:0:s_040.ogg
281,192,110272,1,0,0:0:0:0:s_047.ogg
128,192,110363,1,0,0:0:0:0:s_043.ogg
384,192,110454,1,0,0:0:0:0:s_047.ogg
230,192,110545,1,0,0:0:0:0:s_042.ogg
486,192,110636,1,0,0:0:0:0:s_047.ogg
128,192,110727,1,0,0:0:0:0:s_045.ogg
384,192,110818,1,0,0:0:0:0:s_047.ogg
230,192,110909,1,0,0:0:0:0:s_042.ogg
486,192,111000,1,0,0:0:0:0:s_047.ogg
128,192,111090,1,0,0:0:0:0:s_045.ogg
384,192,111181,1,0,0:0:0:0:s_047.ogg
230,192,111272,1,0,0:0:0:0:s_042.ogg
486,192,111363,1,0,0:0:0:0:s_047.ogg
128,192,111454,1,0,0:0:0:0:s_045.ogg
384,192,111545,1,0,0:0:0:0:s_047.ogg
230,192,111636,1,0,0:0:0:0:s_042.ogg
486,192,111727,1,0,0:0:0:0:s_047.ogg
128,192,111818,1,0,0:0:0:0:s_045.ogg
384,192,111909,1,0,0:0:0:0:s_047.ogg
25,192,112000,1,0,0:0:0:0:s_040.ogg
281,192,112090,1,0,0:0:0:0:s_047.ogg
128,192,112181,1,0,0:0:0:0:s_043.ogg
384,192,112272,1,0,0:0:0:0:s_047.ogg
25,192,112363,1,0,0:0:0:0:s_040.ogg
281,192,112454,1,0,0:0:0:0:s_047.ogg
128,192,112545,1,0,0:0:0:0:s_043.ogg
384,192,112636,1,0,0:0:0:0:s_047.ogg
25,192,112727,1,0,0:0:0:0:s_040.ogg
281,192,112818,1,0,0:0:0:0:s_047.ogg
128,192,112909,1,0,0:0:0:0:s_043.ogg
384,192,113000,1,0,0:0:0:0:s_047.ogg
25,192,113090,1,0,0:0:0:0:s_040.ogg
281,192,113181,1,0,0:0:0:0:s_047.ogg
128,192,113272,1,0,0:0:0:0:s_043.ogg
384,192,113363,1,0,0:0:0:0:s_047.ogg
230,192,113454,1,0,0:0:0:0:s_039.ogg
486,192,113545,1,0,0:0:0:0:s_047.ogg
128,192,113636,1,0,0:0:0:0:s_045.ogg
384,192,113727,1,0,0:0:0:0:s_047.ogg
230,192,113818,1,0,0:0:0:0:s_039.ogg
486,192,113909,1,0,0:0:0:0:s_047.ogg
128,192,114000,1,0,0:0:0:0:s_045.ogg
384,192,114090,1,0,0:0:0:0:s_047.ogg
230,192,114181,1,0,0:0:0:0:s_039.ogg
486,192,114272,1,0,0:0:0:0:s_047.ogg
128,192,114363,1,0,0:0:0:0:s_045.ogg
384,192,114454,1,0,0:0:0:0:s_047.ogg
230,192,114545,1,0,0:0:0:0:s_039.ogg
486,192,114636,1,0,0:0:0:0:s_047.ogg
128,192,114727,1,0,0:0:0:0:s_045.ogg
384,192,114818,1,0,0:0:0:0:s_047.ogg
76,192,114909,1,0,0:0:0:0:s_031.ogg
230,192,115000,1,0,0:0:0:0:s_035.ogg
76,192,115090,1,0,0:0:0:0:s_031.ogg
230,192,115181,1,0,0:0:0:0:s_035.ogg
76,192,115272,1,0,0:0:0:0:s_031.ogg
230,192,115363,1,0,0:0:0:0:s_035.ogg
76,192,115454,1,0,0:0:0:0:s_031.ogg
230,192,115545,1,0,0:0:0:0:s_035.ogg
76,192,115636,1,0,0:0:0:0:s_031.ogg
230,192,115727,1,0,0:0:0:0:s_035.ogg
76,192,115818,1,0,0:0:0:0:s_031.ogg
230,192,115909,1,0,0:0:0:0:s_035.ogg
76,192,116000,1,0,0:0:0:0:s_031.ogg
230,192,116090,1,0,0:0:0:0:s_035.ogg
76,192,116181,1,0,0:0:0:0:s_031.ogg
230,192,116272,1,0,0:0:0:0:s_035.ogg
332,192,116363,1,0,0:0:0:0:s_033.ogg
486,192,116454,1,0,0:0:0:0:s_035.ogg
332,192,116545,1,0,0:0:0:0:s_033.ogg
486,192,116636,1,0,0:0:0:0:s_035.ogg
332,192,116727,1,0,0:0:0:0:s_033.ogg
486,192,116818,1,0,0:0:0:0:s_035.ogg
332,192,116909,1,0,0:0:0:0:s_033.ogg
486,192,117000,1,0,0:0:0:0:s_035.ogg
332,192,117090,1,0,0:0:0:0:s_033.ogg
486,192,117181,1,0,0:0:0:0:s_035.ogg
332,192,117272,1,0,0:0:0:0:s_033.ogg
486,192,117363,1,0,0:0:0:0:s_035.ogg
332,192,117454,1,0,0:0:0:0:s_033.ogg
486,192,117545,1,0,0:0:0:0:s_035.ogg
332,192,117636,1,0,0:0:0:0:s_033.ogg
486,192,117727,1,0,0:0:0:0:s_035.ogg
25,192,117818,1,0,0:0:0:0:s_031.ogg
179,192,117909,1,0,0:0:0:0:s_035.ogg
25,192,118000,1,0,0:0:0:0:s_031.ogg
179,192,118090,1,0,0:0:0:0:s_035.ogg
25,192,118181,1,0,0:0:0:0:s_031.ogg
179,192,118272,1,0,0:0:0:0:s_035.ogg
25,192,118363,1,0,0:0:0:0:s_031.ogg
179,192,118454,1,0,0:0:0:0:s_035.ogg
25,192,118545,1,0,0:0:0:0:s_031.ogg
179,192,118636,1,0,0:0:0:0:s_035.ogg
25,192,118727,1,0,0:0:0:0:s_031.ogg
179,192,118818,1,0,0:0:0:0:s_035.ogg
25,192,118909,1,0,0:0:0:0:s_031.ogg
179,192,119000,1,0,0:0:0:0:s_035.ogg
25,192,119090,1,0,0:0:0:0:s_031.ogg
179,192,119181,1,0,0:0:0:0:s_035.ogg
281,192,119272,1,0,0:0:0:0:s_027.ogg
435,192,119363,1,0,0:0:0:0:s_035.ogg
281,192,119454,1,0,0:0:0:0:s_027.ogg
435,192,119545,1,0,0:0:0:0:s_035.ogg
281,192,119636,1,0,0:0:0:0:s_027.ogg
435,192,119727,1,0,0:0:0:0:s_035.ogg
281,192,119818,1,0,0:0:0:0:s_027.ogg
435,192,119909,1,0,0:0:0:0:s_035.ogg
281,192,120000,1,0,0:0:0:0:s_027.ogg
435,192,120090,1,0,0:0:0:0:s_035.ogg
281,192,120181,1,0,0:0:0:0:s_027.ogg
435,192,120272,1,0,0:0:0:0:s_035.ogg
281,192,120363,1,0,0:0:0:0:s_027.ogg
435,192,120454,1,0,0:0:0:0:s_035.ogg
281,192,120545,1,0,0:0:0:0:s_027.ogg
435,192,120636,1,0,0:0:0:0:s_035.ogg
128,192,120727,1,0,0:0:0:0:s_028.ogg
230,192,120818,1,0,0:0:0:0:s_035.ogg
128,192,120909,1,0,0:0:0:0:s_028.ogg
230,192,121000,1,0,0:0:0:0:s_035.ogg
128,192,121090,1,0,0:0:0:0:s_028.ogg
230,192,121181,1,0,0:0:0:0:s_035.ogg
128,192,121272,1,0,0:0:0:0:s_028.ogg
230,192,121363,1,0,0:0:0:0:s_035.ogg
384,192,121454,1,0,0:0:0:0:s_026.ogg
486,192,121545,1,0,0:0:0:0:s_028.ogg
384,192,121636,1,0,0:0:0:0:s_026.ogg
486,192,121727,1,0,0:0:0:0:s_028.ogg
384,192,121818,1,0,0:0:0:0:s_026.ogg
486,192,121909,1,0,0:0:0:0:s_028.ogg
384,192,122000,1,0,0:0:0:0:s_026.ogg
486,192,122090,1,0,0:0:0:0:s_028.ogg
25,192,122181,1,0,0:0:0:0:s_024.ogg
128,192,122272,1,0,0:0:0:0:s_028.ogg
25,192,122363,1,0,0:0:0:0:s_024.ogg
128,192,122454,1,0,0:0:0:0:s_028.ogg
25,192,122545,1,0,0:0:0:0:s_024.ogg
128,192,122636,1,0,0:0:0:0:s_028.ogg
25,192,122727,1,0,0:0:0:0:s_024.ogg
128,192,122818,1,0,0:0:0:0:s_028.ogg
281,192,122909,1,0,0:0:0:0:s_020.ogg
384,192,123000,1,0,0:0:0:0:s_028.ogg
281,192,123090,1,0,0:0:0:0:s_020.ogg
384,192,123181,1,0,0:0:0:0:s_028.ogg
281,192,123272,1,0,0:0:0:0:s_020.ogg
384,192,123363,1,0,0:0:0:0:s_028.ogg
281,192,123454,1,0,0:0:0:0:s_020.ogg
384,192,123545,1,0,0:0:0:0:s_028.ogg
25,192,123636,1,0,0:0:0:0:l_021.ogg
76,192,123636,1,0,0:0:0:0:l_016.ogg
486,192,123636,1,0,0:0:0:0:l_060.ogg
435,192,123757,1,0,0:0:0:0:l_057.ogg
384,192,123878,1,0,0:0:0:0:l_052.ogg
332,192,124000,1,0,0:0:0:0:m_048.ogg
281,192,124121,1,0,0:0:0:0:m_045.ogg
230,192,124242,1,0,0:0:0:0:m_040.ogg
332,192,124363,1,0,0:0:0:0:l_048.ogg
281,192,124484,1,0,0:0:0:0:l_045.ogg
230,192,124606,1,0,0:0:0:0:l_040.ogg
179,192,124727,1,0,0:0:0:0:m_036.ogg
128,192,124848,1,0,0:0:0:0:m_033.ogg
76,192,124969,1,0,0:0:0:0:m_028.ogg
179,192,125090,1,0,0:0:0:0:m_036.ogg
128,192,125181,1,0,0:0:0:0:m_033.ogg
76,192,125272,1,0,0:0:0:0:s_028.ogg
25,192,125363,1,0,0:0:0:0:l_024.ogg
179,192,125454,1,0,0:0:0:0:m_028.ogg
230,192,125545,1,0,0:0:0:0:m_033.ogg
281,192,125636,1,0,0:0:0:0:m_036.ogg
332,192,125727,1,0,0:0:0:0:m_040.ogg
230,192,125818,1,0,0:0:0:0:m_045.ogg
281,192,125909,1,0,0:0:0:0:m_048.ogg
332,192,126000,1,0,0:0:0:0:m_052.ogg
384,192,126090,1,0,0:0:0:0:s_057.ogg
486,192,126181,1,0,0:0:0:0:m_060.ogg
435,192,126272,1,0,0:0:0:0:s_057.ogg
384,192,126363,1,0,0:0:0:0:s_052.ogg
332,192,126454,1,0,0:0:0:0:s_048.ogg
25,192,126545,1,0,0:0:0:0:l_009.ogg
76,192,126545,1,0,0:0:0:0:l_017.ogg
486,192,126545,1,0,0:0:0:0:l_060.ogg
435,192,126666,1,0,0:0:0:0:l_057.ogg
384,192,126787,1,0,0:0:0:0:l_053.ogg
332,192,126909,1,0,0:0:0:0:m_048.ogg
281,192,127030,1,0,0:0:0:0:m_045.ogg
230,192,127151,1,0,0:0:0:0:m_041.ogg
332,192,127272,1,0,0:0:0:0:l_048.ogg
281,192,127393,1,0,0:0:0:0:l_045.ogg
230,192,127515,1,0,0:0:0:0:l_041.ogg
179,192,127636,1,0,0:0:0:0:m_036.ogg
128,192,127757,1,0,0:0:0:0:m_033.ogg
76,192,127878,1,0,0:0:0:0:m_029.ogg
179,192,128000,1,0,0:0:0:0:m_036.ogg
128,192,128090,1,0,0:0:0:0:m_033.ogg
76,192,128181,1,0,0:0:0:0:s_029.ogg
25,192,128272,1,0,0:0:0:0:l_024.ogg
179,192,128363,1,0,0:0:0:0:m_029.ogg
230,192,128454,1,0,0:0:0:0:m_033.ogg
281,192,128545,1,0,0:0:0:0:m_036.ogg
332,192,128636,1,0,0:0:0:0:m_041.ogg
230,192,128727,1,0,0:0:0:0:m_045.ogg
281,192,128818,1,0,0:0:0:0:m_048.ogg
332,192,128909,1,0,0:0:0:0:m_053.ogg
384,192,129000,1,0,0:0:0:0:s_057.ogg
486,192,129090,1,0,0:0:0:0:m_060.ogg
435,192,129181,1,0,0:0:0:0:s_057.ogg
384,192,129272,1,0,0:0:0:0:s_053.ogg
332,192,129363,1,0,0:0:0:0:s_048.ogg
25,192,129454,1,0,0:0:0:0:l_010.ogg
76,192,129454,1,0,0:0:0:0:l_022.ogg
486,192,129454,1,0,0:0:0:0:l_064.ogg
435,192,129575,1,0,0:0:0:0:l_061.ogg
384,192,129696,1,0,0:0:0:0:l_058.ogg
332,192,129818,1,0,0:0:0:0:m_055.ogg
281,192,129939,1,0,0:0:0:0:m_052.ogg
230,192,130060,1,0,0:0:0:0:m_049.ogg
384,192,130181,1,0,0:0:0:0:l_055.ogg
332,192,130303,1,0,0:0:0:0:l_052.ogg
281,192,130424,1,0,0:0:0:0:l_049.ogg
230,192,130545,1,0,0:0:0:0:l_046.ogg
179,192,130636,1,0,0:0:0:0:m_043.ogg
128,192,130727,1,0,0:0:0:0:m_040.ogg
76,192,130818,1,0,0:0:0:0:m_037.ogg
281,192,130909,1,0,0:0:0:0:m_043.ogg
230,192,131000,1,0,0:0:0:0:m_040.ogg
179,192,131090,1,0,0:0:0:0:m_037.ogg
128,192,131181,1,0,0:0:0:0:m_034.ogg
76,192,131272,1,0,0:0:0:0:s_031.ogg
25,192,131363,1,0,0:0:0:0:m_028.ogg
281,192,131454,1,0,0:0:0:0:m_031.ogg
332,192,131545,1,0,0:0:0:0:m_034.ogg
384,192,131636,1,0,0:0:0:0:m_037.ogg
435,192,131696,1,0,0:0:0:0:m_040.ogg
486,192,131757,1,0,0:0:0:0:m_043.ogg
25,192,131818,1,0,0:0:0:0:m_046.ogg
76,192,131878,1,0,0:0:0:0:m_049.ogg
128,192,131939,1,0,0:0:0:0:m_052.ogg
179,192,132000,1,0,0:0:0:0:m_055.ogg
230,192,132060,1,0,0:0:0:0:m_058.ogg
281,192,132121,1,0,0:0:0:0:s_061.ogg
435,192,132181,1,0,0:0:0:0:s_064.ogg
384,192,132242,1,0,0:0:0:0:s_061.ogg
332,192,132303,1,0,0:0:0:0:s_055.ogg
25,192,132363,1,0,0:0:0:0:l_011.ogg
76,192,132363,1,0,0:0:0:0:l_016.ogg
486,192,132363,1,0,0:0:0:0:l_067.ogg
435,192,132484,1,0,0:0:0:0:l_064.ogg
384,192,132606,1,0,0:0:0:0:l_059.ogg
332,192,132727,1,0,0:0:0:0:m_055.ogg
281,192,132848,1,0,0:0:0:0:m_052.ogg
230,192,132969,1,0,0:0:0:0:m_047.ogg
435,192,133090,1,0,0:0:0:0:l_055.ogg
384,192,133212,1,0,0:0:0:0:m_052.ogg
332,192,133333,1,0,0:0:0:0:m_047.ogg
281,192,133454,1,0,0:0:0:0:m_043.ogg
435,192,133545,1,0,0:0:0:0:l_052.ogg
384,192,133636,1,0,0:0:0:0:m_047.ogg
332,192,133727,1,0,0:0:0:0:m_043.ogg
281,192,133818,1,0,0:0:0:0:m_040.ogg
384,192,133909,1,0,0:0:0:0:l_047.ogg
332,192,134000,1,0,0:0:0:0:m_043.ogg
281,192,134090,1,0,0:0:0:0:m_040.ogg
230,192,134181,1,0,0:0:0:0:m_035.ogg
332,192,134272,1,0,0:0:0:0:m_043.ogg
281,192,134363,1,0,0:0:0:0:m_040.ogg
230,192,134454,1,0,0:0:0:0:m_035.ogg
179,192,134545,1,0,0:0:0:0:m_031.ogg
281,192,134636,1,0,0:0:0:0:m_040.ogg
230,192,134727,1,0,0:0:0:0:m_035.ogg
179,192,134818,1,0,0:0:0:0:m_031.ogg
128,192,134909,1,0,0:0:0:0:m_028.ogg
230,192,135000,1,0,0:0:0:0:s_035.ogg
179,192,135090,1,0,0:0:0:0:s_031.ogg
128,192,135181,1,0,0:0:0:0:s_028.ogg
25,192,135272,1,0,0:0:0:0:s_023.ogg
76,192,135363,1,0,0:0:0:0:s_024.ogg
128,192,135454,1,0,0:0:0:0:s_025.ogg
179,192,135545,1,0,0:0:0:0:s_026.ogg
230,192,135636,1,0,0:0:0:0:s_027.ogg
281,192,135727,1,0,0:0:0:0:s_028.ogg
332,192,135818,1,0,0:0:0:0:s_029.ogg
384,192,135909,1,0,0:0:0:0:s_030.ogg
435,192,136000,1,0,0:0:0:0:s_031.ogg
486,192,136090,1,0,0:0:0:0:s_032.ogg
25,192,136181,1,0,0:0:0:0:s_033.ogg
76,192,136272,1,0,0:0:0:0:s_034.ogg
128,192,136363,1,0,0:0:0:0:s_035.ogg
179,192,136454,1,0,0:0:0:0:s_036.ogg
230,192,136545,1,0,0:0:0:0:s_037.ogg
281,192,136636,1,0,0:0:0:0:s_038.ogg
332,192,136727,1,0,0:0:0:0:s_039.ogg
384,192,136818,1,0,0:0:0:0:s_040.ogg
435,192,136909,1,0,0:0:0:0:s_041.ogg
486,192,137000,1,0,0:0:0:0:s_042.ogg
25,192,137090,1,0,0:0:0:0:s_043.ogg
76,192,137151,1,0,0:0:0:0:s_044.ogg
128,192,137212,1,0,0:0:0:0:s_045.ogg
179,192,137272,1,0,0:0:0:0:s_046.ogg
230,192,137363,1,0,0:0:0:0:s_047.ogg
281,192,137454,1,0,0:0:0:0:s_048.ogg
332,192,137515,1,0,0:0:0:0:s_049.ogg
384,192,137575,1,0,0:0:0:0:s_050.ogg
435,192,137666,1,0,0:0:0:0:s_051.ogg
486,192,137727,1,0,0:0:0:0:s_052.ogg
25,192,137818,1,0,0:0:0:0:s_053.ogg
76,192,137878,1,0,0:0:0:0:s_054.ogg
128,192,137939,1,0,0:0:0:0:s_055.ogg
179,192,138000,1,0,0:0:0:0:s_056.ogg
230,192,138045,1,0,0:0:0:0:s_057.ogg
281,192,138090,1,0,0:0:0:0:s_058.ogg
332,192,138136,1,0,0:0:0:0:s_059.ogg
25,192,138181,1,0,0:0:0:0:l_045.ogg
76,192,138181,1,0,0:0:0:0:l_035.ogg
384,192,138181,1,0,0:0:0:0:s_060.ogg
486,192,138272,1,0,0:0:0:0:s_062.ogg
384,192,138363,1,0,0:0:0:0:s_060.ogg
486,192,138454,1,0,0:0:0:0:s_062.ogg
384,192,138545,1,0,0:0:0:0:s_060.ogg
486,192,138636,1,0,0:0:0:0:s_062.ogg
384,192,138727,1,0,0:0:0:0:s_060.ogg
486,192,138818,1,0,0:0:0:0:s_062.ogg
384,192,138909,1,0,0:0:0:0:s_060.ogg
486,192,139000,1,0,0:0:0:0:s_062.ogg
384,192,139090,1,0,0:0:0:0:s_060.ogg
486,192,139181,1,0,0:0:0:0:s_062.ogg
384,192,139272,1,0,0:0:0:0:s_060.ogg
486,192,139363,1,0,0:0:0:0:s_062.ogg
384,192,139454,1,0,0:0:0:0:l_060.ogg
486,192,139545,1,0,0:0:0:0:l_062.ogg
435,192,139636,1,0,0:0:0:0:l_059.ogg
384,192,139727,1,0,0:0:0:0:m_057.ogg
332,192,139818,1,0,0:0:0:0:l_055.ogg
281,192,139909,1,0,0:0:0:0:m_054.ogg
384,192,140000,1,0,0:0:0:0:l_057.ogg
230,192,140090,1,0,0:0:0:0:l_052.ogg
179,192,140181,1,0,0:0:0:0:l_051.ogg
281,192,140272,1,0,0:0:0:0:l_054.ogg
128,192,140363,1,0,0:0:0:0:m_048.ogg
76,192,140454,1,0,0:0:0:0:l_047.ogg
25,192,140545,1,0,0:0:0:0:m_045.ogg
128,192,140636,1,0,0:0:0:0:l_048.ogg
76,192,140727,1,0,0:0:0:0:l_043.ogg
25,192,140818,1,0,0:0:0:0:m_042.ogg
486,192,140909,1,0,0:0:0:0:l_045.ogg
435,192,141000,1,0,0:0:0:0:l_040.ogg
384,192,141090,1,0,0:0:0:0:l_039.ogg
486,192,141181,1,0,0:0:0:0:l_042.ogg
435,192,141272,1,0,0:0:0:0:m_036.ogg
384,192,141363,1,0,0:0:0:0:l_035.ogg
332,192,141454,1,0,0:0:0:0:m_033.ogg
435,192,141545,1,0,0:0:0:0:l_036.ogg
281,192,141636,1,0,0:0:0:0:l_031.ogg
230,192,141727,1,0,0:0:0:0:m_030.ogg
332,192,141818,1,0,0:0:0:0:l_033.ogg
179,192,141909,1,0,0:0:0:0:l_028.ogg
128,192,142000,1,0,0:0:0:0:l_027.ogg
230,192,142090,1,0,0:0:0:0:l_030.ogg
76,192,142181,128,0,143090:0:0:0:0:l_024.ogg
25,192,143090,128,0,144000:0:0:0:0:m_023.ogg
76,192,144000,128,0,145454:0:0:0:0:l_010.ogg
281,192,144000,128,0,145454:0:0:0:0:l_022.ogg
128,192,145454,128,0,146909:0:0:0:0:l_011.ogg
332,192,145454,128,0,146909:0:0:0:0:l_023.ogg
76,192,146909,1,0,0:0:0:0:m_016.ogg
281,192,146909,1,0,0:0:0:0:m_040.ogg
230,192,147000,1,0,0:0:0:0:s_028.ogg
128,192,147090,1,0,0:0:0:0:s_023.ogg
179,192,147181,1,0,0:0:0:0:s_028.ogg
76,192,147272,1,0,0:0:0:0:s_016.ogg
230,192,147363,1,0,0:0:0:0:s_028.ogg
128,192,147454,1,0,0:0:0:0:s_023.ogg
179,192,147545,1,0,0:0:0:0:s_028.ogg
76,192,147636,1,0,0:0:0:0:s_016.ogg
230,192,147727,1,0,0:0:0:0:s_028.ogg
128,192,147818,1,0,0:0:0:0:s_023.ogg
179,192,147909,1,0,0:0:0:0:s_028.ogg
76,192,148000,1,0,0:0:0:0:s_016.ogg
435,192,148000,1,0,0:0:0:0:m_043.ogg
230,192,148090,1,0,0:0:0:0:s_028.ogg
128,192,148181,1,0,0:0:0:0:s_023.ogg
179,192,148272,1,0,0:0:0:0:s_028.ogg
384,192,148272,1,0,0:0:0:0:s_040.ogg
332,192,148363,1,0,0:0:0:0:s_016.ogg
25,192,148363,1,0,0:0:0:0:m_039.ogg
486,192,148454,1,0,0:0:0:0:s_030.ogg
384,192,148545,1,0,0:0:0:0:s_023.ogg
435,192,148636,1,0,0:0:0:0:s_030.ogg
332,192,148727,1,0,0:0:0:0:m_016.ogg
230,192,148727,1,0,0:0:0:0:m_047.ogg
128,192,148727,1,0,0:0:0:0:m_035.ogg
486,192,148818,1,0,0:0:0:0:s_030.ogg
384,192,148909,1,0,0:0:0:0:m_023.ogg
435,192,149000,1,0,0:0:0:0:s_030.ogg
332,192,149090,1,0,0:0:0:0:m_016.ogg
230,192,149090,1,0,0:0:0:0:m_047.ogg
128,192,149090,1,0,0:0:0:0:m_035.ogg
486,192,149181,1,0,0:0:0:0:s_030.ogg
384,192,149272,1,0,0:0:0:0:m_023.ogg
435,192,149363,1,0,0:0:0:0:s_030.ogg
332,192,149454,1,0,0:0:0:0:m_016.ogg
230,192,149454,1,0,0:0:0:0:m_047.ogg
128,192,149454,1,0,0:0:0:0:m_035.ogg
486,192,149545,1,0,0:0:0:0:s_030.ogg
384,192,149636,1,0,0:0:0:0:s_023.ogg
435,192,149727,1,0,0:0:0:0:s_030.ogg
76,192,149818,1,0,0:0:0:0:m_016.ogg
281,192,149818,1,0,0:0:0:0:l_031.ogg
332,192,149863,1,0,0:0:0:0:m_040.ogg
230,192,149909,1,0,0:0:0:0:s_028.ogg
384,192,149909,1,0,0:0:0:0:m_047.ogg
128,192,150000,1,0,0:0:0:0:m_023.ogg
179,192,150090,1,0,0:0:0:0:s_028.ogg
76,192,150181,1,0,0:0:0:0:m_016.ogg
230,192,150272,1,0,0:0:0:0:s_028.ogg
128,192,150363,1,0,0:0:0:0:m_023.ogg
179,192,150454,1,0,0:0:0:0:s_028.ogg
76,192,150545,1,0,0:0:0:0:m_016.ogg
230,192,150636,1,0,0:0:0:0:s_028.ogg
128,192,150727,1,0,0:0:0:0:s_023.ogg
179,192,150818,1,0,0:0:0:0:s_028.ogg
76,192,150909,1,0,0:0:0:0:s_016.ogg
435,192,150909,1,0,0:0:0:0:m_055.ogg
230,192,151000,1,0,0:0:0:0:s_028.ogg
128,192,151090,1,0,0:0:0:0:s_023.ogg
179,192,151181,1,0,0:0:0:0:s_028.ogg
384,192,151181,1,0,0:0:0:0:s_052.ogg
332,192,151272,1,0,0:0:0:0:s_016.ogg
25,192,151272,1,0,0:0:0:0:m_051.ogg
486,192,151363,1,0,0:0:0:0:s_030.ogg
384,192,151454,1,0,0:0:0:0:s_023.ogg
435,192,151545,1,0,0:0:0:0:s_030.ogg
332,192,151636,1,0,0:0:0:0:m_016.ogg
230,192,151636,1,0,0:0:0:0:m_059.ogg
128,192,151636,1,0,0:0:0:0:m_045.ogg
486,192,151727,1,0,0:0:0:0:s_030.ogg
384,192,151818,1,0,0:0:0:0:m_023.ogg
435,192,151909,1,0,0:0:0:0:s_030.ogg
332,192,152000,1,0,0:0:0:0:m_016.ogg
230,192,152000,1,0,0:0:0:0:m_059.ogg
128,192,152000,1,0,0:0:0:0:m_045.ogg
486,192,152090,1,0,0:0:0:0:s_030.ogg
384,192,152181,1,0,0:0:0:0:m_023.ogg
435,192,152272,1,0,0:0:0:0:s_030.ogg
332,192,152363,1,0,0:0:0:0:m_016.ogg
230,192,152363,1,0,0:0:0:0:m_059.ogg
128,192,152363,1,0,0:0:0:0:m_045.ogg
486,192,152454,1,0,0:0:0:0:s_030.ogg
384,192,152545,1,0,0:0:0:0:s_023.ogg
435,192,152636,1,0,0:0:0:0:s_030.ogg
76,192,152727,1,0,0:0:0:0:m_016.ogg
281,192,152727,1,0,0:0:0:0:m_043.ogg
332,192,152772,1,0,0:0:0:0:m_052.ogg
230,192,152818,1,0,0:0:0:0:s_028.ogg
384,192,152818,1,0,0:0:0:0:m_059.ogg
128,192,152909,1,0,0:0:0:0:m_023.ogg
179,192,153000,1,0,0:0:0:0:s_028.ogg
76,192,153090,1,0,0:0:0:0:m_016.ogg
230,192,153181,1,0,0:0:0:0:s_028.ogg
128,192,153272,1,0,0:0:0:0:s_023.ogg
179,192,153363,1,0,0:0:0:0:s_028.ogg
332,192,153454,1,0,0:0:0:0:m_016.ogg
25,192,153454,1,0,0:0:0:0:m_045.ogg
76,192,153500,1,0,0:0:0:0:m_051.ogg
486,192,153545,1,0,0:0:0:0:s_030.ogg
128,192,153545,1,0,0:0:0:0:m_059.ogg
384,192,153636,1,0,0:0:0:0:m_023.ogg
435,192,153727,1,0,0:0:0:0:s_030.ogg
332,192,153818,1,0,0:0:0:0:m_016.ogg
486,192,153909,1,0,0:0:0:0:s_030.ogg
384,192,154000,1,0,0:0:0:0:s_023.ogg
435,192,154090,1,0,0:0:0:0:s_030.ogg
76,192,154181,1,0,0:0:0:0:m_016.ogg
281,192,154181,1,0,0:0:0:0:m_043.ogg
332,192,154227,1,0,0:0:0:0:m_052.ogg
230,192,154272,1,0,0:0:0:0:s_028.ogg
384,192,154272,1,0,0:0:0:0:m_059.ogg
128,192,154363,1,0,0:0:0:0:m_023.ogg
179,192,154454,5,0,0:0:0:0:s_028.ogg
76,192,154545,1,0,0:0:0:0:m_016.ogg
230,192,154636,1,0,0:0:0:0:s_028.ogg
128,192,154727,1,0,0:0:0:0:s_023.ogg
179,192,154818,1,0,0:0:0:0:s_028.ogg
332,192,154909,1,0,0:0:0:0:m_016.ogg
25,192,154909,1,0,0:0:0:0:m_045.ogg
76,192,154954,1,0,0:0:0:0:m_051.ogg
486,192,155000,1,0,0:0:0:0:s_030.ogg
128,192,155000,1,0,0:0:0:0:m_059.ogg
384,192,155090,1,0,0:0:0:0:m_023.ogg
435,192,155181,1,0,0:0:0:0:s_030.ogg
332,192,155272,1,0,0:0:0:0:m_016.ogg
486,192,155363,1,0,0:0:0:0:s_030.ogg
384,192,155454,1,0,0:0:0:0:s_023.ogg
435,192,155545,1,0,0:0:0:0:s_030.ogg
25,192,155636,5,0,0:0:0:0:l_028.ogg
281,192,155636,1,0,0:0:0:0:s_043.ogg
76,192,155727,1,0,0:0:0:0:l_031.ogg
332,192,155727,1,0,0:0:0:0:l_043.ogg
128,192,155818,1,0,0:0:0:0:m_035.ogg
384,192,155818,1,0,0:0:0:0:m_047.ogg
179,192,155909,1,0,0:0:0:0:m_040.ogg
435,192,155909,1,0,0:0:0:0:m_052.ogg
230,192,156000,1,0,0:0:0:0:m_043.ogg
486,192,156000,1,0,0:0:0:0:m_055.ogg
25,192,156090,1,0,0:0:0:0:l_035.ogg
281,192,156090,1,0,0:0:0:0:l_047.ogg
76,192,156181,1,0,0:0:0:0:m_040.ogg
332,192,156181,1,0,0:0:0:0:m_052.ogg
128,192,156272,1,0,0:0:0:0:m_043.ogg
384,192,156272,1,0,0:0:0:0:m_055.ogg
179,192,156363,1,0,0:0:0:0:m_047.ogg
435,192,156363,1,0,0:0:0:0:m_059.ogg
76,192,156454,1,0,0:0:0:0:l_040.ogg
281,192,156454,1,0,0:0:0:0:l_052.ogg
128,192,156545,1,0,0:0:0:0:m_043.ogg
332,192,156545,1,0,0:0:0:0:m_055.ogg
179,192,156636,1,0,0:0:0:0:m_047.ogg
384,192,156636,1,0,0:0:0:0:m_059.ogg
230,192,156727,1,0,0:0:0:0:m_052.ogg
435,192,156727,1,0,0:0:0:0:m_064.ogg
76,192,156818,1,0,0:0:0:0:m_043.ogg
332,192,156818,1,0,0:0:0:0:m_055.ogg
128,192,156909,1,0,0:0:0:0:m_047.ogg
384,192,156909,1,0,0:0:0:0:m_059.ogg
179,192,157000,1,0,0:0:0:0:s_052.ogg
435,192,157000,1,0,0:0:0:0:s_064.ogg
230,192,157090,1,0,0:0:0:0:l_055.ogg
486,192,157090,1,0,0:0:0:0:l_067.ogg
179,192,157181,1,0,0:0:0:0:m_052.ogg
435,192,157181,1,0,0:0:0:0:m_064.ogg
128,192,157272,1,0,0:0:0:0:m_047.ogg
384,192,157272,1,0,0:0:0:0:m_059.ogg
76,192,157363,1,0,0:0:0:0:m_043.ogg
332,192,157363,1,0,0:0:0:0:m_055.ogg
230,192,157454,1,0,0:0:0:0:l_052.ogg
435,192,157454,1,0,0:0:0:0:l_064.ogg
179,192,157545,1,0,0:0:0:0:m_047.ogg
384,192,157545,1,0,0:0:0:0:m_059.ogg
128,192,157636,1,0,0:0:0:0:m_043.ogg
332,192,157636,1,0,0:0:0:0:m_055.ogg
76,192,157727,1,0,0:0:0:0:m_040.ogg
281,192,157727,1,0,0:0:0:0:m_052.ogg
179,192,157818,1,0,0:0:0:0:l_047.ogg
435,192,157818,1,0,0:0:0:0:l_059.ogg
128,192,157909,1,0,0:0:0:0:m_043.ogg
384,192,157909,1,0,0:0:0:0:m_055.ogg
76,192,158000,1,0,0:0:0:0:m_040.ogg
332,192,158000,1,0,0:0:0:0:m_052.ogg
25,192,158090,1,0,0:0:0:0:m_035.ogg
281,192,158090,1,0,0:0:0:0:m_047.ogg
179,192,158181,1,0,0:0:0:0:l_043.ogg
435,192,158181,1,0,0:0:0:0:l_055.ogg
128,192,158272,1,0,0:0:0:0:m_040.ogg
384,192,158272,1,0,0:0:0:0:m_052.ogg
76,192,158363,1,0,0:0:0:0:m_035.ogg
332,192,158363,1,0,0:0:0:0:m_047.ogg
25,192,158454,1,0,0:0:0:0:m_031.ogg
281,192,158454,1,0,0:0:0:0:m_043.ogg
230,192,158545,1,0,0:0:0:0:l_040.ogg
486,192,158545,1,0,0:0:0:0:l_052.ogg
179,192,158636,1,0,0:0:0:0:m_035.ogg
435,192,158636,1,0,0:0:0:0:m_047.ogg
128,192,158727,1,0,0:0:0:0:m_031.ogg
384,192,158727,1,0,0:0:0:0:m_043.ogg
76,192,158818,1,0,0:0:0:0:m_028.ogg
332,192,158818,1,0,0:0:0:0:m_040.ogg
230,192,158909,1,0,0:0:0:0:l_035.ogg
486,192,158909,1,0,0:0:0:0:l_047.ogg
179,192,159000,1,0,0:0:0:0:m_031.ogg
435,192,159000,1,0,0:0:0:0:m_043.ogg
128,192,159090,1,0,0:0:0:0:m_028.ogg
384,192,159090,1,0,0:0:0:0:m_040.ogg
76,192,159181,1,0,0:0:0:0:m_023.ogg
332,192,159181,1,0,0:0:0:0:m_035.ogg
179,192,159272,1,0,0:0:0:0:m_031.ogg
435,192,159272,1,0,0:0:0:0:m_043.ogg
128,192,159363,1,0,0:0:0:0:m_028.ogg
384,192,159363,1,0,0:0:0:0:m_040.ogg
76,192,159454,1,0,0:0:0:0:m_023.ogg
332,192,159454,1,0,0:0:0:0:m_035.ogg
25,192,159545,1,0,0:0:0:0:m_019.ogg
281,192,159545,1,0,0:0:0:0:m_031.ogg
179,192,159636,1,0,0:0:0:0:m_028.ogg
435,192,159636,1,0,0:0:0:0:m_040.ogg
128,192,159727,1,0,0:0:0:0:s_023.ogg
384,192,159727,1,0,0:0:0:0:s_035.ogg
76,192,159818,1,0,0:0:0:0:s_019.ogg
332,192,159818,1,0,0:0:0:0:s_031.ogg
128,192,159909,1,0,0:0:0:0:s_023.ogg
384,192,159909,1,0,0:0:0:0:s_035.ogg
25,192,160000,1,0,0:0:0:0:m_016.ogg
281,192,160000,1,0,0:0:0:0:m_028.ogg
128,192,160727,1,0,0:0:0:0:m_016.ogg
179,192,160727,1,0,0:0:0:0:m_019.ogg
230,192,160727,1,0,0:0:0:0:m_023.ogg
384,192,160727,1,0,0:0:0:0:m_055.ogg
435,192,160727,1,0,0:0:0:0:m_052.ogg
486,192,160727,1,0,0:0:0:0:m_064.ogg
76,192,161454,1,0,0:0:0:0:m_028.ogg
128,192,161454,1,0,0:0:0:0:m_023.ogg
179,192,161454,1,0,0:0:0:0:m_019.ogg
332,192,161454,1,0,0:0:0:0:m_043.ogg
384,192,161454,1,0,0:0:0:0:m_040.ogg
435,192,161454,1,0,0:0:0:0:m_052.ogg
