osu file format v14

[General]
AudioFilename: virtual
AudioLeadIn: 0
PreviewTime: 0
Countdown: 0
SampleSet: None
StackLeniency: 0.7
Mode: 3
LetterboxInBreaks: 0
SpecialStyle: 0
WidescreenStoryboard: 1

[Editor]
DistanceSpacing: 0.8
BeatDivisor: 8
GridSize: 16
TimelineZoom: 1.500006

[Metadata]
Title:Piano Beatmap Set
TitleUnicode:Piano Beatmap Set
Artist:Collection
ArtistUnicode:Collection
Creator:CircusGalop
Version:Liebestraum - 4K Full
Source:BMS
Tags:
BeatmapID:1349209
BeatmapSetID:332673

[Difficulty]
HPDrainRate:10
CircleSize:4
OverallDifficulty:5
ApproachRate:5
SliderMultiplier:1.4
SliderTickRate:1

[Events]
//Background and Video events
0,0,"CircusGalop.jpg",0,0
//Break Periods
//Storyboard Layer 0 (Background)
//Storyboard Layer 1 (Fail)
//Storyboard Layer 2 (Pass)
//Storyboard Layer 3 (Foreground)
//Storyboard Sound Samples
Sample,48520,0,"l_043.ogg",100
Sample,48620,0,"l_042.ogg",100
Sample,48720,0,"l_047.ogg",100
Sample,48820,0,"s_054.ogg",100
Sample,48920,0,"s_055.ogg",100
Sample,49020,0,"l_049.ogg",100
Sample,49120,0,"l_055.ogg",100
Sample,49220,0,"l_054.ogg",100
Sample,49320,0,"s_067.ogg",100
Sample,49420,0,"s_066.ogg",100
Sample,49520,0,"s_071.ogg",100
Sample,49620,0,"s_070.ogg",100
Sample,49720,0,"m_067.ogg",100
Sample,49820,0,"s_070.ogg",100
Sample,49920,0,"s_076.ogg",100
Sample,50020,0,"s_070.ogg",100
Sample,50120,0,"l_079.ogg",100
Sample,50220,0,"s_070.ogg",100
Sample,50320,0,"s_067.ogg",100
Sample,50420,0,"s_070.ogg",100
Sample,50520,0,"s_067.ogg",100
Sample,50620,0,"s_066.ogg",100
Sample,50720,0,"s_067.ogg",100
Sample,50820,0,"l_070.ogg",100
Sample,50920,0,"s_059.ogg",100
Sample,51020,0,"s_058.ogg",100
Sample,51120,0,"s_055.ogg",100
Sample,51220,0,"s_054.ogg",100
Sample,51320,0,"s_055.ogg",100
Sample,51420,0,"s_054.ogg",100
Sample,51520,0,"s_055.ogg",100
Sample,51620,0,"s_049.ogg",100
Sample,51720,0,"s_047.ogg",100
Sample,51820,0,"s_054.ogg",100
Sample,51920,0,"s_047.ogg",100
Sample,52020,0,"s_049.ogg",100
Sample,52120,0,"s_043.ogg",100
Sample,52220,0,"s_046.ogg",100
Sample,52320,0,"s_052.ogg",100
Sample,52420,0,"s_046.ogg",100
Sample,52520,0,"s_052.ogg",100
Sample,52620,0,"s_046.ogg",100
Sample,52720,0,"s_043.ogg",100
Sample,52820,0,"s_046.ogg",100
Sample,52920,0,"s_043.ogg",100
Sample,53020,0,"s_049.ogg",100
Sample,53120,0,"s_043.ogg",100
Sample,53220,0,"s_046.ogg",100
Sample,53320,0,"s_052.ogg",100
Sample,53420,0,"s_046.ogg",100
Sample,53520,0,"s_052.ogg",100
Sample,53620,0,"s_046.ogg",100
Sample,53720,0,"s_052.ogg",100
Sample,53820,0,"s_046.ogg",100
Sample,53920,0,"s_052.ogg",100
Sample,54020,0,"s_046.ogg",100
Sample,54120,0,"s_052.ogg",100
Sample,54220,0,"s_046.ogg",100
Sample,54320,0,"s_052.ogg",100
Sample,54420,0,"s_046.ogg",100
Sample,54520,0,"s_052.ogg",100
Sample,54620,0,"s_046.ogg",100
Sample,75440,0,"m_032.ogg",100
Sample,75760,0,"m_032.ogg",100
Sample,76120,0,"m_055.ogg",100
Sample,77040,0,"l_031.ogg",100
Sample,77040,0,"l_015.ogg",100
Sample,78960,0,"m_020.ogg",100
Sample,78960,0,"m_032.ogg",100
Sample,78960,0,"m_059.ogg",100
Sample,79760,0,"s_059.ogg",100
Sample,79760,0,"s_035.ogg",100
Sample,79920,0,"m_039.ogg",100
Sample,79920,0,"m_063.ogg",100
Sample,80720,0,"s_023.ogg",100
Sample,80720,0,"s_059.ogg",100
Sample,80880,0,"m_027.ogg",100
Sample,80880,0,"m_015.ogg",100
Sample,81680,0,"s_039.ogg",100
Sample,81840,0,"m_043.ogg",100
Sample,82800,0,"m_060.ogg",100
Sample,82800,0,"m_024.ogg",100
Sample,82800,0,"m_012.ogg",100
Sample,83600,0,"s_063.ogg",100
Sample,83600,0,"s_039.ogg",100
Sample,83760,0,"m_043.ogg",100
Sample,83760,0,"m_067.ogg",100
Sample,84720,0,"m_031.ogg",100
Sample,85680,0,"m_031.ogg",100
Sample,86640,0,"l_018.ogg",100
Sample,88560,0,"m_017.ogg",100
Sample,89520,0,"m_016.ogg",100
Sample,92400,0,"m_014.ogg",100
Sample,92720,0,"m_054.ogg",100
Sample,92720,0,"m_033.ogg",100
Sample,93040,0,"m_060.ogg",100
Sample,93040,0,"m_040.ogg",100
Sample,93360,0,"m_047.ogg",100
Sample,93360,0,"m_059.ogg",100
Sample,94320,0,"m_019.ogg",100
Sample,94320,0,"m_069.ogg",100
Sample,94960,0,"m_037.ogg",100
Sample,95280,0,"m_038.ogg",100
Sample,96240,0,"m_019.ogg",100
Sample,97200,0,"m_018.ogg",100
Sample,98160,0,"m_017.ogg",100
Sample,100080,0,"m_015.ogg",100
Sample,101040,0,"m_014.ogg",100
Sample,102000,0,"l_025.ogg",100
Sample,102000,0,"l_013.ogg",100
Sample,103920,0,"m_018.ogg",100
Sample,103920,0,"m_063.ogg",100
Sample,105840,0,"l_025.ogg",100
Sample,105840,0,"l_013.ogg",100
Sample,107760,0,"m_018.ogg",100
Sample,107760,0,"m_059.ogg",100
Sample,109680,0,"m_014.ogg",100
Sample,109680,0,"m_026.ogg",100
Sample,110640,0,"l_025.ogg",100
Sample,111440,0,"l_032.ogg",100
Sample,113520,0,"l_018.ogg",100
Sample,113520,0,"l_051.ogg",100
Sample,114480,0,"l_044.ogg",100
Sample,114480,0,"l_054.ogg",100
Sample,115440,0,"l_061.ogg",100
Sample,115440,0,"l_018.ogg",100
Sample,116400,0,"m_047.ogg",100
Sample,117360,0,"l_018.ogg",100
Sample,117440,0,"l_080.ogg",100
Sample,119380,0,"m_073.ogg",100
Sample,119580,0,"m_072.ogg",100
Sample,119780,0,"m_071.ogg",100
Sample,119980,0,"m_072.ogg",100
Sample,120180,0,"m_071.ogg",100
Sample,120380,0,"m_070.ogg",100
Sample,120580,0,"m_067.ogg",100
Sample,120780,0,"m_066.ogg",100
Sample,120980,0,"m_065.ogg",100
Sample,121180,0,"m_066.ogg",100
Sample,121380,0,"m_063.ogg",100
Sample,121580,0,"m_062.ogg",100
Sample,121780,0,"m_061.ogg",100
Sample,121980,0,"m_062.ogg",100
Sample,122180,0,"m_061.ogg",100
Sample,122380,0,"m_060.ogg",100
Sample,122580,0,"m_057.ogg",100
Sample,122780,0,"m_056.ogg",100
Sample,122980,0,"m_055.ogg",100
Sample,123180,0,"m_056.ogg",100
Sample,123380,0,"m_055.ogg",100
Sample,123580,0,"m_052.ogg",100
Sample,123780,0,"m_051.ogg",100
Sample,123980,0,"s_050.ogg",100
Sample,124080,0,"m_056.ogg",100
Sample,130960,0,"m_054.ogg",100
Sample,131280,0,"m_063.ogg",100
Sample,132880,0,"m_055.ogg",100
Sample,134800,0,"m_063.ogg",100
Sample,134800,0,"m_054.ogg",100
Sample,135120,0,"m_064.ogg",100
Sample,136720,0,"l_063.ogg",100
Sample,138640,0,"m_049.ogg",100
Sample,138640,0,"m_052.ogg",100
Sample,138960,0,"m_051.ogg",100
Sample,140560,0,"m_054.ogg",100
Sample,140880,0,"m_059.ogg",100
Sample,142480,0,"m_063.ogg",100
Sample,142800,0,"m_054.ogg",100
Sample,143760,0,"l_037.ogg",100
Sample,144400,0,"m_055.ogg",100
Sample,148240,0,"l_063.ogg",100
Sample,150160,0,"m_055.ogg",100
Sample,150480,0,"m_055.ogg",100
Sample,152080,0,"m_066.ogg",100
Sample,154000,0,"m_053.ogg",100
Sample,154320,0,"m_053.ogg",100
Sample,155920,0,"m_064.ogg",100
Sample,161040,0,"m_051.ogg",100
Sample,161840,0,"m_049.ogg",100
Sample,162240,0,"m_048.ogg",100
Sample,162640,0,"m_048.ogg",100
Sample,163040,0,"m_048.ogg",100
Sample,163440,0,"m_041.ogg",100
Sample,165840,0,"m_045.ogg",100
Sample,166640,0,"m_044.ogg",100
Sample,167040,0,"m_042.ogg",100
Sample,167440,0,"m_040.ogg",100
Sample,167840,0,"m_046.ogg",100
Sample,168240,0,"m_039.ogg",100
Sample,170740,0,"l_036.ogg",100
Sample,173040,0,"l_018.ogg",100

[TimingPoints]
0,320.000000000002,4,2,0,100,1,0
48320,400.000000000002,4,2,0,100,1,0
48320,-80,4,2,0,100,0,0
55920,320.000000000002,4,2,0,100,1,0
119280,400.000000000002,4,2,0,100,1,0
119280,-80,4,2,0,100,0,0
124080,320.000000000002,4,2,0,100,1,0
127920,400.000000000002,4,2,0,100,1,0
127920,-80,4,2,0,100,0,0
130320,320.000000000002,4,2,0,100,1,0
161040,400.000000000002,4,2,0,100,1,0
161040,-80,4,2,0,100,0,0

[HitObjects]
192,192,1600,5,0,0:0:0:0:m_030.ogg
320,192,1920,1,0,0:0:0:0:l_023.ogg
448,192,1920,1,0,0:0:0:0:m_039.ogg
64,192,2080,1,0,0:0:0:0:m_042.ogg
192,192,2240,1,0,0:0:0:0:m_047.ogg
448,192,2400,1,0,0:0:0:0:m_051.ogg
192,192,2560,1,0,0:0:0:0:m_047.ogg
64,192,2720,1,0,0:0:0:0:m_042.ogg
448,192,2880,1,0,0:0:0:0:m_039.ogg
64,192,3040,1,0,0:0:0:0:m_042.ogg
192,192,3200,1,0,0:0:0:0:m_047.ogg
448,192,3360,1,0,0:0:0:0:m_051.ogg
192,192,3520,1,0,0:0:0:0:m_047.ogg
64,192,3680,1,0,0:0:0:0:s_042.ogg
320,192,3840,1,0,0:0:0:0:l_022.ogg
448,192,3840,1,0,0:0:0:0:l_039.ogg
64,192,4000,1,0,0:0:0:0:m_043.ogg
320,192,4160,1,0,0:0:0:0:m_049.ogg
448,192,4320,1,0,0:0:0:0:m_051.ogg
320,192,4480,1,0,0:0:0:0:m_049.ogg
64,192,4640,1,0,0:0:0:0:m_043.ogg
64,192,4960,1,0,0:0:0:0:m_043.ogg
320,192,5120,1,0,0:0:0:0:m_049.ogg
448,192,5280,1,0,0:0:0:0:m_051.ogg
192,192,5440,1,0,0:0:0:0:m_039.ogg
320,192,5440,1,0,0:0:0:0:m_049.ogg
64,192,5600,1,0,0:0:0:0:s_043.ogg
320,192,5760,1,0,0:0:0:0:m_020.ogg
448,192,5760,1,0,0:0:0:0:m_039.ogg
64,192,5920,1,0,0:0:0:0:m_042.ogg
192,192,6080,1,0,0:0:0:0:m_048.ogg
448,192,6240,1,0,0:0:0:0:m_051.ogg
192,192,6400,1,0,0:0:0:0:m_048.ogg
320,192,6400,1,0,0:0:0:0:m_039.ogg
64,192,6560,1,0,0:0:0:0:s_042.ogg
448,192,6720,1,0,0:0:0:0:m_040.ogg
64,192,6880,1,0,0:0:0:0:m_042.ogg
192,192,7040,1,0,0:0:0:0:m_048.ogg
448,192,7200,1,0,0:0:0:0:m_051.ogg
192,192,7360,1,0,0:0:0:0:m_048.ogg
320,192,7360,1,0,0:0:0:0:m_039.ogg
64,192,7520,1,0,0:0:0:0:s_042.ogg
64,192,7680,1,0,0:0:0:0:l_013.ogg
320,192,7680,1,0,0:0:0:0:l_039.ogg
192,192,7840,1,0,0:0:0:0:m_041.ogg
320,192,8000,1,0,0:0:0:0:m_047.ogg
448,192,8160,1,0,0:0:0:0:m_051.ogg
320,192,8320,1,0,0:0:0:0:m_047.ogg
192,192,8480,1,0,0:0:0:0:m_041.ogg
64,192,8640,1,0,0:0:0:0:m_032.ogg
192,192,8800,1,0,0:0:0:0:s_041.ogg
320,192,8960,1,0,0:0:0:0:m_047.ogg
448,192,9120,1,0,0:0:0:0:m_051.ogg
64,192,9280,1,0,0:0:0:0:m_032.ogg
320,192,9280,1,0,0:0:0:0:m_047.ogg
192,192,9440,1,0,0:0:0:0:s_041.ogg
320,192,9600,1,0,0:0:0:0:m_018.ogg
448,192,9640,1,0,0:0:0:0:m_032.ogg
64,192,9760,1,0,0:0:0:0:s_040.ogg
192,192,9920,1,0,0:0:0:0:s_042.ogg
320,192,9920,1,0,0:0:0:0:m_034.ogg
448,192,10080,1,0,0:0:0:0:s_051.ogg
192,192,10240,1,0,0:0:0:0:s_042.ogg
448,192,10240,1,0,0:0:0:0:m_035.ogg
64,192,10400,1,0,0:0:0:0:s_040.ogg
320,192,10560,1,0,0:0:0:0:m_030.ogg
448,192,10600,1,0,0:0:0:0:m_039.ogg
192,192,10720,1,0,0:0:0:0:m_040.ogg
320,192,10880,1,0,0:0:0:0:m_042.ogg
448,192,11040,1,0,0:0:0:0:m_046.ogg
64,192,11200,1,0,0:0:0:0:m_037.ogg
320,192,11200,1,0,0:0:0:0:m_042.ogg
192,192,11360,1,0,0:0:0:0:s_040.ogg
64,192,11520,1,0,0:0:0:0:l_023.ogg
448,192,11520,1,0,0:0:0:0:l_035.ogg
192,192,11680,1,0,0:0:0:0:m_039.ogg
320,192,11840,1,0,0:0:0:0:m_042.ogg
448,192,12000,1,0,0:0:0:0:m_047.ogg
320,192,12160,1,0,0:0:0:0:m_042.ogg
64,192,12320,1,0,0:0:0:0:m_039.ogg
448,192,12480,1,0,0:0:0:0:m_011.ogg
64,192,12640,1,0,0:0:0:0:m_035.ogg
192,192,12800,1,0,0:0:0:0:m_039.ogg
448,192,12960,1,0,0:0:0:0:s_047.ogg
192,192,13120,1,0,0:0:0:0:m_030.ogg
320,192,13120,1,0,0:0:0:0:m_042.ogg
64,192,13280,1,0,0:0:0:0:s_035.ogg
192,192,13440,1,0,0:0:0:0:l_023.ogg
448,192,13480,1,0,0:0:0:0:m_039.ogg
64,192,13600,1,0,0:0:0:0:m_042.ogg
192,192,13760,1,0,0:0:0:0:m_047.ogg
448,192,13920,1,0,0:0:0:0:m_051.ogg
192,192,14080,1,0,0:0:0:0:m_047.ogg
64,192,14240,1,0,0:0:0:0:m_042.ogg
448,192,14400,1,0,0:0:0:0:m_039.ogg
64,192,14560,1,0,0:0:0:0:m_042.ogg
192,192,14720,1,0,0:0:0:0:m_047.ogg
448,192,14880,1,0,0:0:0:0:m_051.ogg
192,192,15040,1,0,0:0:0:0:m_047.ogg
64,192,15200,1,0,0:0:0:0:s_042.ogg
320,192,15360,1,0,0:0:0:0:m_022.ogg
448,192,15360,1,0,0:0:0:0:l_039.ogg
64,192,15520,1,0,0:0:0:0:m_043.ogg
320,192,15680,1,0,0:0:0:0:m_049.ogg
448,192,15840,1,0,0:0:0:0:m_051.ogg
320,192,16000,1,0,0:0:0:0:m_049.ogg
64,192,16160,1,0,0:0:0:0:s_043.ogg
448,192,16320,1,0,0:0:0:0:m_021.ogg
64,192,16480,1,0,0:0:0:0:m_043.ogg
320,192,16640,1,0,0:0:0:0:m_049.ogg
448,192,16800,1,0,0:0:0:0:m_051.ogg
192,192,16960,1,0,0:0:0:0:m_039.ogg
320,192,16960,1,0,0:0:0:0:m_049.ogg
64,192,17120,1,0,0:0:0:0:s_043.ogg
320,192,17280,1,0,0:0:0:0:m_039.ogg
448,192,17280,1,0,0:0:0:0:l_020.ogg
64,192,17440,1,0,0:0:0:0:m_042.ogg
192,192,17600,1,0,0:0:0:0:m_048.ogg
448,192,17760,1,0,0:0:0:0:m_051.ogg
192,192,17920,1,0,0:0:0:0:s_048.ogg
320,192,17920,1,0,0:0:0:0:m_039.ogg
64,192,18080,1,0,0:0:0:0:m_042.ogg
192,192,18240,1,0,0:0:0:0:m_032.ogg
320,192,18266,1,0,0:0:0:0:m_036.ogg
448,192,18293,1,0,0:0:0:0:m_040.ogg
64,192,18400,1,0,0:0:0:0:m_042.ogg
192,192,18560,1,0,0:0:0:0:m_048.ogg
448,192,18720,1,0,0:0:0:0:s_051.ogg
192,192,18880,1,0,0:0:0:0:s_048.ogg
320,192,18880,1,0,0:0:0:0:m_039.ogg
64,192,19040,1,0,0:0:0:0:s_042.ogg
192,192,19200,1,0,0:0:0:0:l_025.ogg
448,192,19240,1,0,0:0:0:0:l_044.ogg
64,192,19360,1,0,0:0:0:0:l_041.ogg
192,192,19520,1,0,0:0:0:0:m_047.ogg
448,192,19680,1,0,0:0:0:0:m_056.ogg
320,192,19840,1,0,0:0:0:0:m_051.ogg
192,192,20000,1,0,0:0:0:0:m_047.ogg
448,192,20160,1,0,0:0:0:0:m_013.ogg
64,192,20320,1,0,0:0:0:0:s_035.ogg
192,192,20480,1,0,0:0:0:0:m_037.ogg
448,192,20640,1,0,0:0:0:0:m_044.ogg
64,192,20800,1,0,0:0:0:0:m_032.ogg
320,192,20800,1,0,0:0:0:0:m_041.ogg
192,192,20960,1,0,0:0:0:0:s_037.ogg
320,192,21120,1,0,0:0:0:0:m_018.ogg
448,192,21160,1,0,0:0:0:0:m_032.ogg
64,192,21280,1,0,0:0:0:0:s_037.ogg
192,192,21440,1,0,0:0:0:0:s_040.ogg
320,192,21440,1,0,0:0:0:0:m_034.ogg
448,192,21600,1,0,0:0:0:0:s_046.ogg
320,192,21760,1,0,0:0:0:0:s_042.ogg
448,192,21760,1,0,0:0:0:0:m_035.ogg
192,192,21920,1,0,0:0:0:0:s_040.ogg
64,192,22080,1,0,0:0:0:0:m_030.ogg
448,192,22080,1,0,0:0:0:0:m_039.ogg
192,192,22240,1,0,0:0:0:0:m_040.ogg
320,192,22400,1,0,0:0:0:0:m_042.ogg
448,192,22560,1,0,0:0:0:0:m_046.ogg
64,192,22720,1,0,0:0:0:0:m_037.ogg
320,192,22720,1,0,0:0:0:0:m_042.ogg
192,192,22880,1,0,0:0:0:0:s_040.ogg
64,192,23040,1,0,0:0:0:0:l_023.ogg
448,192,23040,1,0,0:0:0:0:l_035.ogg
64,192,23200,1,0,0:0:0:0:m_039.ogg
192,192,23360,1,0,0:0:0:0:m_042.ogg
320,192,23520,1,0,0:0:0:0:m_047.ogg
192,192,23680,1,0,0:0:0:0:m_042.ogg
64,192,23840,1,0,0:0:0:0:m_039.ogg
448,192,24000,1,0,0:0:0:0:m_011.ogg
64,192,24160,1,0,0:0:0:0:m_039.ogg
320,192,24320,1,0,0:0:0:0:m_047.ogg
192,192,24480,1,0,0:0:0:0:m_042.ogg
64,192,24640,1,0,0:0:0:0:m_039.ogg
320,192,24800,1,0,0:0:0:0:s_035.ogg
64,192,24960,1,0,0:0:0:0:m_019.ogg
320,192,25000,1,0,0:0:0:0:m_035.ogg
192,192,25120,1,0,0:0:0:0:m_040.ogg
448,192,25280,1,0,0:0:0:0:m_047.ogg
320,192,25440,1,0,0:0:0:0:m_043.ogg
192,192,25600,1,0,0:0:0:0:m_040.ogg
448,192,25760,1,0,0:0:0:0:s_034.ogg
64,192,25920,1,0,0:0:0:0:m_035.ogg
320,192,25920,1,0,0:0:0:0:m_016.ogg
448,192,25960,1,0,0:0:0:0:m_031.ogg
192,192,26080,1,0,0:0:0:0:m_040.ogg
448,192,26240,1,0,0:0:0:0:m_047.ogg
320,192,26400,1,0,0:0:0:0:m_043.ogg
192,192,26560,1,0,0:0:0:0:m_040.ogg
320,192,26720,1,0,0:0:0:0:s_037.ogg
64,192,26880,1,0,0:0:0:0:m_039.ogg
320,192,26880,1,0,0:0:0:0:l_023.ogg
448,192,26880,1,0,0:0:0:0:l_030.ogg
192,192,27040,1,0,0:0:0:0:m_042.ogg
448,192,27200,1,0,0:0:0:0:m_051.ogg
320,192,27360,1,0,0:0:0:0:m_047.ogg
192,192,27520,1,0,0:0:0:0:m_042.ogg
64,192,27680,1,0,0:0:0:0:m_039.ogg
320,192,27840,1,0,0:0:0:0:m_011.ogg
192,192,28000,1,0,0:0:0:0:m_042.ogg
448,192,28160,1,0,0:0:0:0:m_051.ogg
320,192,28320,1,0,0:0:0:0:m_047.ogg
192,192,28480,1,0,0:0:0:0:m_042.ogg
320,192,28640,1,0,0:0:0:0:s_039.ogg
64,192,28800,1,0,0:0:0:0:m_023.ogg
320,192,28840,1,0,0:0:0:0:m_039.ogg
192,192,28960,1,0,0:0:0:0:m_044.ogg
448,192,29120,1,0,0:0:0:0:m_051.ogg
320,192,29280,1,0,0:0:0:0:m_047.ogg
192,192,29440,1,0,0:0:0:0:m_044.ogg
320,192,29600,1,0,0:0:0:0:s_038.ogg
64,192,29760,1,0,0:0:0:0:m_039.ogg
320,192,29760,1,0,0:0:0:0:m_035.ogg
448,192,29760,1,0,0:0:0:0:m_020.ogg
192,192,29920,1,0,0:0:0:0:m_044.ogg
448,192,30080,1,0,0:0:0:0:m_051.ogg
320,192,30240,1,0,0:0:0:0:m_047.ogg
192,192,30400,1,0,0:0:0:0:m_044.ogg
448,192,30560,1,0,0:0:0:0:s_041.ogg
64,192,30720,1,0,0:0:0:0:m_043.ogg
320,192,30720,1,0,0:0:0:0:l_015.ogg
448,192,30760,1,0,0:0:0:0:l_034.ogg
192,192,30880,1,0,0:0:0:0:m_046.ogg
320,192,31040,1,0,0:0:0:0:m_051.ogg
448,192,31200,1,0,0:0:0:0:m_055.ogg
320,192,31360,1,0,0:0:0:0:m_051.ogg
192,192,31520,1,0,0:0:0:0:m_046.ogg
64,192,31680,1,0,0:0:0:0:m_043.ogg
192,192,31840,1,0,0:0:0:0:m_046.ogg
320,192,32000,1,0,0:0:0:0:m_051.ogg
448,192,32160,1,0,0:0:0:0:m_055.ogg
320,192,32320,1,0,0:0:0:0:m_051.ogg
192,192,32480,1,0,0:0:0:0:s_046.ogg
64,192,32640,1,0,0:0:0:0:m_043.ogg
448,192,32640,1,0,0:0:0:0:l_024.ogg
192,192,32666,1,0,0:0:0:0:l_031.ogg
320,192,32693,1,0,0:0:0:0:l_039.ogg
64,192,32800,1,0,0:0:0:0:m_048.ogg
192,192,32960,1,0,0:0:0:0:m_051.ogg
448,192,33120,1,0,0:0:0:0:m_055.ogg
320,192,33280,1,0,0:0:0:0:m_051.ogg
192,192,33440,1,0,0:0:0:0:m_048.ogg
64,192,33600,1,0,0:0:0:0:m_043.ogg
192,192,33760,1,0,0:0:0:0:m_048.ogg
320,192,33920,1,0,0:0:0:0:m_051.ogg
448,192,34080,1,0,0:0:0:0:m_055.ogg
320,192,34240,1,0,0:0:0:0:m_051.ogg
192,192,34400,1,0,0:0:0:0:s_048.ogg
64,192,34560,1,0,0:0:0:0:l_043.ogg
448,192,34560,1,0,0:0:0:0:l_019.ogg
192,192,34586,1,0,0:0:0:0:l_026.ogg
320,192,34613,1,0,0:0:0:0:l_035.ogg
64,192,34720,1,0,0:0:0:0:m_047.ogg
192,192,34880,1,0,0:0:0:0:m_050.ogg
448,192,35040,1,0,0:0:0:0:l_055.ogg
320,192,35200,1,0,0:0:0:0:m_050.ogg
192,192,35360,1,0,0:0:0:0:m_047.ogg
448,192,35520,1,0,0:0:0:0:m_038.ogg
192,192,35680,1,0,0:0:0:0:m_043.ogg
320,192,35840,1,0,0:0:0:0:m_047.ogg
448,192,36000,1,0,0:0:0:0:m_050.ogg
320,192,36160,1,0,0:0:0:0:m_047.ogg
192,192,36320,1,0,0:0:0:0:s_043.ogg
64,192,36480,1,0,0:0:0:0:m_040.ogg
320,192,36480,1,0,0:0:0:0:l_019.ogg
448,192,36520,1,0,0:0:0:0:l_035.ogg
192,192,36640,1,0,0:0:0:0:m_043.ogg
320,192,36800,1,0,0:0:0:0:m_047.ogg
448,192,36960,1,0,0:0:0:0:l_052.ogg
320,192,37120,1,0,0:0:0:0:m_047.ogg
192,192,37280,1,0,0:0:0:0:m_043.ogg
448,192,37440,1,0,0:0:0:0:s_040.ogg
192,192,37600,1,0,0:0:0:0:m_040.ogg
320,192,37760,1,0,0:0:0:0:m_043.ogg
448,192,37920,1,0,0:0:0:0:m_047.ogg
64,192,38080,1,0,0:0:0:0:m_035.ogg
320,192,38080,1,0,0:0:0:0:m_043.ogg
192,192,38240,1,0,0:0:0:0:s_040.ogg
64,192,38400,1,0,0:0:0:0:m_037.ogg
320,192,38400,1,0,0:0:0:0:m_018.ogg
448,192,38440,1,0,0:0:0:0:m_034.ogg
192,192,38560,1,0,0:0:0:0:m_042.ogg
320,192,38720,1,0,0:0:0:0:m_046.ogg
448,192,38880,1,0,0:0:0:0:m_049.ogg
320,192,39040,1,0,0:0:0:0:m_046.ogg
192,192,39200,1,0,0:0:0:0:s_042.ogg
64,192,39360,1,0,0:0:0:0:m_040.ogg
320,192,39360,1,0,0:0:0:0:m_019.ogg
448,192,39360,1,0,0:0:0:0:m_035.ogg
192,192,39520,1,0,0:0:0:0:m_043.ogg
320,192,39680,1,0,0:0:0:0:m_047.ogg
448,192,39840,1,0,0:0:0:0:m_052.ogg
64,192,40000,1,0,0:0:0:0:m_038.ogg
320,192,40000,1,0,0:0:0:0:m_047.ogg
192,192,40160,1,0,0:0:0:0:s_043.ogg
64,192,40320,1,0,0:0:0:0:m_034.ogg
320,192,40320,1,0,0:0:0:0:m_018.ogg
448,192,40320,1,0,0:0:0:0:m_037.ogg
192,192,40480,1,0,0:0:0:0:m_042.ogg
64,192,40640,1,0,0:0:0:0:m_036.ogg
320,192,40640,1,0,0:0:0:0:m_046.ogg
448,192,40800,1,0,0:0:0:0:m_049.ogg
192,192,40960,1,0,0:0:0:0:m_037.ogg
320,192,40960,1,0,0:0:0:0:m_046.ogg
192,192,41120,1,0,0:0:0:0:s_042.ogg
64,192,41280,1,0,0:0:0:0:m_040.ogg
320,192,41280,1,0,0:0:0:0:m_019.ogg
448,192,41320,1,0,0:0:0:0:m_035.ogg
192,192,41440,1,0,0:0:0:0:m_043.ogg
320,192,41600,1,0,0:0:0:0:m_047.ogg
448,192,41760,1,0,0:0:0:0:m_052.ogg
64,192,41920,1,0,0:0:0:0:m_038.ogg
320,192,41920,1,0,0:0:0:0:m_047.ogg
192,192,42080,1,0,0:0:0:0:s_043.ogg
192,192,42240,1,0,0:0:0:0:m_037.ogg
320,192,42240,1,0,0:0:0:0:m_034.ogg
448,192,42240,1,0,0:0:0:0:m_018.ogg
64,192,42400,1,0,0:0:0:0:m_042.ogg
192,192,42560,1,0,0:0:0:0:m_046.ogg
320,192,42560,1,0,0:0:0:0:m_036.ogg
320,192,42720,1,0,0:0:0:0:m_049.ogg
192,192,42880,1,0,0:0:0:0:m_046.ogg
448,192,42880,1,0,0:0:0:0:m_037.ogg
64,192,43040,1,0,0:0:0:0:s_042.ogg
64,192,43200,1,0,0:0:0:0:m_016.ogg
320,192,43200,1,0,0:0:0:0:m_028.ogg
448,192,43200,1,0,0:0:0:0:m_043.ogg
192,192,43360,1,0,0:0:0:0:m_047.ogg
64,192,43520,1,0,0:0:0:0:m_035.ogg
320,192,43520,1,0,0:0:0:0:m_049.ogg
448,192,43680,1,0,0:0:0:0:m_055.ogg
64,192,43840,1,0,0:0:0:0:m_037.ogg
320,192,43840,1,0,0:0:0:0:m_049.ogg
192,192,44000,1,0,0:0:0:0:s_047.ogg
64,192,44160,1,0,0:0:0:0:m_043.ogg
448,192,44480,1,0,0:0:0:0:m_042.ogg
320,192,44800,1,0,0:0:0:0:m_040.ogg
192,192,45120,1,0,0:0:0:0:m_038.ogg
64,192,45440,1,0,0:0:0:0:m_037.ogg
320,192,45760,1,0,0:0:0:0:m_035.ogg
192,192,46080,1,0,0:0:0:0:m_034.ogg
64,192,47040,1,0,0:0:0:0:l_018.ogg
192,192,47200,1,0,0:0:0:0:l_025.ogg
320,192,47360,1,0,0:0:0:0:l_028.ogg
448,192,47520,1,0,0:0:0:0:l_034.ogg
64,192,47680,1,0,0:0:0:0:l_037.ogg
192,192,47840,1,0,0:0:0:0:l_040.ogg
320,192,48000,1,0,0:0:0:0:m_043.ogg
192,192,48160,1,0,0:0:0:0:m_042.ogg
320,192,48320,1,0,0:0:0:0:s_047.ogg
448,192,48320,1,0,0:0:0:0:s_043.ogg
64,192,48420,1,0,0:0:0:0:s_046.ogg
192,192,48420,1,0,0:0:0:0:s_042.ogg
320,192,48520,1,0,0:0:0:0:s_047.ogg
448,192,48520,1,0,0:0:0:0:s_052.ogg
64,192,48620,1,0,0:0:0:0:s_049.ogg
192,192,48620,1,0,0:0:0:0:s_046.ogg
64,192,48720,1,0,0:0:0:0:s_055.ogg
448,192,48720,1,0,0:0:0:0:s_052.ogg
192,192,48820,1,0,0:0:0:0:l_046.ogg
320,192,48820,1,0,0:0:0:0:s_049.ogg
64,192,48920,1,0,0:0:0:0:s_059.ogg
448,192,48920,1,0,0:0:0:0:l_052.ogg
192,192,49020,1,0,0:0:0:0:s_058.ogg
320,192,49020,1,0,0:0:0:0:s_054.ogg
64,192,49120,1,0,0:0:0:0:s_059.ogg
192,192,49120,1,0,0:0:0:0:s_064.ogg
320,192,49220,1,0,0:0:0:0:s_058.ogg
448,192,49220,1,0,0:0:0:0:s_061.ogg
64,192,49320,1,0,0:0:0:0:l_059.ogg
192,192,49320,1,0,0:0:0:0:s_064.ogg
320,192,49420,1,0,0:0:0:0:l_058.ogg
448,192,49420,1,0,0:0:0:0:s_061.ogg
192,192,49520,1,0,0:0:0:0:s_067.ogg
320,192,49520,1,0,0:0:0:0:m_064.ogg
64,192,49620,1,0,0:0:0:0:s_066.ogg
448,192,49620,1,0,0:0:0:0:m_061.ogg
192,192,49720,1,0,0:0:0:0:s_076.ogg
320,192,49720,1,0,0:0:0:0:s_071.ogg
64,192,49820,1,0,0:0:0:0:s_073.ogg
448,192,49820,1,0,0:0:0:0:m_066.ogg
320,192,49920,1,0,0:0:0:0:s_071.ogg
448,192,49920,1,0,0:0:0:0:s_079.ogg
64,192,50020,1,0,0:0:0:0:s_073.ogg
192,192,50020,1,0,0:0:0:0:s_078.ogg
320,192,50120,1,0,0:0:0:0:s_076.ogg
448,192,50120,1,0,0:0:0:0:s_071.ogg
64,192,50220,1,0,0:0:0:0:l_078.ogg
192,192,50220,1,0,0:0:0:0:s_073.ogg
192,192,50320,1,0,0:0:0:0:s_071.ogg
320,192,50320,1,0,0:0:0:0:l_076.ogg
64,192,50420,1,0,0:0:0:0:l_073.ogg
448,192,50420,1,0,0:0:0:0:s_066.ogg
192,192,50520,1,0,0:0:0:0:s_071.ogg
320,192,50520,1,0,0:0:0:0:s_064.ogg
64,192,50620,1,0,0:0:0:0:s_061.ogg
448,192,50620,1,0,0:0:0:0:s_070.ogg
192,192,50720,1,0,0:0:0:0:l_071.ogg
320,192,50720,1,0,0:0:0:0:s_064.ogg
64,192,50820,1,0,0:0:0:0:s_061.ogg
448,192,50820,1,0,0:0:0:0:s_066.ogg
64,192,50920,1,0,0:0:0:0:s_064.ogg
192,192,50920,1,0,0:0:0:0:l_067.ogg
320,192,51020,1,0,0:0:0:0:l_066.ogg
448,192,51020,1,0,0:0:0:0:s_061.ogg
64,192,51120,1,0,0:0:0:0:s_059.ogg
192,192,51120,1,0,0:0:0:0:s_064.ogg
320,192,51220,1,0,0:0:0:0:s_058.ogg
448,192,51220,1,0,0:0:0:0:s_061.ogg
64,192,51320,1,0,0:0:0:0:s_059.ogg
192,192,51320,1,0,0:0:0:0:l_064.ogg
320,192,51420,1,0,0:0:0:0:s_058.ogg
448,192,51420,1,0,0:0:0:0:l_061.ogg
64,192,51520,1,0,0:0:0:0:l_059.ogg
448,192,51520,1,0,0:0:0:0:s_052.ogg
192,192,51620,1,0,0:0:0:0:s_054.ogg
320,192,51620,1,0,0:0:0:0:l_058.ogg
64,192,51720,1,0,0:0:0:0:s_052.ogg
448,192,51720,1,0,0:0:0:0:s_055.ogg
192,192,51820,1,0,0:0:0:0:s_049.ogg
320,192,51820,1,0,0:0:0:0:s_046.ogg
64,192,51920,1,0,0:0:0:0:s_052.ogg
448,192,51920,1,0,0:0:0:0:l_055.ogg
192,192,52020,1,0,0:0:0:0:l_054.ogg
320,192,52020,1,0,0:0:0:0:s_046.ogg
320,192,52120,1,0,0:0:0:0:s_047.ogg
448,192,52120,1,0,0:0:0:0:s_052.ogg
64,192,52220,1,0,0:0:0:0:s_042.ogg
192,192,52220,1,0,0:0:0:0:s_049.ogg
320,192,52320,1,0,0:0:0:0:s_043.ogg
448,192,52320,1,0,0:0:0:0:s_047.ogg
64,192,52420,1,0,0:0:0:0:s_042.ogg
192,192,52420,1,0,0:0:0:0:s_049.ogg
320,192,52520,1,0,0:0:0:0:s_043.ogg
448,192,52520,1,0,0:0:0:0:s_047.ogg
64,192,52620,1,0,0:0:0:0:s_042.ogg
192,192,52620,1,0,0:0:0:0:s_049.ogg
320,192,52720,1,0,0:0:0:0:s_052.ogg
448,192,52720,1,0,0:0:0:0:s_047.ogg
64,192,52820,1,0,0:0:0:0:s_049.ogg
192,192,52820,1,0,0:0:0:0:s_042.ogg
320,192,52920,1,0,0:0:0:0:s_052.ogg
448,192,52920,1,0,0:0:0:0:s_047.ogg
64,192,53020,1,0,0:0:0:0:s_046.ogg
192,192,53020,1,0,0:0:0:0:s_042.ogg
320,192,53120,1,0,0:0:0:0:s_052.ogg
448,192,53120,1,0,0:0:0:0:s_047.ogg
64,192,53220,1,0,0:0:0:0:s_042.ogg
192,192,53220,1,0,0:0:0:0:s_049.ogg
320,192,53320,1,0,0:0:0:0:s_043.ogg
448,192,53320,1,0,0:0:0:0:s_047.ogg
64,192,53420,1,0,0:0:0:0:s_042.ogg
192,192,53420,1,0,0:0:0:0:s_049.ogg
320,192,53520,1,0,0:0:0:0:s_043.ogg
448,192,53520,1,0,0:0:0:0:s_047.ogg
64,192,53620,1,0,0:0:0:0:s_042.ogg
192,192,53620,1,0,0:0:0:0:s_049.ogg
320,192,53720,1,0,0:0:0:0:s_043.ogg
448,192,53720,1,0,0:0:0:0:s_047.ogg
64,192,53820,1,0,0:0:0:0:s_042.ogg
192,192,53820,1,0,0:0:0:0:s_049.ogg
320,192,53920,1,0,0:0:0:0:s_043.ogg
448,192,53920,1,0,0:0:0:0:s_047.ogg
64,192,54020,1,0,0:0:0:0:s_042.ogg
192,192,54020,1,0,0:0:0:0:s_049.ogg
320,192,54120,1,0,0:0:0:0:s_043.ogg
448,192,54120,1,0,0:0:0:0:s_047.ogg
64,192,54220,1,0,0:0:0:0:s_042.ogg
192,192,54220,1,0,0:0:0:0:s_049.ogg
320,192,54320,1,0,0:0:0:0:s_043.ogg
448,192,54320,1,0,0:0:0:0:s_047.ogg
64,192,54420,1,0,0:0:0:0:s_042.ogg
192,192,54420,1,0,0:0:0:0:s_049.ogg
320,192,54520,1,0,0:0:0:0:s_043.ogg
448,192,54520,1,0,0:0:0:0:s_047.ogg
64,192,54620,1,0,0:0:0:0:s_042.ogg
192,192,54620,1,0,0:0:0:0:s_049.ogg
320,192,55520,1,0,0:0:0:0:m_053.ogg
64,192,55920,1,0,0:0:0:0:l_026.ogg
448,192,55920,1,0,0:0:0:0:m_054.ogg
64,192,56080,1,0,0:0:0:0:m_042.ogg
192,192,56080,1,0,0:0:0:0:m_033.ogg
64,192,56240,1,0,0:0:0:0:m_045.ogg
320,192,56240,1,0,0:0:0:0:m_038.ogg
192,192,56400,1,0,0:0:0:0:m_050.ogg
448,192,56400,1,0,0:0:0:0:m_042.ogg
64,192,56560,1,0,0:0:0:0:m_045.ogg
320,192,56560,1,0,0:0:0:0:m_038.ogg
64,192,56720,1,0,0:0:0:0:m_042.ogg
192,192,56720,1,0,0:0:0:0:m_033.ogg
448,192,56880,1,0,0:0:0:0:m_054.ogg
64,192,57040,1,0,0:0:0:0:m_042.ogg
192,192,57040,1,0,0:0:0:0:m_033.ogg
64,192,57200,1,0,0:0:0:0:m_045.ogg
320,192,57200,1,0,0:0:0:0:m_038.ogg
192,192,57360,1,0,0:0:0:0:m_050.ogg
448,192,57360,1,0,0:0:0:0:m_042.ogg
64,192,57520,1,0,0:0:0:0:m_045.ogg
320,192,57520,1,0,0:0:0:0:m_038.ogg
64,192,57680,1,0,0:0:0:0:s_042.ogg
192,192,57680,1,0,0:0:0:0:s_033.ogg
320,192,57840,1,0,0:0:0:0:l_025.ogg
448,192,57840,1,0,0:0:0:0:l_054.ogg
64,192,58000,1,0,0:0:0:0:m_034.ogg
320,192,58000,1,0,0:0:0:0:m_042.ogg
192,192,58160,1,0,0:0:0:0:m_040.ogg
448,192,58160,1,0,0:0:0:0:m_046.ogg
320,192,58320,1,0,0:0:0:0:m_042.ogg
448,192,58320,1,0,0:0:0:0:m_052.ogg
192,192,58480,1,0,0:0:0:0:m_040.ogg
448,192,58480,1,0,0:0:0:0:m_046.ogg
64,192,58640,1,0,0:0:0:0:m_034.ogg
320,192,58640,1,0,0:0:0:0:m_042.ogg
64,192,58960,1,0,0:0:0:0:m_042.ogg
320,192,58960,1,0,0:0:0:0:m_034.ogg
192,192,59120,1,0,0:0:0:0:m_046.ogg
448,192,59120,1,0,0:0:0:0:m_040.ogg
320,192,59280,1,0,0:0:0:0:m_052.ogg
448,192,59280,1,0,0:0:0:0:m_042.ogg
64,192,59440,1,0,0:0:0:0:m_040.ogg
192,192,59440,1,0,0:0:0:0:m_046.ogg
448,192,59440,1,0,0:0:0:0:m_054.ogg
64,192,59600,1,0,0:0:0:0:s_042.ogg
320,192,59600,1,0,0:0:0:0:s_034.ogg
320,192,59760,1,0,0:0:0:0:m_024.ogg
448,192,59760,1,0,0:0:0:0:m_054.ogg
64,192,59920,1,0,0:0:0:0:m_042.ogg
192,192,59920,1,0,0:0:0:0:m_033.ogg
64,192,60080,1,0,0:0:0:0:m_045.ogg
320,192,60080,1,0,0:0:0:0:m_040.ogg
192,192,60240,1,0,0:0:0:0:m_052.ogg
448,192,60240,1,0,0:0:0:0:m_042.ogg
64,192,60400,1,0,0:0:0:0:m_054.ogg
320,192,60400,1,0,0:0:0:0:m_045.ogg
448,192,60400,1,0,0:0:0:0:m_040.ogg
64,192,60560,1,0,0:0:0:0:s_042.ogg
192,192,60560,1,0,0:0:0:0:s_033.ogg
320,192,60720,1,0,0:0:0:0:m_055.ogg
448,192,60720,1,0,0:0:0:0:m_023.ogg
64,192,60880,1,0,0:0:0:0:m_042.ogg
192,192,60880,1,0,0:0:0:0:m_033.ogg
64,192,61040,1,0,0:0:0:0:m_045.ogg
320,192,61040,1,0,0:0:0:0:m_039.ogg
192,192,61200,1,0,0:0:0:0:m_042.ogg
448,192,61200,1,0,0:0:0:0:m_051.ogg
64,192,61360,1,0,0:0:0:0:m_045.ogg
320,192,61360,1,0,0:0:0:0:m_054.ogg
448,192,61360,1,0,0:0:0:0:m_039.ogg
64,192,61520,1,0,0:0:0:0:s_042.ogg
192,192,61520,1,0,0:0:0:0:s_033.ogg
320,192,61680,1,0,0:0:0:0:m_016.ogg
448,192,61680,1,0,0:0:0:0:m_054.ogg
64,192,61840,1,0,0:0:0:0:m_042.ogg
192,192,61840,1,0,0:0:0:0:m_032.ogg
192,192,62000,1,0,0:0:0:0:m_044.ogg
320,192,62000,1,0,0:0:0:0:m_038.ogg
320,192,62160,1,0,0:0:0:0:m_050.ogg
448,192,62160,1,0,0:0:0:0:m_042.ogg
192,192,62320,1,0,0:0:0:0:m_044.ogg
320,192,62320,1,0,0:0:0:0:m_038.ogg
64,192,62480,1,0,0:0:0:0:s_042.ogg
192,192,62480,1,0,0:0:0:0:s_032.ogg
448,192,62640,1,0,0:0:0:0:m_047.ogg
64,192,62800,1,0,0:0:0:0:m_038.ogg
192,192,62800,1,0,0:0:0:0:m_028.ogg
64,192,62960,1,0,0:0:0:0:m_040.ogg
320,192,62960,1,0,0:0:0:0:m_032.ogg
192,192,63120,1,0,0:0:0:0:m_044.ogg
448,192,63120,1,0,0:0:0:0:m_038.ogg
64,192,63280,1,0,0:0:0:0:m_040.ogg
320,192,63280,1,0,0:0:0:0:m_047.ogg
448,192,63280,1,0,0:0:0:0:m_032.ogg
64,192,63440,1,0,0:0:0:0:s_038.ogg
192,192,63440,1,0,0:0:0:0:s_028.ogg
320,192,63600,1,0,0:0:0:0:m_047.ogg
448,192,63600,1,0,0:0:0:0:m_021.ogg
64,192,63760,1,0,0:0:0:0:m_040.ogg
192,192,63760,1,0,0:0:0:0:m_031.ogg
64,192,63920,1,0,0:0:0:0:m_043.ogg
320,192,63920,1,0,0:0:0:0:m_049.ogg
448,192,63920,1,0,0:0:0:0:m_033.ogg
192,192,64080,1,0,0:0:0:0:m_045.ogg
448,192,64080,1,0,0:0:0:0:m_040.ogg
64,192,64240,1,0,0:0:0:0:m_043.ogg
192,192,64240,1,0,0:0:0:0:m_033.ogg
320,192,64240,1,0,0:0:0:0:m_050.ogg
64,192,64400,1,0,0:0:0:0:s_040.ogg
192,192,64400,1,0,0:0:0:0:s_031.ogg
448,192,64560,1,0,0:0:0:0:m_054.ogg
64,192,64720,1,0,0:0:0:0:m_043.ogg
192,192,64720,1,0,0:0:0:0:m_033.ogg
64,192,64880,1,0,0:0:0:0:m_045.ogg
320,192,64880,1,0,0:0:0:0:m_037.ogg
192,192,65040,1,0,0:0:0:0:m_049.ogg
448,192,65040,1,0,0:0:0:0:m_043.ogg
64,192,65200,1,0,0:0:0:0:m_045.ogg
320,192,65200,1,0,0:0:0:0:m_052.ogg
448,192,65200,1,0,0:0:0:0:m_037.ogg
64,192,65360,1,0,0:0:0:0:s_043.ogg
192,192,65360,1,0,0:0:0:0:s_033.ogg
320,192,65520,1,0,0:0:0:0:m_052.ogg
64,192,65680,1,0,0:0:0:0:m_026.ogg
192,192,65680,1,0,0:0:0:0:m_042.ogg
64,192,65840,1,0,0:0:0:0:m_033.ogg
320,192,65840,1,0,0:0:0:0:m_045.ogg
448,192,65840,1,0,0:0:0:0:m_050.ogg
192,192,66000,1,0,0:0:0:0:m_042.ogg
448,192,66000,1,0,0:0:0:0:m_038.ogg
64,192,66160,1,0,0:0:0:0:m_032.ogg
320,192,66160,1,0,0:0:0:0:m_047.ogg
64,192,66320,1,0,0:0:0:0:s_041.ogg
448,192,66320,1,0,0:0:0:0:s_038.ogg
64,192,66480,1,0,0:0:0:0:s_033.ogg
192,192,66480,1,0,0:0:0:0:s_042.ogg
320,192,66480,1,0,0:0:0:0:m_045.ogg
448,192,66640,1,0,0:0:0:0:s_042.ogg
320,192,66800,1,0,0:0:0:0:s_040.ogg
192,192,66960,1,0,0:0:0:0:s_038.ogg
64,192,67120,1,0,0:0:0:0:s_035.ogg
192,192,67280,1,0,0:0:0:0:s_045.ogg
320,192,67280,1,0,0:0:0:0:s_033.ogg
64,192,67440,1,0,0:0:0:0:m_026.ogg
448,192,67440,1,0,0:0:0:0:m_054.ogg
64,192,67600,1,0,0:0:0:0:m_042.ogg
192,192,67600,1,0,0:0:0:0:m_033.ogg
64,192,67760,1,0,0:0:0:0:m_045.ogg
320,192,67760,1,0,0:0:0:0:m_038.ogg
192,192,67920,1,0,0:0:0:0:m_050.ogg
448,192,67920,1,0,0:0:0:0:m_042.ogg
64,192,68080,1,0,0:0:0:0:m_045.ogg
320,192,68080,1,0,0:0:0:0:m_038.ogg
64,192,68240,1,0,0:0:0:0:s_042.ogg
192,192,68240,1,0,0:0:0:0:s_033.ogg
320,192,68400,1,0,0:0:0:0:m_025.ogg
448,192,68400,1,0,0:0:0:0:m_054.ogg
64,192,68560,1,0,0:0:0:0:m_042.ogg
320,192,68560,1,0,0:0:0:0:m_034.ogg
192,192,68720,1,0,0:0:0:0:m_040.ogg
448,192,68720,1,0,0:0:0:0:m_046.ogg
320,192,68880,1,0,0:0:0:0:m_042.ogg
448,192,68880,1,0,0:0:0:0:m_052.ogg
192,192,69040,1,0,0:0:0:0:m_046.ogg
448,192,69040,1,0,0:0:0:0:m_040.ogg
64,192,69200,1,0,0:0:0:0:s_042.ogg
320,192,69200,1,0,0:0:0:0:s_034.ogg
320,192,69360,1,0,0:0:0:0:m_024.ogg
448,192,69360,1,0,0:0:0:0:m_054.ogg
64,192,69520,1,0,0:0:0:0:m_042.ogg
192,192,69520,1,0,0:0:0:0:m_033.ogg
64,192,69680,1,0,0:0:0:0:m_045.ogg
320,192,69680,1,0,0:0:0:0:m_039.ogg
192,192,69840,1,0,0:0:0:0:m_051.ogg
448,192,69840,1,0,0:0:0:0:m_042.ogg
64,192,70000,1,0,0:0:0:0:m_045.ogg
320,192,70000,1,0,0:0:0:0:m_039.ogg
64,192,70160,1,0,0:0:0:0:s_042.ogg
192,192,70160,1,0,0:0:0:0:s_033.ogg
448,192,70320,1,0,0:0:0:0:m_023.ogg
64,192,70480,1,0,0:0:0:0:m_042.ogg
192,192,70480,1,0,0:0:0:0:m_033.ogg
64,192,70640,1,0,0:0:0:0:m_045.ogg
320,192,70640,1,0,0:0:0:0:m_039.ogg
192,192,70800,1,0,0:0:0:0:m_051.ogg
448,192,70800,1,0,0:0:0:0:m_042.ogg
64,192,70960,1,0,0:0:0:0:m_045.ogg
320,192,70960,1,0,0:0:0:0:m_054.ogg
448,192,70960,1,0,0:0:0:0:m_039.ogg
64,192,71120,1,0,0:0:0:0:s_042.ogg
192,192,71120,1,0,0:0:0:0:s_033.ogg
320,192,71280,1,0,0:0:0:0:l_022.ogg
448,192,71280,1,0,0:0:0:0:m_054.ogg
64,192,71440,1,0,0:0:0:0:m_043.ogg
192,192,71440,1,0,0:0:0:0:m_034.ogg
64,192,71600,1,0,0:0:0:0:m_046.ogg
320,192,71600,1,0,0:0:0:0:m_039.ogg
320,192,71760,1,0,0:0:0:0:m_051.ogg
448,192,71760,1,0,0:0:0:0:m_043.ogg
64,192,71920,1,0,0:0:0:0:m_055.ogg
192,192,71920,1,0,0:0:0:0:m_046.ogg
448,192,71920,1,0,0:0:0:0:m_039.ogg
64,192,72080,1,0,0:0:0:0:m_043.ogg
320,192,72080,1,0,0:0:0:0:m_034.ogg
448,192,72240,1,0,0:0:0:0:m_054.ogg
64,192,72400,1,0,0:0:0:0:m_043.ogg
192,192,72400,1,0,0:0:0:0:m_034.ogg
64,192,72560,1,0,0:0:0:0:m_046.ogg
320,192,72560,1,0,0:0:0:0:m_039.ogg
320,192,72720,1,0,0:0:0:0:m_051.ogg
448,192,72720,1,0,0:0:0:0:m_043.ogg
64,192,72880,1,0,0:0:0:0:m_039.ogg
192,192,72880,1,0,0:0:0:0:m_046.ogg
448,192,72880,1,0,0:0:0:0:m_055.ogg
64,192,73040,1,0,0:0:0:0:s_043.ogg
320,192,73040,1,0,0:0:0:0:s_034.ogg
320,192,73200,1,0,0:0:0:0:m_022.ogg
448,192,73200,1,0,0:0:0:0:l_056.ogg
64,192,73360,1,0,0:0:0:0:m_036.ogg
192,192,73360,1,0,0:0:0:0:m_044.ogg
64,192,73520,1,0,0:0:0:0:m_041.ogg
320,192,73520,1,0,0:0:0:0:m_039.ogg
448,192,73520,1,0,0:0:0:0:m_048.ogg
192,192,73680,1,0,0:0:0:0:m_044.ogg
448,192,73680,1,0,0:0:0:0:m_051.ogg
64,192,73840,1,0,0:0:0:0:m_041.ogg
320,192,73840,1,0,0:0:0:0:m_039.ogg
448,192,73840,1,0,0:0:0:0:m_048.ogg
64,192,74000,1,0,0:0:0:0:s_036.ogg
192,192,74000,1,0,0:0:0:0:s_044.ogg
64,192,74800,1,0,0:0:0:0:m_048.ogg
320,192,74800,1,0,0:0:0:0:m_036.ogg
64,192,75120,1,0,0:0:0:0:m_036.ogg
320,192,75120,1,0,0:0:0:0:m_048.ogg
192,192,75280,1,0,0:0:0:0:m_022.ogg
64,192,75440,1,0,0:0:0:0:m_038.ogg
192,192,75440,1,0,0:0:0:0:m_029.ogg
448,192,75440,1,0,0:0:0:0:m_050.ogg
320,192,75600,1,0,0:0:0:0:m_036.ogg
192,192,75760,1,0,0:0:0:0:m_051.ogg
320,192,75760,1,0,0:0:0:0:m_029.ogg
448,192,75760,1,0,0:0:0:0:m_039.ogg
64,192,75920,1,0,0:0:0:0:s_022.ogg
64,192,76080,1,0,0:0:0:0:m_043.ogg
192,192,76080,1,0,0:0:0:0:m_022.ogg
320,192,76106,1,0,0:0:0:0:m_032.ogg
448,192,76133,1,0,0:0:0:0:m_038.ogg
192,192,76720,1,0,0:0:0:0:m_053.ogg
448,192,76720,1,0,0:0:0:0:m_041.ogg
64,192,77040,1,0,0:0:0:0:m_051.ogg
320,192,77040,1,0,0:0:0:0:m_046.ogg
448,192,77040,1,0,0:0:0:0:m_039.ogg
448,192,77360,1,0,0:0:0:0:l_051.ogg
320,192,77520,1,0,0:0:0:0:m_043.ogg
448,192,77680,1,0,0:0:0:0:l_046.ogg
192,192,77840,1,0,0:0:0:0:m_039.ogg
448,192,78000,1,0,0:0:0:0:m_043.ogg
64,192,78160,1,0,0:0:0:0:m_034.ogg
320,192,78320,1,0,0:0:0:0:m_039.ogg
64,192,78480,1,0,0:0:0:0:m_031.ogg
192,192,78640,1,0,0:0:0:0:m_034.ogg
64,192,78800,1,0,0:0:0:0:s_027.ogg
320,192,78800,1,0,0:0:0:0:s_051.ogg
448,192,78800,1,0,0:0:0:0:s_063.ogg
192,192,78960,1,0,0:0:0:0:m_056.ogg
320,192,78960,1,0,0:0:0:0:m_051.ogg
448,192,78960,1,0,0:0:0:0:m_063.ogg
448,192,79280,1,0,0:0:0:0:m_047.ogg
320,192,79440,1,0,0:0:0:0:m_039.ogg
448,192,79600,1,0,0:0:0:0:m_044.ogg
64,192,79760,1,0,0:0:0:0:s_062.ogg
192,192,79760,1,0,0:0:0:0:s_050.ogg
320,192,79760,1,0,0:0:0:0:s_056.ogg
64,192,79920,1,0,0:0:0:0:m_051.ogg
320,192,79920,1,0,0:0:0:0:m_056.ogg
448,192,79920,1,0,0:0:0:0:m_059.ogg
192,192,80080,1,0,0:0:0:0:m_032.ogg
320,192,80240,1,0,0:0:0:0:m_035.ogg
64,192,80400,1,0,0:0:0:0:m_027.ogg
192,192,80560,1,0,0:0:0:0:m_032.ogg
64,192,80720,1,0,0:0:0:0:s_065.ogg
320,192,80720,1,0,0:0:0:0:s_053.ogg
448,192,80720,1,0,0:0:0:0:s_056.ogg
192,192,80880,1,0,0:0:0:0:m_058.ogg
320,192,80880,1,0,0:0:0:0:m_067.ogg
448,192,80880,1,0,0:0:0:0:m_055.ogg
448,192,81200,1,0,0:0:0:0:m_051.ogg
320,192,81360,1,0,0:0:0:0:m_043.ogg
448,192,81520,1,0,0:0:0:0:m_046.ogg
192,192,81680,1,0,0:0:0:0:s_065.ogg
320,192,81680,1,0,0:0:0:0:s_058.ogg
448,192,81680,1,0,0:0:0:0:s_053.ogg
64,192,81840,1,0,0:0:0:0:m_063.ogg
192,192,81840,1,0,0:0:0:0:m_058.ogg
320,192,81840,1,0,0:0:0:0:m_051.ogg
64,192,82000,1,0,0:0:0:0:m_034.ogg
320,192,82160,1,0,0:0:0:0:m_039.ogg
64,192,82320,1,0,0:0:0:0:m_031.ogg
192,192,82480,1,0,0:0:0:0:m_034.ogg
64,192,82640,1,0,0:0:0:0:s_055.ogg
320,192,82640,1,0,0:0:0:0:s_027.ogg
448,192,82640,1,0,0:0:0:0:s_067.ogg
64,192,82800,1,0,0:0:0:0:m_063.ogg
320,192,82800,1,0,0:0:0:0:m_055.ogg
448,192,82800,1,0,0:0:0:0:m_067.ogg
448,192,83120,1,0,0:0:0:0:m_051.ogg
320,192,83280,1,0,0:0:0:0:m_043.ogg
448,192,83440,1,0,0:0:0:0:m_048.ogg
64,192,83600,1,0,0:0:0:0:s_066.ogg
192,192,83600,1,0,0:0:0:0:s_054.ogg
320,192,83600,1,0,0:0:0:0:s_060.ogg
64,192,83760,1,0,0:0:0:0:m_055.ogg
320,192,83760,1,0,0:0:0:0:m_060.ogg
448,192,83760,1,0,0:0:0:0:m_063.ogg
192,192,83920,1,0,0:0:0:0:m_036.ogg
320,192,84080,1,0,0:0:0:0:m_039.ogg
64,192,84240,1,0,0:0:0:0:m_031.ogg
192,192,84400,1,0,0:0:0:0:m_036.ogg
64,192,84560,1,0,0:0:0:0:s_027.ogg
320,192,84560,1,0,0:0:0:0:s_057.ogg
448,192,84560,1,0,0:0:0:0:s_069.ogg
192,192,84720,1,0,0:0:0:0:m_019.ogg
320,192,84720,1,0,0:0:0:0:m_059.ogg
448,192,84720,1,0,0:0:0:0:m_071.ogg
64,192,84880,1,0,0:0:0:0:m_050.ogg
320,192,84880,1,0,0:0:0:0:m_038.ogg
192,192,85040,1,0,0:0:0:0:m_055.ogg
448,192,85040,1,0,0:0:0:0:m_035.ogg
64,192,85200,1,0,0:0:0:0:m_047.ogg
320,192,85200,1,0,0:0:0:0:m_043.ogg
192,192,85360,1,0,0:0:0:0:m_050.ogg
448,192,85360,1,0,0:0:0:0:m_038.ogg
320,192,85520,1,0,0:0:0:0:m_055.ogg
448,192,85520,1,0,0:0:0:0:m_035.ogg
64,192,85680,1,0,0:0:0:0:m_071.ogg
192,192,85680,1,0,0:0:0:0:m_019.ogg
448,192,85680,1,0,0:0:0:0:m_059.ogg
64,192,85840,1,0,0:0:0:0:m_038.ogg
320,192,85840,1,0,0:0:0:0:m_050.ogg
192,192,86000,1,0,0:0:0:0:m_055.ogg
448,192,86000,1,0,0:0:0:0:m_035.ogg
64,192,86160,1,0,0:0:0:0:m_047.ogg
320,192,86160,1,0,0:0:0:0:m_043.ogg
192,192,86320,1,0,0:0:0:0:m_050.ogg
448,192,86320,1,0,0:0:0:0:m_038.ogg
320,192,86480,1,0,0:0:0:0:s_055.ogg
448,192,86480,1,0,0:0:0:0:s_035.ogg
64,192,86640,1,0,0:0:0:0:m_030.ogg
192,192,86640,1,0,0:0:0:0:m_059.ogg
448,192,86640,1,0,0:0:0:0:l_071.ogg
64,192,86800,1,0,0:0:0:0:m_051.ogg
320,192,86800,1,0,0:0:0:0:m_039.ogg
192,192,86960,1,0,0:0:0:0:m_057.ogg
448,192,86960,1,0,0:0:0:0:m_035.ogg
64,192,87120,1,0,0:0:0:0:l_047.ogg
320,192,87120,1,0,0:0:0:0:m_045.ogg
192,192,87280,1,0,0:0:0:0:m_051.ogg
448,192,87280,1,0,0:0:0:0:m_039.ogg
320,192,87440,1,0,0:0:0:0:m_057.ogg
448,192,87440,1,0,0:0:0:0:m_035.ogg
64,192,87600,1,0,0:0:0:0:m_030.ogg
192,192,87600,1,0,0:0:0:0:m_059.ogg
64,192,87760,1,0,0:0:0:0:m_051.ogg
320,192,87760,1,0,0:0:0:0:m_039.ogg
192,192,87920,1,0,0:0:0:0:m_057.ogg
448,192,87920,1,0,0:0:0:0:m_035.ogg
64,192,88080,1,0,0:0:0:0:m_051.ogg
320,192,88080,1,0,0:0:0:0:m_045.ogg
192,192,88240,1,0,0:0:0:0:m_039.ogg
64,192,88400,1,0,0:0:0:0:s_035.ogg
320,192,88400,1,0,0:0:0:0:s_071.ogg
448,192,88400,1,0,0:0:0:0:s_059.ogg
192,192,88560,1,0,0:0:0:0:m_071.ogg
320,192,88560,1,0,0:0:0:0:m_029.ogg
448,192,88560,1,0,0:0:0:0:m_059.ogg
64,192,88720,1,0,0:0:0:0:m_050.ogg
320,192,88720,1,0,0:0:0:0:m_038.ogg
192,192,88880,1,0,0:0:0:0:m_055.ogg
448,192,88880,1,0,0:0:0:0:m_035.ogg
64,192,89040,1,0,0:0:0:0:m_047.ogg
320,192,89040,1,0,0:0:0:0:m_045.ogg
448,192,89200,1,0,0:0:0:0:m_038.ogg
64,192,89360,1,0,0:0:0:0:s_035.ogg
192,192,89360,1,0,0:0:0:0:s_059.ogg
320,192,89360,1,0,0:0:0:0:s_071.ogg
192,192,89520,1,0,0:0:0:0:m_028.ogg
320,192,89520,1,0,0:0:0:0:m_060.ogg
448,192,89520,1,0,0:0:0:0:m_072.ogg
64,192,89680,1,0,0:0:0:0:m_050.ogg
320,192,89680,1,0,0:0:0:0:m_038.ogg
192,192,89840,1,0,0:0:0:0:m_035.ogg
448,192,89840,1,0,0:0:0:0:m_056.ogg
64,192,90000,1,0,0:0:0:0:m_047.ogg
320,192,90000,1,0,0:0:0:0:m_044.ogg
192,192,90160,1,0,0:0:0:0:m_038.ogg
64,192,90320,1,0,0:0:0:0:s_035.ogg
320,192,90320,1,0,0:0:0:0:s_059.ogg
448,192,90320,1,0,0:0:0:0:s_071.ogg
192,192,90480,1,0,0:0:0:0:l_021.ogg
320,192,90480,1,0,0:0:0:0:l_071.ogg
448,192,90480,1,0,0:0:0:0:l_059.ogg
64,192,90640,1,0,0:0:0:0:l_031.ogg
192,192,90800,1,0,0:0:0:0:s_037.ogg
192,192,90960,1,0,0:0:0:0:m_037.ogg
320,192,91120,1,0,0:0:0:0:m_043.ogg
448,192,91280,1,0,0:0:0:0:s_047.ogg
64,192,91440,1,0,0:0:0:0:m_064.ogg
192,192,91440,1,0,0:0:0:0:m_052.ogg
448,192,91440,1,0,0:0:0:0:m_047.ogg
320,192,91600,1,0,0:0:0:0:m_043.ogg
192,192,91760,1,0,0:0:0:0:s_037.ogg
192,192,91920,1,0,0:0:0:0:m_037.ogg
64,192,92080,1,0,0:0:0:0:m_031.ogg
320,192,92080,1,0,0:0:0:0:m_064.ogg
448,192,92080,1,0,0:0:0:0:m_052.ogg
192,192,92240,1,0,0:0:0:0:s_021.ogg
64,192,92400,1,0,0:0:0:0:m_060.ogg
320,192,92400,1,0,0:0:0:0:m_052.ogg
448,192,92400,1,0,0:0:0:0:m_064.ogg
192,192,92560,1,0,0:0:0:0:m_026.ogg
64,192,92720,1,0,0:0:0:0:m_066.ogg
192,192,92720,1,0,0:0:0:0:m_062.ogg
448,192,92720,1,0,0:0:0:0:m_060.ogg
320,192,92880,1,0,0:0:0:0:m_036.ogg
64,192,93040,1,0,0:0:0:0:m_062.ogg
192,192,93040,1,0,0:0:0:0:m_067.ogg
320,192,93040,1,0,0:0:0:0:m_055.ogg
448,192,93200,1,0,0:0:0:0:s_043.ogg
192,192,93360,1,0,0:0:0:0:m_071.ogg
320,192,93360,1,0,0:0:0:0:m_062.ogg
448,192,93360,1,0,0:0:0:0:m_066.ogg
64,192,93520,1,0,0:0:0:0:m_042.ogg
448,192,93680,1,0,0:0:0:0:m_038.ogg
320,192,93840,1,0,0:0:0:0:m_036.ogg
64,192,94000,1,0,0:0:0:0:m_057.ogg
192,192,94000,1,0,0:0:0:0:m_069.ogg
448,192,94000,1,0,0:0:0:0:m_030.ogg
320,192,94160,1,0,0:0:0:0:s_026.ogg
64,192,94320,1,0,0:0:0:0:m_059.ogg
192,192,94320,1,0,0:0:0:0:m_062.ogg
448,192,94320,1,0,0:0:0:0:m_057.ogg
320,192,94480,1,0,0:0:0:0:m_026.ogg
64,192,94640,1,0,0:0:0:0:m_067.ogg
320,192,94640,1,0,0:0:0:0:m_031.ogg
448,192,94640,1,0,0:0:0:0:m_055.ogg
192,192,94800,1,0,0:0:0:0:s_035.ogg
192,192,94960,1,0,0:0:0:0:m_058.ogg
320,192,94960,1,0,0:0:0:0:m_052.ogg
448,192,94960,1,0,0:0:0:0:m_064.ogg
64,192,95120,1,0,0:0:0:0:s_043.ogg
64,192,95280,1,0,0:0:0:0:m_062.ogg
192,192,95280,1,0,0:0:0:0:m_059.ogg
320,192,95280,1,0,0:0:0:0:m_050.ogg
448,192,95440,1,0,0:0:0:0:m_047.ogg
320,192,95600,1,0,0:0:0:0:m_043.ogg
192,192,95760,1,0,0:0:0:0:m_038.ogg
64,192,95920,1,0,0:0:0:0:m_062.ogg
320,192,95920,1,0,0:0:0:0:m_035.ogg
448,192,95920,1,0,0:0:0:0:m_050.ogg
64,192,96080,1,0,0:0:0:0:s_026.ogg
192,192,96240,1,0,0:0:0:0:m_031.ogg
320,192,96240,1,0,0:0:0:0:m_071.ogg
448,192,96240,1,0,0:0:0:0:m_059.ogg
64,192,96400,1,0,0:0:0:0:m_050.ogg
320,192,96400,1,0,0:0:0:0:m_038.ogg
192,192,96560,1,0,0:0:0:0:m_055.ogg
448,192,96560,1,0,0:0:0:0:m_035.ogg
64,192,96720,1,0,0:0:0:0:m_047.ogg
320,192,96720,1,0,0:0:0:0:m_043.ogg
192,192,96880,1,0,0:0:0:0:m_050.ogg
448,192,96880,1,0,0:0:0:0:m_038.ogg
320,192,97040,1,0,0:0:0:0:s_055.ogg
448,192,97040,1,0,0:0:0:0:s_035.ogg
64,192,97200,1,0,0:0:0:0:m_059.ogg
192,192,97200,1,0,0:0:0:0:m_071.ogg
448,192,97200,1,0,0:0:0:0:m_030.ogg
64,192,97360,1,0,0:0:0:0:m_051.ogg
320,192,97360,1,0,0:0:0:0:m_039.ogg
192,192,97520,1,0,0:0:0:0:m_057.ogg
448,192,97520,1,0,0:0:0:0:m_035.ogg
64,192,97680,1,0,0:0:0:0:m_047.ogg
320,192,97680,1,0,0:0:0:0:m_045.ogg
192,192,97840,1,0,0:0:0:0:m_051.ogg
448,192,97840,1,0,0:0:0:0:m_039.ogg
320,192,98000,1,0,0:0:0:0:s_057.ogg
448,192,98000,1,0,0:0:0:0:s_035.ogg
64,192,98160,1,0,0:0:0:0:m_059.ogg
192,192,98160,1,0,0:0:0:0:l_071.ogg
448,192,98160,1,0,0:0:0:0:m_029.ogg
64,192,98320,1,0,0:0:0:0:m_050.ogg
320,192,98320,1,0,0:0:0:0:m_038.ogg
192,192,98480,1,0,0:0:0:0:m_056.ogg
448,192,98480,1,0,0:0:0:0:m_035.ogg
64,192,98640,1,0,0:0:0:0:m_047.ogg
320,192,98640,1,0,0:0:0:0:m_044.ogg
192,192,98800,1,0,0:0:0:0:m_050.ogg
448,192,98800,1,0,0:0:0:0:m_038.ogg
320,192,98960,1,0,0:0:0:0:s_056.ogg
448,192,98960,1,0,0:0:0:0:s_035.ogg
64,192,99120,1,0,0:0:0:0:m_059.ogg
192,192,99120,1,0,0:0:0:0:m_028.ogg
64,192,99280,1,0,0:0:0:0:m_050.ogg
320,192,99280,1,0,0:0:0:0:m_038.ogg
192,192,99440,1,0,0:0:0:0:m_056.ogg
448,192,99440,1,0,0:0:0:0:m_035.ogg
64,192,99600,1,0,0:0:0:0:m_047.ogg
320,192,99600,1,0,0:0:0:0:m_044.ogg
192,192,99760,1,0,0:0:0:0:m_050.ogg
448,192,99760,1,0,0:0:0:0:m_038.ogg
320,192,99920,1,0,0:0:0:0:s_056.ogg
448,192,99920,1,0,0:0:0:0:s_035.ogg
64,192,100080,1,0,0:0:0:0:m_027.ogg
192,192,100080,1,0,0:0:0:0:m_059.ogg
448,192,100080,1,0,0:0:0:0:m_071.ogg
64,192,100240,1,0,0:0:0:0:m_051.ogg
320,192,100240,1,0,0:0:0:0:m_039.ogg
192,192,100400,1,0,0:0:0:0:m_056.ogg
448,192,100400,1,0,0:0:0:0:m_035.ogg
64,192,100560,1,0,0:0:0:0:m_047.ogg
320,192,100560,1,0,0:0:0:0:m_044.ogg
192,192,100720,1,0,0:0:0:0:m_051.ogg
448,192,100720,1,0,0:0:0:0:m_039.ogg
320,192,100880,1,0,0:0:0:0:s_056.ogg
448,192,100880,1,0,0:0:0:0:s_035.ogg
64,192,101040,1,0,0:0:0:0:m_026.ogg
192,192,101040,1,0,0:0:0:0:m_059.ogg
448,192,101040,1,0,0:0:0:0:m_071.ogg
64,192,101200,1,0,0:0:0:0:m_052.ogg
320,192,101200,1,0,0:0:0:0:m_040.ogg
192,192,101360,1,0,0:0:0:0:m_056.ogg
448,192,101360,1,0,0:0:0:0:m_035.ogg
64,192,101520,1,0,0:0:0:0:m_047.ogg
320,192,101520,1,0,0:0:0:0:m_044.ogg
192,192,101680,1,0,0:0:0:0:m_052.ogg
448,192,101680,1,0,0:0:0:0:m_040.ogg
320,192,101840,1,0,0:0:0:0:s_056.ogg
448,192,101840,1,0,0:0:0:0:s_035.ogg
64,192,102000,1,0,0:0:0:0:l_059.ogg
192,192,102000,1,0,0:0:0:0:l_065.ogg
448,192,102000,1,0,0:0:0:0:l_071.ogg
192,192,102160,1,0,0:0:0:0:m_035.ogg
320,192,102320,1,0,0:0:0:0:m_041.ogg
448,192,102480,1,0,0:0:0:0:m_044.ogg
192,192,102640,1,0,0:0:0:0:m_058.ogg
320,192,102640,1,0,0:0:0:0:m_041.ogg
448,192,102640,1,0,0:0:0:0:l_070.ogg
192,192,102800,1,0,0:0:0:0:m_035.ogg
64,192,102960,1,0,0:0:0:0:m_032.ogg
320,192,102960,1,0,0:0:0:0:m_056.ogg
448,192,102960,1,0,0:0:0:0:m_068.ogg
192,192,103120,1,0,0:0:0:0:m_035.ogg
64,192,103280,1,0,0:0:0:0:m_046.ogg
192,192,103280,1,0,0:0:0:0:m_058.ogg
320,192,103280,1,0,0:0:0:0:m_041.ogg
448,192,103440,1,0,0:0:0:0:m_044.ogg
64,192,103600,1,0,0:0:0:0:m_059.ogg
320,192,103600,1,0,0:0:0:0:m_041.ogg
448,192,103600,1,0,0:0:0:0:m_047.ogg
192,192,103760,1,0,0:0:0:0:s_035.ogg
192,192,103920,1,0,0:0:0:0:m_059.ogg
320,192,103920,1,0,0:0:0:0:m_051.ogg
448,192,103920,1,0,0:0:0:0:m_056.ogg
64,192,104080,1,0,0:0:0:0:m_028.ogg
192,192,104240,1,0,0:0:0:0:m_032.ogg
320,192,104400,1,0,0:0:0:0:m_035.ogg
448,192,104560,1,0,0:0:0:0:m_037.ogg
64,192,104720,1,0,0:0:0:0:s_040.ogg
192,192,104880,1,0,0:0:0:0:m_061.ogg
320,192,104880,1,0,0:0:0:0:m_049.ogg
448,192,104880,1,0,0:0:0:0:m_044.ogg
64,192,105040,1,0,0:0:0:0:m_040.ogg
448,192,105200,1,0,0:0:0:0:m_037.ogg
320,192,105360,1,0,0:0:0:0:m_035.ogg
192,192,105520,1,0,0:0:0:0:m_032.ogg
320,192,105520,1,0,0:0:0:0:m_071.ogg
448,192,105520,1,0,0:0:0:0:m_059.ogg
64,192,105680,1,0,0:0:0:0:s_028.ogg
192,192,105840,1,0,0:0:0:0:l_065.ogg
320,192,105840,1,0,0:0:0:0:m_071.ogg
448,192,105840,1,0,0:0:0:0:m_059.ogg
64,192,106000,1,0,0:0:0:0:m_035.ogg
192,192,106160,1,0,0:0:0:0:m_041.ogg
64,192,106320,1,0,0:0:0:0:m_044.ogg
320,192,106320,1,0,0:0:0:0:m_070.ogg
448,192,106320,1,0,0:0:0:0:m_058.ogg
64,192,106480,1,0,0:0:0:0:m_041.ogg
192,192,106480,1,0,0:0:0:0:l_061.ogg
448,192,106480,1,0,0:0:0:0:l_073.ogg
320,192,106586,1,0,0:0:0:0:l_071.ogg
448,192,106586,1,0,0:0:0:0:m_059.ogg
64,192,106640,1,0,0:0:0:0:m_035.ogg
192,192,106693,1,0,0:0:0:0:m_058.ogg
320,192,106693,1,0,0:0:0:0:l_070.ogg
64,192,106800,1,0,0:0:0:0:m_068.ogg
192,192,106800,1,0,0:0:0:0:m_056.ogg
448,192,106800,1,0,0:0:0:0:m_032.ogg
192,192,106960,1,0,0:0:0:0:m_035.ogg
64,192,107120,1,0,0:0:0:0:m_046.ogg
320,192,107120,1,0,0:0:0:0:m_041.ogg
448,192,107120,1,0,0:0:0:0:m_058.ogg
448,192,107280,1,0,0:0:0:0:m_044.ogg
64,192,107440,1,0,0:0:0:0:m_059.ogg
192,192,107440,1,0,0:0:0:0:m_047.ogg
320,192,107440,1,0,0:0:0:0:m_041.ogg
192,192,107600,1,0,0:0:0:0:s_035.ogg
64,192,107760,1,0,0:0:0:0:m_063.ogg
320,192,107760,1,0,0:0:0:0:m_051.ogg
448,192,107760,1,0,0:0:0:0:m_056.ogg
192,192,107920,1,0,0:0:0:0:m_028.ogg
320,192,108080,1,0,0:0:0:0:m_032.ogg
448,192,108240,1,0,0:0:0:0:m_035.ogg
192,192,108400,1,0,0:0:0:0:m_037.ogg
320,192,108560,1,0,0:0:0:0:s_040.ogg
64,192,108720,1,0,0:0:0:0:m_061.ogg
192,192,108720,1,0,0:0:0:0:m_049.ogg
448,192,108720,1,0,0:0:0:0:m_044.ogg
320,192,108880,1,0,0:0:0:0:m_040.ogg
192,192,109040,1,0,0:0:0:0:m_037.ogg
64,192,109200,1,0,0:0:0:0:m_035.ogg
192,192,109360,1,0,0:0:0:0:m_032.ogg
320,192,109360,1,0,0:0:0:0:m_071.ogg
448,192,109360,1,0,0:0:0:0:m_059.ogg
64,192,109520,1,0,0:0:0:0:s_028.ogg
192,192,109680,1,0,0:0:0:0:m_071.ogg
320,192,109680,1,0,0:0:0:0:m_059.ogg
448,192,109680,1,0,0:0:0:0:m_065.ogg
320,192,109840,1,0,0:0:0:0:m_035.ogg
448,192,110000,1,0,0:0:0:0:m_041.ogg
64,192,110160,1,0,0:0:0:0:m_044.ogg
192,192,110160,1,0,0:0:0:0:m_058.ogg
320,192,110160,1,0,0:0:0:0:m_070.ogg
192,192,110320,1,0,0:0:0:0:m_061.ogg
320,192,110320,1,0,0:0:0:0:m_041.ogg
448,192,110320,1,0,0:0:0:0:m_073.ogg
64,192,110480,1,0,0:0:0:0:s_059.ogg
192,192,110480,1,0,0:0:0:0:s_035.ogg
448,192,110480,1,0,0:0:0:0:s_071.ogg
64,192,110640,1,0,0:0:0:0:l_074.ogg
320,192,110640,1,0,0:0:0:0:l_013.ogg
448,192,110640,1,0,0:0:0:0:l_062.ogg
64,192,110800,1,0,0:0:0:0:l_073.ogg
192,192,110800,1,0,0:0:0:0:m_032.ogg
320,192,110800,1,0,0:0:0:0:l_061.ogg
192,192,110960,1,0,0:0:0:0:m_035.ogg
320,192,110960,1,0,0:0:0:0:l_082.ogg
448,192,110960,1,0,0:0:0:0:l_070.ogg
64,192,111120,1,0,0:0:0:0:l_041.ogg
192,192,111280,1,0,0:0:0:0:l_035.ogg
320,192,111440,1,0,0:0:0:0:l_068.ogg
448,192,111440,1,0,0:0:0:0:l_080.ogg
192,192,111600,1,0,0:0:0:0:m_066.ogg
320,192,111600,1,0,0:0:0:0:m_078.ogg
64,192,111760,1,0,0:0:0:0:m_065.ogg
192,192,111760,1,0,0:0:0:0:m_077.ogg
64,192,111920,1,0,0:0:0:0:m_075.ogg
448,192,111920,1,0,0:0:0:0:m_063.ogg
320,192,112080,1,0,0:0:0:0:m_061.ogg
448,192,112080,1,0,0:0:0:0:m_073.ogg
192,192,112240,1,0,0:0:0:0:m_071.ogg
320,192,112240,1,0,0:0:0:0:m_059.ogg
64,192,112400,1,0,0:0:0:0:s_070.ogg
192,192,112400,1,0,0:0:0:0:s_058.ogg
64,192,112560,1,0,0:0:0:0:m_068.ogg
448,192,112560,1,0,0:0:0:0:m_056.ogg
64,192,112880,1,0,0:0:0:0:m_058.ogg
320,192,112880,1,0,0:0:0:0:m_046.ogg
192,192,113200,1,0,0:0:0:0:m_059.ogg
448,192,113200,1,0,0:0:0:0:m_047.ogg
64,192,113520,1,0,0:0:0:0:m_059.ogg
320,192,113520,1,0,0:0:0:0:l_056.ogg
448,192,113520,1,0,0:0:0:0:l_063.ogg
192,192,113680,1,0,0:0:0:0:l_028.ogg
320,192,113840,1,0,0:0:0:0:l_032.ogg
448,192,114000,1,0,0:0:0:0:m_035.ogg
64,192,114160,1,0,0:0:0:0:m_061.ogg
192,192,114160,1,0,0:0:0:0:l_049.ogg
320,192,114160,1,0,0:0:0:0:m_037.ogg
448,192,114320,1,0,0:0:0:0:m_040.ogg
192,192,114480,1,0,0:0:0:0:m_061.ogg
320,192,114480,1,0,0:0:0:0:l_066.ogg
448,192,114480,1,0,0:0:0:0:l_059.ogg
320,192,114640,1,0,0:0:0:0:l_040.ogg
192,192,114800,1,0,0:0:0:0:l_037.ogg
64,192,114960,1,0,0:0:0:0:m_035.ogg
192,192,115120,1,0,0:0:0:0:m_064.ogg
320,192,115120,1,0,0:0:0:0:l_052.ogg
448,192,115120,1,0,0:0:0:0:m_032.ogg
64,192,115280,1,0,0:0:0:0:m_028.ogg
64,192,115440,1,0,0:0:0:0:l_058.ogg
192,192,115440,1,0,0:0:0:0:l_070.ogg
320,192,115440,1,0,0:0:0:0:l_064.ogg
192,192,115600,1,0,0:0:0:0:l_028.ogg
320,192,115760,1,0,0:0:0:0:l_032.ogg
448,192,115920,1,0,0:0:0:0:m_035.ogg
64,192,116080,1,0,0:0:0:0:m_068.ogg
192,192,116080,1,0,0:0:0:0:l_037.ogg
320,192,116080,1,0,0:0:0:0:l_056.ogg
448,192,116240,1,0,0:0:0:0:m_040.ogg
192,192,116400,1,0,0:0:0:0:m_075.ogg
320,192,116400,1,0,0:0:0:0:m_068.ogg
448,192,116400,1,0,0:0:0:0:m_063.ogg
320,192,116560,1,0,0:0:0:0:m_044.ogg
192,192,116720,1,0,0:0:0:0:m_040.ogg
64,192,116880,1,0,0:0:0:0:m_035.ogg
192,192,117040,1,0,0:0:0:0:m_061.ogg
320,192,117040,1,0,0:0:0:0:m_032.ogg
448,192,117040,1,0,0:0:0:0:m_073.ogg
64,192,117200,1,0,0:0:0:0:s_028.ogg
64,192,117360,1,0,0:0:0:0:l_068.ogg
192,192,117380,1,0,0:0:0:0:l_070.ogg
320,192,117400,1,0,0:0:0:0:l_073.ogg
448,192,117420,1,0,0:0:0:0:l_076.ogg
192,192,117520,1,0,0:0:0:0:l_025.ogg
320,192,117680,1,0,0:0:0:0:l_028.ogg
448,192,117840,1,0,0:0:0:0:l_034.ogg
64,192,118000,1,0,0:0:0:0:l_037.ogg
192,192,118160,1,0,0:0:0:0:l_040.ogg
320,192,118320,1,0,0:0:0:0:l_046.ogg
448,192,118480,1,0,0:0:0:0:l_049.ogg
64,192,118640,1,0,0:0:0:0:l_052.ogg
192,192,118800,1,0,0:0:0:0:l_058.ogg
320,192,118960,1,0,0:0:0:0:l_061.ogg
448,192,119120,1,0,0:0:0:0:l_064.ogg
320,192,119280,1,0,0:0:0:0:m_070.ogg
448,192,119280,1,0,0:0:0:0:l_079.ogg
64,192,119380,1,0,0:0:0:0:m_075.ogg
192,192,119480,1,0,0:0:0:0:m_069.ogg
320,192,119480,1,0,0:0:0:0:l_078.ogg
448,192,119580,1,0,0:0:0:0:m_074.ogg
64,192,119680,1,0,0:0:0:0:m_068.ogg
192,192,119680,1,0,0:0:0:0:l_077.ogg
320,192,119780,1,0,0:0:0:0:m_073.ogg
64,192,119880,1,0,0:0:0:0:m_067.ogg
448,192,119880,1,0,0:0:0:0:l_076.ogg
192,192,119980,1,0,0:0:0:0:m_070.ogg
320,192,120080,1,0,0:0:0:0:l_075.ogg
448,192,120080,1,0,0:0:0:0:m_066.ogg
64,192,120180,1,0,0:0:0:0:m_069.ogg
192,192,120280,1,0,0:0:0:0:m_065.ogg
320,192,120280,1,0,0:0:0:0:l_074.ogg
448,192,120380,1,0,0:0:0:0:m_068.ogg
64,192,120480,1,0,0:0:0:0:m_064.ogg
192,192,120480,1,0,0:0:0:0:l_073.ogg
320,192,120580,1,0,0:0:0:0:m_069.ogg
64,192,120680,1,0,0:0:0:0:m_063.ogg
448,192,120680,1,0,0:0:0:0:l_072.ogg
192,192,120780,1,0,0:0:0:0:m_068.ogg
320,192,120880,1,0,0:0:0:0:l_071.ogg
448,192,120880,1,0,0:0:0:0:m_062.ogg
64,192,120980,1,0,0:0:0:0:m_067.ogg
192,192,121080,1,0,0:0:0:0:l_070.ogg
320,192,121080,1,0,0:0:0:0:m_061.ogg
448,192,121180,1,0,0:0:0:0:m_064.ogg
64,192,121280,1,0,0:0:0:0:l_069.ogg
192,192,121280,1,0,0:0:0:0:m_060.ogg
320,192,121380,1,0,0:0:0:0:m_065.ogg
64,192,121480,1,0,0:0:0:0:l_068.ogg
448,192,121480,1,0,0:0:0:0:m_059.ogg
192,192,121580,1,0,0:0:0:0:m_064.ogg
320,192,121680,1,0,0:0:0:0:m_058.ogg
448,192,121680,1,0,0:0:0:0:l_067.ogg
64,192,121780,1,0,0:0:0:0:m_063.ogg
192,192,121880,1,0,0:0:0:0:l_066.ogg
320,192,121880,1,0,0:0:0:0:m_057.ogg
448,192,121980,1,0,0:0:0:0:m_060.ogg
64,192,122080,1,0,0:0:0:0:l_065.ogg
192,192,122080,1,0,0:0:0:0:m_056.ogg
320,192,122180,1,0,0:0:0:0:m_059.ogg
64,192,122280,1,0,0:0:0:0:m_055.ogg
448,192,122280,1,0,0:0:0:0:l_064.ogg
192,192,122380,1,0,0:0:0:0:m_058.ogg
320,192,122480,1,0,0:0:0:0:l_063.ogg
448,192,122480,1,0,0:0:0:0:m_054.ogg
64,192,122580,1,0,0:0:0:0:m_059.ogg
192,192,122680,1,0,0:0:0:0:l_062.ogg
320,192,122680,1,0,0:0:0:0:m_053.ogg
448,192,122780,1,0,0:0:0:0:m_058.ogg
64,192,122880,1,0,0:0:0:0:m_052.ogg
192,192,122880,1,0,0:0:0:0:m_061.ogg
320,192,122980,1,0,0:0:0:0:m_057.ogg
64,192,123080,1,0,0:0:0:0:m_060.ogg
448,192,123080,1,0,0:0:0:0:m_051.ogg
192,192,123180,1,0,0:0:0:0:m_054.ogg
320,192,123280,1,0,0:0:0:0:m_050.ogg
448,192,123280,1,0,0:0:0:0:m_059.ogg
64,192,123380,1,0,0:0:0:0:m_053.ogg
192,192,123480,1,0,0:0:0:0:m_049.ogg
320,192,123480,1,0,0:0:0:0:m_058.ogg
448,192,123580,1,0,0:0:0:0:m_054.ogg
64,192,123680,1,0,0:0:0:0:m_048.ogg
192,192,123680,1,0,0:0:0:0:m_057.ogg
320,192,123780,1,0,0:0:0:0:m_053.ogg
64,192,123880,1,0,0:0:0:0:s_047.ogg
448,192,123880,1,0,0:0:0:0:s_056.ogg
192,192,123980,1,0,0:0:0:0:s_052.ogg
192,192,124080,1,0,0:0:0:0:m_049.ogg
320,192,124080,1,0,0:0:0:0:s_052.ogg
448,192,124080,1,0,0:0:0:0:m_046.ogg
64,192,124160,1,0,0:0:0:0:m_054.ogg
448,192,124240,1,0,0:0:0:0:m_052.ogg
320,192,124320,1,0,0:0:0:0:m_049.ogg
192,192,124400,1,0,0:0:0:0:m_046.ogg
64,192,124480,1,0,0:0:0:0:l_041.ogg
192,192,124560,1,0,0:0:0:0:l_042.ogg
320,192,124640,1,0,0:0:0:0:l_046.ogg
448,192,124720,1,0,0:0:0:0:l_049.ogg
64,192,124800,1,0,0:0:0:0:s_052.ogg
192,192,124880,1,0,0:0:0:0:l_053.ogg
320,192,124960,1,0,0:0:0:0:l_056.ogg
192,192,125040,1,0,0:0:0:0:m_054.ogg
320,192,125120,1,0,0:0:0:0:m_058.ogg
448,192,125200,1,0,0:0:0:0:m_061.ogg
64,192,125280,1,0,0:0:0:0:m_064.ogg
192,192,125360,1,0,0:0:0:0:m_065.ogg
320,192,125440,1,0,0:0:0:0:m_068.ogg
192,192,125520,1,0,0:0:0:0:m_066.ogg
320,192,125600,1,0,0:0:0:0:m_070.ogg
448,192,125680,1,0,0:0:0:0:m_073.ogg
64,192,125760,1,0,0:0:0:0:m_076.ogg
192,192,125840,1,0,0:0:0:0:s_079.ogg
448,192,125920,1,0,0:0:0:0:s_080.ogg
320,192,126000,1,0,0:0:0:0:l_075.ogg
448,192,126080,1,0,0:0:0:0:l_076.ogg
192,192,126160,1,0,0:0:0:0:l_072.ogg
320,192,126240,1,0,0:0:0:0:l_073.ogg
64,192,126320,1,0,0:0:0:0:l_069.ogg
192,192,126400,1,0,0:0:0:0:l_070.ogg
448,192,126480,1,0,0:0:0:0:l_067.ogg
64,192,126560,1,0,0:0:0:0:l_068.ogg
320,192,126640,1,0,0:0:0:0:l_063.ogg
448,192,126720,1,0,0:0:0:0:l_064.ogg
192,192,126800,1,0,0:0:0:0:l_060.ogg
320,192,126880,1,0,0:0:0:0:l_061.ogg
64,192,126960,1,0,0:0:0:0:m_057.ogg
192,192,127040,1,0,0:0:0:0:m_058.ogg
448,192,127120,1,0,0:0:0:0:m_055.ogg
64,192,127200,1,0,0:0:0:0:m_056.ogg
320,192,127280,1,0,0:0:0:0:m_051.ogg
448,192,127360,1,0,0:0:0:0:m_052.ogg
192,192,127440,1,0,0:0:0:0:m_048.ogg
320,192,127520,1,0,0:0:0:0:m_049.ogg
64,192,127600,1,0,0:0:0:0:m_045.ogg
192,192,127680,1,0,0:0:0:0:m_046.ogg
64,192,127760,1,0,0:0:0:0:s_043.ogg
320,192,127840,1,0,0:0:0:0:s_044.ogg
192,192,127920,1,0,0:0:0:0:s_041.ogg
64,192,128020,1,0,0:0:0:0:s_042.ogg
320,192,128120,1,0,0:0:0:0:s_043.ogg
64,192,128220,1,0,0:0:0:0:s_042.ogg
448,192,128320,1,0,0:0:0:0:s_044.ogg
64,192,128420,1,0,0:0:0:0:s_042.ogg
320,192,128520,1,0,0:0:0:0:s_045.ogg
64,192,128620,1,0,0:0:0:0:s_042.ogg
192,192,128720,1,0,0:0:0:0:s_046.ogg
64,192,128820,1,0,0:0:0:0:s_042.ogg
320,192,128920,1,0,0:0:0:0:s_047.ogg
64,192,129020,1,0,0:0:0:0:s_042.ogg
448,192,129120,1,0,0:0:0:0:s_048.ogg
64,192,129220,1,0,0:0:0:0:s_042.ogg
320,192,129320,1,0,0:0:0:0:s_049.ogg
64,192,129420,1,0,0:0:0:0:s_042.ogg
192,192,129520,1,0,0:0:0:0:s_050.ogg
320,192,129920,1,0,0:0:0:0:m_042.ogg
192,192,130320,1,0,0:0:0:0:l_023.ogg
448,192,130320,1,0,0:0:0:0:m_051.ogg
64,192,130480,1,0,0:0:0:0:m_039.ogg
192,192,130640,1,0,0:0:0:0:m_042.ogg
320,192,130800,1,0,0:0:0:0:m_047.ogg
192,192,130960,1,0,0:0:0:0:m_042.ogg
320,192,130960,1,0,0:0:0:0:m_059.ogg
448,192,130960,1,0,0:0:0:0:m_063.ogg
64,192,131120,1,0,0:0:0:0:m_039.ogg
192,192,131280,1,0,0:0:0:0:m_059.ogg
320,192,131280,1,0,0:0:0:0:m_054.ogg
448,192,131280,1,0,0:0:0:0:m_051.ogg
64,192,131440,1,0,0:0:0:0:m_039.ogg
192,192,131600,1,0,0:0:0:0:m_042.ogg
320,192,131760,1,0,0:0:0:0:m_047.ogg
192,192,131920,1,0,0:0:0:0:m_042.ogg
64,192,132080,1,0,0:0:0:0:s_039.ogg
192,192,132240,1,0,0:0:0:0:l_022.ogg
448,192,132240,1,0,0:0:0:0:l_051.ogg
64,192,132400,1,0,0:0:0:0:m_039.ogg
320,192,132560,1,0,0:0:0:0:m_043.ogg
448,192,132720,1,0,0:0:0:0:m_049.ogg
192,192,132880,1,0,0:0:0:0:m_061.ogg
320,192,132880,1,0,0:0:0:0:m_043.ogg
448,192,132880,1,0,0:0:0:0:m_063.ogg
64,192,133040,1,0,0:0:0:0:m_039.ogg
192,192,133200,1,0,0:0:0:0:m_063.ogg
320,192,133200,1,0,0:0:0:0:m_061.ogg
448,192,133200,1,0,0:0:0:0:m_055.ogg
64,192,133360,1,0,0:0:0:0:m_039.ogg
192,192,133520,1,0,0:0:0:0:m_043.ogg
320,192,133680,1,0,0:0:0:0:m_049.ogg
192,192,133840,1,0,0:0:0:0:m_043.ogg
448,192,133840,1,0,0:0:0:0:m_051.ogg
64,192,134000,1,0,0:0:0:0:s_039.ogg
320,192,134160,1,0,0:0:0:0:m_020.ogg
448,192,134160,1,0,0:0:0:0:m_051.ogg
64,192,134320,1,0,0:0:0:0:m_042.ogg
192,192,134480,1,0,0:0:0:0:m_044.ogg
320,192,134640,1,0,0:0:0:0:m_048.ogg
64,192,134800,1,0,0:0:0:0:m_044.ogg
192,192,134800,1,0,0:0:0:0:m_060.ogg
448,192,134800,1,0,0:0:0:0:m_051.ogg
64,192,134960,1,0,0:0:0:0:s_042.ogg
192,192,135120,1,0,0:0:0:0:m_060.ogg
320,192,135120,1,0,0:0:0:0:m_052.ogg
448,192,135120,1,0,0:0:0:0:m_054.ogg
64,192,135280,1,0,0:0:0:0:m_042.ogg
192,192,135440,1,0,0:0:0:0:m_044.ogg
320,192,135600,1,0,0:0:0:0:m_048.ogg
192,192,135760,1,0,0:0:0:0:m_044.ogg
448,192,135760,1,0,0:0:0:0:m_051.ogg
64,192,135920,1,0,0:0:0:0:s_042.ogg
192,192,136080,1,0,0:0:0:0:l_013.ogg
320,192,136080,1,0,0:0:0:0:l_025.ogg
448,192,136080,1,0,0:0:0:0:l_051.ogg
64,192,136240,1,0,0:0:0:0:m_035.ogg
320,192,136400,1,0,0:0:0:0:m_041.ogg
448,192,136560,1,0,0:0:0:0:m_044.ogg
192,192,136720,1,0,0:0:0:0:m_056.ogg
320,192,136720,1,0,0:0:0:0:m_041.ogg
448,192,136720,1,0,0:0:0:0:m_053.ogg
64,192,136880,1,0,0:0:0:0:m_035.ogg
64,192,137040,1,0,0:0:0:0:m_056.ogg
192,192,137040,1,0,0:0:0:0:m_053.ogg
320,192,137040,1,0,0:0:0:0:m_044.ogg
64,192,137200,1,0,0:0:0:0:m_035.ogg
192,192,137360,1,0,0:0:0:0:m_037.ogg
320,192,137520,1,0,0:0:0:0:m_041.ogg
192,192,137680,1,0,0:0:0:0:m_037.ogg
448,192,137680,1,0,0:0:0:0:m_044.ogg
64,192,137840,1,0,0:0:0:0:s_035.ogg
192,192,138000,1,0,0:0:0:0:l_018.ogg
320,192,138000,1,0,0:0:0:0:l_044.ogg
448,192,138000,1,0,0:0:0:0:l_030.ogg
64,192,138160,1,0,0:0:0:0:m_037.ogg
192,192,138320,1,0,0:0:0:0:m_040.ogg
448,192,138320,1,0,0:0:0:0:l_046.ogg
320,192,138480,1,0,0:0:0:0:m_042.ogg
64,192,138640,1,0,0:0:0:0:l_059.ogg
192,192,138640,1,0,0:0:0:0:m_040.ogg
448,192,138640,1,0,0:0:0:0:l_047.ogg
320,192,138800,1,0,0:0:0:0:l_037.ogg
64,192,138960,1,0,0:0:0:0:m_052.ogg
192,192,138980,1,0,0:0:0:0:m_054.ogg
320,192,139000,1,0,0:0:0:0:m_058.ogg
448,192,139020,1,0,0:0:0:0:m_063.ogg
64,192,139120,1,0,0:0:0:0:m_040.ogg
192,192,139280,1,0,0:0:0:0:m_042.ogg
320,192,139440,1,0,0:0:0:0:m_046.ogg
192,192,139600,1,0,0:0:0:0:m_042.ogg
320,192,139600,1,0,0:0:0:0:m_061.ogg
448,192,139600,1,0,0:0:0:0:m_049.ogg
64,192,139760,1,0,0:0:0:0:s_040.ogg
64,192,139920,1,0,0:0:0:0:l_023.ogg
192,192,139920,1,0,0:0:0:0:l_011.ogg
320,192,139920,1,0,0:0:0:0:l_047.ogg
192,192,140080,1,0,0:0:0:0:m_039.ogg
320,192,140240,1,0,0:0:0:0:m_042.ogg
448,192,140400,1,0,0:0:0:0:m_044.ogg
64,192,140560,1,0,0:0:0:0:m_051.ogg
320,192,140560,1,0,0:0:0:0:m_042.ogg
448,192,140560,1,0,0:0:0:0:m_059.ogg
192,192,140720,1,0,0:0:0:0:m_039.ogg
64,192,140880,1,0,0:0:0:0:m_035.ogg
320,192,140880,1,0,0:0:0:0:m_054.ogg
448,192,140880,1,0,0:0:0:0:m_051.ogg
192,192,141040,1,0,0:0:0:0:m_039.ogg
320,192,141200,1,0,0:0:0:0:m_042.ogg
448,192,141360,1,0,0:0:0:0:m_044.ogg
320,192,141520,1,0,0:0:0:0:m_042.ogg
448,192,141680,1,0,0:0:0:0:s_047.ogg
64,192,141840,1,0,0:0:0:0:l_023.ogg
448,192,141840,1,0,0:0:0:0:m_051.ogg
192,192,141866,1,0,0:0:0:0:l_030.ogg
320,192,141893,1,0,0:0:0:0:m_039.ogg
64,192,142000,1,0,0:0:0:0:l_041.ogg
192,192,142160,1,0,0:0:0:0:m_042.ogg
320,192,142320,1,0,0:0:0:0:m_047.ogg
192,192,142480,1,0,0:0:0:0:m_042.ogg
320,192,142480,1,0,0:0:0:0:m_059.ogg
448,192,142480,1,0,0:0:0:0:m_054.ogg
64,192,142640,1,0,0:0:0:0:m_039.ogg
192,192,142800,1,0,0:0:0:0:m_059.ogg
320,192,142800,1,0,0:0:0:0:m_063.ogg
448,192,142800,1,0,0:0:0:0:m_051.ogg
64,192,142960,1,0,0:0:0:0:m_039.ogg
192,192,143120,1,0,0:0:0:0:m_042.ogg
320,192,143280,1,0,0:0:0:0:m_047.ogg
192,192,143440,1,0,0:0:0:0:m_042.ogg
64,192,143600,1,0,0:0:0:0:s_039.ogg
64,192,143760,1,0,0:0:0:0:l_031.ogg
192,192,143760,1,0,0:0:0:0:l_022.ogg
448,192,143760,1,0,0:0:0:0:l_051.ogg
64,192,143920,1,0,0:0:0:0:m_039.ogg
320,192,144080,1,0,0:0:0:0:m_043.ogg
448,192,144240,1,0,0:0:0:0:m_049.ogg
192,192,144400,1,0,0:0:0:0:m_063.ogg
320,192,144400,1,0,0:0:0:0:m_043.ogg
448,192,144400,1,0,0:0:0:0:m_061.ogg
64,192,144560,1,0,0:0:0:0:m_039.ogg
192,192,144720,1,0,0:0:0:0:m_055.ogg
320,192,144720,1,0,0:0:0:0:m_061.ogg
448,192,144720,1,0,0:0:0:0:m_063.ogg
64,192,144880,1,0,0:0:0:0:m_039.ogg
192,192,145040,1,0,0:0:0:0:m_043.ogg
320,192,145200,1,0,0:0:0:0:m_049.ogg
192,192,145360,1,0,0:0:0:0:m_043.ogg
448,192,145360,1,0,0:0:0:0:m_051.ogg
64,192,145520,1,0,0:0:0:0:s_039.ogg
192,192,145680,1,0,0:0:0:0:m_036.ogg
320,192,145680,1,0,0:0:0:0:m_020.ogg
448,192,145680,1,0,0:0:0:0:m_051.ogg
64,192,145840,1,0,0:0:0:0:m_039.ogg
192,192,146000,1,0,0:0:0:0:m_044.ogg
320,192,146160,1,0,0:0:0:0:m_048.ogg
192,192,146320,1,0,0:0:0:0:m_044.ogg
448,192,146320,1,0,0:0:0:0:m_051.ogg
64,192,146480,1,0,0:0:0:0:s_039.ogg
192,192,146640,1,0,0:0:0:0:m_018.ogg
320,192,146640,1,0,0:0:0:0:m_052.ogg
448,192,146640,1,0,0:0:0:0:m_033.ogg
64,192,146800,1,0,0:0:0:0:m_039.ogg
192,192,146960,1,0,0:0:0:0:m_045.ogg
320,192,147120,1,0,0:0:0:0:m_048.ogg
192,192,147280,1,0,0:0:0:0:m_045.ogg
448,192,147280,1,0,0:0:0:0:m_051.ogg
64,192,147440,1,0,0:0:0:0:s_039.ogg
192,192,147600,1,0,0:0:0:0:l_032.ogg
320,192,147600,1,0,0:0:0:0:l_017.ogg
448,192,147600,1,0,0:0:0:0:l_056.ogg
192,192,147760,1,0,0:0:0:0:m_044.ogg
320,192,147920,1,0,0:0:0:0:m_047.ogg
448,192,148080,1,0,0:0:0:0:l_051.ogg
64,192,148240,1,0,0:0:0:0:m_059.ogg
320,192,148240,1,0,0:0:0:0:m_047.ogg
448,192,148240,1,0,0:0:0:0:m_068.ogg
192,192,148400,1,0,0:0:0:0:m_044.ogg
64,192,148560,1,0,0:0:0:0:m_068.ogg
320,192,148560,1,0,0:0:0:0:m_059.ogg
448,192,148560,1,0,0:0:0:0:m_062.ogg
192,192,148720,1,0,0:0:0:0:m_044.ogg
320,192,148880,1,0,0:0:0:0:m_047.ogg
448,192,149040,1,0,0:0:0:0:m_050.ogg
320,192,149200,1,0,0:0:0:0:m_047.ogg
192,192,149360,1,0,0:0:0:0:s_044.ogg
64,192,149520,1,0,0:0:0:0:l_031.ogg
448,192,149520,1,0,0:0:0:0:l_016.ogg
64,192,149680,1,0,0:0:0:0:m_037.ogg
192,192,149840,1,0,0:0:0:0:m_043.ogg
320,192,150000,1,0,0:0:0:0:l_047.ogg
192,192,150160,1,0,0:0:0:0:m_043.ogg
320,192,150160,1,0,0:0:0:0:m_061.ogg
448,192,150160,1,0,0:0:0:0:l_059.ogg
64,192,150320,1,0,0:0:0:0:m_037.ogg
192,192,150480,1,0,0:0:0:0:m_061.ogg
320,192,150480,1,0,0:0:0:0:m_058.ogg
448,192,150480,1,0,0:0:0:0:m_049.ogg
64,192,150640,1,0,0:0:0:0:m_037.ogg
192,192,150800,1,0,0:0:0:0:m_043.ogg
320,192,150960,1,0,0:0:0:0:m_046.ogg
192,192,151120,1,0,0:0:0:0:m_043.ogg
64,192,151280,1,0,0:0:0:0:s_037.ogg
192,192,151440,1,0,0:0:0:0:l_054.ogg
448,192,151440,1,0,0:0:0:0:m_015.ogg
320,192,151480,1,0,0:0:0:0:m_030.ogg
64,192,151600,1,0,0:0:0:0:m_042.ogg
192,192,151760,1,0,0:0:0:0:m_045.ogg
448,192,151920,1,0,0:0:0:0:m_049.ogg
64,192,152080,1,0,0:0:0:0:m_045.ogg
320,192,152080,1,0,0:0:0:0:m_057.ogg
448,192,152080,1,0,0:0:0:0:m_061.ogg
192,192,152240,1,0,0:0:0:0:s_042.ogg
64,192,152400,1,0,0:0:0:0:m_066.ogg
192,192,152400,1,0,0:0:0:0:m_060.ogg
448,192,152400,1,0,0:0:0:0:m_057.ogg
64,192,152560,1,0,0:0:0:0:m_042.ogg
192,192,152720,1,0,0:0:0:0:m_045.ogg
320,192,152880,1,0,0:0:0:0:m_048.ogg
192,192,153040,1,0,0:0:0:0:m_045.ogg
64,192,153200,1,0,0:0:0:0:s_042.ogg
192,192,153360,1,0,0:0:0:0:m_014.ogg
448,192,153360,1,0,0:0:0:0:m_029.ogg
64,192,153520,1,0,0:0:0:0:m_035.ogg
192,192,153680,1,0,0:0:0:0:m_041.ogg
320,192,153840,1,0,0:0:0:0:m_045.ogg
64,192,154000,1,0,0:0:0:0:m_057.ogg
192,192,154000,1,0,0:0:0:0:m_041.ogg
448,192,154000,1,0,0:0:0:0:m_059.ogg
64,192,154160,1,0,0:0:0:0:s_035.ogg
192,192,154320,1,0,0:0:0:0:m_059.ogg
320,192,154320,1,0,0:0:0:0:m_056.ogg
448,192,154320,1,0,0:0:0:0:m_047.ogg
64,192,154480,1,0,0:0:0:0:m_035.ogg
192,192,154640,1,0,0:0:0:0:m_041.ogg
320,192,154800,1,0,0:0:0:0:m_044.ogg
192,192,154960,1,0,0:0:0:0:m_041.ogg
64,192,155120,1,0,0:0:0:0:s_035.ogg
192,192,155280,1,0,0:0:0:0:m_013.ogg
320,192,155280,1,0,0:0:0:0:m_028.ogg
448,192,155280,1,0,0:0:0:0:l_052.ogg
64,192,155440,1,0,0:0:0:0:m_040.ogg
192,192,155600,1,0,0:0:0:0:m_044.ogg
320,192,155760,1,0,0:0:0:0:m_047.ogg
64,192,155920,1,0,0:0:0:0:m_056.ogg
192,192,155920,1,0,0:0:0:0:m_044.ogg
448,192,155920,1,0,0:0:0:0:m_059.ogg
64,192,156080,1,0,0:0:0:0:s_040.ogg
192,192,156240,1,0,0:0:0:0:m_064.ogg
320,192,156240,1,0,0:0:0:0:m_059.ogg
448,192,156240,1,0,0:0:0:0:m_055.ogg
64,192,156400,1,0,0:0:0:0:m_040.ogg
192,192,156560,1,0,0:0:0:0:m_043.ogg
320,192,156720,1,0,0:0:0:0:m_046.ogg
192,192,156880,1,0,0:0:0:0:m_043.ogg
448,192,156880,1,0,0:0:0:0:m_051.ogg
64,192,157040,1,0,0:0:0:0:s_040.ogg
320,192,157200,1,0,0:0:0:0:l_018.ogg
448,192,157200,1,0,0:0:0:0:m_051.ogg
64,192,157360,1,0,0:0:0:0:m_040.ogg
192,192,157520,1,0,0:0:0:0:m_043.ogg
320,192,157680,1,0,0:0:0:0:m_046.ogg
192,192,157840,1,0,0:0:0:0:l_043.ogg
448,192,157840,1,0,0:0:0:0:m_049.ogg
64,192,158000,1,0,0:0:0:0:m_040.ogg
320,192,158160,1,0,0:0:0:0:m_034.ogg
448,192,158160,1,0,0:0:0:0:m_051.ogg
64,192,158320,1,0,0:0:0:0:m_040.ogg
192,192,158480,1,0,0:0:0:0:m_042.ogg
320,192,158640,1,0,0:0:0:0:m_046.ogg
192,192,158800,1,0,0:0:0:0:m_042.ogg
448,192,158800,1,0,0:0:0:0:m_049.ogg
64,192,158960,1,0,0:0:0:0:s_040.ogg
192,192,159120,1,0,0:0:0:0:m_039.ogg
320,192,159146,1,0,0:0:0:0:m_042.ogg
448,192,159173,1,0,0:0:0:0:l_047.ogg
64,192,159280,1,0,0:0:0:0:l_011.ogg
192,192,159440,1,0,0:0:0:0:l_023.ogg
320,192,159600,1,0,0:0:0:0:l_030.ogg
448,192,159760,1,0,0:0:0:0:l_035.ogg
64,192,159920,1,0,0:0:0:0:l_039.ogg
192,192,160080,1,0,0:0:0:0:m_042.ogg
320,192,160240,1,0,0:0:0:0:m_047.ogg
448,192,160400,1,0,0:0:0:0:m_051.ogg
64,192,160560,1,0,0:0:0:0:m_054.ogg
192,192,160720,1,0,0:0:0:0:m_059.ogg
320,192,160880,1,0,0:0:0:0:s_061.ogg
64,192,161040,1,0,0:0:0:0:m_054.ogg
192,192,161040,1,0,0:0:0:0:m_047.ogg
448,192,161040,1,0,0:0:0:0:m_063.ogg
64,192,161840,1,0,0:0:0:0:m_046.ogg
192,192,161840,1,0,0:0:0:0:m_063.ogg
448,192,161840,1,0,0:0:0:0:m_055.ogg
64,192,162240,1,0,0:0:0:0:m_063.ogg
192,192,162240,1,0,0:0:0:0:m_044.ogg
448,192,162240,1,0,0:0:0:0:m_056.ogg
64,192,162640,1,0,0:0:0:0:m_064.ogg
320,192,162640,1,0,0:0:0:0:m_042.ogg
448,192,162640,1,0,0:0:0:0:m_057.ogg
64,192,163040,1,0,0:0:0:0:m_042.ogg
192,192,163040,1,0,0:0:0:0:m_063.ogg
320,192,163040,1,0,0:0:0:0:m_057.ogg
192,192,163440,1,0,0:0:0:0:m_068.ogg
320,192,163440,1,0,0:0:0:0:m_050.ogg
448,192,163440,1,0,0:0:0:0:m_059.ogg
64,192,165840,1,0,0:0:0:0:m_061.ogg
192,192,165840,1,0,0:0:0:0:m_049.ogg
448,192,165840,1,0,0:0:0:0:m_052.ogg
64,192,166640,1,0,0:0:0:0:m_047.ogg
192,192,166640,1,0,0:0:0:0:m_061.ogg
448,192,166640,1,0,0:0:0:0:m_053.ogg
64,192,167040,1,0,0:0:0:0:m_061.ogg
192,192,167040,1,0,0:0:0:0:m_046.ogg
448,192,167040,1,0,0:0:0:0:m_054.ogg
64,192,167440,1,0,0:0:0:0:m_046.ogg
320,192,167440,1,0,0:0:0:0:m_063.ogg
448,192,167440,1,0,0:0:0:0:m_055.ogg
64,192,167840,1,0,0:0:0:0:m_040.ogg
192,192,167840,1,0,0:0:0:0:m_061.ogg
320,192,167840,1,0,0:0:0:0:m_055.ogg
192,192,168240,1,0,0:0:0:0:m_057.ogg
320,192,168240,1,0,0:0:0:0:m_048.ogg
448,192,168240,1,0,0:0:0:0:m_066.ogg
64,192,170640,1,0,0:0:0:0:l_040.ogg
448,192,170640,1,0,0:0:0:0:l_016.ogg
192,192,170706,1,0,0:0:0:0:l_043.ogg
320,192,170773,1,0,0:0:0:0:l_052.ogg
64,192,173040,1,0,0:0:0:0:l_044.ogg
320,192,173040,1,0,0:0:0:0:l_040.ogg
448,192,173040,1,0,0:0:0:0:l_049.ogg
192,192,173140,1,0,0:0:0:0:l_035.ogg
64,192,174240,1,0,0:0:0:0:m_034.ogg
320,192,174640,1,0,0:0:0:0:m_042.ogg
448,192,175040,1,0,0:0:0:0:m_051.ogg
64,192,175440,1,0,0:0:0:0:l_030.ogg
192,192,175440,1,0,0:0:0:0:l_039.ogg
320,192,175440,1,0,0:0:0:0:l_047.ogg
448,192,175440,1,0,0:0:0:0:l_023.ogg
64,192,177040,1,0,0:0:0:0:m_038.ogg
320,192,177040,1,0,0:0:0:0:m_029.ogg
192,192,177440,1,0,0:0:0:0:m_039.ogg
448,192,177440,1,0,0:0:0:0:m_030.ogg
64,192,177840,1,0,0:0:0:0:l_023.ogg
192,192,177890,1,0,0:0:0:0:m_034.ogg
320,192,177940,1,0,0:0:0:0:m_042.ogg
448,192,177990,1,0,0:0:0:0:l_047.ogg
192,192,179040,1,0,0:0:0:0:m_040.ogg
448,192,179040,1,0,0:0:0:0:m_032.ogg
64,192,179840,1,0,0:0:0:0:m_039.ogg
320,192,179840,1,0,0:0:0:0:m_030.ogg
64,192,180240,128,0,183840:0:0:0:0:l_023.ogg
192,192,180290,128,0,183840:0:0:0:0:l_030.ogg
320,192,180340,128,0,183840:0:0:0:0:l_039.ogg
448,192,180390,128,0,183840:0:0:0:0:l_047.ogg
