osu file format v14

[General]
AudioFilename: virtual
AudioLeadIn: 0
PreviewTime: 0
Countdown: 0
SampleSet: Soft
StackLeniency: 0.7
Mode: 3
LetterboxInBreaks: 0
SpecialStyle: 0
WidescreenStoryboard: 1

[Editor]
DistanceSpacing: 0.8
BeatDivisor: 4
GridSize: 16
TimelineZoom: 1.500006

[Metadata]
Title:Piano Beatmap Set
TitleUnicode:Piano Beatmap Set
Artist:Collection
ArtistUnicode:Collection
Creator:CircusGalop
Version:Liebestraum - 10K HD
Source:BMS
Tags:
BeatmapID:1348051
BeatmapSetID:332673

[Difficulty]
HPDrainRate:8
CircleSize:10
OverallDifficulty:5
ApproachRate:5
SliderMultiplier:1.4
SliderTickRate:1

[Events]
//Background and Video events
0,0,"CircusGalop.jpg",0,0
//Break Periods
//Storyboard Layer 0 (Background)
//Storyboard Layer 1 (Fail)
//Storyboard Layer 2 (Pass)
//Storyboard Layer 3 (Foreground)
//Storyboard Sound Samples
Sample,50560,0,"m_046.ogg",100
Sample,51520,0,"m_045.ogg",100
Sample,52480,0,"m_045.ogg",100
Sample,54400,0,"m_040.ogg",100
Sample,55040,0,"m_043.ogg",100
Sample,55360,0,"m_043.ogg",100
Sample,56320,0,"m_045.ogg",100
Sample,56960,0,"m_045.ogg",100
Sample,57600,0,"s_042.ogg",100
Sample,62080,0,"m_045.ogg",100
Sample,63040,0,"m_046.ogg",100
Sample,64000,0,"m_046.ogg",100
Sample,64640,0,"m_041.ogg",100
Sample,64960,0,"m_041.ogg",100
Sample,66560,0,"m_032.ogg",100
Sample,66880,0,"m_029.ogg",100
Sample,68160,0,"m_051.ogg",100
Sample,70080,0,"m_020.ogg",100
Sample,70080,0,"m_056.ogg",100
Sample,70080,0,"m_051.ogg",100
Sample,70880,0,"s_050.ogg",100
Sample,70880,0,"s_056.ogg",100
Sample,71040,0,"m_056.ogg",100
Sample,71040,0,"m_051.ogg",100
Sample,71840,0,"s_065.ogg",100
Sample,71840,0,"s_059.ogg",100
Sample,72000,0,"m_067.ogg",100
Sample,72000,0,"m_027.ogg",100
Sample,72800,0,"s_058.ogg",100
Sample,72960,0,"m_058.ogg",100
Sample,73920,0,"m_060.ogg",100
Sample,73920,0,"m_055.ogg",100
Sample,73920,0,"m_012.ogg",100
Sample,74720,0,"s_063.ogg",100
Sample,74720,0,"s_054.ogg",100
Sample,74880,0,"m_060.ogg",100
Sample,74880,0,"m_067.ogg",100
Sample,75840,0,"m_031.ogg",100
Sample,76800,0,"m_059.ogg",100
Sample,76800,0,"m_031.ogg",100
Sample,77760,0,"l_018.ogg",100
Sample,77760,0,"m_059.ogg",100
Sample,79680,0,"m_017.ogg",100
Sample,80640,0,"m_016.ogg",100
Sample,83520,0,"m_064.ogg",100
Sample,83840,0,"m_054.ogg",100
Sample,83840,0,"m_060.ogg",100
Sample,84160,0,"m_067.ogg",100
Sample,84160,0,"m_055.ogg",100
Sample,84480,0,"m_071.ogg",100
Sample,84480,0,"m_062.ogg",100
Sample,85440,0,"m_059.ogg",100
Sample,85440,0,"m_057.ogg",100
Sample,86080,0,"m_052.ogg",100
Sample,86400,0,"m_059.ogg",100
Sample,87360,0,"m_019.ogg",100
Sample,88320,0,"m_059.ogg",100
Sample,88320,0,"m_030.ogg",100
Sample,89280,0,"m_029.ogg",100
Sample,89280,0,"m_059.ogg",100
Sample,91200,0,"m_059.ogg",100
Sample,91200,0,"m_027.ogg",100
Sample,92160,0,"m_014.ogg",100
Sample,92160,0,"m_059.ogg",100
Sample,93120,0,"l_059.ogg",100
Sample,93120,0,"l_013.ogg",100
Sample,95040,0,"m_059.ogg",100
Sample,95040,0,"m_056.ogg",100
Sample,96960,0,"l_065.ogg",100
Sample,96960,0,"l_013.ogg",100
Sample,97600,0,"l_061.ogg",100
Sample,97706,0,"l_071.ogg",100
Sample,97813,0,"l_070.ogg",100
Sample,97920,0,"m_056.ogg",100
Sample,98880,0,"m_063.ogg",100
Sample,98880,0,"m_056.ogg",100
Sample,100800,0,"m_071.ogg",100
Sample,100800,0,"m_026.ogg",100
Sample,101280,0,"m_058.ogg",100
Sample,101440,0,"m_073.ogg",100
Sample,101600,0,"s_071.ogg",100
Sample,101760,0,"l_062.ogg",100
Sample,101760,0,"l_025.ogg",100
Sample,101920,0,"l_061.ogg",100
Sample,102080,0,"l_082.ogg",100
Sample,104640,0,"l_051.ogg",100
Sample,104640,0,"m_059.ogg",100
Sample,105600,0,"m_061.ogg",100
Sample,105600,0,"l_059.ogg",100
Sample,106560,0,"l_058.ogg",100
Sample,106560,0,"l_061.ogg",100
Sample,107520,0,"m_075.ogg",100
Sample,122400,0,"l_049.ogg",100

[TimingPoints]
0,320.000000000002,4,2,0,100,1,0
110400,400.000000000002,4,2,0,100,1,0
110400,-80,4,2,0,100,0,0

[HitObjects]
128,192,1600,5,0,0:0:0:0:m_030.ogg
25,192,1920,1,0,0:0:0:0:l_023.ogg
179,192,1920,1,0,0:0:0:0:m_039.ogg
281,192,2080,1,0,0:0:0:0:m_042.ogg
384,192,2240,1,0,0:0:0:0:m_047.ogg
486,192,2400,1,0,0:0:0:0:m_051.ogg
384,192,2560,1,0,0:0:0:0:m_047.ogg
281,192,2720,1,0,0:0:0:0:m_042.ogg
230,192,2880,1,0,0:0:0:0:m_039.ogg
281,192,3040,1,0,0:0:0:0:m_042.ogg
384,192,3200,1,0,0:0:0:0:m_047.ogg
486,192,3360,1,0,0:0:0:0:m_051.ogg
384,192,3520,1,0,0:0:0:0:m_047.ogg
281,192,3680,1,0,0:0:0:0:s_042.ogg
76,192,3840,1,0,0:0:0:0:l_022.ogg
179,192,3840,1,0,0:0:0:0:l_039.ogg
332,192,4000,1,0,0:0:0:0:m_043.ogg
435,192,4160,1,0,0:0:0:0:m_049.ogg
486,192,4320,1,0,0:0:0:0:m_051.ogg
435,192,4480,1,0,0:0:0:0:m_049.ogg
332,192,4640,1,0,0:0:0:0:m_043.ogg
332,192,4960,1,0,0:0:0:0:m_043.ogg
435,192,5120,1,0,0:0:0:0:m_049.ogg
486,192,5280,1,0,0:0:0:0:m_051.ogg
179,192,5440,1,0,0:0:0:0:m_039.ogg
435,192,5440,1,0,0:0:0:0:m_049.ogg
332,192,5600,1,0,0:0:0:0:s_043.ogg
25,192,5760,1,0,0:0:0:0:m_020.ogg
179,192,5760,1,0,0:0:0:0:m_039.ogg
281,192,5920,1,0,0:0:0:0:m_042.ogg
384,192,6080,1,0,0:0:0:0:m_048.ogg
486,192,6240,1,0,0:0:0:0:m_051.ogg
179,192,6400,1,0,0:0:0:0:m_039.ogg
384,192,6400,1,0,0:0:0:0:m_048.ogg
281,192,6560,1,0,0:0:0:0:s_042.ogg
230,192,6720,1,0,0:0:0:0:m_040.ogg
281,192,6880,1,0,0:0:0:0:m_042.ogg
384,192,7040,1,0,0:0:0:0:m_048.ogg
486,192,7200,1,0,0:0:0:0:m_051.ogg
179,192,7360,1,0,0:0:0:0:m_039.ogg
384,192,7360,1,0,0:0:0:0:m_048.ogg
281,192,7520,1,0,0:0:0:0:s_042.ogg
76,192,7680,1,0,0:0:0:0:l_013.ogg
179,192,7680,1,0,0:0:0:0:l_039.ogg
332,192,7840,1,0,0:0:0:0:m_041.ogg
435,192,8000,1,0,0:0:0:0:m_047.ogg
486,192,8160,1,0,0:0:0:0:m_051.ogg
435,192,8320,1,0,0:0:0:0:m_047.ogg
332,192,8480,1,0,0:0:0:0:m_041.ogg
128,192,8640,1,0,0:0:0:0:m_032.ogg
332,192,8800,1,0,0:0:0:0:s_041.ogg
435,192,8960,1,0,0:0:0:0:m_047.ogg
486,192,9120,1,0,0:0:0:0:m_051.ogg
128,192,9280,1,0,0:0:0:0:m_032.ogg
435,192,9280,1,0,0:0:0:0:m_047.ogg
332,192,9440,1,0,0:0:0:0:s_041.ogg
25,192,9600,1,0,0:0:0:0:m_018.ogg
128,192,9640,1,0,0:0:0:0:m_032.ogg
332,192,9760,1,0,0:0:0:0:s_040.ogg
179,192,9920,1,0,0:0:0:0:m_034.ogg
384,192,9920,1,0,0:0:0:0:s_042.ogg
486,192,10080,1,0,0:0:0:0:s_051.ogg
230,192,10240,1,0,0:0:0:0:m_035.ogg
384,192,10240,1,0,0:0:0:0:s_042.ogg
332,192,10400,1,0,0:0:0:0:s_040.ogg
179,192,10560,1,0,0:0:0:0:m_030.ogg
230,192,10600,1,0,0:0:0:0:m_039.ogg
332,192,10720,1,0,0:0:0:0:m_040.ogg
384,192,10880,1,0,0:0:0:0:m_042.ogg
435,192,11040,1,0,0:0:0:0:m_046.ogg
179,192,11200,1,0,0:0:0:0:m_037.ogg
384,192,11200,1,0,0:0:0:0:m_042.ogg
332,192,11360,1,0,0:0:0:0:s_040.ogg
25,192,11520,1,0,0:0:0:0:l_023.ogg
128,192,11520,1,0,0:0:0:0:l_035.ogg
281,192,11680,1,0,0:0:0:0:m_039.ogg
384,192,11840,1,0,0:0:0:0:m_042.ogg
435,192,12000,1,0,0:0:0:0:m_047.ogg
384,192,12160,1,0,0:0:0:0:m_042.ogg
281,192,12320,1,0,0:0:0:0:m_039.ogg
76,192,12480,1,0,0:0:0:0:m_011.ogg
281,192,12640,1,0,0:0:0:0:m_035.ogg
332,192,12800,1,0,0:0:0:0:m_039.ogg
435,192,12960,1,0,0:0:0:0:s_047.ogg
128,192,13120,1,0,0:0:0:0:m_030.ogg
384,192,13120,1,0,0:0:0:0:m_042.ogg
281,192,13280,1,0,0:0:0:0:s_035.ogg
25,192,13440,1,0,0:0:0:0:l_023.ogg
179,192,13480,1,0,0:0:0:0:m_039.ogg
281,192,13600,1,0,0:0:0:0:m_042.ogg
384,192,13760,1,0,0:0:0:0:m_047.ogg
486,192,13920,1,0,0:0:0:0:m_051.ogg
384,192,14080,1,0,0:0:0:0:m_047.ogg
281,192,14240,1,0,0:0:0:0:m_042.ogg
179,192,14400,1,0,0:0:0:0:m_039.ogg
281,192,14560,1,0,0:0:0:0:m_042.ogg
384,192,14720,1,0,0:0:0:0:m_047.ogg
486,192,14880,1,0,0:0:0:0:m_051.ogg
384,192,15040,1,0,0:0:0:0:m_047.ogg
281,192,15200,1,0,0:0:0:0:s_042.ogg
76,192,15360,1,0,0:0:0:0:m_022.ogg
179,192,15360,1,0,0:0:0:0:l_039.ogg
332,192,15520,1,0,0:0:0:0:m_043.ogg
435,192,15680,1,0,0:0:0:0:m_049.ogg
486,192,15840,1,0,0:0:0:0:m_051.ogg
435,192,16000,1,0,0:0:0:0:m_049.ogg
332,192,16160,1,0,0:0:0:0:s_043.ogg
25,192,16320,1,0,0:0:0:0:m_021.ogg
332,192,16480,1,0,0:0:0:0:m_043.ogg
435,192,16640,1,0,0:0:0:0:m_049.ogg
486,192,16800,1,0,0:0:0:0:m_051.ogg
179,192,16960,1,0,0:0:0:0:m_039.ogg
435,192,16960,1,0,0:0:0:0:m_049.ogg
332,192,17120,1,0,0:0:0:0:s_043.ogg
76,192,17280,1,0,0:0:0:0:l_020.ogg
179,192,17280,1,0,0:0:0:0:m_039.ogg
332,192,17440,1,0,0:0:0:0:m_042.ogg
384,192,17600,1,0,0:0:0:0:m_048.ogg
486,192,17760,1,0,0:0:0:0:m_051.ogg
179,192,17920,1,0,0:0:0:0:m_039.ogg
384,192,17920,1,0,0:0:0:0:s_048.ogg
332,192,18080,1,0,0:0:0:0:m_042.ogg
128,192,18240,1,0,0:0:0:0:m_032.ogg
179,192,18266,1,0,0:0:0:0:m_036.ogg
230,192,18293,1,0,0:0:0:0:m_040.ogg
332,192,18400,1,0,0:0:0:0:m_042.ogg
384,192,18560,1,0,0:0:0:0:m_048.ogg
486,192,18720,1,0,0:0:0:0:s_051.ogg
179,192,18880,1,0,0:0:0:0:m_039.ogg
384,192,18880,1,0,0:0:0:0:s_048.ogg
332,192,19040,1,0,0:0:0:0:s_042.ogg
25,192,19200,1,0,0:0:0:0:l_025.ogg
230,192,19240,1,0,0:0:0:0:l_044.ogg
281,192,19360,1,0,0:0:0:0:l_041.ogg
332,192,19520,1,0,0:0:0:0:m_047.ogg
486,192,19680,1,0,0:0:0:0:m_056.ogg
384,192,19840,1,0,0:0:0:0:m_051.ogg
332,192,20000,1,0,0:0:0:0:m_047.ogg
76,192,20160,1,0,0:0:0:0:m_013.ogg
281,192,20320,1,0,0:0:0:0:s_035.ogg
332,192,20480,1,0,0:0:0:0:m_037.ogg
435,192,20640,1,0,0:0:0:0:m_044.ogg
128,192,20800,1,0,0:0:0:0:m_032.ogg
384,192,20800,1,0,0:0:0:0:m_041.ogg
332,192,20960,1,0,0:0:0:0:s_037.ogg
25,192,21120,1,0,0:0:0:0:m_018.ogg
128,192,21160,1,0,0:0:0:0:m_032.ogg
332,192,21280,1,0,0:0:0:0:s_037.ogg
179,192,21440,1,0,0:0:0:0:m_034.ogg
384,192,21440,1,0,0:0:0:0:s_040.ogg
486,192,21600,1,0,0:0:0:0:s_046.ogg
230,192,21760,1,0,0:0:0:0:m_035.ogg
435,192,21760,1,0,0:0:0:0:s_042.ogg
384,192,21920,1,0,0:0:0:0:s_040.ogg
76,192,22080,1,0,0:0:0:0:m_030.ogg
230,192,22080,1,0,0:0:0:0:m_039.ogg
384,192,22240,1,0,0:0:0:0:m_040.ogg
435,192,22400,1,0,0:0:0:0:m_042.ogg
486,192,22560,1,0,0:0:0:0:m_046.ogg
230,192,22720,1,0,0:0:0:0:m_037.ogg
435,192,22720,1,0,0:0:0:0:m_042.ogg
384,192,22880,1,0,0:0:0:0:s_040.ogg
25,192,23040,1,0,0:0:0:0:l_023.ogg
179,192,23040,1,0,0:0:0:0:l_035.ogg
332,192,23200,1,0,0:0:0:0:m_039.ogg
384,192,23360,1,0,0:0:0:0:m_042.ogg
435,192,23520,1,0,0:0:0:0:m_047.ogg
384,192,23680,1,0,0:0:0:0:m_042.ogg
332,192,23840,1,0,0:0:0:0:m_039.ogg
76,192,24000,1,0,0:0:0:0:m_011.ogg
332,192,24160,1,0,0:0:0:0:m_039.ogg
435,192,24320,1,0,0:0:0:0:m_047.ogg
384,192,24480,1,0,0:0:0:0:m_042.ogg
332,192,24640,1,0,0:0:0:0:m_039.ogg
179,192,24800,1,0,0:0:0:0:s_035.ogg
25,192,24960,1,0,0:0:0:0:m_019.ogg
179,192,25000,1,0,0:0:0:0:m_035.ogg
384,192,25120,1,0,0:0:0:0:m_040.ogg
486,192,25280,1,0,0:0:0:0:m_047.ogg
435,192,25440,1,0,0:0:0:0:m_043.ogg
384,192,25600,1,0,0:0:0:0:m_040.ogg
128,192,25760,1,0,0:0:0:0:s_034.ogg
25,192,25920,1,0,0:0:0:0:m_016.ogg
281,192,25920,1,0,0:0:0:0:m_035.ogg
179,192,25960,1,0,0:0:0:0:m_031.ogg
384,192,26080,1,0,0:0:0:0:m_040.ogg
486,192,26240,1,0,0:0:0:0:m_047.ogg
435,192,26400,1,0,0:0:0:0:m_043.ogg
384,192,26560,1,0,0:0:0:0:m_040.ogg
179,192,26720,1,0,0:0:0:0:s_037.ogg
25,192,26880,1,0,0:0:0:0:l_023.ogg
230,192,26880,1,0,0:0:0:0:l_030.ogg
281,192,26880,1,0,0:0:0:0:m_039.ogg
332,192,27040,1,0,0:0:0:0:m_042.ogg
435,192,27200,1,0,0:0:0:0:m_051.ogg
384,192,27360,1,0,0:0:0:0:m_047.ogg
332,192,27520,1,0,0:0:0:0:m_042.ogg
281,192,27680,1,0,0:0:0:0:m_039.ogg
76,192,27840,1,0,0:0:0:0:m_011.ogg
332,192,28000,1,0,0:0:0:0:m_042.ogg
435,192,28160,1,0,0:0:0:0:m_051.ogg
384,192,28320,1,0,0:0:0:0:m_047.ogg
332,192,28480,1,0,0:0:0:0:m_042.ogg
179,192,28640,1,0,0:0:0:0:s_039.ogg
25,192,28800,1,0,0:0:0:0:m_023.ogg
179,192,28840,1,0,0:0:0:0:m_039.ogg
384,192,28960,1,0,0:0:0:0:m_044.ogg
486,192,29120,1,0,0:0:0:0:m_051.ogg
435,192,29280,1,0,0:0:0:0:m_047.ogg
384,192,29440,1,0,0:0:0:0:m_044.ogg
128,192,29600,1,0,0:0:0:0:s_038.ogg
76,192,29760,1,0,0:0:0:0:m_035.ogg
230,192,29760,1,0,0:0:0:0:m_020.ogg
332,192,29760,1,0,0:0:0:0:m_039.ogg
384,192,29920,1,0,0:0:0:0:m_044.ogg
486,192,30080,1,0,0:0:0:0:m_051.ogg
435,192,30240,1,0,0:0:0:0:m_047.ogg
384,192,30400,1,0,0:0:0:0:m_044.ogg
179,192,30560,1,0,0:0:0:0:s_041.ogg
25,192,30720,1,0,0:0:0:0:l_015.ogg
332,192,30720,1,0,0:0:0:0:m_043.ogg
230,192,30760,1,0,0:0:0:0:l_034.ogg
384,192,30880,1,0,0:0:0:0:m_046.ogg
435,192,31040,1,0,0:0:0:0:m_051.ogg
486,192,31200,1,0,0:0:0:0:m_055.ogg
435,192,31360,1,0,0:0:0:0:m_051.ogg
384,192,31520,1,0,0:0:0:0:m_046.ogg
281,192,31680,1,0,0:0:0:0:m_043.ogg
384,192,31840,1,0,0:0:0:0:m_046.ogg
435,192,32000,1,0,0:0:0:0:m_051.ogg
486,192,32160,1,0,0:0:0:0:m_055.ogg
435,192,32320,1,0,0:0:0:0:m_051.ogg
384,192,32480,1,0,0:0:0:0:s_046.ogg
25,192,32640,1,0,0:0:0:0:l_024.ogg
281,192,32640,1,0,0:0:0:0:m_043.ogg
128,192,32666,1,0,0:0:0:0:l_031.ogg
230,192,32693,1,0,0:0:0:0:l_039.ogg
332,192,32800,1,0,0:0:0:0:m_048.ogg
435,192,32960,1,0,0:0:0:0:m_051.ogg
486,192,33120,1,0,0:0:0:0:m_055.ogg
435,192,33280,1,0,0:0:0:0:m_051.ogg
332,192,33440,1,0,0:0:0:0:m_048.ogg
281,192,33600,1,0,0:0:0:0:m_043.ogg
332,192,33760,1,0,0:0:0:0:m_048.ogg
435,192,33920,1,0,0:0:0:0:m_051.ogg
486,192,34080,1,0,0:0:0:0:m_055.ogg
435,192,34240,1,0,0:0:0:0:m_051.ogg
332,192,34400,1,0,0:0:0:0:s_048.ogg
25,192,34560,1,0,0:0:0:0:l_019.ogg
281,192,34560,1,0,0:0:0:0:l_043.ogg
76,192,34586,1,0,0:0:0:0:l_026.ogg
179,192,34613,1,0,0:0:0:0:l_035.ogg
332,192,34720,1,0,0:0:0:0:m_047.ogg
384,192,34880,1,0,0:0:0:0:m_050.ogg
486,192,35040,1,0,0:0:0:0:l_055.ogg
384,192,35200,1,0,0:0:0:0:m_050.ogg
332,192,35360,1,0,0:0:0:0:m_047.ogg
179,192,35520,1,0,0:0:0:0:m_038.ogg
332,192,35680,1,0,0:0:0:0:m_043.ogg
384,192,35840,1,0,0:0:0:0:m_047.ogg
435,192,36000,1,0,0:0:0:0:m_050.ogg
384,192,36160,1,0,0:0:0:0:m_047.ogg
332,192,36320,1,0,0:0:0:0:s_043.ogg
25,192,36480,1,0,0:0:0:0:l_019.ogg
281,192,36480,1,0,0:0:0:0:m_040.ogg
128,192,36520,1,0,0:0:0:0:l_035.ogg
384,192,36640,1,0,0:0:0:0:m_043.ogg
435,192,36800,1,0,0:0:0:0:m_047.ogg
486,192,36960,1,0,0:0:0:0:l_052.ogg
435,192,37120,1,0,0:0:0:0:m_047.ogg
384,192,37280,1,0,0:0:0:0:m_043.ogg
230,192,37440,1,0,0:0:0:0:s_040.ogg
332,192,37600,1,0,0:0:0:0:m_040.ogg
384,192,37760,1,0,0:0:0:0:m_043.ogg
435,192,37920,1,0,0:0:0:0:m_047.ogg
179,192,38080,1,0,0:0:0:0:m_035.ogg
384,192,38080,1,0,0:0:0:0:m_043.ogg
332,192,38240,1,0,0:0:0:0:s_040.ogg
25,192,38400,1,0,0:0:0:0:m_018.ogg
281,192,38400,1,0,0:0:0:0:m_037.ogg
128,192,38440,1,0,0:0:0:0:m_034.ogg
332,192,38560,1,0,0:0:0:0:m_042.ogg
384,192,38720,1,0,0:0:0:0:m_046.ogg
435,192,38880,1,0,0:0:0:0:m_049.ogg
384,192,39040,1,0,0:0:0:0:m_046.ogg
332,192,39200,1,0,0:0:0:0:s_042.ogg
76,192,39360,1,0,0:0:0:0:m_035.ogg
230,192,39360,1,0,0:0:0:0:m_040.ogg
281,192,39360,1,0,0:0:0:0:m_019.ogg
384,192,39520,1,0,0:0:0:0:m_043.ogg
435,192,39680,1,0,0:0:0:0:m_047.ogg
486,192,39840,1,0,0:0:0:0:m_052.ogg
179,192,40000,1,0,0:0:0:0:m_038.ogg
435,192,40000,1,0,0:0:0:0:m_047.ogg
384,192,40160,1,0,0:0:0:0:s_043.ogg
25,192,40320,1,0,0:0:0:0:m_034.ogg
128,192,40320,1,0,0:0:0:0:m_037.ogg
281,192,40320,1,0,0:0:0:0:m_018.ogg
332,192,40480,1,0,0:0:0:0:m_042.ogg
76,192,40640,1,0,0:0:0:0:m_036.ogg
384,192,40640,1,0,0:0:0:0:m_046.ogg
435,192,40800,1,0,0:0:0:0:m_049.ogg
128,192,40960,1,0,0:0:0:0:m_037.ogg
384,192,40960,1,0,0:0:0:0:m_046.ogg
332,192,41120,1,0,0:0:0:0:s_042.ogg
25,192,41280,1,0,0:0:0:0:m_019.ogg
281,192,41280,1,0,0:0:0:0:m_040.ogg
179,192,41320,1,0,0:0:0:0:m_035.ogg
332,192,41440,1,0,0:0:0:0:m_043.ogg
384,192,41600,1,0,0:0:0:0:m_047.ogg
435,192,41760,1,0,0:0:0:0:m_052.ogg
76,192,41920,1,0,0:0:0:0:m_038.ogg
384,192,41920,1,0,0:0:0:0:m_047.ogg
332,192,42080,1,0,0:0:0:0:s_043.ogg
25,192,42240,1,0,0:0:0:0:m_037.ogg
128,192,42240,1,0,0:0:0:0:m_018.ogg
281,192,42240,1,0,0:0:0:0:m_034.ogg
384,192,42400,1,0,0:0:0:0:m_042.ogg
76,192,42560,1,0,0:0:0:0:m_036.ogg
435,192,42560,1,0,0:0:0:0:m_046.ogg
486,192,42720,1,0,0:0:0:0:m_049.ogg
128,192,42880,1,0,0:0:0:0:m_037.ogg
435,192,42880,1,0,0:0:0:0:m_046.ogg
384,192,43040,1,0,0:0:0:0:s_042.ogg
179,192,43200,1,0,0:0:0:0:m_028.ogg
230,192,43200,1,0,0:0:0:0:m_043.ogg
281,192,43200,1,0,0:0:0:0:m_016.ogg
384,192,43360,1,0,0:0:0:0:m_047.ogg
76,192,43520,1,0,0:0:0:0:m_035.ogg
435,192,43520,1,0,0:0:0:0:m_049.ogg
486,192,43680,1,0,0:0:0:0:m_055.ogg
128,192,43840,1,0,0:0:0:0:m_037.ogg
435,192,43840,1,0,0:0:0:0:m_049.ogg
384,192,44000,1,0,0:0:0:0:s_047.ogg
332,192,44160,1,0,0:0:0:0:m_043.ogg
281,192,44480,1,0,0:0:0:0:m_042.ogg
230,192,44800,1,0,0:0:0:0:m_040.ogg
179,192,45120,1,0,0:0:0:0:m_038.ogg
128,192,45440,1,0,0:0:0:0:m_037.ogg
76,192,45760,1,0,0:0:0:0:m_035.ogg
25,192,46080,1,0,0:0:0:0:m_034.ogg
179,192,46720,1,0,0:0:0:0:m_053.ogg
25,192,47040,1,0,0:0:0:0:l_026.ogg
486,192,47040,1,0,0:0:0:0:m_054.ogg
76,192,47200,1,0,0:0:0:0:m_033.ogg
281,192,47200,1,0,0:0:0:0:m_042.ogg
128,192,47360,1,0,0:0:0:0:m_038.ogg
332,192,47360,1,0,0:0:0:0:m_045.ogg
230,192,47520,1,0,0:0:0:0:m_042.ogg
384,192,47520,1,0,0:0:0:0:m_050.ogg
128,192,47680,1,0,0:0:0:0:m_038.ogg
332,192,47680,1,0,0:0:0:0:m_045.ogg
76,192,47840,1,0,0:0:0:0:m_033.ogg
281,192,47840,1,0,0:0:0:0:m_042.ogg
486,192,48000,1,0,0:0:0:0:m_054.ogg
76,192,48160,1,0,0:0:0:0:m_033.ogg
281,192,48160,1,0,0:0:0:0:m_042.ogg
128,192,48320,1,0,0:0:0:0:m_038.ogg
332,192,48320,1,0,0:0:0:0:m_045.ogg
230,192,48480,1,0,0:0:0:0:m_042.ogg
384,192,48480,1,0,0:0:0:0:m_050.ogg
128,192,48640,1,0,0:0:0:0:m_038.ogg
332,192,48640,1,0,0:0:0:0:m_045.ogg
76,192,48800,1,0,0:0:0:0:s_033.ogg
281,192,48800,1,0,0:0:0:0:s_042.ogg
25,192,48960,1,0,0:0:0:0:l_025.ogg
486,192,48960,1,0,0:0:0:0:l_054.ogg
128,192,49120,1,0,0:0:0:0:m_034.ogg
332,192,49120,1,0,0:0:0:0:m_042.ogg
179,192,49280,1,0,0:0:0:0:m_040.ogg
384,192,49280,1,0,0:0:0:0:m_046.ogg
230,192,49440,1,0,0:0:0:0:m_042.ogg
435,192,49440,1,0,0:0:0:0:m_052.ogg
179,192,49600,1,0,0:0:0:0:m_040.ogg
384,192,49600,1,0,0:0:0:0:m_046.ogg
128,192,49760,1,0,0:0:0:0:m_034.ogg
332,192,49760,1,0,0:0:0:0:m_042.ogg
128,192,50080,1,0,0:0:0:0:m_034.ogg
332,192,50080,1,0,0:0:0:0:m_042.ogg
179,192,50240,1,0,0:0:0:0:m_040.ogg
384,192,50240,1,0,0:0:0:0:m_046.ogg
230,192,50400,1,0,0:0:0:0:m_042.ogg
435,192,50400,1,0,0:0:0:0:m_052.ogg
179,192,50560,1,0,0:0:0:0:m_040.ogg
486,192,50560,1,0,0:0:0:0:m_054.ogg
128,192,50720,1,0,0:0:0:0:s_034.ogg
332,192,50720,1,0,0:0:0:0:s_042.ogg
25,192,50880,1,0,0:0:0:0:m_024.ogg
486,192,50880,1,0,0:0:0:0:m_054.ogg
76,192,51040,1,0,0:0:0:0:m_033.ogg
281,192,51040,1,0,0:0:0:0:m_042.ogg
179,192,51200,1,0,0:0:0:0:m_040.ogg
332,192,51200,1,0,0:0:0:0:m_045.ogg
230,192,51360,1,0,0:0:0:0:m_042.ogg
384,192,51360,1,0,0:0:0:0:m_052.ogg
179,192,51520,1,0,0:0:0:0:m_040.ogg
486,192,51520,1,0,0:0:0:0:m_054.ogg
76,192,51680,1,0,0:0:0:0:s_033.ogg
281,192,51680,1,0,0:0:0:0:s_042.ogg
25,192,51840,1,0,0:0:0:0:m_023.ogg
435,192,51840,1,0,0:0:0:0:m_055.ogg
76,192,52000,1,0,0:0:0:0:m_033.ogg
281,192,52000,1,0,0:0:0:0:m_042.ogg
128,192,52160,1,0,0:0:0:0:m_039.ogg
332,192,52160,1,0,0:0:0:0:m_045.ogg
230,192,52320,1,0,0:0:0:0:m_042.ogg
384,192,52320,1,0,0:0:0:0:m_051.ogg
128,192,52480,1,0,0:0:0:0:m_039.ogg
486,192,52480,1,0,0:0:0:0:m_054.ogg
76,192,52640,1,0,0:0:0:0:s_033.ogg
281,192,52640,1,0,0:0:0:0:s_042.ogg
25,192,52800,1,0,0:0:0:0:m_016.ogg
486,192,52800,1,0,0:0:0:0:m_054.ogg
76,192,52960,1,0,0:0:0:0:m_032.ogg
281,192,52960,1,0,0:0:0:0:m_042.ogg
128,192,53120,1,0,0:0:0:0:m_038.ogg
332,192,53120,1,0,0:0:0:0:m_044.ogg
179,192,53280,1,0,0:0:0:0:m_042.ogg
384,192,53280,1,0,0:0:0:0:m_050.ogg
128,192,53440,1,0,0:0:0:0:m_038.ogg
332,192,53440,1,0,0:0:0:0:m_044.ogg
76,192,53600,1,0,0:0:0:0:s_032.ogg
281,192,53600,1,0,0:0:0:0:s_042.ogg
435,192,53760,1,0,0:0:0:0:m_047.ogg
25,192,53920,1,0,0:0:0:0:m_028.ogg
281,192,53920,1,0,0:0:0:0:m_038.ogg
76,192,54080,1,0,0:0:0:0:m_032.ogg
332,192,54080,1,0,0:0:0:0:m_040.ogg
128,192,54240,1,0,0:0:0:0:m_038.ogg
384,192,54240,1,0,0:0:0:0:m_044.ogg
76,192,54400,1,0,0:0:0:0:m_032.ogg
435,192,54400,1,0,0:0:0:0:m_047.ogg
25,192,54560,1,0,0:0:0:0:s_028.ogg
281,192,54560,1,0,0:0:0:0:s_038.ogg
76,192,54720,1,0,0:0:0:0:m_021.ogg
435,192,54720,1,0,0:0:0:0:m_047.ogg
128,192,54880,1,0,0:0:0:0:m_031.ogg
281,192,54880,1,0,0:0:0:0:m_040.ogg
179,192,55040,1,0,0:0:0:0:m_033.ogg
486,192,55040,1,0,0:0:0:0:m_049.ogg
230,192,55200,1,0,0:0:0:0:m_040.ogg
384,192,55200,1,0,0:0:0:0:m_045.ogg
179,192,55360,1,0,0:0:0:0:m_033.ogg
486,192,55360,1,0,0:0:0:0:m_050.ogg
128,192,55520,1,0,0:0:0:0:s_031.ogg
281,192,55520,1,0,0:0:0:0:s_040.ogg
486,192,55680,1,0,0:0:0:0:m_054.ogg
76,192,55840,1,0,0:0:0:0:m_033.ogg
281,192,55840,1,0,0:0:0:0:m_043.ogg
179,192,56000,1,0,0:0:0:0:m_037.ogg
332,192,56000,1,0,0:0:0:0:m_045.ogg
230,192,56160,1,0,0:0:0:0:m_043.ogg
384,192,56160,1,0,0:0:0:0:m_049.ogg
179,192,56320,1,0,0:0:0:0:m_037.ogg
435,192,56320,1,0,0:0:0:0:m_052.ogg
76,192,56480,1,0,0:0:0:0:s_033.ogg
281,192,56480,1,0,0:0:0:0:s_043.ogg
435,192,56640,1,0,0:0:0:0:m_052.ogg
25,192,56800,1,0,0:0:0:0:m_026.ogg
384,192,56800,1,0,0:0:0:0:m_042.ogg
128,192,56960,1,0,0:0:0:0:m_033.ogg
486,192,56960,1,0,0:0:0:0:m_050.ogg
230,192,57120,1,0,0:0:0:0:m_038.ogg
332,192,57120,1,0,0:0:0:0:m_042.ogg
76,192,57280,1,0,0:0:0:0:m_032.ogg
435,192,57280,1,0,0:0:0:0:m_047.ogg
179,192,57440,1,0,0:0:0:0:s_038.ogg
281,192,57440,1,0,0:0:0:0:s_041.ogg
128,192,57600,1,0,0:0:0:0:s_033.ogg
384,192,57600,1,0,0:0:0:0:m_045.ogg
230,192,57760,1,0,0:0:0:0:s_042.ogg
179,192,57920,1,0,0:0:0:0:s_040.ogg
128,192,58080,1,0,0:0:0:0:s_038.ogg
76,192,58240,1,0,0:0:0:0:s_035.ogg
25,192,58400,1,0,0:0:0:0:s_033.ogg
332,192,58400,1,0,0:0:0:0:s_045.ogg
25,192,58560,1,0,0:0:0:0:m_026.ogg
486,192,58560,1,0,0:0:0:0:m_054.ogg
76,192,58720,1,0,0:0:0:0:m_033.ogg
281,192,58720,1,0,0:0:0:0:m_042.ogg
128,192,58880,1,0,0:0:0:0:m_038.ogg
332,192,58880,1,0,0:0:0:0:m_045.ogg
230,192,59040,1,0,0:0:0:0:m_042.ogg
384,192,59040,1,0,0:0:0:0:m_050.ogg
128,192,59200,1,0,0:0:0:0:m_038.ogg
332,192,59200,1,0,0:0:0:0:m_045.ogg
76,192,59360,1,0,0:0:0:0:s_033.ogg
281,192,59360,1,0,0:0:0:0:s_042.ogg
25,192,59520,1,0,0:0:0:0:m_025.ogg
486,192,59520,1,0,0:0:0:0:m_054.ogg
128,192,59680,1,0,0:0:0:0:m_034.ogg
281,192,59680,1,0,0:0:0:0:m_042.ogg
179,192,59840,1,0,0:0:0:0:m_040.ogg
384,192,59840,1,0,0:0:0:0:m_046.ogg
230,192,60000,1,0,0:0:0:0:m_042.ogg
435,192,60000,1,0,0:0:0:0:m_052.ogg
179,192,60160,1,0,0:0:0:0:m_040.ogg
384,192,60160,1,0,0:0:0:0:m_046.ogg
128,192,60320,1,0,0:0:0:0:s_034.ogg
281,192,60320,1,0,0:0:0:0:s_042.ogg
25,192,60480,1,0,0:0:0:0:m_024.ogg
486,192,60480,1,0,0:0:0:0:m_054.ogg
76,192,60640,1,0,0:0:0:0:m_033.ogg
281,192,60640,1,0,0:0:0:0:m_042.ogg
128,192,60800,1,0,0:0:0:0:m_039.ogg
332,192,60800,1,0,0:0:0:0:m_045.ogg
230,192,60960,1,0,0:0:0:0:m_042.ogg
384,192,60960,1,0,0:0:0:0:m_051.ogg
128,192,61120,1,0,0:0:0:0:m_039.ogg
332,192,61120,1,0,0:0:0:0:m_045.ogg
76,192,61280,1,0,0:0:0:0:s_033.ogg
281,192,61280,1,0,0:0:0:0:s_042.ogg
25,192,61440,1,0,0:0:0:0:m_023.ogg
76,192,61600,1,0,0:0:0:0:m_033.ogg
281,192,61600,1,0,0:0:0:0:m_042.ogg
128,192,61760,1,0,0:0:0:0:m_039.ogg
332,192,61760,1,0,0:0:0:0:m_045.ogg
230,192,61920,1,0,0:0:0:0:m_042.ogg
384,192,61920,1,0,0:0:0:0:m_051.ogg
128,192,62080,1,0,0:0:0:0:m_039.ogg
486,192,62080,1,0,0:0:0:0:m_054.ogg
76,192,62240,1,0,0:0:0:0:s_033.ogg
281,192,62240,1,0,0:0:0:0:s_042.ogg
25,192,62400,1,0,0:0:0:0:l_022.ogg
486,192,62400,1,0,0:0:0:0:m_054.ogg
128,192,62560,1,0,0:0:0:0:m_034.ogg
281,192,62560,1,0,0:0:0:0:m_043.ogg
179,192,62720,1,0,0:0:0:0:m_039.ogg
332,192,62720,1,0,0:0:0:0:m_046.ogg
230,192,62880,1,0,0:0:0:0:m_043.ogg
384,192,62880,1,0,0:0:0:0:m_051.ogg
179,192,63040,1,0,0:0:0:0:m_039.ogg
486,192,63040,1,0,0:0:0:0:m_055.ogg
128,192,63200,1,0,0:0:0:0:m_034.ogg
281,192,63200,1,0,0:0:0:0:m_043.ogg
435,192,63360,1,0,0:0:0:0:m_054.ogg
128,192,63520,1,0,0:0:0:0:m_034.ogg
281,192,63520,1,0,0:0:0:0:m_043.ogg
179,192,63680,1,0,0:0:0:0:m_039.ogg
332,192,63680,1,0,0:0:0:0:m_046.ogg
230,192,63840,1,0,0:0:0:0:m_043.ogg
384,192,63840,1,0,0:0:0:0:m_051.ogg
179,192,64000,1,0,0:0:0:0:m_039.ogg
435,192,64000,1,0,0:0:0:0:m_055.ogg
128,192,64160,1,0,0:0:0:0:s_034.ogg
281,192,64160,1,0,0:0:0:0:s_043.ogg
25,192,64320,1,0,0:0:0:0:m_022.ogg
486,192,64320,1,0,0:0:0:0:l_056.ogg
76,192,64480,1,0,0:0:0:0:m_036.ogg
332,192,64480,1,0,0:0:0:0:m_044.ogg
128,192,64640,1,0,0:0:0:0:m_039.ogg
384,192,64640,1,0,0:0:0:0:m_048.ogg
179,192,64800,1,0,0:0:0:0:m_044.ogg
435,192,64800,1,0,0:0:0:0:m_051.ogg
128,192,64960,1,0,0:0:0:0:m_039.ogg
384,192,64960,1,0,0:0:0:0:m_048.ogg
76,192,65120,1,0,0:0:0:0:s_036.ogg
332,192,65120,1,0,0:0:0:0:s_044.ogg
281,192,65920,1,0,0:0:0:0:m_048.ogg
384,192,65920,1,0,0:0:0:0:m_036.ogg
281,192,66240,1,0,0:0:0:0:m_036.ogg
384,192,66240,1,0,0:0:0:0:m_048.ogg
76,192,66400,1,0,0:0:0:0:m_022.ogg
128,192,66560,1,0,0:0:0:0:m_029.ogg
332,192,66560,1,0,0:0:0:0:m_038.ogg
435,192,66560,1,0,0:0:0:0:m_050.ogg
179,192,66720,1,0,0:0:0:0:m_036.ogg
128,192,66880,1,0,0:0:0:0:m_032.ogg
384,192,66880,1,0,0:0:0:0:m_051.ogg
486,192,66880,1,0,0:0:0:0:m_039.ogg
76,192,67040,1,0,0:0:0:0:s_022.ogg
25,192,67200,1,0,0:0:0:0:m_022.ogg
435,192,67200,1,0,0:0:0:0:m_043.ogg
128,192,67226,1,0,0:0:0:0:m_032.ogg
486,192,67240,1,0,0:0:0:0:m_055.ogg
230,192,67253,1,0,0:0:0:0:m_038.ogg
384,192,67840,1,0,0:0:0:0:m_053.ogg
486,192,67840,1,0,0:0:0:0:m_041.ogg
76,192,68160,1,0,0:0:0:0:l_031.ogg
179,192,68160,1,0,0:0:0:0:l_015.ogg
332,192,68160,1,0,0:0:0:0:m_046.ogg
435,192,68160,1,0,0:0:0:0:m_039.ogg
486,192,68480,1,0,0:0:0:0:l_051.ogg
332,192,68640,1,0,0:0:0:0:m_043.ogg
435,192,68800,1,0,0:0:0:0:l_046.ogg
230,192,68960,1,0,0:0:0:0:m_039.ogg
332,192,69120,1,0,0:0:0:0:m_043.ogg
179,192,69280,1,0,0:0:0:0:m_034.ogg
281,192,69440,1,0,0:0:0:0:m_039.ogg
76,192,69600,1,0,0:0:0:0:m_031.ogg
179,192,69760,1,0,0:0:0:0:m_034.ogg
25,192,69920,1,0,0:0:0:0:s_027.ogg
281,192,69920,1,0,0:0:0:0:s_051.ogg
435,192,69920,1,0,0:0:0:0:s_063.ogg
128,192,70080,1,0,0:0:0:0:m_032.ogg
281,192,70080,1,0,0:0:0:0:m_059.ogg
435,192,70080,1,0,0:0:0:0:m_063.ogg
230,192,70400,1,0,0:0:0:0:m_047.ogg
179,192,70560,1,0,0:0:0:0:m_039.ogg
230,192,70720,1,0,0:0:0:0:m_044.ogg
128,192,70880,1,0,0:0:0:0:s_035.ogg
281,192,70880,1,0,0:0:0:0:s_062.ogg
384,192,70880,1,0,0:0:0:0:s_059.ogg
179,192,71040,1,0,0:0:0:0:m_039.ogg
332,192,71040,1,0,0:0:0:0:m_059.ogg
435,192,71040,1,0,0:0:0:0:m_063.ogg
76,192,71200,1,0,0:0:0:0:m_032.ogg
128,192,71360,1,0,0:0:0:0:m_035.ogg
25,192,71520,1,0,0:0:0:0:m_027.ogg
76,192,71680,1,0,0:0:0:0:m_032.ogg
25,192,71840,1,0,0:0:0:0:s_023.ogg
332,192,71840,1,0,0:0:0:0:s_053.ogg
435,192,71840,1,0,0:0:0:0:s_056.ogg
128,192,72000,1,0,0:0:0:0:m_015.ogg
384,192,72000,1,0,0:0:0:0:m_058.ogg
486,192,72000,1,0,0:0:0:0:m_055.ogg
230,192,72320,1,0,0:0:0:0:m_051.ogg
179,192,72480,1,0,0:0:0:0:m_043.ogg
230,192,72640,1,0,0:0:0:0:m_046.ogg
128,192,72800,1,0,0:0:0:0:s_039.ogg
332,192,72800,1,0,0:0:0:0:s_065.ogg
435,192,72800,1,0,0:0:0:0:s_053.ogg
179,192,72960,1,0,0:0:0:0:m_043.ogg
281,192,72960,1,0,0:0:0:0:m_063.ogg
384,192,72960,1,0,0:0:0:0:m_051.ogg
76,192,73120,1,0,0:0:0:0:m_034.ogg
128,192,73280,1,0,0:0:0:0:m_039.ogg
25,192,73440,1,0,0:0:0:0:m_031.ogg
76,192,73600,1,0,0:0:0:0:m_034.ogg
25,192,73760,1,0,0:0:0:0:s_027.ogg
332,192,73760,1,0,0:0:0:0:s_055.ogg
486,192,73760,1,0,0:0:0:0:s_067.ogg
128,192,73920,1,0,0:0:0:0:m_024.ogg
332,192,73920,1,0,0:0:0:0:m_063.ogg
486,192,73920,1,0,0:0:0:0:m_067.ogg
230,192,74240,1,0,0:0:0:0:m_051.ogg
179,192,74400,1,0,0:0:0:0:m_043.ogg
230,192,74560,1,0,0:0:0:0:m_048.ogg
128,192,74720,1,0,0:0:0:0:s_039.ogg
281,192,74720,1,0,0:0:0:0:s_066.ogg
435,192,74720,1,0,0:0:0:0:s_060.ogg
179,192,74880,1,0,0:0:0:0:m_043.ogg
332,192,74880,1,0,0:0:0:0:m_055.ogg
486,192,74880,1,0,0:0:0:0:m_063.ogg
76,192,75040,1,0,0:0:0:0:m_036.ogg
128,192,75200,1,0,0:0:0:0:m_039.ogg
25,192,75360,1,0,0:0:0:0:m_031.ogg
76,192,75520,1,0,0:0:0:0:m_036.ogg
25,192,75680,1,0,0:0:0:0:s_027.ogg
281,192,75680,1,0,0:0:0:0:s_057.ogg
384,192,75680,1,0,0:0:0:0:s_069.ogg
128,192,75840,1,0,0:0:0:0:m_019.ogg
435,192,75840,1,0,0:0:0:0:m_059.ogg
486,192,75840,1,0,0:0:0:0:m_071.ogg
179,192,76000,1,0,0:0:0:0:m_038.ogg
332,192,76000,1,0,0:0:0:0:m_050.ogg
128,192,76160,1,0,0:0:0:0:m_035.ogg
435,192,76160,1,0,0:0:0:0:m_055.ogg
230,192,76320,1,0,0:0:0:0:m_043.ogg
281,192,76320,1,0,0:0:0:0:m_047.ogg
179,192,76480,1,0,0:0:0:0:m_038.ogg
384,192,76480,1,0,0:0:0:0:m_050.ogg
128,192,76640,1,0,0:0:0:0:m_035.ogg
435,192,76640,1,0,0:0:0:0:m_055.ogg
25,192,76800,1,0,0:0:0:0:m_019.ogg
486,192,76800,1,0,0:0:0:0:m_071.ogg
179,192,76960,1,0,0:0:0:0:m_038.ogg
332,192,76960,1,0,0:0:0:0:m_050.ogg
128,192,77120,1,0,0:0:0:0:m_035.ogg
384,192,77120,1,0,0:0:0:0:m_055.ogg
230,192,77280,1,0,0:0:0:0:m_043.ogg
281,192,77280,1,0,0:0:0:0:m_047.ogg
179,192,77440,1,0,0:0:0:0:m_038.ogg
332,192,77440,1,0,0:0:0:0:m_050.ogg
128,192,77600,1,0,0:0:0:0:s_035.ogg
384,192,77600,1,0,0:0:0:0:s_055.ogg
25,192,77760,1,0,0:0:0:0:m_030.ogg
486,192,77760,1,0,0:0:0:0:l_071.ogg
179,192,77920,1,0,0:0:0:0:m_039.ogg
332,192,77920,1,0,0:0:0:0:m_051.ogg
128,192,78080,1,0,0:0:0:0:m_035.ogg
384,192,78080,1,0,0:0:0:0:m_057.ogg
230,192,78240,1,0,0:0:0:0:m_045.ogg
281,192,78240,1,0,0:0:0:0:l_047.ogg
179,192,78400,1,0,0:0:0:0:m_039.ogg
332,192,78400,1,0,0:0:0:0:m_051.ogg
128,192,78560,1,0,0:0:0:0:m_035.ogg
384,192,78560,1,0,0:0:0:0:m_057.ogg
76,192,78720,1,0,0:0:0:0:m_030.ogg
435,192,78720,1,0,0:0:0:0:m_059.ogg
179,192,78880,1,0,0:0:0:0:m_039.ogg
332,192,78880,1,0,0:0:0:0:m_051.ogg
128,192,79040,1,0,0:0:0:0:m_035.ogg
384,192,79040,1,0,0:0:0:0:m_057.ogg
179,192,79200,1,0,0:0:0:0:m_045.ogg
332,192,79200,1,0,0:0:0:0:m_051.ogg
128,192,79360,1,0,0:0:0:0:m_039.ogg
76,192,79520,1,0,0:0:0:0:s_035.ogg
435,192,79520,1,0,0:0:0:0:s_071.ogg
486,192,79520,1,0,0:0:0:0:s_059.ogg
76,192,79680,1,0,0:0:0:0:m_029.ogg
435,192,79680,1,0,0:0:0:0:m_071.ogg
486,192,79680,1,0,0:0:0:0:m_059.ogg
179,192,79840,1,0,0:0:0:0:m_038.ogg
332,192,79840,1,0,0:0:0:0:m_050.ogg
128,192,80000,1,0,0:0:0:0:m_035.ogg
384,192,80000,1,0,0:0:0:0:m_055.ogg
230,192,80160,1,0,0:0:0:0:m_045.ogg
281,192,80160,1,0,0:0:0:0:m_047.ogg
179,192,80320,1,0,0:0:0:0:m_038.ogg
128,192,80480,1,0,0:0:0:0:s_035.ogg
384,192,80480,1,0,0:0:0:0:s_059.ogg
486,192,80480,1,0,0:0:0:0:s_071.ogg
25,192,80640,1,0,0:0:0:0:m_028.ogg
435,192,80640,1,0,0:0:0:0:m_060.ogg
486,192,80640,1,0,0:0:0:0:m_072.ogg
179,192,80800,1,0,0:0:0:0:m_038.ogg
332,192,80800,1,0,0:0:0:0:m_050.ogg
76,192,80960,1,0,0:0:0:0:m_035.ogg
384,192,80960,1,0,0:0:0:0:m_056.ogg
230,192,81120,1,0,0:0:0:0:m_044.ogg
281,192,81120,1,0,0:0:0:0:m_047.ogg
179,192,81280,1,0,0:0:0:0:m_038.ogg
128,192,81440,1,0,0:0:0:0:s_035.ogg
435,192,81440,1,0,0:0:0:0:s_059.ogg
486,192,81440,1,0,0:0:0:0:s_071.ogg
25,192,81600,1,0,0:0:0:0:l_021.ogg
435,192,81600,1,0,0:0:0:0:l_071.ogg
486,192,81600,1,0,0:0:0:0:l_059.ogg
76,192,81760,1,0,0:0:0:0:l_031.ogg
128,192,81920,1,0,0:0:0:0:s_037.ogg
76,192,82080,1,0,0:0:0:0:m_037.ogg
128,192,82240,1,0,0:0:0:0:m_043.ogg
179,192,82400,1,0,0:0:0:0:s_047.ogg
230,192,82560,1,0,0:0:0:0:m_047.ogg
281,192,82560,1,0,0:0:0:0:m_064.ogg
384,192,82560,1,0,0:0:0:0:m_052.ogg
179,192,82720,1,0,0:0:0:0:m_043.ogg
128,192,82880,1,0,0:0:0:0:s_037.ogg
179,192,83040,1,0,0:0:0:0:m_037.ogg
128,192,83200,1,0,0:0:0:0:m_031.ogg
281,192,83200,1,0,0:0:0:0:m_064.ogg
384,192,83200,1,0,0:0:0:0:m_052.ogg
76,192,83360,1,0,0:0:0:0:s_021.ogg
25,192,83520,1,0,0:0:0:0:m_014.ogg
281,192,83520,1,0,0:0:0:0:m_060.ogg
384,192,83520,1,0,0:0:0:0:m_052.ogg
76,192,83680,1,0,0:0:0:0:m_026.ogg
128,192,83840,1,0,0:0:0:0:m_033.ogg
332,192,83840,1,0,0:0:0:0:m_062.ogg
435,192,83840,1,0,0:0:0:0:m_066.ogg
179,192,84000,1,0,0:0:0:0:m_036.ogg
76,192,84160,1,0,0:0:0:0:m_040.ogg
384,192,84160,1,0,0:0:0:0:m_062.ogg
486,192,84160,1,0,0:0:0:0:m_060.ogg
128,192,84320,1,0,0:0:0:0:s_043.ogg
230,192,84480,1,0,0:0:0:0:m_047.ogg
435,192,84480,1,0,0:0:0:0:m_066.ogg
486,192,84480,1,0,0:0:0:0:m_059.ogg
179,192,84640,1,0,0:0:0:0:m_042.ogg
128,192,84800,1,0,0:0:0:0:m_038.ogg
76,192,84960,1,0,0:0:0:0:m_036.ogg
179,192,85120,1,0,0:0:0:0:m_030.ogg
384,192,85120,1,0,0:0:0:0:m_057.ogg
486,192,85120,1,0,0:0:0:0:m_069.ogg
128,192,85280,1,0,0:0:0:0:s_026.ogg
25,192,85440,1,0,0:0:0:0:m_019.ogg
384,192,85440,1,0,0:0:0:0:m_062.ogg
486,192,85440,1,0,0:0:0:0:m_069.ogg
76,192,85600,1,0,0:0:0:0:m_026.ogg
128,192,85760,1,0,0:0:0:0:m_031.ogg
332,192,85760,1,0,0:0:0:0:m_067.ogg
435,192,85760,1,0,0:0:0:0:m_055.ogg
179,192,85920,1,0,0:0:0:0:s_035.ogg
76,192,86080,1,0,0:0:0:0:m_037.ogg
281,192,86080,1,0,0:0:0:0:m_064.ogg
384,192,86080,1,0,0:0:0:0:m_058.ogg
179,192,86240,1,0,0:0:0:0:s_043.ogg
128,192,86400,1,0,0:0:0:0:m_038.ogg
281,192,86400,1,0,0:0:0:0:m_062.ogg
332,192,86400,1,0,0:0:0:0:m_050.ogg
230,192,86560,1,0,0:0:0:0:m_047.ogg
179,192,86720,1,0,0:0:0:0:m_043.ogg
128,192,86880,1,0,0:0:0:0:m_038.ogg
76,192,87040,1,0,0:0:0:0:m_035.ogg
281,192,87040,1,0,0:0:0:0:m_062.ogg
332,192,87040,1,0,0:0:0:0:m_050.ogg
25,192,87200,1,0,0:0:0:0:s_026.ogg
76,192,87360,1,0,0:0:0:0:m_031.ogg
435,192,87360,1,0,0:0:0:0:m_071.ogg
486,192,87360,1,0,0:0:0:0:m_059.ogg
179,192,87520,1,0,0:0:0:0:m_038.ogg
332,192,87520,1,0,0:0:0:0:m_050.ogg
128,192,87680,1,0,0:0:0:0:m_035.ogg
384,192,87680,1,0,0:0:0:0:m_055.ogg
230,192,87840,1,0,0:0:0:0:m_043.ogg
281,192,87840,1,0,0:0:0:0:m_047.ogg
179,192,88000,1,0,0:0:0:0:m_038.ogg
332,192,88000,1,0,0:0:0:0:m_050.ogg
128,192,88160,1,0,0:0:0:0:s_035.ogg
384,192,88160,1,0,0:0:0:0:s_055.ogg
25,192,88320,1,0,0:0:0:0:m_018.ogg
486,192,88320,1,0,0:0:0:0:m_071.ogg
179,192,88480,1,0,0:0:0:0:m_039.ogg
332,192,88480,1,0,0:0:0:0:m_051.ogg
128,192,88640,1,0,0:0:0:0:m_035.ogg
384,192,88640,1,0,0:0:0:0:m_057.ogg
230,192,88800,1,0,0:0:0:0:m_045.ogg
281,192,88800,1,0,0:0:0:0:m_047.ogg
179,192,88960,1,0,0:0:0:0:m_039.ogg
332,192,88960,1,0,0:0:0:0:m_051.ogg
128,192,89120,1,0,0:0:0:0:s_035.ogg
384,192,89120,1,0,0:0:0:0:s_057.ogg
25,192,89280,1,0,0:0:0:0:m_017.ogg
486,192,89280,1,0,0:0:0:0:l_071.ogg
179,192,89440,1,0,0:0:0:0:m_038.ogg
332,192,89440,1,0,0:0:0:0:m_050.ogg
128,192,89600,1,0,0:0:0:0:m_035.ogg
384,192,89600,1,0,0:0:0:0:m_056.ogg
230,192,89760,1,0,0:0:0:0:m_044.ogg
281,192,89760,1,0,0:0:0:0:m_047.ogg
179,192,89920,1,0,0:0:0:0:m_038.ogg
332,192,89920,1,0,0:0:0:0:m_050.ogg
128,192,90080,1,0,0:0:0:0:s_035.ogg
384,192,90080,1,0,0:0:0:0:s_056.ogg
76,192,90240,1,0,0:0:0:0:m_028.ogg
435,192,90240,1,0,0:0:0:0:m_059.ogg
179,192,90400,1,0,0:0:0:0:m_038.ogg
332,192,90400,1,0,0:0:0:0:m_050.ogg
128,192,90560,1,0,0:0:0:0:m_035.ogg
384,192,90560,1,0,0:0:0:0:m_056.ogg
230,192,90720,1,0,0:0:0:0:m_044.ogg
281,192,90720,1,0,0:0:0:0:m_047.ogg
179,192,90880,1,0,0:0:0:0:m_038.ogg
332,192,90880,1,0,0:0:0:0:m_050.ogg
128,192,91040,1,0,0:0:0:0:s_035.ogg
384,192,91040,1,0,0:0:0:0:s_056.ogg
25,192,91200,1,0,0:0:0:0:m_015.ogg
486,192,91200,1,0,0:0:0:0:m_071.ogg
179,192,91360,1,0,0:0:0:0:m_039.ogg
332,192,91360,1,0,0:0:0:0:m_051.ogg
128,192,91520,1,0,0:0:0:0:m_035.ogg
384,192,91520,1,0,0:0:0:0:m_056.ogg
230,192,91680,1,0,0:0:0:0:m_044.ogg
281,192,91680,1,0,0:0:0:0:m_047.ogg
179,192,91840,1,0,0:0:0:0:m_039.ogg
332,192,91840,1,0,0:0:0:0:m_051.ogg
128,192,92000,1,0,0:0:0:0:s_035.ogg
384,192,92000,1,0,0:0:0:0:s_056.ogg
25,192,92160,1,0,0:0:0:0:m_026.ogg
486,192,92160,1,0,0:0:0:0:m_071.ogg
179,192,92320,1,0,0:0:0:0:m_040.ogg
332,192,92320,1,0,0:0:0:0:m_052.ogg
128,192,92480,1,0,0:0:0:0:m_035.ogg
384,192,92480,1,0,0:0:0:0:m_056.ogg
230,192,92640,1,0,0:0:0:0:m_044.ogg
281,192,92640,1,0,0:0:0:0:m_047.ogg
179,192,92800,1,0,0:0:0:0:m_040.ogg
332,192,92800,1,0,0:0:0:0:m_052.ogg
128,192,92960,1,0,0:0:0:0:s_035.ogg
384,192,92960,1,0,0:0:0:0:s_056.ogg
25,192,93120,1,0,0:0:0:0:l_025.ogg
435,192,93120,1,0,0:0:0:0:l_065.ogg
486,192,93120,1,0,0:0:0:0:l_071.ogg
128,192,93280,1,0,0:0:0:0:m_035.ogg
179,192,93440,1,0,0:0:0:0:m_041.ogg
230,192,93600,1,0,0:0:0:0:m_044.ogg
179,192,93760,1,0,0:0:0:0:m_041.ogg
384,192,93760,1,0,0:0:0:0:m_058.ogg
435,192,93760,1,0,0:0:0:0:l_070.ogg
128,192,93920,1,0,0:0:0:0:m_035.ogg
76,192,94080,1,0,0:0:0:0:m_032.ogg
332,192,94080,1,0,0:0:0:0:m_056.ogg
384,192,94080,1,0,0:0:0:0:m_068.ogg
128,192,94240,1,0,0:0:0:0:m_035.ogg
179,192,94400,1,0,0:0:0:0:m_041.ogg
281,192,94400,1,0,0:0:0:0:m_046.ogg
384,192,94400,1,0,0:0:0:0:m_058.ogg
230,192,94560,1,0,0:0:0:0:m_044.ogg
179,192,94720,1,0,0:0:0:0:m_041.ogg
332,192,94720,1,0,0:0:0:0:m_059.ogg
435,192,94720,1,0,0:0:0:0:m_047.ogg
128,192,94880,1,0,0:0:0:0:s_035.ogg
25,192,95040,1,0,0:0:0:0:m_018.ogg
384,192,95040,1,0,0:0:0:0:m_051.ogg
486,192,95040,1,0,0:0:0:0:m_063.ogg
76,192,95200,1,0,0:0:0:0:m_028.ogg
128,192,95360,1,0,0:0:0:0:m_032.ogg
179,192,95520,1,0,0:0:0:0:m_035.ogg
76,192,95680,1,0,0:0:0:0:m_037.ogg
128,192,95840,1,0,0:0:0:0:s_040.ogg
230,192,96000,1,0,0:0:0:0:m_044.ogg
281,192,96000,1,0,0:0:0:0:m_061.ogg
384,192,96000,1,0,0:0:0:0:m_049.ogg
179,192,96160,1,0,0:0:0:0:m_040.ogg
128,192,96320,1,0,0:0:0:0:m_037.ogg
76,192,96480,1,0,0:0:0:0:m_035.ogg
179,192,96640,1,0,0:0:0:0:m_032.ogg
435,192,96640,1,0,0:0:0:0:m_071.ogg
486,192,96640,1,0,0:0:0:0:m_059.ogg
128,192,96800,1,0,0:0:0:0:s_028.ogg
25,192,96960,1,0,0:0:0:0:l_025.ogg
435,192,96960,1,0,0:0:0:0:m_071.ogg
486,192,96960,1,0,0:0:0:0:m_059.ogg
128,192,97120,1,0,0:0:0:0:m_035.ogg
179,192,97280,1,0,0:0:0:0:m_041.ogg
230,192,97440,1,0,0:0:0:0:m_044.ogg
332,192,97440,1,0,0:0:0:0:m_070.ogg
384,192,97440,1,0,0:0:0:0:m_058.ogg
179,192,97600,1,0,0:0:0:0:m_041.ogg
486,192,97600,1,0,0:0:0:0:l_073.ogg
435,192,97706,1,0,0:0:0:0:m_059.ogg
128,192,97760,1,0,0:0:0:0:m_035.ogg
384,192,97813,1,0,0:0:0:0:m_058.ogg
76,192,97920,1,0,0:0:0:0:m_032.ogg
332,192,97920,1,0,0:0:0:0:m_068.ogg
128,192,98080,1,0,0:0:0:0:m_035.ogg
179,192,98240,1,0,0:0:0:0:m_041.ogg
281,192,98240,1,0,0:0:0:0:m_058.ogg
384,192,98240,1,0,0:0:0:0:m_046.ogg
230,192,98400,1,0,0:0:0:0:m_044.ogg
179,192,98560,1,0,0:0:0:0:m_041.ogg
332,192,98560,1,0,0:0:0:0:m_059.ogg
435,192,98560,1,0,0:0:0:0:m_047.ogg
128,192,98720,1,0,0:0:0:0:s_035.ogg
25,192,98880,1,0,0:0:0:0:m_018.ogg
384,192,98880,1,0,0:0:0:0:m_051.ogg
486,192,98880,1,0,0:0:0:0:m_059.ogg
76,192,99040,1,0,0:0:0:0:m_028.ogg
128,192,99200,1,0,0:0:0:0:m_032.ogg
179,192,99360,1,0,0:0:0:0:m_035.ogg
76,192,99520,1,0,0:0:0:0:m_037.ogg
128,192,99680,1,0,0:0:0:0:s_040.ogg
230,192,99840,1,0,0:0:0:0:m_044.ogg
281,192,99840,1,0,0:0:0:0:m_061.ogg
384,192,99840,1,0,0:0:0:0:m_049.ogg
179,192,100000,1,0,0:0:0:0:m_040.ogg
128,192,100160,1,0,0:0:0:0:m_037.ogg
76,192,100320,1,0,0:0:0:0:m_035.ogg
179,192,100480,1,0,0:0:0:0:m_032.ogg
435,192,100480,1,0,0:0:0:0:m_071.ogg
486,192,100480,1,0,0:0:0:0:m_059.ogg
128,192,100640,1,0,0:0:0:0:s_028.ogg
25,192,100800,1,0,0:0:0:0:m_014.ogg
435,192,100800,1,0,0:0:0:0:m_059.ogg
486,192,100800,1,0,0:0:0:0:m_065.ogg
128,192,100960,1,0,0:0:0:0:m_035.ogg
179,192,101120,1,0,0:0:0:0:m_041.ogg
230,192,101280,1,0,0:0:0:0:m_044.ogg
281,192,101280,1,0,0:0:0:0:m_070.ogg
179,192,101440,1,0,0:0:0:0:m_041.ogg
384,192,101440,1,0,0:0:0:0:m_061.ogg
128,192,101600,1,0,0:0:0:0:s_035.ogg
332,192,101600,1,0,0:0:0:0:s_059.ogg
25,192,101760,1,0,0:0:0:0:l_013.ogg
435,192,101760,1,0,0:0:0:0:l_074.ogg
128,192,101920,1,0,0:0:0:0:m_032.ogg
384,192,101920,1,0,0:0:0:0:l_073.ogg
179,192,102080,1,0,0:0:0:0:m_035.ogg
486,192,102080,1,0,0:0:0:0:l_070.ogg
230,192,102240,1,0,0:0:0:0:l_041.ogg
179,192,102400,1,0,0:0:0:0:l_035.ogg
128,192,102560,1,0,0:0:0:0:l_032.ogg
384,192,102560,1,0,0:0:0:0:l_068.ogg
486,192,102560,1,0,0:0:0:0:l_080.ogg
332,192,102720,1,0,0:0:0:0:m_066.ogg
435,192,102720,1,0,0:0:0:0:m_078.ogg
281,192,102880,1,0,0:0:0:0:m_065.ogg
384,192,102880,1,0,0:0:0:0:m_077.ogg
230,192,103040,1,0,0:0:0:0:m_063.ogg
332,192,103040,1,0,0:0:0:0:m_075.ogg
179,192,103200,1,0,0:0:0:0:m_073.ogg
281,192,103200,1,0,0:0:0:0:m_061.ogg
128,192,103360,1,0,0:0:0:0:m_071.ogg
230,192,103360,1,0,0:0:0:0:m_059.ogg
76,192,103520,1,0,0:0:0:0:s_070.ogg
179,192,103520,1,0,0:0:0:0:s_058.ogg
25,192,103680,1,0,0:0:0:0:m_068.ogg
128,192,103680,1,0,0:0:0:0:m_056.ogg
76,192,104000,1,0,0:0:0:0:m_046.ogg
281,192,104000,1,0,0:0:0:0:m_058.ogg
128,192,104320,1,0,0:0:0:0:m_047.ogg
332,192,104320,1,0,0:0:0:0:m_059.ogg
25,192,104640,1,0,0:0:0:0:l_018.ogg
384,192,104640,1,0,0:0:0:0:l_056.ogg
435,192,104640,1,0,0:0:0:0:l_063.ogg
76,192,104800,1,0,0:0:0:0:l_028.ogg
128,192,104960,1,0,0:0:0:0:l_032.ogg
179,192,105120,1,0,0:0:0:0:m_035.ogg
76,192,105280,1,0,0:0:0:0:m_037.ogg
281,192,105280,1,0,0:0:0:0:m_061.ogg
332,192,105280,1,0,0:0:0:0:l_049.ogg
128,192,105440,1,0,0:0:0:0:m_040.ogg
230,192,105600,1,0,0:0:0:0:l_044.ogg
384,192,105600,1,0,0:0:0:0:l_066.ogg
486,192,105600,1,0,0:0:0:0:l_054.ogg
179,192,105760,1,0,0:0:0:0:l_040.ogg
128,192,105920,1,0,0:0:0:0:l_037.ogg
76,192,106080,1,0,0:0:0:0:m_035.ogg
179,192,106240,1,0,0:0:0:0:m_032.ogg
281,192,106240,1,0,0:0:0:0:m_064.ogg
332,192,106240,1,0,0:0:0:0:l_052.ogg
128,192,106400,1,0,0:0:0:0:m_028.ogg
25,192,106560,1,0,0:0:0:0:l_018.ogg
435,192,106560,1,0,0:0:0:0:l_064.ogg
486,192,106560,1,0,0:0:0:0:l_070.ogg
76,192,106720,1,0,0:0:0:0:l_028.ogg
128,192,106880,1,0,0:0:0:0:l_032.ogg
179,192,107040,1,0,0:0:0:0:m_035.ogg
76,192,107200,1,0,0:0:0:0:l_037.ogg
281,192,107200,1,0,0:0:0:0:m_068.ogg
384,192,107200,1,0,0:0:0:0:l_056.ogg
128,192,107360,1,0,0:0:0:0:m_040.ogg
230,192,107520,1,0,0:0:0:0:m_047.ogg
435,192,107520,1,0,0:0:0:0:m_068.ogg
486,192,107520,1,0,0:0:0:0:m_063.ogg
179,192,107680,1,0,0:0:0:0:m_044.ogg
128,192,107840,1,0,0:0:0:0:m_040.ogg
76,192,108000,1,0,0:0:0:0:m_035.ogg
179,192,108160,1,0,0:0:0:0:m_032.ogg
332,192,108160,1,0,0:0:0:0:m_061.ogg
384,192,108160,1,0,0:0:0:0:m_073.ogg
128,192,108320,1,0,0:0:0:0:s_028.ogg
25,192,108480,1,0,0:0:0:0:l_018.ogg
281,192,108480,1,0,0:0:0:0:l_068.ogg
332,192,108500,1,0,0:0:0:0:l_070.ogg
384,192,108520,1,0,0:0:0:0:l_073.ogg
435,192,108540,1,0,0:0:0:0:l_076.ogg
486,192,108560,1,0,0:0:0:0:l_080.ogg
76,192,108640,1,0,0:0:0:0:l_025.ogg
128,192,108800,1,0,0:0:0:0:l_028.ogg
179,192,108960,1,0,0:0:0:0:l_034.ogg
76,192,109120,1,0,0:0:0:0:l_037.ogg
128,192,109280,1,0,0:0:0:0:l_040.ogg
179,192,109440,1,0,0:0:0:0:m_046.ogg
230,192,109600,1,0,0:0:0:0:m_049.ogg
25,192,109760,1,0,0:0:0:0:m_052.ogg
76,192,109920,1,0,0:0:0:0:m_058.ogg
128,192,110080,1,0,0:0:0:0:m_061.ogg
179,192,110240,1,0,0:0:0:0:s_064.ogg
76,192,110400,1,0,0:0:0:0:m_051.ogg
230,192,110400,1,0,0:0:0:0:m_047.ogg
281,192,110400,1,0,0:0:0:0:m_054.ogg
435,192,110400,1,0,0:0:0:0:m_063.ogg
128,192,111200,1,0,0:0:0:0:m_049.ogg
230,192,111200,1,0,0:0:0:0:m_046.ogg
332,192,111200,1,0,0:0:0:0:m_063.ogg
435,192,111200,1,0,0:0:0:0:m_055.ogg
128,192,111600,1,0,0:0:0:0:m_048.ogg
179,192,111600,1,0,0:0:0:0:m_044.ogg
281,192,111600,1,0,0:0:0:0:m_063.ogg
435,192,111600,1,0,0:0:0:0:m_056.ogg
76,192,112000,1,0,0:0:0:0:m_048.ogg
179,192,112000,1,0,0:0:0:0:m_042.ogg
332,192,112000,1,0,0:0:0:0:m_064.ogg
486,192,112000,1,0,0:0:0:0:m_057.ogg
76,192,112400,1,0,0:0:0:0:m_042.ogg
179,192,112400,1,0,0:0:0:0:m_048.ogg
332,192,112400,1,0,0:0:0:0:m_063.ogg
435,192,112400,1,0,0:0:0:0:m_057.ogg
25,192,112800,1,0,0:0:0:0:m_050.ogg
230,192,112800,1,0,0:0:0:0:m_041.ogg
384,192,112800,1,0,0:0:0:0:m_068.ogg
486,192,112800,1,0,0:0:0:0:m_059.ogg
76,192,115200,1,0,0:0:0:0:m_049.ogg
230,192,115200,1,0,0:0:0:0:m_045.ogg
281,192,115200,1,0,0:0:0:0:m_061.ogg
435,192,115200,1,0,0:0:0:0:m_052.ogg
128,192,116000,1,0,0:0:0:0:m_047.ogg
230,192,116000,1,0,0:0:0:0:m_044.ogg
332,192,116000,1,0,0:0:0:0:m_061.ogg
435,192,116000,1,0,0:0:0:0:m_053.ogg
128,192,116400,1,0,0:0:0:0:m_046.ogg
179,192,116400,1,0,0:0:0:0:m_042.ogg
281,192,116400,1,0,0:0:0:0:m_061.ogg
435,192,116400,1,0,0:0:0:0:m_054.ogg
76,192,116800,1,0,0:0:0:0:m_046.ogg
179,192,116800,1,0,0:0:0:0:m_040.ogg
332,192,116800,1,0,0:0:0:0:m_063.ogg
486,192,116800,1,0,0:0:0:0:m_055.ogg
76,192,117200,1,0,0:0:0:0:m_040.ogg
179,192,117200,1,0,0:0:0:0:m_046.ogg
332,192,117200,1,0,0:0:0:0:m_061.ogg
435,192,117200,1,0,0:0:0:0:m_055.ogg
25,192,117600,1,0,0:0:0:0:m_048.ogg
230,192,117600,1,0,0:0:0:0:m_039.ogg
384,192,117600,1,0,0:0:0:0:m_057.ogg
486,192,117600,1,0,0:0:0:0:m_066.ogg
25,192,120000,1,0,0:0:0:0:l_016.ogg
281,192,120000,1,0,0:0:0:0:l_040.ogg
332,192,120066,1,0,0:0:0:0:l_043.ogg
230,192,120100,1,0,0:0:0:0:l_036.ogg
486,192,120133,1,0,0:0:0:0:l_052.ogg
76,192,122400,1,0,0:0:0:0:l_018.ogg
281,192,122400,1,0,0:0:0:0:l_044.ogg
384,192,122400,1,0,0:0:0:0:l_040.ogg
179,192,122500,1,0,0:0:0:0:l_035.ogg
128,192,123600,1,0,0:0:0:0:m_034.ogg
332,192,124000,1,0,0:0:0:0:m_042.ogg
486,192,124400,1,0,0:0:0:0:m_051.ogg
435,192,124800,1,0,0:0:0:0:l_047.ogg
332,192,124800,1,0,0:0:0:0:l_039.ogg
179,192,124800,1,0,0:0:0:0:l_023.ogg
76,192,124800,1,0,0:0:0:0:l_030.ogg
128,192,126400,1,0,0:0:0:0:m_029.ogg
281,192,126400,1,0,0:0:0:0:m_038.ogg
179,192,126800,1,0,0:0:0:0:m_030.ogg
332,192,126800,1,0,0:0:0:0:m_039.ogg
76,192,127200,1,0,0:0:0:0:l_023.ogg
230,192,127250,1,0,0:0:0:0:m_034.ogg
384,192,127300,1,0,0:0:0:0:m_042.ogg
435,192,127350,1,0,0:0:0:0:l_047.ogg
179,192,128400,1,0,0:0:0:0:m_032.ogg
332,192,128400,1,0,0:0:0:0:m_040.ogg
128,192,129200,1,0,0:0:0:0:m_030.ogg
281,192,129200,1,0,0:0:0:0:m_039.ogg
76,192,129600,128,0,133200:0:0:0:0:l_023.ogg
128,192,129650,128,0,133200:0:0:0:0:l_030.ogg
281,192,129700,128,0,133200:0:0:0:0:l_039.ogg
435,192,129750,128,0,133200:0:0:0:0:l_047.ogg
