osu file format v14

[General]
AudioFilename: virtual
AudioLeadIn: 0
PreviewTime: 0
Countdown: 0
SampleSet: Soft
StackLeniency: 0.7
Mode: 3
LetterboxInBreaks: 0
SpecialStyle: 0
WidescreenStoryboard: 1

[Editor]
DistanceSpacing: 0.8
BeatDivisor: 4
GridSize: 16
TimelineZoom: 0.7000059

[Metadata]
Title:Piano Beatmap Set
TitleUnicode:Piano Beatmap Set
Artist:Collection
ArtistUnicode:Collection
Creator:CircusGalop
Version:La Campanella - 10K HD
Source:BMS
Tags:
BeatmapID:1316776
BeatmapSetID:332673

[Difficulty]
HPDrainRate:8
CircleSize:10
OverallDifficulty:5
ApproachRate:5
SliderMultiplier:1.4
SliderTickRate:1

[Events]
//Background and Video events
0,0,"CircusGalop.jpg",0,0
//Break Periods
//Storyboard Layer 0 (Background)
//Storyboard Layer 1 (Fail)
//Storyboard Layer 2 (Pass)
//Storyboard Layer 3 (Foreground)
//Storyboard Sound Samples

[TimingPoints]
0,600.000000000006,4,2,0,100,1,0

[HitObjects]
76,192,2100,5,0,0:0:0:0:m_054.ogg
179,192,2100,1,0,0:0:0:0:m_042.ogg
76,192,2400,1,0,0:0:0:0:m_054.ogg
179,192,2400,1,0,0:0:0:0:m_042.ogg
76,192,2700,1,0,0:0:0:0:m_054.ogg
179,192,2700,1,0,0:0:0:0:m_042.ogg
332,192,3000,1,0,0:0:0:0:m_066.ogg
435,192,3000,1,0,0:0:0:0:m_078.ogg
332,192,3300,1,0,0:0:0:0:m_066.ogg
435,192,3300,1,0,0:0:0:0:m_078.ogg
332,192,3600,1,0,0:0:0:0:m_066.ogg
435,192,3600,1,0,0:0:0:0:m_078.ogg
76,192,3900,1,0,0:0:0:0:m_054.ogg
179,192,3900,1,0,0:0:0:0:m_042.ogg
76,192,4200,1,0,0:0:0:0:m_054.ogg
179,192,4200,1,0,0:0:0:0:m_042.ogg
76,192,4500,1,0,0:0:0:0:m_054.ogg
179,192,4500,1,0,0:0:0:0:m_042.ogg
332,192,4800,1,0,0:0:0:0:m_066.ogg
435,192,4800,1,0,0:0:0:0:m_078.ogg
332,192,5100,1,0,0:0:0:0:m_066.ogg
435,192,5100,1,0,0:0:0:0:m_078.ogg
332,192,5400,1,0,0:0:0:0:m_066.ogg
435,192,5400,1,0,0:0:0:0:m_078.ogg
76,192,5700,1,0,0:0:0:0:m_054.ogg
179,192,5700,1,0,0:0:0:0:m_042.ogg
332,192,6000,1,0,0:0:0:0:m_066.ogg
435,192,6000,1,0,0:0:0:0:m_078.ogg
332,192,6300,1,0,0:0:0:0:m_066.ogg
435,192,6300,1,0,0:0:0:0:m_078.ogg
76,192,6600,1,0,0:0:0:0:m_042.ogg
179,192,6600,1,0,0:0:0:0:m_054.ogg
332,192,6900,1,0,0:0:0:0:m_066.ogg
435,192,6900,1,0,0:0:0:0:m_078.ogg
332,192,7200,1,0,0:0:0:0:m_066.ogg
435,192,7200,1,0,0:0:0:0:m_078.ogg
179,192,7800,1,0,0:0:0:0:m_054.ogg
435,192,7950,1,0,0:0:0:0:s_066.ogg
435,192,8100,1,0,0:0:0:0:m_066.ogg
486,192,8250,1,0,0:0:0:0:s_078.ogg
435,192,8400,1,0,0:0:0:0:m_066.ogg
486,192,8550,1,0,0:0:0:0:s_078.ogg
384,192,8700,1,0,0:0:0:0:m_064.ogg
486,192,8850,1,0,0:0:0:0:s_078.ogg
25,192,9000,1,0,0:0:0:0:m_035.ogg
332,192,9000,1,0,0:0:0:0:m_062.ogg
76,192,9050,1,0,0:0:0:0:m_042.ogg
128,192,9100,1,0,0:0:0:0:m_050.ogg
486,192,9150,1,0,0:0:0:0:s_078.ogg
332,192,9300,1,0,0:0:0:0:m_062.ogg
486,192,9450,1,0,0:0:0:0:s_078.ogg
281,192,9600,1,0,0:0:0:0:m_061.ogg
486,192,9750,1,0,0:0:0:0:s_078.ogg
76,192,9900,1,0,0:0:0:0:m_038.ogg
384,192,9900,1,0,0:0:0:0:m_059.ogg
128,192,9950,1,0,0:0:0:0:m_047.ogg
179,192,10000,1,0,0:0:0:0:m_054.ogg
486,192,10050,1,0,0:0:0:0:s_078.ogg
332,192,10200,1,0,0:0:0:0:m_058.ogg
486,192,10350,1,0,0:0:0:0:s_078.ogg
384,192,10500,1,0,0:0:0:0:m_059.ogg
486,192,10650,1,0,0:0:0:0:s_078.ogg
128,192,10800,1,0,0:0:0:0:m_042.ogg
435,192,10800,1,0,0:0:0:0:m_061.ogg
179,192,10850,1,0,0:0:0:0:m_049.ogg
230,192,10900,1,0,0:0:0:0:m_058.ogg
486,192,10950,1,0,0:0:0:0:s_078.ogg
384,192,11100,1,0,0:0:0:0:m_054.ogg
486,192,11250,1,0,0:0:0:0:s_078.ogg
384,192,11400,1,0,0:0:0:0:m_054.ogg
435,192,11550,1,0,0:0:0:0:s_066.ogg
76,192,11700,1,0,0:0:0:0:m_046.ogg
332,192,11700,1,0,0:0:0:0:m_055.ogg
230,192,11750,1,0,0:0:0:0:m_049.ogg
435,192,11850,1,0,0:0:0:0:s_066.ogg
281,192,12000,1,0,0:0:0:0:m_054.ogg
435,192,12150,1,0,0:0:0:0:s_066.ogg
384,192,12300,1,0,0:0:0:0:m_052.ogg
435,192,12450,1,0,0:0:0:0:s_066.ogg
179,192,12600,1,0,0:0:0:0:m_047.ogg
332,192,12600,1,0,0:0:0:0:m_050.ogg
435,192,12750,1,0,0:0:0:0:s_066.ogg
332,192,12900,1,0,0:0:0:0:m_050.ogg
435,192,13050,1,0,0:0:0:0:s_066.ogg
384,192,13200,1,0,0:0:0:0:m_049.ogg
435,192,13350,1,0,0:0:0:0:s_066.ogg
25,192,13500,1,0,0:0:0:0:m_038.ogg
332,192,13500,1,0,0:0:0:0:m_047.ogg
76,192,13550,1,0,0:0:0:0:m_041.ogg
128,192,13600,1,0,0:0:0:0:m_044.ogg
435,192,13650,1,0,0:0:0:0:s_066.ogg
281,192,13800,1,0,0:0:0:0:m_046.ogg
435,192,13950,1,0,0:0:0:0:s_066.ogg
332,192,14100,1,0,0:0:0:0:m_047.ogg
435,192,14250,1,0,0:0:0:0:s_066.ogg
25,192,14400,1,0,0:0:0:0:m_046.ogg
179,192,14400,1,0,0:0:0:0:m_042.ogg
384,192,14400,1,0,0:0:0:0:m_049.ogg
435,192,14550,1,0,0:0:0:0:s_066.ogg
281,192,14700,1,0,0:0:0:0:m_042.ogg
332,192,14850,1,0,0:0:0:0:s_054.ogg
332,192,15000,1,0,0:0:0:0:s_054.ogg
435,192,15150,1,0,0:0:0:0:s_066.ogg
435,192,15300,1,0,0:0:0:0:m_066.ogg
486,192,15450,1,0,0:0:0:0:s_078.ogg
435,192,15600,1,0,0:0:0:0:m_066.ogg
486,192,15750,1,0,0:0:0:0:s_078.ogg
384,192,15900,1,0,0:0:0:0:m_064.ogg
486,192,16050,1,0,0:0:0:0:s_078.ogg
25,192,16200,1,0,0:0:0:0:m_035.ogg
332,192,16200,1,0,0:0:0:0:m_062.ogg
76,192,16250,1,0,0:0:0:0:m_042.ogg
128,192,16300,1,0,0:0:0:0:m_050.ogg
486,192,16350,1,0,0:0:0:0:s_078.ogg
332,192,16500,1,0,0:0:0:0:m_062.ogg
486,192,16650,1,0,0:0:0:0:s_078.ogg
281,192,16800,1,0,0:0:0:0:m_061.ogg
486,192,16950,1,0,0:0:0:0:s_078.ogg
76,192,17100,1,0,0:0:0:0:m_038.ogg
384,192,17100,1,0,0:0:0:0:m_059.ogg
128,192,17150,1,0,0:0:0:0:m_047.ogg
179,192,17200,1,0,0:0:0:0:m_054.ogg
486,192,17250,1,0,0:0:0:0:s_078.ogg
332,192,17400,1,0,0:0:0:0:m_058.ogg
486,192,17550,1,0,0:0:0:0:s_078.ogg
384,192,17700,1,0,0:0:0:0:m_059.ogg
486,192,17850,1,0,0:0:0:0:s_078.ogg
128,192,18000,1,0,0:0:0:0:m_042.ogg
435,192,18000,1,0,0:0:0:0:m_061.ogg
179,192,18050,1,0,0:0:0:0:m_049.ogg
230,192,18100,1,0,0:0:0:0:m_058.ogg
486,192,18150,1,0,0:0:0:0:s_078.ogg
332,192,18300,1,0,0:0:0:0:m_054.ogg
486,192,18450,1,0,0:0:0:0:s_078.ogg
332,192,18600,1,0,0:0:0:0:m_054.ogg
435,192,18750,1,0,0:0:0:0:s_066.ogg
76,192,18900,1,0,0:0:0:0:m_046.ogg
384,192,18900,1,0,0:0:0:0:m_055.ogg
230,192,18950,1,0,0:0:0:0:m_049.ogg
435,192,19050,1,0,0:0:0:0:s_066.ogg
332,192,19200,1,0,0:0:0:0:m_054.ogg
435,192,19350,1,0,0:0:0:0:s_066.ogg
179,192,19500,1,0,0:0:0:0:m_054.ogg
281,192,19500,1,0,0:0:0:0:m_052.ogg
435,192,19650,1,0,0:0:0:0:s_066.ogg
76,192,19800,1,0,0:0:0:0:m_047.ogg
128,192,19800,1,0,0:0:0:0:m_054.ogg
384,192,19800,1,0,0:0:0:0:m_050.ogg
435,192,19950,1,0,0:0:0:0:s_066.ogg
332,192,20100,1,0,0:0:0:0:s_059.ogg
384,192,20250,1,0,0:0:0:0:s_062.ogg
435,192,20400,1,0,0:0:0:0:m_066.ogg
486,192,20550,1,0,0:0:0:0:s_078.ogg
25,192,20700,1,0,0:0:0:0:m_042.ogg
128,192,20700,1,0,0:0:0:0:m_054.ogg
230,192,20700,1,0,0:0:0:0:m_052.ogg
281,192,20700,1,0,0:0:0:0:m_046.ogg
435,192,20850,1,0,0:0:0:0:s_066.ogg
332,192,21000,1,0,0:0:0:0:s_058.ogg
384,192,21150,1,0,0:0:0:0:s_061.ogg
435,192,21300,1,0,0:0:0:0:m_066.ogg
486,192,21450,1,0,0:0:0:0:s_078.ogg
25,192,21600,1,0,0:0:0:0:m_035.ogg
76,192,21750,1,0,0:0:0:0:m_042.ogg
128,192,21900,1,0,0:0:0:0:m_050.ogg
230,192,22050,1,0,0:0:0:0:m_059.ogg
179,192,22200,1,0,0:0:0:0:s_054.ogg
435,192,22350,1,0,0:0:0:0:s_066.ogg
486,192,22500,1,0,0:0:0:0:s_078.ogg
435,192,22650,1,0,0:0:0:0:s_066.ogg
486,192,22800,1,0,0:0:0:0:s_078.ogg
435,192,22950,1,0,0:0:0:0:s_066.ogg
486,192,23100,1,0,0:0:0:0:s_078.ogg
384,192,23250,1,0,0:0:0:0:s_064.ogg
76,192,23400,1,0,0:0:0:0:m_023.ogg
384,192,23400,1,0,0:0:0:0:s_064.ogg
332,192,23450,1,0,0:0:0:0:m_062.ogg
486,192,23550,1,0,0:0:0:0:s_078.ogg
25,192,23700,1,0,0:0:0:0:m_030.ogg
128,192,23700,1,0,0:0:0:0:m_038.ogg
332,192,23700,1,0,0:0:0:0:m_062.ogg
486,192,23850,1,0,0:0:0:0:s_078.ogg
281,192,24000,1,0,0:0:0:0:m_061.ogg
486,192,24150,1,0,0:0:0:0:s_078.ogg
128,192,24300,1,0,0:0:0:0:m_026.ogg
281,192,24300,1,0,0:0:0:0:s_061.ogg
384,192,24350,1,0,0:0:0:0:m_059.ogg
486,192,24450,1,0,0:0:0:0:s_078.ogg
76,192,24600,1,0,0:0:0:0:m_042.ogg
179,192,24600,1,0,0:0:0:0:m_035.ogg
332,192,24600,1,0,0:0:0:0:m_058.ogg
486,192,24750,1,0,0:0:0:0:s_078.ogg
384,192,24900,1,0,0:0:0:0:m_059.ogg
486,192,25050,1,0,0:0:0:0:s_078.ogg
179,192,25200,1,0,0:0:0:0:m_030.ogg
332,192,25200,1,0,0:0:0:0:s_058.ogg
384,192,25250,1,0,0:0:0:0:s_059.ogg
435,192,25300,1,0,0:0:0:0:s_061.ogg
486,192,25350,1,0,0:0:0:0:s_078.ogg
128,192,25500,1,0,0:0:0:0:m_046.ogg
230,192,25500,1,0,0:0:0:0:m_037.ogg
281,192,25500,1,0,0:0:0:0:m_054.ogg
486,192,25650,1,0,0:0:0:0:s_078.ogg
281,192,25800,1,0,0:0:0:0:m_054.ogg
435,192,25950,1,0,0:0:0:0:s_066.ogg
25,192,26100,1,0,0:0:0:0:m_049.ogg
128,192,26100,1,0,0:0:0:0:m_046.ogg
384,192,26100,1,0,0:0:0:0:s_058.ogg
332,192,26150,1,0,0:0:0:0:m_055.ogg
435,192,26250,1,0,0:0:0:0:s_066.ogg
25,192,26400,1,0,0:0:0:0:m_046.ogg
128,192,26400,1,0,0:0:0:0:m_049.ogg
281,192,26400,1,0,0:0:0:0:m_054.ogg
435,192,26550,1,0,0:0:0:0:s_066.ogg
332,192,26700,1,0,0:0:0:0:m_052.ogg
435,192,26850,1,0,0:0:0:0:s_066.ogg
179,192,27000,1,0,0:0:0:0:m_047.ogg
332,192,27000,1,0,0:0:0:0:s_052.ogg
281,192,27050,1,0,0:0:0:0:m_050.ogg
435,192,27150,1,0,0:0:0:0:s_066.ogg
179,192,27300,1,0,0:0:0:0:m_047.ogg
281,192,27300,1,0,0:0:0:0:m_050.ogg
435,192,27450,1,0,0:0:0:0:s_066.ogg
384,192,27600,1,0,0:0:0:0:m_049.ogg
435,192,27750,1,0,0:0:0:0:s_066.ogg
25,192,27900,1,0,0:0:0:0:m_044.ogg
76,192,27900,1,0,0:0:0:0:m_038.ogg
230,192,27900,1,0,0:0:0:0:m_041.ogg
384,192,27900,1,0,0:0:0:0:s_049.ogg
332,192,27950,1,0,0:0:0:0:m_047.ogg
435,192,28050,1,0,0:0:0:0:s_066.ogg
25,192,28200,1,0,0:0:0:0:m_044.ogg
76,192,28200,1,0,0:0:0:0:m_038.ogg
230,192,28200,1,0,0:0:0:0:m_041.ogg
281,192,28200,1,0,0:0:0:0:m_046.ogg
435,192,28350,1,0,0:0:0:0:s_066.ogg
332,192,28500,1,0,0:0:0:0:m_047.ogg
435,192,28650,1,0,0:0:0:0:s_066.ogg
128,192,28800,1,0,0:0:0:0:m_046.ogg
179,192,28800,1,0,0:0:0:0:m_030.ogg
384,192,28800,1,0,0:0:0:0:m_049.ogg
435,192,28950,1,0,0:0:0:0:s_066.ogg
281,192,29100,1,0,0:0:0:0:s_042.ogg
384,192,29250,1,0,0:0:0:0:s_054.ogg
384,192,29400,1,0,0:0:0:0:s_054.ogg
435,192,29550,1,0,0:0:0:0:s_066.ogg
435,192,29700,1,0,0:0:0:0:m_066.ogg
486,192,29850,1,0,0:0:0:0:s_078.ogg
435,192,30000,1,0,0:0:0:0:m_066.ogg
486,192,30150,1,0,0:0:0:0:s_078.ogg
384,192,30300,1,0,0:0:0:0:m_064.ogg
486,192,30450,1,0,0:0:0:0:s_078.ogg
76,192,30600,1,0,0:0:0:0:m_023.ogg
384,192,30600,1,0,0:0:0:0:s_064.ogg
332,192,30650,1,0,0:0:0:0:m_062.ogg
486,192,30750,1,0,0:0:0:0:s_078.ogg
25,192,30900,1,0,0:0:0:0:m_030.ogg
128,192,30900,1,0,0:0:0:0:m_038.ogg
332,192,30900,1,0,0:0:0:0:m_062.ogg
486,192,31050,1,0,0:0:0:0:s_078.ogg
281,192,31200,1,0,0:0:0:0:m_061.ogg
486,192,31350,1,0,0:0:0:0:s_078.ogg
128,192,31500,1,0,0:0:0:0:m_026.ogg
281,192,31500,1,0,0:0:0:0:s_061.ogg
384,192,31550,1,0,0:0:0:0:m_059.ogg
486,192,31650,1,0,0:0:0:0:s_078.ogg
76,192,31800,1,0,0:0:0:0:m_042.ogg
179,192,31800,1,0,0:0:0:0:m_035.ogg
332,192,31800,1,0,0:0:0:0:m_058.ogg
486,192,31950,1,0,0:0:0:0:s_078.ogg
384,192,32100,1,0,0:0:0:0:m_059.ogg
486,192,32250,1,0,0:0:0:0:s_078.ogg
179,192,32400,1,0,0:0:0:0:m_030.ogg
332,192,32400,1,0,0:0:0:0:s_058.ogg
384,192,32450,1,0,0:0:0:0:s_059.ogg
435,192,32500,1,0,0:0:0:0:s_061.ogg
486,192,32550,1,0,0:0:0:0:s_078.ogg
128,192,32700,1,0,0:0:0:0:m_046.ogg
230,192,32700,1,0,0:0:0:0:m_037.ogg
281,192,32700,1,0,0:0:0:0:m_054.ogg
486,192,32850,1,0,0:0:0:0:s_078.ogg
281,192,33000,1,0,0:0:0:0:m_054.ogg
435,192,33150,1,0,0:0:0:0:s_066.ogg
25,192,33300,1,0,0:0:0:0:m_049.ogg
179,192,33300,1,0,0:0:0:0:m_040.ogg
230,192,33300,1,0,0:0:0:0:m_047.ogg
332,192,33300,1,0,0:0:0:0:s_058.ogg
384,192,33350,1,0,0:0:0:0:m_055.ogg
486,192,33450,1,0,0:0:0:0:s_071.ogg
76,192,33600,1,0,0:0:0:0:m_047.ogg
179,192,33600,1,0,0:0:0:0:m_049.ogg
230,192,33600,1,0,0:0:0:0:m_042.ogg
332,192,33600,1,0,0:0:0:0:m_054.ogg
486,192,33750,1,0,0:0:0:0:s_071.ogg
128,192,33900,1,0,0:0:0:0:m_047.ogg
179,192,33900,1,0,0:0:0:0:m_049.ogg
230,192,33900,1,0,0:0:0:0:m_043.ogg
281,192,33900,1,0,0:0:0:0:m_052.ogg
486,192,34050,1,0,0:0:0:0:s_071.ogg
76,192,34200,1,0,0:0:0:0:m_050.ogg
230,192,34200,1,0,0:0:0:0:m_047.ogg
332,192,34200,1,0,0:0:0:0:m_054.ogg
435,192,34350,1,0,0:0:0:0:s_066.ogg
281,192,34500,1,0,0:0:0:0:s_059.ogg
332,192,34650,1,0,0:0:0:0:s_062.ogg
384,192,34800,1,0,0:0:0:0:m_066.ogg
486,192,34950,1,0,0:0:0:0:s_078.ogg
25,192,35100,1,0,0:0:0:0:m_042.ogg
128,192,35100,1,0,0:0:0:0:m_052.ogg
230,192,35100,1,0,0:0:0:0:m_046.ogg
281,192,35100,1,0,0:0:0:0:m_054.ogg
435,192,35250,1,0,0:0:0:0:s_066.ogg
332,192,35400,1,0,0:0:0:0:s_058.ogg
384,192,35550,1,0,0:0:0:0:s_061.ogg
435,192,35700,1,0,0:0:0:0:m_066.ogg
486,192,35850,1,0,0:0:0:0:s_078.ogg
76,192,36000,1,0,0:0:0:0:m_023.ogg
128,192,36150,1,0,0:0:0:0:m_038.ogg
179,192,36300,1,0,0:0:0:0:m_042.ogg
230,192,36450,1,0,0:0:0:0:m_047.ogg
281,192,36600,1,0,0:0:0:0:m_054.ogg
332,192,36750,1,0,0:0:0:0:m_059.ogg
384,192,36900,1,0,0:0:0:0:m_062.ogg
435,192,37050,1,0,0:0:0:0:m_066.ogg
486,192,37200,1,0,0:0:0:0:m_071.ogg
384,192,38400,1,0,0:0:0:0:s_050.ogg
25,192,38550,1,0,0:0:0:0:s_049.ogg
179,192,38550,1,0,0:0:0:0:s_047.ogg
384,192,38700,1,0,0:0:0:0:s_050.ogg
128,192,38850,1,0,0:0:0:0:s_048.ogg
230,192,38850,1,0,0:0:0:0:s_046.ogg
384,192,39000,1,0,0:0:0:0:s_050.ogg
76,192,39150,1,0,0:0:0:0:s_047.ogg
179,192,39150,1,0,0:0:0:0:s_044.ogg
384,192,39300,1,0,0:0:0:0:s_050.ogg
25,192,39450,1,0,0:0:0:0:s_046.ogg
128,192,39450,1,0,0:0:0:0:s_043.ogg
435,192,39600,1,0,0:0:0:0:s_052.ogg
384,192,39675,1,0,0:0:0:0:s_050.ogg
332,192,39750,1,0,0:0:0:0:s_049.ogg
384,192,39825,1,0,0:0:0:0:s_050.ogg
76,192,39900,1,0,0:0:0:0:m_042.ogg
179,192,39900,1,0,0:0:0:0:m_038.ogg
281,192,39900,1,0,0:0:0:0:s_045.ogg
486,192,40050,1,0,0:0:0:0:s_069.ogg
25,192,40200,1,0,0:0:0:0:m_033.ogg
128,192,40200,1,0,0:0:0:0:m_045.ogg
179,192,40200,1,0,0:0:0:0:m_042.ogg
384,192,40200,1,0,0:0:0:0:s_050.ogg
486,192,40350,1,0,0:0:0:0:s_069.ogg
435,192,40500,1,0,0:0:0:0:s_054.ogg
384,192,40575,1,0,0:0:0:0:s_052.ogg
332,192,40650,1,0,0:0:0:0:s_051.ogg
384,192,40725,1,0,0:0:0:0:s_052.ogg
128,192,40800,1,0,0:0:0:0:m_037.ogg
230,192,40800,1,0,0:0:0:0:m_043.ogg
281,192,40800,1,0,0:0:0:0:s_045.ogg
486,192,40950,1,0,0:0:0:0:s_069.ogg
76,192,41100,1,0,0:0:0:0:m_033.ogg
179,192,41100,1,0,0:0:0:0:m_045.ogg
230,192,41100,1,0,0:0:0:0:m_043.ogg
384,192,41100,1,0,0:0:0:0:s_052.ogg
486,192,41250,1,0,0:0:0:0:s_069.ogg
435,192,41400,1,0,0:0:0:0:s_055.ogg
384,192,41475,1,0,0:0:0:0:s_054.ogg
332,192,41550,1,0,0:0:0:0:s_053.ogg
384,192,41625,1,0,0:0:0:0:s_054.ogg
25,192,41700,1,0,0:0:0:0:m_038.ogg
128,192,41700,1,0,0:0:0:0:m_042.ogg
281,192,41700,1,0,0:0:0:0:s_050.ogg
486,192,41850,1,0,0:0:0:0:s_069.ogg
435,192,42000,1,0,0:0:0:0:s_054.ogg
25,192,42150,1,0,0:0:0:0:s_050.ogg
179,192,42150,1,0,0:0:0:0:s_053.ogg
435,192,42300,1,0,0:0:0:0:s_054.ogg
128,192,42450,1,0,0:0:0:0:s_049.ogg
230,192,42450,1,0,0:0:0:0:s_052.ogg
435,192,42600,1,0,0:0:0:0:s_054.ogg
76,192,42750,1,0,0:0:0:0:s_048.ogg
179,192,42750,1,0,0:0:0:0:s_051.ogg
435,192,42900,1,0,0:0:0:0:s_054.ogg
25,192,43050,1,0,0:0:0:0:s_047.ogg
128,192,43050,1,0,0:0:0:0:s_050.ogg
384,192,43200,1,0,0:0:0:0:s_056.ogg
332,192,43275,1,0,0:0:0:0:s_054.ogg
281,192,43350,1,0,0:0:0:0:s_053.ogg
332,192,43425,1,0,0:0:0:0:s_054.ogg
76,192,43500,1,0,0:0:0:0:m_045.ogg
179,192,43500,1,0,0:0:0:0:m_042.ogg
435,192,43500,1,0,0:0:0:0:s_049.ogg
486,192,43650,1,0,0:0:0:0:s_073.ogg
25,192,43800,1,0,0:0:0:0:m_037.ogg
128,192,43800,1,0,0:0:0:0:m_049.ogg
179,192,43800,1,0,0:0:0:0:m_045.ogg
332,192,43800,1,0,0:0:0:0:s_054.ogg
486,192,43950,1,0,0:0:0:0:s_073.ogg
435,192,44100,1,0,0:0:0:0:s_057.ogg
384,192,44175,1,0,0:0:0:0:s_056.ogg
332,192,44250,1,0,0:0:0:0:s_055.ogg
384,192,44325,1,0,0:0:0:0:s_056.ogg
128,192,44400,1,0,0:0:0:0:m_047.ogg
230,192,44400,1,0,0:0:0:0:m_041.ogg
281,192,44400,1,0,0:0:0:0:s_049.ogg
486,192,44550,1,0,0:0:0:0:s_073.ogg
76,192,44700,1,0,0:0:0:0:m_037.ogg
179,192,44700,1,0,0:0:0:0:m_047.ogg
230,192,44700,1,0,0:0:0:0:m_049.ogg
384,192,44700,1,0,0:0:0:0:s_056.ogg
486,192,44850,1,0,0:0:0:0:s_073.ogg
435,192,45000,1,0,0:0:0:0:s_059.ogg
384,192,45075,1,0,0:0:0:0:s_057.ogg
332,192,45150,1,0,0:0:0:0:s_056.ogg
384,192,45225,1,0,0:0:0:0:s_057.ogg
25,192,45300,1,0,0:0:0:0:m_045.ogg
128,192,45300,1,0,0:0:0:0:m_042.ogg
281,192,45300,1,0,0:0:0:0:s_054.ogg
486,192,45450,1,0,0:0:0:0:s_073.ogg
435,192,45600,1,0,0:0:0:0:s_057.ogg
25,192,45750,1,0,0:0:0:0:s_053.ogg
179,192,45750,1,0,0:0:0:0:s_056.ogg
435,192,45900,1,0,0:0:0:0:s_057.ogg
128,192,46050,1,0,0:0:0:0:s_052.ogg
230,192,46050,1,0,0:0:0:0:s_055.ogg
435,192,46200,1,0,0:0:0:0:s_057.ogg
76,192,46350,1,0,0:0:0:0:s_051.ogg
179,192,46350,1,0,0:0:0:0:s_054.ogg
435,192,46500,1,0,0:0:0:0:s_057.ogg
25,192,46650,1,0,0:0:0:0:s_050.ogg
128,192,46650,1,0,0:0:0:0:s_053.ogg
384,192,46800,1,0,0:0:0:0:s_059.ogg
332,192,46875,1,0,0:0:0:0:s_057.ogg
281,192,46950,1,0,0:0:0:0:s_056.ogg
332,192,47025,1,0,0:0:0:0:s_057.ogg
76,192,47100,1,0,0:0:0:0:m_049.ogg
179,192,47100,1,0,0:0:0:0:m_045.ogg
435,192,47100,1,0,0:0:0:0:s_052.ogg
486,192,47250,1,0,0:0:0:0:s_076.ogg
25,192,47400,1,0,0:0:0:0:m_052.ogg
128,192,47400,1,0,0:0:0:0:m_049.ogg
179,192,47400,1,0,0:0:0:0:m_040.ogg
332,192,47400,1,0,0:0:0:0:s_057.ogg
486,192,47550,1,0,0:0:0:0:s_076.ogg
435,192,47700,1,0,0:0:0:0:s_061.ogg
384,192,47775,1,0,0:0:0:0:s_059.ogg
332,192,47850,1,0,0:0:0:0:s_058.ogg
384,192,47925,1,0,0:0:0:0:s_059.ogg
128,192,48000,1,0,0:0:0:0:m_044.ogg
230,192,48000,1,0,0:0:0:0:m_050.ogg
281,192,48000,1,0,0:0:0:0:s_052.ogg
486,192,48150,1,0,0:0:0:0:s_076.ogg
76,192,48300,1,0,0:0:0:0:m_052.ogg
179,192,48300,1,0,0:0:0:0:m_050.ogg
230,192,48300,1,0,0:0:0:0:m_040.ogg
384,192,48300,1,0,0:0:0:0:s_059.ogg
486,192,48450,1,0,0:0:0:0:s_076.ogg
25,192,48600,1,0,0:0:0:0:s_057.ogg
281,192,48600,1,0,0:0:0:0:s_061.ogg
76,192,48750,1,0,0:0:0:0:s_059.ogg
332,192,48750,1,0,0:0:0:0:s_062.ogg
128,192,48900,1,0,0:0:0:0:m_045.ogg
384,192,48900,1,0,0:0:0:0:m_064.ogg
230,192,48950,1,0,0:0:0:0:m_061.ogg
435,192,49050,1,0,0:0:0:0:s_076.ogg
486,192,49050,1,0,0:0:0:0:s_073.ogg
179,192,49200,1,0,0:0:0:0:s_062.ogg
384,192,49200,1,0,0:0:0:0:s_059.ogg
128,192,49350,1,0,0:0:0:0:s_061.ogg
332,192,49350,1,0,0:0:0:0:s_057.ogg
25,192,49500,1,0,0:0:0:0:s_059.ogg
281,192,49500,1,0,0:0:0:0:s_050.ogg
76,192,49650,1,0,0:0:0:0:s_061.ogg
332,192,49650,1,0,0:0:0:0:s_052.ogg
128,192,49800,1,0,0:0:0:0:m_062.ogg
384,192,49800,1,0,0:0:0:0:m_038.ogg
230,192,49850,1,0,0:0:0:0:m_054.ogg
435,192,49950,1,0,0:0:0:0:s_074.ogg
486,192,49950,1,0,0:0:0:0:s_066.ogg
179,192,50100,1,0,0:0:0:0:s_052.ogg
384,192,50100,1,0,0:0:0:0:s_061.ogg
128,192,50250,1,0,0:0:0:0:s_050.ogg
332,192,50250,1,0,0:0:0:0:s_059.ogg
25,192,50400,1,0,0:0:0:0:s_049.ogg
281,192,50400,1,0,0:0:0:0:s_057.ogg
76,192,50550,1,0,0:0:0:0:s_050.ogg
332,192,50550,1,0,0:0:0:0:s_059.ogg
128,192,50700,1,0,0:0:0:0:m_040.ogg
384,192,50700,1,0,0:0:0:0:m_061.ogg
230,192,50750,1,0,0:0:0:0:m_052.ogg
435,192,50850,1,0,0:0:0:0:s_073.ogg
486,192,50850,1,0,0:0:0:0:s_064.ogg
179,192,51000,1,0,0:0:0:0:s_050.ogg
384,192,51000,1,0,0:0:0:0:s_059.ogg
128,192,51150,1,0,0:0:0:0:s_049.ogg
332,192,51150,1,0,0:0:0:0:s_057.ogg
25,192,51300,1,0,0:0:0:0:s_047.ogg
281,192,51300,1,0,0:0:0:0:s_056.ogg
76,192,51450,1,0,0:0:0:0:s_049.ogg
332,192,51450,1,0,0:0:0:0:s_057.ogg
128,192,51600,1,0,0:0:0:0:m_040.ogg
384,192,51600,1,0,0:0:0:0:m_059.ogg
230,192,51650,1,0,0:0:0:0:m_050.ogg
435,192,51750,1,0,0:0:0:0:s_062.ogg
486,192,51750,1,0,0:0:0:0:s_071.ogg
76,192,51900,1,0,0:0:0:0:s_045.ogg
281,192,51900,1,0,0:0:0:0:s_054.ogg
128,192,52050,1,0,0:0:0:0:s_047.ogg
332,192,52050,1,0,0:0:0:0:s_056.ogg
25,192,52200,1,0,0:0:0:0:m_033.ogg
179,192,52200,1,0,0:0:0:0:m_049.ogg
384,192,52200,1,0,0:0:0:0:s_057.ogg
435,192,52350,1,0,0:0:0:0:s_061.ogg
486,192,52350,1,0,0:0:0:0:s_069.ogg
76,192,52500,1,0,0:0:0:0:s_045.ogg
332,192,52650,1,0,0:0:0:0:s_057.ogg
128,192,52800,1,0,0:0:0:0:s_046.ogg
384,192,52950,1,0,0:0:0:0:s_058.ogg
179,192,53100,1,0,0:0:0:0:s_047.ogg
435,192,53250,1,0,0:0:0:0:s_059.ogg
128,192,53400,1,0,0:0:0:0:m_047.ogg
230,192,53400,1,0,0:0:0:0:m_043.ogg
486,192,53400,1,0,0:0:0:0:m_071.ogg
384,192,53550,1,0,0:0:0:0:s_059.ogg
76,192,53700,1,0,0:0:0:0:m_042.ogg
230,192,53700,1,0,0:0:0:0:m_047.ogg
486,192,53700,1,0,0:0:0:0:m_071.ogg
332,192,53850,1,0,0:0:0:0:s_057.ogg
25,192,54000,1,0,0:0:0:0:m_040.ogg
230,192,54000,1,0,0:0:0:0:m_047.ogg
486,192,54000,1,0,0:0:0:0:m_071.ogg
281,192,54150,1,0,0:0:0:0:s_055.ogg
179,192,54300,1,0,0:0:0:0:m_054.ogg
435,192,54300,1,0,0:0:0:0:m_081.ogg
230,192,54450,1,0,0:0:0:0:s_059.ogg
128,192,54600,1,0,0:0:0:0:m_052.ogg
384,192,54600,1,0,0:0:0:0:m_079.ogg
230,192,54750,1,0,0:0:0:0:s_059.ogg
76,192,54900,1,0,0:0:0:0:m_051.ogg
179,192,54900,1,0,0:0:0:0:m_035.ogg
332,192,54900,1,0,0:0:0:0:m_078.ogg
230,192,55050,1,0,0:0:0:0:s_059.ogg
25,192,55200,1,0,0:0:0:0:m_049.ogg
281,192,55200,1,0,0:0:0:0:m_076.ogg
230,192,55350,1,0,0:0:0:0:s_059.ogg
76,192,55500,1,0,0:0:0:0:m_051.ogg
332,192,55500,1,0,0:0:0:0:m_078.ogg
230,192,55650,1,0,0:0:0:0:s_059.ogg
25,192,55800,1,0,0:0:0:0:m_040.ogg
128,192,55800,1,0,0:0:0:0:m_052.ogg
384,192,55800,1,0,0:0:0:0:m_079.ogg
230,192,55950,1,0,0:0:0:0:s_059.ogg
179,192,56100,1,0,0:0:0:0:m_055.ogg
281,192,56100,1,0,0:0:0:0:m_076.ogg
230,192,56250,1,0,0:0:0:0:s_059.ogg
76,192,56400,1,0,0:0:0:0:s_046.ogg
179,192,56550,1,0,0:0:0:0:s_058.ogg
25,192,56700,1,0,0:0:0:0:s_045.ogg
128,192,56850,1,0,0:0:0:0:s_057.ogg
179,192,57000,1,0,0:0:0:0:m_045.ogg
230,192,57000,1,0,0:0:0:0:m_042.ogg
486,192,57000,1,0,0:0:0:0:m_069.ogg
435,192,57150,1,0,0:0:0:0:s_057.ogg
128,192,57300,1,0,0:0:0:0:m_040.ogg
230,192,57300,1,0,0:0:0:0:m_045.ogg
486,192,57300,1,0,0:0:0:0:m_069.ogg
384,192,57450,1,0,0:0:0:0:s_055.ogg
76,192,57600,1,0,0:0:0:0:m_038.ogg
230,192,57600,1,0,0:0:0:0:m_045.ogg
486,192,57600,1,0,0:0:0:0:m_069.ogg
332,192,57750,1,0,0:0:0:0:s_054.ogg
179,192,57900,1,0,0:0:0:0:m_052.ogg
435,192,57900,1,0,0:0:0:0:m_079.ogg
230,192,58050,1,0,0:0:0:0:s_057.ogg
128,192,58200,1,0,0:0:0:0:m_050.ogg
384,192,58200,1,0,0:0:0:0:m_078.ogg
230,192,58350,1,0,0:0:0:0:s_057.ogg
76,192,58500,1,0,0:0:0:0:m_049.ogg
179,192,58500,1,0,0:0:0:0:m_033.ogg
332,192,58500,1,0,0:0:0:0:m_076.ogg
230,192,58650,1,0,0:0:0:0:s_057.ogg
25,192,58800,1,0,0:0:0:0:m_047.ogg
281,192,58800,1,0,0:0:0:0:m_074.ogg
230,192,58950,1,0,0:0:0:0:s_057.ogg
76,192,59100,1,0,0:0:0:0:m_049.ogg
332,192,59100,1,0,0:0:0:0:m_076.ogg
230,192,59250,1,0,0:0:0:0:s_057.ogg
25,192,59400,1,0,0:0:0:0:m_038.ogg
128,192,59400,1,0,0:0:0:0:m_050.ogg
384,192,59400,1,0,0:0:0:0:m_078.ogg
230,192,59550,1,0,0:0:0:0:s_057.ogg
179,192,59700,1,0,0:0:0:0:m_054.ogg
281,192,59700,1,0,0:0:0:0:m_074.ogg
230,192,59850,1,0,0:0:0:0:s_057.ogg
128,192,60000,1,0,0:0:0:0:s_041.ogg
384,192,60150,1,0,0:0:0:0:s_053.ogg
179,192,60300,1,0,0:0:0:0:s_042.ogg
435,192,60450,1,0,0:0:0:0:s_054.ogg
76,192,60600,1,0,0:0:0:0:m_034.ogg
230,192,60600,1,0,0:0:0:0:m_042.ogg
486,192,60600,1,0,0:0:0:0:s_066.ogg
435,192,60750,1,0,0:0:0:0:s_054.ogg
25,192,60900,1,0,0:0:0:0:m_044.ogg
128,192,60900,1,0,0:0:0:0:m_035.ogg
486,192,60900,1,0,0:0:0:0:s_066.ogg
384,192,61050,1,0,0:0:0:0:s_053.ogg
76,192,61200,1,0,0:0:0:0:m_037.ogg
179,192,61200,1,0,0:0:0:0:m_046.ogg
486,192,61200,1,0,0:0:0:0:s_066.ogg
384,192,61350,1,0,0:0:0:0:s_053.ogg
76,192,61500,1,0,0:0:0:0:m_046.ogg
179,192,61500,1,0,0:0:0:0:m_037.ogg
486,192,61500,1,0,0:0:0:0:s_066.ogg
332,192,61650,1,0,0:0:0:0:s_052.ogg
128,192,61800,1,0,0:0:0:0:m_047.ogg
230,192,61800,1,0,0:0:0:0:m_038.ogg
486,192,61800,1,0,0:0:0:0:s_066.ogg
281,192,61950,1,0,0:0:0:0:s_050.ogg
76,192,62100,1,0,0:0:0:0:m_049.ogg
179,192,62100,1,0,0:0:0:0:s_055.ogg
435,192,62100,1,0,0:0:0:0:s_067.ogg
486,192,62100,1,0,0:0:0:0:m_040.ogg
230,192,62250,1,0,0:0:0:0:s_066.ogg
384,192,62250,1,0,0:0:0:0:s_061.ogg
128,192,62400,1,0,0:0:0:0:s_064.ogg
332,192,62400,1,0,0:0:0:0:s_052.ogg
179,192,62550,1,0,0:0:0:0:s_062.ogg
281,192,62550,1,0,0:0:0:0:s_055.ogg
25,192,62700,1,0,0:0:0:0:m_041.ogg
76,192,62700,1,0,0:0:0:0:s_061.ogg
384,192,62700,1,0,0:0:0:0:s_050.ogg
435,192,62700,1,0,0:0:0:0:m_044.ogg
128,192,62850,1,0,0:0:0:0:s_059.ogg
332,192,62850,1,0,0:0:0:0:s_056.ogg
25,192,63000,1,0,0:0:0:0:s_058.ogg
230,192,63000,1,0,0:0:0:0:m_042.ogg
281,192,63000,1,0,0:0:0:0:s_049.ogg
486,192,63000,1,0,0:0:0:0:m_046.ogg
76,192,63150,1,0,0:0:0:0:s_061.ogg
332,192,63150,1,0,0:0:0:0:s_054.ogg
179,192,63300,1,0,0:0:0:0:s_062.ogg
384,192,63300,1,0,0:0:0:0:s_058.ogg
76,192,63450,1,0,0:0:0:0:s_061.ogg
332,192,63450,1,0,0:0:0:0:s_054.ogg
128,192,63600,1,0,0:0:0:0:s_053.ogg
384,192,63750,1,0,0:0:0:0:s_065.ogg
179,192,63900,1,0,0:0:0:0:s_054.ogg
435,192,64050,1,0,0:0:0:0:s_066.ogg
76,192,64200,1,0,0:0:0:0:m_046.ogg
230,192,64200,1,0,0:0:0:0:m_054.ogg
486,192,64200,1,0,0:0:0:0:s_078.ogg
435,192,64350,1,0,0:0:0:0:s_066.ogg
25,192,64500,1,0,0:0:0:0:m_047.ogg
128,192,64500,1,0,0:0:0:0:m_056.ogg
486,192,64500,1,0,0:0:0:0:s_078.ogg
384,192,64650,1,0,0:0:0:0:s_065.ogg
76,192,64800,1,0,0:0:0:0:m_049.ogg
179,192,64800,1,0,0:0:0:0:m_058.ogg
486,192,64800,1,0,0:0:0:0:s_078.ogg
384,192,64950,1,0,0:0:0:0:s_065.ogg
76,192,65100,1,0,0:0:0:0:m_058.ogg
179,192,65100,1,0,0:0:0:0:m_049.ogg
486,192,65100,1,0,0:0:0:0:s_078.ogg
332,192,65250,1,0,0:0:0:0:s_064.ogg
128,192,65400,1,0,0:0:0:0:m_059.ogg
230,192,65400,1,0,0:0:0:0:m_050.ogg
486,192,65400,1,0,0:0:0:0:s_078.ogg
281,192,65550,1,0,0:0:0:0:s_062.ogg
76,192,65700,1,0,0:0:0:0:m_060.ogg
179,192,65700,1,0,0:0:0:0:s_067.ogg
435,192,65700,1,0,0:0:0:0:s_079.ogg
486,192,65700,1,0,0:0:0:0:m_052.ogg
230,192,65850,1,0,0:0:0:0:s_072.ogg
384,192,65850,1,0,0:0:0:0:s_078.ogg
128,192,66000,1,0,0:0:0:0:s_064.ogg
332,192,66000,1,0,0:0:0:0:s_076.ogg
179,192,66150,1,0,0:0:0:0:s_067.ogg
281,192,66150,1,0,0:0:0:0:s_074.ogg
25,192,66300,1,0,0:0:0:0:m_053.ogg
76,192,66300,1,0,0:0:0:0:s_062.ogg
384,192,66300,1,0,0:0:0:0:s_073.ogg
435,192,66300,1,0,0:0:0:0:m_056.ogg
128,192,66450,1,0,0:0:0:0:s_068.ogg
332,192,66450,1,0,0:0:0:0:s_071.ogg
25,192,66600,1,0,0:0:0:0:s_061.ogg
230,192,66600,1,0,0:0:0:0:m_054.ogg
281,192,66600,1,0,0:0:0:0:s_070.ogg
486,192,66600,1,0,0:0:0:0:m_058.ogg
76,192,66750,1,0,0:0:0:0:s_066.ogg
332,192,66750,1,0,0:0:0:0:s_073.ogg
25,192,66900,1,0,0:0:0:0:s_053.ogg
281,192,67050,1,0,0:0:0:0:s_065.ogg
76,192,67200,1,0,0:0:0:0:s_054.ogg
384,192,67350,1,0,0:0:0:0:s_066.ogg
486,192,67500,1,0,0:0:0:0:s_078.ogg
384,192,67650,1,0,0:0:0:0:s_066.ogg
76,192,67800,1,0,0:0:0:0:s_054.ogg
384,192,67950,1,0,0:0:0:0:s_066.ogg
128,192,68100,1,0,0:0:0:0:s_055.ogg
435,192,68250,1,0,0:0:0:0:s_067.ogg
486,192,68400,1,0,0:0:0:0:s_078.ogg
384,192,68550,1,0,0:0:0:0:s_066.ogg
128,192,68700,1,0,0:0:0:0:s_055.ogg
435,192,68850,1,0,0:0:0:0:s_067.ogg
179,192,69000,1,0,0:0:0:0:s_056.ogg
281,192,69150,1,0,0:0:0:0:s_068.ogg
486,192,69300,1,0,0:0:0:0:s_078.ogg
384,192,69450,1,0,0:0:0:0:s_066.ogg
230,192,69600,1,0,0:0:0:0:s_057.ogg
332,192,69750,1,0,0:0:0:0:s_069.ogg
486,192,69900,1,0,0:0:0:0:s_078.ogg
281,192,70050,1,0,0:0:0:0:s_066.ogg
25,192,70200,1,0,0:0:0:0:s_058.ogg
384,192,70350,1,0,0:0:0:0:s_070.ogg
486,192,70500,1,0,0:0:0:0:s_078.ogg
281,192,70650,1,0,0:0:0:0:s_066.ogg
76,192,70800,1,0,0:0:0:0:s_059.ogg
435,192,70950,1,0,0:0:0:0:s_071.ogg
486,192,71100,1,0,0:0:0:0:s_078.ogg
128,192,71250,1,0,0:0:0:0:s_060.ogg
486,192,71400,1,0,0:0:0:0:s_078.ogg
179,192,71550,1,0,0:0:0:0:s_061.ogg
486,192,71700,1,0,0:0:0:0:s_078.ogg
230,192,71850,1,0,0:0:0:0:s_062.ogg
486,192,72000,1,0,0:0:0:0:s_078.ogg
25,192,72150,1,0,0:0:0:0:s_063.ogg
486,192,72300,1,0,0:0:0:0:s_078.ogg
76,192,72450,1,0,0:0:0:0:s_064.ogg
486,192,72600,1,0,0:0:0:0:s_078.ogg
128,192,72750,1,0,0:0:0:0:s_065.ogg
486,192,72900,1,0,0:0:0:0:s_078.ogg
179,192,73050,1,0,0:0:0:0:s_066.ogg
486,192,73200,1,0,0:0:0:0:s_078.ogg
179,192,73350,1,0,0:0:0:0:s_066.ogg
486,192,73500,1,0,0:0:0:0:s_078.ogg
179,192,73650,1,0,0:0:0:0:s_066.ogg
486,192,73800,1,0,0:0:0:0:s_078.ogg
179,192,73950,1,0,0:0:0:0:s_066.ogg
486,192,74100,1,0,0:0:0:0:s_078.ogg
179,192,74250,1,0,0:0:0:0:s_066.ogg
486,192,74400,1,0,0:0:0:0:s_078.ogg
179,192,74550,1,0,0:0:0:0:s_066.ogg
486,192,74700,1,0,0:0:0:0:s_078.ogg
179,192,74850,1,0,0:0:0:0:s_066.ogg
25,192,75000,128,0,75450:0:0:0:0:m_054.ogg
384,192,75150,1,0,0:0:0:0:s_066.ogg
486,192,75300,1,0,0:0:0:0:s_078.ogg
384,192,75450,1,0,0:0:0:0:s_066.ogg
25,192,75600,1,0,0:0:0:0:s_054.ogg
384,192,75750,1,0,0:0:0:0:s_066.ogg
486,192,75900,1,0,0:0:0:0:s_078.ogg
384,192,76050,1,0,0:0:0:0:s_066.ogg
76,192,76200,1,0,0:0:0:0:m_042.ogg
230,192,76200,1,0,0:0:0:0:s_054.ogg
384,192,76350,1,0,0:0:0:0:s_066.ogg
230,192,76500,1,0,0:0:0:0:s_054.ogg
486,192,76500,1,0,0:0:0:0:s_078.ogg
384,192,76650,1,0,0:0:0:0:s_066.ogg
230,192,76800,1,0,0:0:0:0:m_054.ogg
384,192,76950,1,0,0:0:0:0:s_066.ogg
179,192,77100,1,0,0:0:0:0:s_052.ogg
486,192,77100,1,0,0:0:0:0:s_078.ogg
384,192,77250,1,0,0:0:0:0:s_066.ogg
25,192,77400,1,0,0:0:0:0:m_035.ogg
281,192,77400,1,0,0:0:0:0:s_054.ogg
128,192,77450,1,0,0:0:0:0:s_050.ogg
384,192,77550,1,0,0:0:0:0:s_066.ogg
128,192,77700,1,0,0:0:0:0:s_050.ogg
486,192,77700,1,0,0:0:0:0:s_078.ogg
384,192,77850,1,0,0:0:0:0:s_066.ogg
76,192,78000,1,0,0:0:0:0:s_049.ogg
281,192,78000,1,0,0:0:0:0:s_054.ogg
384,192,78150,1,0,0:0:0:0:s_066.ogg
25,192,78300,1,0,0:0:0:0:m_038.ogg
486,192,78300,1,0,0:0:0:0:s_078.ogg
179,192,78350,1,0,0:0:0:0:s_047.ogg
384,192,78450,1,0,0:0:0:0:s_066.ogg
128,192,78600,1,0,0:0:0:0:s_046.ogg
281,192,78600,1,0,0:0:0:0:s_054.ogg
384,192,78750,1,0,0:0:0:0:s_066.ogg
179,192,78900,1,0,0:0:0:0:s_047.ogg
486,192,78900,1,0,0:0:0:0:s_078.ogg
384,192,79050,1,0,0:0:0:0:s_066.ogg
25,192,79200,1,0,0:0:0:0:m_046.ogg
281,192,79200,1,0,0:0:0:0:s_054.ogg
230,192,79250,1,0,0:0:0:0:s_049.ogg
384,192,79350,1,0,0:0:0:0:s_066.ogg
128,192,79500,1,0,0:0:0:0:s_042.ogg
486,192,79500,1,0,0:0:0:0:s_078.ogg
384,192,79650,1,0,0:0:0:0:s_066.ogg
128,192,79800,1,0,0:0:0:0:s_042.ogg
281,192,79800,1,0,0:0:0:0:s_054.ogg
384,192,79950,1,0,0:0:0:0:s_066.ogg
25,192,80100,1,0,0:0:0:0:m_034.ogg
486,192,80100,1,0,0:0:0:0:s_078.ogg
230,192,80150,1,0,0:0:0:0:s_043.ogg
384,192,80250,1,0,0:0:0:0:s_066.ogg
179,192,80400,1,0,0:0:0:0:s_042.ogg
281,192,80400,1,0,0:0:0:0:s_054.ogg
384,192,80550,1,0,0:0:0:0:s_066.ogg
128,192,80700,1,0,0:0:0:0:s_040.ogg
486,192,80700,1,0,0:0:0:0:s_078.ogg
384,192,80850,1,0,0:0:0:0:s_066.ogg
25,192,81000,1,0,0:0:0:0:m_035.ogg
281,192,81000,1,0,0:0:0:0:s_054.ogg
76,192,81050,1,0,0:0:0:0:s_038.ogg
384,192,81150,1,0,0:0:0:0:s_066.ogg
76,192,81300,1,0,0:0:0:0:s_038.ogg
486,192,81300,1,0,0:0:0:0:s_078.ogg
384,192,81450,1,0,0:0:0:0:s_066.ogg
179,192,81600,1,0,0:0:0:0:s_037.ogg
281,192,81600,1,0,0:0:0:0:s_054.ogg
384,192,81750,1,0,0:0:0:0:s_066.ogg
25,192,81900,1,0,0:0:0:0:m_031.ogg
486,192,81900,1,0,0:0:0:0:s_078.ogg
128,192,81950,1,0,0:0:0:0:s_035.ogg
384,192,82050,1,0,0:0:0:0:s_066.ogg
76,192,82200,1,0,0:0:0:0:s_034.ogg
281,192,82200,1,0,0:0:0:0:s_054.ogg
384,192,82350,1,0,0:0:0:0:s_066.ogg
128,192,82500,1,0,0:0:0:0:s_035.ogg
486,192,82500,1,0,0:0:0:0:s_078.ogg
384,192,82650,1,0,0:0:0:0:s_066.ogg
179,192,82800,1,0,0:0:0:0:m_034.ogg
230,192,82800,1,0,0:0:0:0:m_037.ogg
281,192,82800,1,0,0:0:0:0:s_054.ogg
384,192,82950,1,0,0:0:0:0:s_066.ogg
128,192,83100,1,0,0:0:0:0:m_030.ogg
486,192,83100,1,0,0:0:0:0:s_078.ogg
384,192,83250,1,0,0:0:0:0:s_066.ogg
281,192,83400,1,0,0:0:0:0:s_054.ogg
384,192,83550,1,0,0:0:0:0:s_066.ogg
179,192,83625,1,0,0:0:0:0:m_042.ogg
230,192,83700,1,0,0:0:0:0:s_054.ogg
486,192,83700,1,0,0:0:0:0:s_078.ogg
384,192,83850,1,0,0:0:0:0:s_066.ogg
230,192,84000,1,0,0:0:0:0:s_054.ogg
384,192,84150,1,0,0:0:0:0:s_066.ogg
179,192,84300,1,0,0:0:0:0:s_052.ogg
486,192,84300,1,0,0:0:0:0:s_078.ogg
384,192,84450,1,0,0:0:0:0:s_066.ogg
25,192,84600,1,0,0:0:0:0:m_035.ogg
281,192,84600,1,0,0:0:0:0:s_054.ogg
128,192,84650,1,0,0:0:0:0:s_050.ogg
384,192,84750,1,0,0:0:0:0:s_066.ogg
128,192,84900,1,0,0:0:0:0:s_050.ogg
486,192,84900,1,0,0:0:0:0:s_078.ogg
384,192,85050,1,0,0:0:0:0:s_066.ogg
76,192,85200,1,0,0:0:0:0:s_049.ogg
281,192,85200,1,0,0:0:0:0:s_054.ogg
384,192,85350,1,0,0:0:0:0:s_066.ogg
25,192,85500,1,0,0:0:0:0:m_038.ogg
486,192,85500,1,0,0:0:0:0:s_078.ogg
179,192,85550,1,0,0:0:0:0:s_047.ogg
384,192,85650,1,0,0:0:0:0:s_066.ogg
128,192,85800,1,0,0:0:0:0:s_046.ogg
281,192,85800,1,0,0:0:0:0:s_054.ogg
384,192,85950,1,0,0:0:0:0:s_066.ogg
179,192,86100,1,0,0:0:0:0:s_047.ogg
486,192,86100,1,0,0:0:0:0:s_078.ogg
384,192,86250,1,0,0:0:0:0:s_066.ogg
128,192,86400,1,0,0:0:0:0:m_046.ogg
281,192,86400,1,0,0:0:0:0:s_054.ogg
230,192,86450,1,0,0:0:0:0:s_049.ogg
384,192,86550,1,0,0:0:0:0:s_066.ogg
76,192,86700,1,0,0:0:0:0:m_042.ogg
486,192,86700,1,0,0:0:0:0:s_078.ogg
384,192,86850,1,0,0:0:0:0:s_066.ogg
332,192,87000,1,0,0:0:0:0:m_054.ogg
384,192,87150,1,0,0:0:0:0:s_066.ogg
25,192,87300,1,0,0:0:0:0:m_047.ogg
179,192,87300,1,0,0:0:0:0:m_055.ogg
230,192,87300,1,0,0:0:0:0:m_040.ogg
435,192,87300,1,0,0:0:0:0:m_049.ogg
384,192,87450,1,0,0:0:0:0:s_066.ogg
76,192,87600,1,0,0:0:0:0:m_047.ogg
179,192,87600,1,0,0:0:0:0:m_054.ogg
230,192,87600,1,0,0:0:0:0:m_042.ogg
332,192,87600,1,0,0:0:0:0:m_049.ogg
384,192,87750,1,0,0:0:0:0:s_066.ogg
128,192,87900,1,0,0:0:0:0:m_047.ogg
179,192,87900,1,0,0:0:0:0:m_052.ogg
230,192,87900,1,0,0:0:0:0:m_043.ogg
281,192,87900,1,0,0:0:0:0:m_049.ogg
384,192,88050,1,0,0:0:0:0:s_066.ogg
25,192,88200,1,0,0:0:0:0:m_050.ogg
76,192,88200,1,0,0:0:0:0:m_054.ogg
179,192,88200,1,0,0:0:0:0:m_042.ogg
332,192,88200,1,0,0:0:0:0:m_047.ogg
384,192,88350,1,0,0:0:0:0:s_066.ogg
281,192,88500,1,0,0:0:0:0:s_059.ogg
332,192,88650,1,0,0:0:0:0:s_062.ogg
384,192,88800,1,0,0:0:0:0:m_066.ogg
486,192,88950,1,0,0:0:0:0:s_078.ogg
25,192,89100,1,0,0:0:0:0:m_052.ogg
128,192,89100,1,0,0:0:0:0:m_054.ogg
230,192,89100,1,0,0:0:0:0:m_042.ogg
332,192,89100,1,0,0:0:0:0:m_046.ogg
384,192,89250,1,0,0:0:0:0:s_066.ogg
281,192,89400,1,0,0:0:0:0:s_058.ogg
332,192,89550,1,0,0:0:0:0:s_061.ogg
384,192,89700,1,0,0:0:0:0:m_066.ogg
486,192,89850,1,0,0:0:0:0:s_078.ogg
25,192,90000,1,0,0:0:0:0:m_023.ogg
76,192,90100,1,0,0:0:0:0:m_030.ogg
128,192,90200,1,0,0:0:0:0:m_035.ogg
179,192,90300,1,0,0:0:0:0:m_038.ogg
281,192,90400,1,0,0:0:0:0:m_042.ogg
332,192,90500,1,0,0:0:0:0:m_047.ogg
384,192,90600,1,0,0:0:0:0:m_050.ogg
435,192,90700,1,0,0:0:0:0:m_054.ogg
128,192,90800,1,0,0:0:0:0:m_059.ogg
179,192,90900,1,0,0:0:0:0:m_062.ogg
230,192,91000,1,0,0:0:0:0:m_066.ogg
486,192,91100,1,0,0:0:0:0:m_074.ogg
435,192,91200,1,0,0:0:0:0:m_071.ogg
