osu file format v14

[General]
AudioFilename: virtual
AudioLeadIn: 0
PreviewTime: 0
Countdown: 0
SampleSet: Soft
StackLeniency: 0.7
Mode: 3
LetterboxInBreaks: 0
SpecialStyle: 0
WidescreenStoryboard: 1

[Editor]
DistanceSpacing: 0.8
BeatDivisor: 4
GridSize: 16
TimelineZoom: 2.000006

[Metadata]
Title:Piano Beatmap Set
TitleUnicode:Piano Beatmap Set
Artist:Collection
ArtistUnicode:Collection
Creator:CircusGalop
Version:La Campanella - 10K EZ
Source:BMS
Tags:
BeatmapID:1317984
BeatmapSetID:332673

[Difficulty]
HPDrainRate:5
CircleSize:10
OverallDifficulty:5
ApproachRate:5
SliderMultiplier:1.4
SliderTickRate:1

[Events]
//Background and Video events
0,0,"CircusGalop.jpg",0,0
//Break Periods
//Storyboard Layer 0 (Background)
//Storyboard Layer 1 (Fail)
//Storyboard Layer 2 (Pass)
//Storyboard Layer 3 (Foreground)
//Storyboard Sound Samples
Sample,2400,0,"m_054.ogg",100
Sample,2400,0,"m_042.ogg",100
Sample,2700,0,"m_042.ogg",100
Sample,2700,0,"m_054.ogg",100
Sample,3300,0,"m_066.ogg",100
Sample,3300,0,"m_078.ogg",100
Sample,3600,0,"m_078.ogg",100
Sample,3600,0,"m_066.ogg",100
Sample,4200,0,"m_054.ogg",100
Sample,4200,0,"m_042.ogg",100
Sample,4500,0,"m_042.ogg",100
Sample,4500,0,"m_054.ogg",100
Sample,5100,0,"m_078.ogg",100
Sample,5100,0,"m_066.ogg",100
Sample,5400,0,"m_066.ogg",100
Sample,5400,0,"m_078.ogg",100
Sample,6300,0,"m_078.ogg",100
Sample,6300,0,"m_066.ogg",100
Sample,7200,0,"m_066.ogg",100
Sample,7200,0,"m_078.ogg",100
Sample,7800,0,"m_054.ogg",100
Sample,7950,0,"s_066.ogg",100
Sample,8100,0,"m_066.ogg",100
Sample,8250,0,"s_078.ogg",100
Sample,8400,0,"m_066.ogg",100
Sample,8550,0,"s_078.ogg",100
Sample,8700,0,"m_064.ogg",100
Sample,8850,0,"s_078.ogg",100
Sample,9000,0,"m_062.ogg",100
Sample,9150,0,"s_078.ogg",100
Sample,9300,0,"m_062.ogg",100
Sample,9450,0,"s_078.ogg",100
Sample,9600,0,"m_061.ogg",100
Sample,9750,0,"s_078.ogg",100
Sample,9900,0,"m_059.ogg",100
Sample,10050,0,"s_078.ogg",100
Sample,10200,0,"m_058.ogg",100
Sample,10350,0,"s_078.ogg",100
Sample,10500,0,"m_059.ogg",100
Sample,10650,0,"s_078.ogg",100
Sample,10800,0,"m_061.ogg",100
Sample,10950,0,"s_078.ogg",100
Sample,11100,0,"m_054.ogg",100
Sample,11250,0,"s_078.ogg",100
Sample,11400,0,"m_054.ogg",100
Sample,11550,0,"s_066.ogg",100
Sample,11700,0,"m_055.ogg",100
Sample,11850,0,"s_066.ogg",100
Sample,12000,0,"m_054.ogg",100
Sample,12150,0,"s_066.ogg",100
Sample,12300,0,"m_052.ogg",100
Sample,12450,0,"s_066.ogg",100
Sample,12750,0,"s_066.ogg",100
Sample,12900,0,"m_050.ogg",100
Sample,13050,0,"s_066.ogg",100
Sample,13200,0,"m_049.ogg",100
Sample,13350,0,"s_066.ogg",100
Sample,13500,0,"m_047.ogg",100
Sample,13650,0,"s_066.ogg",100
Sample,13800,0,"m_046.ogg",100
Sample,13950,0,"s_066.ogg",100
Sample,14100,0,"m_047.ogg",100
Sample,14250,0,"s_066.ogg",100
Sample,14400,0,"m_049.ogg",100
Sample,14550,0,"s_066.ogg",100
Sample,14700,0,"m_042.ogg",100
Sample,14850,0,"s_054.ogg",100
Sample,15000,0,"s_054.ogg",100
Sample,15150,0,"s_066.ogg",100
Sample,15300,0,"m_066.ogg",100
Sample,15450,0,"s_078.ogg",100
Sample,15600,0,"m_066.ogg",100
Sample,15750,0,"s_078.ogg",100
Sample,15900,0,"m_064.ogg",100
Sample,16050,0,"s_078.ogg",100
Sample,16200,0,"m_062.ogg",100
Sample,16350,0,"s_078.ogg",100
Sample,16500,0,"m_062.ogg",100
Sample,16650,0,"s_078.ogg",100
Sample,16800,0,"m_061.ogg",100
Sample,16950,0,"s_078.ogg",100
Sample,17100,0,"m_059.ogg",100
Sample,17250,0,"s_078.ogg",100
Sample,17400,0,"m_058.ogg",100
Sample,17550,0,"s_078.ogg",100
Sample,17700,0,"m_059.ogg",100
Sample,17850,0,"s_078.ogg",100
Sample,18000,0,"m_061.ogg",100
Sample,18150,0,"s_078.ogg",100
Sample,18300,0,"m_054.ogg",100
Sample,18450,0,"s_078.ogg",100
Sample,18600,0,"m_054.ogg",100
Sample,18750,0,"s_066.ogg",100
Sample,18900,0,"m_055.ogg",100
Sample,19050,0,"s_066.ogg",100
Sample,19200,0,"m_054.ogg",100
Sample,19350,0,"s_066.ogg",100
Sample,19500,0,"m_052.ogg",100
Sample,19650,0,"s_066.ogg",100
Sample,19800,0,"m_050.ogg",100
Sample,19950,0,"s_066.ogg",100
Sample,20100,0,"s_059.ogg",100
Sample,20250,0,"s_062.ogg",100
Sample,20400,0,"m_066.ogg",100
Sample,20550,0,"s_078.ogg",100
Sample,20700,0,"m_046.ogg",100
Sample,20700,0,"m_052.ogg",100
Sample,20850,0,"s_066.ogg",100
Sample,21000,0,"s_058.ogg",100
Sample,21150,0,"s_061.ogg",100
Sample,21300,0,"m_066.ogg",100
Sample,21450,0,"s_078.ogg",100
Sample,21750,0,"m_042.ogg",100
Sample,21900,0,"m_050.ogg",100
Sample,22050,0,"m_059.ogg",100
Sample,22200,0,"s_054.ogg",100
Sample,22350,0,"s_066.ogg",100
Sample,22500,0,"s_078.ogg",100
Sample,22650,0,"s_066.ogg",100
Sample,22800,0,"s_078.ogg",100
Sample,22950,0,"s_066.ogg",100
Sample,23100,0,"s_078.ogg",100
Sample,23250,0,"s_064.ogg",100
Sample,23400,0,"s_064.ogg",100
Sample,23450,0,"m_062.ogg",100
Sample,23550,0,"s_078.ogg",100
Sample,23700,0,"m_062.ogg",100
Sample,23850,0,"s_078.ogg",100
Sample,24000,0,"m_061.ogg",100
Sample,24150,0,"s_078.ogg",100
Sample,24300,0,"s_061.ogg",100
Sample,24350,0,"m_059.ogg",100
Sample,24450,0,"s_078.ogg",100
Sample,24600,0,"m_058.ogg",100
Sample,24750,0,"s_078.ogg",100
Sample,24900,0,"m_059.ogg",100
Sample,25050,0,"s_078.ogg",100
Sample,25200,0,"s_058.ogg",100
Sample,25250,0,"s_059.ogg",100
Sample,25300,0,"s_061.ogg",100
Sample,25350,0,"s_078.ogg",100
Sample,25500,0,"m_054.ogg",100
Sample,25650,0,"s_078.ogg",100
Sample,25800,0,"m_054.ogg",100
Sample,25950,0,"s_066.ogg",100
Sample,26100,0,"s_058.ogg",100
Sample,26150,0,"m_055.ogg",100
Sample,26250,0,"s_066.ogg",100
Sample,26400,0,"m_054.ogg",100
Sample,26550,0,"s_066.ogg",100
Sample,26700,0,"m_052.ogg",100
Sample,26850,0,"s_066.ogg",100
Sample,27000,0,"s_052.ogg",100
Sample,27050,0,"m_050.ogg",100
Sample,27150,0,"s_066.ogg",100
Sample,27300,0,"m_050.ogg",100
Sample,27450,0,"s_066.ogg",100
Sample,27600,0,"m_049.ogg",100
Sample,27750,0,"s_066.ogg",100
Sample,27900,0,"s_049.ogg",100
Sample,27900,0,"m_041.ogg",100
Sample,27950,0,"m_047.ogg",100
Sample,28050,0,"s_066.ogg",100
Sample,28200,0,"m_041.ogg",100
Sample,28200,0,"m_046.ogg",100
Sample,28350,0,"s_066.ogg",100
Sample,28500,0,"m_047.ogg",100
Sample,28650,0,"s_066.ogg",100
Sample,28800,0,"m_049.ogg",100
Sample,28950,0,"s_066.ogg",100
Sample,29100,0,"s_042.ogg",100
Sample,29250,0,"s_054.ogg",100
Sample,29400,0,"s_054.ogg",100
Sample,29550,0,"s_066.ogg",100
Sample,29700,0,"m_066.ogg",100
Sample,29850,0,"s_078.ogg",100
Sample,30000,0,"m_066.ogg",100
Sample,30150,0,"s_078.ogg",100
Sample,30300,0,"m_064.ogg",100
Sample,30450,0,"s_078.ogg",100
Sample,30600,0,"s_064.ogg",100
Sample,30650,0,"m_062.ogg",100
Sample,30750,0,"s_078.ogg",100
Sample,30900,0,"m_062.ogg",100
Sample,31050,0,"s_078.ogg",100
Sample,31200,0,"m_061.ogg",100
Sample,31350,0,"s_078.ogg",100
Sample,31500,0,"s_061.ogg",100
Sample,31550,0,"m_059.ogg",100
Sample,31650,0,"s_078.ogg",100
Sample,31800,0,"m_058.ogg",100
Sample,31950,0,"s_078.ogg",100
Sample,32100,0,"m_059.ogg",100
Sample,32250,0,"s_078.ogg",100
Sample,32400,0,"s_058.ogg",100
Sample,32450,0,"s_059.ogg",100
Sample,32500,0,"s_061.ogg",100
Sample,32550,0,"s_078.ogg",100
Sample,32700,0,"m_054.ogg",100
Sample,32850,0,"s_078.ogg",100
Sample,33000,0,"m_054.ogg",100
Sample,33150,0,"s_066.ogg",100
Sample,33300,0,"m_047.ogg",100
Sample,33300,0,"s_058.ogg",100
Sample,33350,0,"m_055.ogg",100
Sample,33450,0,"s_071.ogg",100
Sample,33600,0,"m_042.ogg",100
Sample,33600,0,"m_054.ogg",100
Sample,33750,0,"s_071.ogg",100
Sample,33900,0,"m_052.ogg",100
Sample,33900,0,"m_043.ogg",100
Sample,34050,0,"s_071.ogg",100
Sample,34200,0,"m_054.ogg",100
Sample,34350,0,"s_066.ogg",100
Sample,34500,0,"s_059.ogg",100
Sample,34650,0,"s_062.ogg",100
Sample,34800,0,"m_066.ogg",100
Sample,34950,0,"s_078.ogg",100
Sample,35100,0,"m_054.ogg",100
Sample,35100,0,"m_046.ogg",100
Sample,35250,0,"s_066.ogg",100
Sample,35400,0,"s_058.ogg",100
Sample,35550,0,"s_061.ogg",100
Sample,35700,0,"m_066.ogg",100
Sample,35850,0,"s_078.ogg",100
Sample,36150,0,"m_038.ogg",100
Sample,36300,0,"m_042.ogg",100
Sample,36450,0,"m_047.ogg",100
Sample,36600,0,"m_054.ogg",100
Sample,36750,0,"m_059.ogg",100
Sample,36900,0,"m_062.ogg",100
Sample,37050,0,"m_066.ogg",100
Sample,37200,0,"m_071.ogg",100
Sample,38550,0,"s_047.ogg",100
Sample,38550,0,"s_049.ogg",100
Sample,38700,0,"s_050.ogg",100
Sample,38850,0,"s_048.ogg",100
Sample,38850,0,"s_046.ogg",100
Sample,39000,0,"s_050.ogg",100
Sample,39150,0,"s_044.ogg",100
Sample,39150,0,"s_047.ogg",100
Sample,39300,0,"s_050.ogg",100
Sample,39450,0,"s_043.ogg",100
Sample,39450,0,"s_046.ogg",100
Sample,39600,0,"s_052.ogg",100
Sample,39675,0,"s_050.ogg",100
Sample,39750,0,"s_049.ogg",100
Sample,39825,0,"s_050.ogg",100
Sample,39900,0,"m_038.ogg",100
Sample,39900,0,"s_045.ogg",100
Sample,40050,0,"s_069.ogg",100
Sample,40200,0,"s_050.ogg",100
Sample,40200,0,"m_042.ogg",100
Sample,40350,0,"s_069.ogg",100
Sample,40500,0,"s_054.ogg",100
Sample,40575,0,"s_052.ogg",100
Sample,40650,0,"s_051.ogg",100
Sample,40725,0,"s_052.ogg",100
Sample,40800,0,"m_043.ogg",100
Sample,40800,0,"s_045.ogg",100
Sample,40950,0,"s_069.ogg",100
Sample,41100,0,"m_043.ogg",100
Sample,41100,0,"s_052.ogg",100
Sample,41250,0,"s_069.ogg",100
Sample,41400,0,"s_055.ogg",100
Sample,41475,0,"s_054.ogg",100
Sample,41550,0,"s_053.ogg",100
Sample,41625,0,"s_054.ogg",100
Sample,41700,0,"s_050.ogg",100
Sample,41850,0,"s_069.ogg",100
Sample,42150,0,"s_053.ogg",100
Sample,42150,0,"s_050.ogg",100
Sample,42300,0,"s_054.ogg",100
Sample,42450,0,"s_049.ogg",100
Sample,42450,0,"s_052.ogg",100
Sample,42600,0,"s_054.ogg",100
Sample,42750,0,"s_051.ogg",100
Sample,42750,0,"s_048.ogg",100
Sample,42900,0,"s_054.ogg",100
Sample,43050,0,"s_050.ogg",100
Sample,43050,0,"s_047.ogg",100
Sample,43200,0,"s_056.ogg",100
Sample,43275,0,"s_054.ogg",100
Sample,43350,0,"s_053.ogg",100
Sample,43425,0,"s_054.ogg",100
Sample,43500,0,"m_042.ogg",100
Sample,43500,0,"s_049.ogg",100
Sample,43650,0,"s_073.ogg",100
Sample,43800,0,"m_045.ogg",100
Sample,43800,0,"s_054.ogg",100
Sample,43950,0,"s_073.ogg",100
Sample,44100,0,"s_057.ogg",100
Sample,44175,0,"s_056.ogg",100
Sample,44250,0,"s_055.ogg",100
Sample,44325,0,"s_056.ogg",100
Sample,44400,0,"m_041.ogg",100
Sample,44400,0,"s_049.ogg",100
Sample,44550,0,"s_073.ogg",100
Sample,44700,0,"m_049.ogg",100
Sample,44700,0,"s_056.ogg",100
Sample,44850,0,"s_073.ogg",100
Sample,45000,0,"s_059.ogg",100
Sample,45075,0,"s_057.ogg",100
Sample,45150,0,"s_056.ogg",100
Sample,45225,0,"s_057.ogg",100
Sample,45300,0,"s_054.ogg",100
Sample,45450,0,"s_073.ogg",100
Sample,45750,0,"s_053.ogg",100
Sample,45750,0,"s_056.ogg",100
Sample,45900,0,"s_057.ogg",100
Sample,46050,0,"s_052.ogg",100
Sample,46050,0,"s_055.ogg",100
Sample,46200,0,"s_057.ogg",100
Sample,46350,0,"s_051.ogg",100
Sample,46350,0,"s_054.ogg",100
Sample,46500,0,"s_057.ogg",100
Sample,46650,0,"s_050.ogg",100
Sample,46650,0,"s_053.ogg",100
Sample,46800,0,"s_059.ogg",100
Sample,46875,0,"s_057.ogg",100
Sample,46950,0,"s_056.ogg",100
Sample,47025,0,"s_057.ogg",100
Sample,47100,0,"m_045.ogg",100
Sample,47100,0,"s_052.ogg",100
Sample,47250,0,"s_076.ogg",100
Sample,47400,0,"m_040.ogg",100
Sample,47400,0,"s_057.ogg",100
Sample,47550,0,"s_076.ogg",100
Sample,47700,0,"s_061.ogg",100
Sample,47775,0,"s_059.ogg",100
Sample,47850,0,"s_058.ogg",100
Sample,47925,0,"s_059.ogg",100
Sample,48000,0,"m_050.ogg",100
Sample,48000,0,"s_052.ogg",100
Sample,48150,0,"s_076.ogg",100
Sample,48300,0,"m_040.ogg",100
Sample,48300,0,"s_059.ogg",100
Sample,48450,0,"s_076.ogg",100
Sample,48600,0,"s_061.ogg",100
Sample,48600,0,"s_057.ogg",100
Sample,48750,0,"s_062.ogg",100
Sample,48750,0,"s_059.ogg",100
Sample,48900,0,"m_064.ogg",100
Sample,48950,0,"m_061.ogg",100
Sample,49050,0,"s_073.ogg",100
Sample,49050,0,"s_076.ogg",100
Sample,49200,0,"s_062.ogg",100
Sample,49200,0,"s_059.ogg",100
Sample,49350,0,"s_057.ogg",100
Sample,49350,0,"s_061.ogg",100
Sample,49500,0,"s_059.ogg",100
Sample,49500,0,"s_050.ogg",100
Sample,49650,0,"s_052.ogg",100
Sample,49650,0,"s_061.ogg",100
Sample,49800,0,"m_062.ogg",100
Sample,49850,0,"m_054.ogg",100
Sample,49950,0,"s_074.ogg",100
Sample,49950,0,"s_066.ogg",100
Sample,50100,0,"s_052.ogg",100
Sample,50100,0,"s_061.ogg",100
Sample,50250,0,"s_050.ogg",100
Sample,50250,0,"s_059.ogg",100
Sample,50400,0,"s_049.ogg",100
Sample,50400,0,"s_057.ogg",100
Sample,50550,0,"s_059.ogg",100
Sample,50550,0,"s_050.ogg",100
Sample,50700,0,"m_061.ogg",100
Sample,50750,0,"m_052.ogg",100
Sample,50850,0,"s_064.ogg",100
Sample,50850,0,"s_073.ogg",100
Sample,51000,0,"s_050.ogg",100
Sample,51000,0,"s_059.ogg",100
Sample,51150,0,"s_057.ogg",100
Sample,51150,0,"s_049.ogg",100
Sample,51300,0,"s_047.ogg",100
Sample,51300,0,"s_056.ogg",100
Sample,51450,0,"s_057.ogg",100
Sample,51450,0,"s_049.ogg",100
Sample,51600,0,"m_059.ogg",100
Sample,51650,0,"m_050.ogg",100
Sample,51750,0,"s_062.ogg",100
Sample,51750,0,"s_071.ogg",100
Sample,51900,0,"s_045.ogg",100
Sample,51900,0,"s_054.ogg",100
Sample,52050,0,"s_047.ogg",100
Sample,52050,0,"s_056.ogg",100
Sample,52200,0,"s_057.ogg",100
Sample,52200,0,"m_049.ogg",100
Sample,52350,0,"s_069.ogg",100
Sample,52350,0,"s_061.ogg",100
Sample,52500,0,"s_045.ogg",100
Sample,52650,0,"s_057.ogg",100
Sample,52800,0,"s_046.ogg",100
Sample,52950,0,"s_058.ogg",100
Sample,53100,0,"s_047.ogg",100
Sample,53250,0,"s_059.ogg",100
Sample,53400,0,"m_047.ogg",100
Sample,53550,0,"s_059.ogg",100
Sample,53700,0,"m_042.ogg",100
Sample,53850,0,"s_057.ogg",100
Sample,54000,0,"m_040.ogg",100
Sample,54150,0,"s_055.ogg",100
Sample,54300,0,"m_081.ogg",100
Sample,54450,0,"s_059.ogg",100
Sample,54600,0,"m_079.ogg",100
Sample,54750,0,"s_059.ogg",100
Sample,54900,0,"m_078.ogg",100
Sample,55050,0,"s_059.ogg",100
Sample,55200,0,"m_076.ogg",100
Sample,55350,0,"s_059.ogg",100
Sample,55500,0,"m_078.ogg",100
Sample,55650,0,"s_059.ogg",100
Sample,55800,0,"m_079.ogg",100
Sample,55950,0,"s_059.ogg",100
Sample,56100,0,"m_076.ogg",100
Sample,56250,0,"s_059.ogg",100
Sample,56400,0,"s_046.ogg",100
Sample,56550,0,"s_058.ogg",100
Sample,56700,0,"s_045.ogg",100
Sample,56850,0,"s_057.ogg",100
Sample,57000,0,"m_045.ogg",100
Sample,57150,0,"s_057.ogg",100
Sample,57300,0,"m_040.ogg",100
Sample,57450,0,"s_055.ogg",100
Sample,57600,0,"m_038.ogg",100
Sample,57750,0,"s_054.ogg",100
Sample,57900,0,"m_079.ogg",100
Sample,58050,0,"s_057.ogg",100
Sample,58200,0,"m_078.ogg",100
Sample,58350,0,"s_057.ogg",100
Sample,58500,0,"m_076.ogg",100
Sample,58650,0,"s_057.ogg",100
Sample,58800,0,"m_074.ogg",100
Sample,58950,0,"s_057.ogg",100
Sample,59100,0,"m_076.ogg",100
Sample,59250,0,"s_057.ogg",100
Sample,59400,0,"m_078.ogg",100
Sample,59550,0,"s_057.ogg",100
Sample,59700,0,"m_074.ogg",100
Sample,59850,0,"s_057.ogg",100
Sample,60000,0,"s_041.ogg",100
Sample,60150,0,"s_053.ogg",100
Sample,60300,0,"s_042.ogg",100
Sample,60450,0,"s_054.ogg",100
Sample,60600,0,"m_034.ogg",100
Sample,60750,0,"s_054.ogg",100
Sample,60900,0,"m_035.ogg",100
Sample,61050,0,"s_053.ogg",100
Sample,61200,0,"m_046.ogg",100
Sample,61350,0,"s_053.ogg",100
Sample,61500,0,"m_037.ogg",100
Sample,61650,0,"s_052.ogg",100
Sample,61800,0,"m_038.ogg",100
Sample,61950,0,"s_050.ogg",100
Sample,62100,0,"s_067.ogg",100
Sample,62100,0,"s_055.ogg",100
Sample,62250,0,"s_066.ogg",100
Sample,62250,0,"s_061.ogg",100
Sample,62400,0,"s_064.ogg",100
Sample,62400,0,"s_052.ogg",100
Sample,62550,0,"s_062.ogg",100
Sample,62550,0,"s_055.ogg",100
Sample,62700,0,"s_050.ogg",100
Sample,62700,0,"s_061.ogg",100
Sample,62850,0,"s_059.ogg",100
Sample,62850,0,"s_056.ogg",100
Sample,63000,0,"s_049.ogg",100
Sample,63000,0,"s_058.ogg",100
Sample,63150,0,"s_061.ogg",100
Sample,63150,0,"s_054.ogg",100
Sample,63300,0,"s_062.ogg",100
Sample,63300,0,"s_058.ogg",100
Sample,63450,0,"s_054.ogg",100
Sample,63450,0,"s_061.ogg",100
Sample,63600,0,"s_053.ogg",100
Sample,63750,0,"s_065.ogg",100
Sample,63900,0,"s_054.ogg",100
Sample,64050,0,"s_066.ogg",100
Sample,64200,0,"m_046.ogg",100
Sample,64350,0,"s_066.ogg",100
Sample,64500,0,"m_056.ogg",100
Sample,64650,0,"s_065.ogg",100
Sample,64800,0,"m_058.ogg",100
Sample,64950,0,"s_065.ogg",100
Sample,65100,0,"m_049.ogg",100
Sample,65250,0,"s_064.ogg",100
Sample,65400,0,"m_050.ogg",100
Sample,65550,0,"s_062.ogg",100
Sample,65700,0,"m_052.ogg",100
Sample,65700,0,"s_079.ogg",100
Sample,65850,0,"s_072.ogg",100
Sample,65850,0,"s_078.ogg",100
Sample,66000,0,"s_076.ogg",100
Sample,66000,0,"s_064.ogg",100
Sample,66150,0,"s_067.ogg",100
Sample,66150,0,"s_074.ogg",100
Sample,66300,0,"m_056.ogg",100
Sample,66300,0,"s_073.ogg",100
Sample,66450,0,"s_071.ogg",100
Sample,66450,0,"s_068.ogg",100
Sample,66600,0,"m_058.ogg",100
Sample,66600,0,"s_070.ogg",100
Sample,66750,0,"s_073.ogg",100
Sample,66750,0,"s_066.ogg",100
Sample,67050,0,"s_065.ogg",100
Sample,67350,0,"s_066.ogg",100
Sample,67500,0,"s_078.ogg",100
Sample,67650,0,"s_066.ogg",100
Sample,67950,0,"s_066.ogg",100
Sample,68250,0,"s_067.ogg",100
Sample,68400,0,"s_078.ogg",100
Sample,68550,0,"s_066.ogg",100
Sample,68850,0,"s_067.ogg",100
Sample,69150,0,"s_068.ogg",100
Sample,69300,0,"s_078.ogg",100
Sample,69450,0,"s_066.ogg",100
Sample,69750,0,"s_069.ogg",100
Sample,69900,0,"s_078.ogg",100
Sample,70050,0,"s_066.ogg",100
Sample,70350,0,"s_070.ogg",100
Sample,70500,0,"s_078.ogg",100
Sample,70650,0,"s_066.ogg",100
Sample,70950,0,"s_071.ogg",100
Sample,71100,0,"s_078.ogg",100
Sample,71400,0,"s_078.ogg",100
Sample,71700,0,"s_078.ogg",100
Sample,72000,0,"s_078.ogg",100
Sample,72300,0,"s_078.ogg",100
Sample,72600,0,"s_078.ogg",100
Sample,72900,0,"s_078.ogg",100
Sample,73200,0,"s_078.ogg",100
Sample,73350,0,"s_066.ogg",100
Sample,73500,0,"s_078.ogg",100
Sample,73650,0,"s_066.ogg",100
Sample,73800,0,"s_078.ogg",100
Sample,73950,0,"s_066.ogg",100
Sample,74100,0,"s_078.ogg",100
Sample,74250,0,"s_066.ogg",100
Sample,74400,0,"s_078.ogg",100
Sample,74550,0,"s_066.ogg",100
Sample,74700,0,"s_078.ogg",100
Sample,74850,0,"s_066.ogg",100
Sample,75150,0,"s_066.ogg",100
Sample,75300,0,"s_078.ogg",100
Sample,75450,0,"s_066.ogg",100
Sample,75600,0,"s_054.ogg",100
Sample,75750,0,"s_066.ogg",100
Sample,75900,0,"s_078.ogg",100
Sample,76050,0,"s_066.ogg",100
Sample,76200,0,"s_054.ogg",100
Sample,76350,0,"s_066.ogg",100
Sample,76500,0,"s_078.ogg",100
Sample,76650,0,"s_066.ogg",100
Sample,76950,0,"s_066.ogg",100
Sample,77100,0,"s_078.ogg",100
Sample,77250,0,"s_066.ogg",100
Sample,77400,0,"s_054.ogg",100
Sample,77550,0,"s_066.ogg",100
Sample,77700,0,"s_078.ogg",100
Sample,77850,0,"s_066.ogg",100
Sample,78000,0,"s_054.ogg",100
Sample,78150,0,"s_066.ogg",100
Sample,78300,0,"s_078.ogg",100
Sample,78450,0,"s_066.ogg",100
Sample,78600,0,"s_054.ogg",100
Sample,78750,0,"s_066.ogg",100
Sample,78900,0,"s_078.ogg",100
Sample,79050,0,"s_066.ogg",100
Sample,79200,0,"s_054.ogg",100
Sample,79350,0,"s_066.ogg",100
Sample,79500,0,"s_078.ogg",100
Sample,79650,0,"s_066.ogg",100
Sample,79800,0,"s_054.ogg",100
Sample,79950,0,"s_066.ogg",100
Sample,80100,0,"s_078.ogg",100
Sample,80250,0,"s_066.ogg",100
Sample,80400,0,"s_054.ogg",100
Sample,80550,0,"s_066.ogg",100
Sample,80700,0,"s_078.ogg",100
Sample,80850,0,"s_066.ogg",100
Sample,81000,0,"s_054.ogg",100
Sample,81150,0,"s_066.ogg",100
Sample,81300,0,"s_078.ogg",100
Sample,81450,0,"s_066.ogg",100
Sample,81600,0,"s_054.ogg",100
Sample,81750,0,"s_066.ogg",100
Sample,81900,0,"s_078.ogg",100
Sample,82050,0,"s_066.ogg",100
Sample,82200,0,"s_054.ogg",100
Sample,82350,0,"s_066.ogg",100
Sample,82500,0,"s_078.ogg",100
Sample,82650,0,"s_066.ogg",100
Sample,82800,0,"s_054.ogg",100
Sample,82950,0,"s_066.ogg",100
Sample,83100,0,"s_078.ogg",100
Sample,83250,0,"s_066.ogg",100
Sample,83400,0,"s_054.ogg",100
Sample,83550,0,"s_066.ogg",100
Sample,83700,0,"s_078.ogg",100
Sample,83850,0,"s_066.ogg",100
Sample,84150,0,"s_066.ogg",100
Sample,84300,0,"s_078.ogg",100
Sample,84450,0,"s_066.ogg",100
Sample,84600,0,"s_054.ogg",100
Sample,84750,0,"s_066.ogg",100
Sample,84900,0,"s_078.ogg",100
Sample,85050,0,"s_066.ogg",100
Sample,85200,0,"s_054.ogg",100
Sample,85350,0,"s_066.ogg",100
Sample,85500,0,"s_078.ogg",100
Sample,85650,0,"s_066.ogg",100
Sample,85800,0,"s_054.ogg",100
Sample,85950,0,"s_066.ogg",100
Sample,86100,0,"s_078.ogg",100
Sample,86250,0,"s_066.ogg",100
Sample,86400,0,"s_054.ogg",100
Sample,86550,0,"s_066.ogg",100
Sample,86700,0,"s_078.ogg",100
Sample,86850,0,"s_066.ogg",100
Sample,87150,0,"s_066.ogg",100
Sample,87300,0,"m_055.ogg",100
Sample,87300,0,"m_040.ogg",100
Sample,87450,0,"s_066.ogg",100
Sample,87600,0,"m_042.ogg",100
Sample,87600,0,"m_054.ogg",100
Sample,87750,0,"s_066.ogg",100
Sample,87900,0,"m_052.ogg",100
Sample,87900,0,"m_043.ogg",100
Sample,88050,0,"s_066.ogg",100
Sample,88200,0,"m_042.ogg",100
Sample,88200,0,"m_054.ogg",100
Sample,88350,0,"s_066.ogg",100
Sample,88500,0,"s_059.ogg",100
Sample,88650,0,"s_062.ogg",100
Sample,88800,0,"m_066.ogg",100
Sample,88950,0,"s_078.ogg",100
Sample,89100,0,"m_046.ogg",100
Sample,89100,0,"m_054.ogg",100
Sample,89250,0,"s_066.ogg",100
Sample,89400,0,"s_058.ogg",100
Sample,89550,0,"s_061.ogg",100
Sample,89700,0,"m_066.ogg",100
Sample,89850,0,"s_078.ogg",100
Sample,90100,0,"m_030.ogg",100
Sample,90200,0,"m_035.ogg",100
Sample,90300,0,"m_038.ogg",100
Sample,90400,0,"m_042.ogg",100
Sample,90500,0,"m_047.ogg",100
Sample,90600,0,"m_050.ogg",100
Sample,90700,0,"m_054.ogg",100
Sample,90800,0,"m_059.ogg",100
Sample,90900,0,"m_062.ogg",100
Sample,91000,0,"m_066.ogg",100
Sample,91100,0,"m_074.ogg",100
Sample,91200,0,"m_071.ogg",100

[TimingPoints]
0,600.000000000006,4,2,0,100,1,0

[HitObjects]
179,192,2100,128,0,2850:0:0:0:0:m_054.ogg
76,192,2100,128,0,2850:0:0:0:0:m_042.ogg
435,192,3000,128,0,3750:0:0:0:0:m_066.ogg
332,192,3000,128,0,3750:0:0:0:0:m_078.ogg
179,192,3900,128,0,4650:0:0:0:0:m_054.ogg
76,192,3900,128,0,4650:0:0:0:0:m_042.ogg
435,192,4800,128,0,5550:0:0:0:0:m_066.ogg
332,192,4800,128,0,5550:0:0:0:0:m_078.ogg
76,192,5700,1,0,0:0:0:0:m_042.ogg
179,192,5700,1,0,0:0:0:0:m_054.ogg
435,192,6000,128,0,6450:0:0:0:0:m_066.ogg
332,192,6000,128,0,6450:0:0:0:0:m_078.ogg
76,192,6600,1,0,0:0:0:0:m_054.ogg
179,192,6600,1,0,0:0:0:0:m_042.ogg
332,192,6900,128,0,7350:0:0:0:0:m_078.ogg
435,192,6900,128,0,7350:0:0:0:0:m_066.ogg
128,192,9000,1,0,0:0:0:0:m_035.ogg
179,192,9050,1,0,0:0:0:0:m_042.ogg
230,192,9100,1,0,0:0:0:0:m_050.ogg
281,192,9900,1,0,0:0:0:0:m_038.ogg
332,192,9950,1,0,0:0:0:0:m_047.ogg
384,192,10000,1,0,0:0:0:0:m_054.ogg
384,192,10800,1,0,0:0:0:0:m_042.ogg
435,192,10850,1,0,0:0:0:0:m_049.ogg
486,192,10900,1,0,0:0:0:0:m_058.ogg
332,192,11700,1,0,0:0:0:0:m_046.ogg
435,192,11750,1,0,0:0:0:0:m_049.ogg
76,192,12600,1,0,0:0:0:0:m_050.ogg
179,192,12600,1,0,0:0:0:0:m_047.ogg
25,192,13500,1,0,0:0:0:0:m_038.ogg
76,192,13550,1,0,0:0:0:0:m_041.ogg
128,192,13600,1,0,0:0:0:0:m_044.ogg
332,192,14400,1,0,0:0:0:0:m_046.ogg
435,192,14400,1,0,0:0:0:0:m_042.ogg
128,192,16200,1,0,0:0:0:0:m_035.ogg
179,192,16250,1,0,0:0:0:0:m_042.ogg
230,192,16300,1,0,0:0:0:0:m_050.ogg
281,192,17100,1,0,0:0:0:0:m_038.ogg
332,192,17150,1,0,0:0:0:0:m_047.ogg
384,192,17200,1,0,0:0:0:0:m_054.ogg
384,192,18000,1,0,0:0:0:0:m_042.ogg
435,192,18050,1,0,0:0:0:0:m_049.ogg
486,192,18100,1,0,0:0:0:0:m_058.ogg
332,192,18900,1,0,0:0:0:0:m_046.ogg
435,192,18950,1,0,0:0:0:0:m_049.ogg
281,192,19500,1,0,0:0:0:0:m_054.ogg
76,192,19800,1,0,0:0:0:0:m_047.ogg
179,192,19800,1,0,0:0:0:0:m_054.ogg
128,192,20700,1,0,0:0:0:0:m_042.ogg
230,192,20700,1,0,0:0:0:0:m_054.ogg
25,192,21600,128,0,22200:0:0:0:0:m_035.ogg
128,192,23400,1,0,0:0:0:0:m_023.ogg
332,192,23700,1,0,0:0:0:0:m_030.ogg
281,192,23700,1,0,0:0:0:0:m_038.ogg
128,192,24300,1,0,0:0:0:0:m_026.ogg
332,192,24600,1,0,0:0:0:0:m_042.ogg
384,192,24600,1,0,0:0:0:0:m_035.ogg
128,192,25200,1,0,0:0:0:0:m_030.ogg
435,192,25500,1,0,0:0:0:0:m_046.ogg
384,192,25500,1,0,0:0:0:0:m_037.ogg
384,192,26100,1,0,0:0:0:0:m_049.ogg
435,192,26100,1,0,0:0:0:0:m_046.ogg
384,192,26400,1,0,0:0:0:0:m_046.ogg
435,192,26400,1,0,0:0:0:0:m_049.ogg
486,192,27000,1,0,0:0:0:0:m_047.ogg
486,192,27300,1,0,0:0:0:0:m_047.ogg
25,192,27900,1,0,0:0:0:0:m_044.ogg
76,192,27900,1,0,0:0:0:0:m_038.ogg
25,192,28200,1,0,0:0:0:0:m_044.ogg
76,192,28200,1,0,0:0:0:0:m_038.ogg
179,192,28800,1,0,0:0:0:0:m_046.ogg
230,192,28800,1,0,0:0:0:0:m_030.ogg
128,192,30600,1,0,0:0:0:0:m_023.ogg
281,192,30900,1,0,0:0:0:0:m_030.ogg
384,192,30900,1,0,0:0:0:0:m_038.ogg
128,192,31500,1,0,0:0:0:0:m_026.ogg
332,192,31800,1,0,0:0:0:0:m_042.ogg
435,192,31800,1,0,0:0:0:0:m_035.ogg
128,192,32400,1,0,0:0:0:0:m_030.ogg
384,192,32700,1,0,0:0:0:0:m_046.ogg
486,192,32700,1,0,0:0:0:0:m_037.ogg
179,192,33300,1,0,0:0:0:0:m_049.ogg
435,192,33300,1,0,0:0:0:0:m_040.ogg
128,192,33600,1,0,0:0:0:0:m_047.ogg
384,192,33600,1,0,0:0:0:0:m_049.ogg
76,192,33900,1,0,0:0:0:0:m_047.ogg
332,192,33900,1,0,0:0:0:0:m_049.ogg
128,192,34200,1,0,0:0:0:0:m_050.ogg
384,192,34200,1,0,0:0:0:0:m_047.ogg
25,192,35100,1,0,0:0:0:0:m_042.ogg
281,192,35100,1,0,0:0:0:0:m_052.ogg
230,192,36000,128,0,37200:0:0:0:0:m_023.ogg
486,192,38400,128,0,39600:0:0:0:0:s_050.ogg
76,192,39900,1,0,0:0:0:0:m_042.ogg
332,192,40200,1,0,0:0:0:0:m_033.ogg
76,192,40200,1,0,0:0:0:0:m_045.ogg
128,192,40800,1,0,0:0:0:0:m_037.ogg
384,192,41100,1,0,0:0:0:0:m_033.ogg
128,192,41100,1,0,0:0:0:0:m_045.ogg
179,192,41700,1,0,0:0:0:0:m_038.ogg
435,192,41700,1,0,0:0:0:0:m_042.ogg
25,192,42000,128,0,43200:0:0:0:0:s_054.ogg
332,192,43500,1,0,0:0:0:0:m_045.ogg
332,192,43800,1,0,0:0:0:0:m_037.ogg
76,192,43800,1,0,0:0:0:0:m_049.ogg
384,192,44400,1,0,0:0:0:0:m_047.ogg
128,192,44700,1,0,0:0:0:0:m_037.ogg
384,192,44700,1,0,0:0:0:0:m_047.ogg
179,192,45300,1,0,0:0:0:0:m_045.ogg
435,192,45300,1,0,0:0:0:0:m_042.ogg
486,192,45600,128,0,46800:0:0:0:0:s_057.ogg
179,192,47100,1,0,0:0:0:0:m_049.ogg
384,192,47400,1,0,0:0:0:0:m_052.ogg
76,192,47400,1,0,0:0:0:0:m_049.ogg
435,192,48000,1,0,0:0:0:0:m_044.ogg
128,192,48300,1,0,0:0:0:0:m_052.ogg
332,192,48300,1,0,0:0:0:0:m_050.ogg
384,192,48900,128,0,49500:0:0:0:0:m_045.ogg
230,192,49800,128,0,50400:0:0:0:0:m_038.ogg
281,192,50700,128,0,51300:0:0:0:0:m_040.ogg
281,192,51600,128,0,52200:0:0:0:0:m_040.ogg
25,192,52200,1,0,0:0:0:0:m_033.ogg
179,192,53400,1,0,0:0:0:0:m_043.ogg
435,192,53400,1,0,0:0:0:0:m_071.ogg
128,192,53700,1,0,0:0:0:0:m_047.ogg
384,192,53700,1,0,0:0:0:0:m_071.ogg
76,192,54000,1,0,0:0:0:0:m_047.ogg
332,192,54000,1,0,0:0:0:0:m_071.ogg
281,192,54300,1,0,0:0:0:0:m_054.ogg
230,192,54600,1,0,0:0:0:0:m_052.ogg
179,192,54900,1,0,0:0:0:0:m_051.ogg
435,192,54900,1,0,0:0:0:0:m_035.ogg
128,192,55200,1,0,0:0:0:0:m_049.ogg
179,192,55500,1,0,0:0:0:0:m_051.ogg
486,192,55800,1,0,0:0:0:0:m_040.ogg
230,192,55800,1,0,0:0:0:0:m_052.ogg
76,192,56100,1,0,0:0:0:0:m_055.ogg
128,192,57000,1,0,0:0:0:0:m_042.ogg
384,192,57000,1,0,0:0:0:0:m_069.ogg
76,192,57300,1,0,0:0:0:0:m_045.ogg
332,192,57300,1,0,0:0:0:0:m_069.ogg
25,192,57600,1,0,0:0:0:0:m_045.ogg
281,192,57600,1,0,0:0:0:0:m_069.ogg
230,192,57900,1,0,0:0:0:0:m_052.ogg
179,192,58200,1,0,0:0:0:0:m_050.ogg
128,192,58500,1,0,0:0:0:0:m_049.ogg
384,192,58500,1,0,0:0:0:0:m_033.ogg
76,192,58800,1,0,0:0:0:0:m_047.ogg
128,192,59100,1,0,0:0:0:0:m_049.ogg
435,192,59400,1,0,0:0:0:0:m_038.ogg
179,192,59400,1,0,0:0:0:0:m_050.ogg
25,192,59700,1,0,0:0:0:0:m_054.ogg
25,192,60600,1,0,0:0:0:0:s_066.ogg
230,192,60600,1,0,0:0:0:0:m_042.ogg
76,192,60900,1,0,0:0:0:0:s_066.ogg
281,192,60900,1,0,0:0:0:0:m_044.ogg
128,192,61200,1,0,0:0:0:0:s_066.ogg
332,192,61200,1,0,0:0:0:0:m_037.ogg
128,192,61500,1,0,0:0:0:0:s_066.ogg
332,192,61500,1,0,0:0:0:0:m_046.ogg
179,192,61800,1,0,0:0:0:0:s_066.ogg
384,192,61800,1,0,0:0:0:0:m_047.ogg
230,192,62100,1,0,0:0:0:0:m_049.ogg
435,192,62100,1,0,0:0:0:0:m_040.ogg
128,192,62700,1,0,0:0:0:0:m_044.ogg
332,192,62700,1,0,0:0:0:0:m_041.ogg
179,192,63000,1,0,0:0:0:0:m_046.ogg
384,192,63000,1,0,0:0:0:0:m_042.ogg
76,192,64200,1,0,0:0:0:0:s_078.ogg
281,192,64200,1,0,0:0:0:0:m_054.ogg
128,192,64500,1,0,0:0:0:0:s_078.ogg
332,192,64500,1,0,0:0:0:0:m_047.ogg
179,192,64800,1,0,0:0:0:0:s_078.ogg
384,192,64800,1,0,0:0:0:0:m_049.ogg
179,192,65100,1,0,0:0:0:0:s_078.ogg
384,192,65100,1,0,0:0:0:0:m_058.ogg
230,192,65400,1,0,0:0:0:0:s_078.ogg
435,192,65400,1,0,0:0:0:0:m_059.ogg
281,192,65700,1,0,0:0:0:0:m_060.ogg
486,192,65700,1,0,0:0:0:0:s_067.ogg
179,192,66300,1,0,0:0:0:0:m_053.ogg
384,192,66300,1,0,0:0:0:0:s_062.ogg
230,192,66600,1,0,0:0:0:0:s_061.ogg
435,192,66600,1,0,0:0:0:0:m_054.ogg
76,192,66900,1,0,0:0:0:0:s_053.ogg
179,192,67200,1,0,0:0:0:0:s_054.ogg
179,192,67800,1,0,0:0:0:0:s_054.ogg
332,192,68100,1,0,0:0:0:0:s_055.ogg
332,192,68700,1,0,0:0:0:0:s_055.ogg
435,192,69000,1,0,0:0:0:0:s_056.ogg
25,192,69600,1,0,0:0:0:0:s_057.ogg
76,192,70200,1,0,0:0:0:0:s_058.ogg
128,192,70800,1,0,0:0:0:0:s_059.ogg
179,192,71250,1,0,0:0:0:0:s_060.ogg
230,192,71550,1,0,0:0:0:0:s_061.ogg
281,192,71850,1,0,0:0:0:0:s_062.ogg
332,192,72150,1,0,0:0:0:0:s_063.ogg
384,192,72450,1,0,0:0:0:0:s_064.ogg
435,192,72750,1,0,0:0:0:0:s_065.ogg
486,192,73050,128,0,75000:0:0:0:0:s_066.ogg
25,192,75000,1,0,0:0:0:0:m_054.ogg
435,192,76200,1,0,0:0:0:0:m_042.ogg
435,192,76500,1,0,0:0:0:0:s_054.ogg
435,192,76800,1,0,0:0:0:0:m_054.ogg
384,192,77100,1,0,0:0:0:0:s_052.ogg
128,192,77400,1,0,0:0:0:0:m_035.ogg
332,192,77450,1,0,0:0:0:0:s_050.ogg
332,192,77700,1,0,0:0:0:0:s_050.ogg
281,192,78000,1,0,0:0:0:0:s_049.ogg
179,192,78300,1,0,0:0:0:0:m_038.ogg
384,192,78350,1,0,0:0:0:0:s_047.ogg
332,192,78600,1,0,0:0:0:0:s_046.ogg
384,192,78900,1,0,0:0:0:0:s_047.ogg
230,192,79200,1,0,0:0:0:0:m_046.ogg
486,192,79250,1,0,0:0:0:0:s_049.ogg
332,192,79500,1,0,0:0:0:0:s_042.ogg
332,192,79800,1,0,0:0:0:0:s_042.ogg
76,192,80100,1,0,0:0:0:0:m_034.ogg
384,192,80150,1,0,0:0:0:0:s_043.ogg
332,192,80400,1,0,0:0:0:0:s_042.ogg
281,192,80700,1,0,0:0:0:0:s_040.ogg
128,192,81000,1,0,0:0:0:0:m_035.ogg
486,192,81050,1,0,0:0:0:0:s_038.ogg
486,192,81300,1,0,0:0:0:0:s_038.ogg
435,192,81600,1,0,0:0:0:0:s_037.ogg
25,192,81900,1,0,0:0:0:0:m_031.ogg
384,192,81950,1,0,0:0:0:0:s_035.ogg
332,192,82200,1,0,0:0:0:0:s_034.ogg
384,192,82500,1,0,0:0:0:0:s_035.ogg
435,192,82800,1,0,0:0:0:0:m_034.ogg
76,192,82800,1,0,0:0:0:0:m_037.ogg
281,192,83100,1,0,0:0:0:0:m_030.ogg
128,192,83625,1,0,0:0:0:0:m_042.ogg
179,192,83700,1,0,0:0:0:0:s_054.ogg
179,192,84000,1,0,0:0:0:0:s_054.ogg
128,192,84300,1,0,0:0:0:0:s_052.ogg
281,192,84600,1,0,0:0:0:0:m_035.ogg
76,192,84650,1,0,0:0:0:0:s_050.ogg
76,192,84900,1,0,0:0:0:0:s_050.ogg
25,192,85200,1,0,0:0:0:0:s_049.ogg
332,192,85500,1,0,0:0:0:0:m_038.ogg
179,192,85550,1,0,0:0:0:0:s_047.ogg
128,192,85800,1,0,0:0:0:0:s_046.ogg
179,192,86100,1,0,0:0:0:0:s_047.ogg
384,192,86400,1,0,0:0:0:0:m_046.ogg
230,192,86450,1,0,0:0:0:0:s_049.ogg
76,192,86700,1,0,0:0:0:0:m_042.ogg
76,192,87000,1,0,0:0:0:0:m_054.ogg
230,192,87300,1,0,0:0:0:0:m_047.ogg
486,192,87300,1,0,0:0:0:0:m_049.ogg
179,192,87600,1,0,0:0:0:0:m_047.ogg
435,192,87600,1,0,0:0:0:0:m_049.ogg
128,192,87900,1,0,0:0:0:0:m_047.ogg
384,192,87900,1,0,0:0:0:0:m_049.ogg
179,192,88200,1,0,0:0:0:0:m_047.ogg
435,192,88200,1,0,0:0:0:0:m_050.ogg
76,192,89100,1,0,0:0:0:0:m_052.ogg
332,192,89100,1,0,0:0:0:0:m_042.ogg
25,192,90000,128,0,91200:0:0:0:0:m_023.ogg
