osu file format v14

[General]
AudioFilename: virtual
AudioLeadIn: 0
PreviewTime: 0
Countdown: 0
SampleSet: Soft
StackLeniency: 0.7
Mode: 3
LetterboxInBreaks: 0
SpecialStyle: 0
WidescreenStoryboard: 1

[Editor]
DistanceSpacing: 0.8
BeatDivisor: 4
GridSize: 32
TimelineZoom: 2.500006

[Metadata]
Title:Piano Beatmap Set
TitleUnicode:Piano Beatmap Set
Artist:Collection
ArtistUnicode:Collection
Creator:CircusGalop
Version:Hungarian Rhapsody - 10K HD
Source:BMS
Tags:
BeatmapID:823118
BeatmapSetID:332673

[Difficulty]
HPDrainRate:7
CircleSize:10
OverallDifficulty:5
ApproachRate:5
SliderMultiplier:1.4
SliderTickRate:1

[Events]
//Background and Video events
0,0,"CircusGalop.jpg",0,0
//Break Periods
//Storyboard Layer 0 (Background)
//Storyboard Layer 1 (Fail)
//Storyboard Layer 2 (Pass)
//Storyboard Layer 3 (Foreground)
//Storyboard Sound Samples
Sample,1666,0,"m_050.ogg",100
Sample,2166,0,"s_048.ogg",100
Sample,2500,0,"s_044.ogg",100
Sample,3000,0,"m_048.ogg",100
Sample,3500,0,"s_047.ogg",100
Sample,3833,0,"s_040.ogg",100
Sample,4333,0,"m_050.ogg",100
Sample,4833,0,"s_048.ogg",100
Sample,5166,0,"s_044.ogg",100
Sample,5666,0,"m_045.ogg",100
Sample,6166,0,"s_036.ogg",100
Sample,6500,0,"s_040.ogg",100
Sample,7000,0,"m_050.ogg",100
Sample,7666,0,"m_050.ogg",100
Sample,8333,0,"m_049.ogg",100
Sample,9000,0,"m_049.ogg",100
Sample,9500,0,"s_050.ogg",100
Sample,9833,0,"s_050.ogg",100
Sample,10166,0,"s_050.ogg",100
Sample,10500,0,"s_050.ogg",100
Sample,10833,0,"s_049.ogg",100
Sample,11166,0,"s_040.ogg",100
Sample,11500,0,"s_040.ogg",100
Sample,11833,0,"s_045.ogg",100
Sample,12166,0,"s_050.ogg",100
Sample,12500,0,"s_050.ogg",100
Sample,12833,0,"s_040.ogg",100
Sample,13166,0,"s_040.ogg",100
Sample,13500,0,"s_049.ogg",100
Sample,13833,0,"s_040.ogg",100
Sample,14166,0,"s_040.ogg",100
Sample,14500,0,"s_049.ogg",100
Sample,14666,0,"s_051.ogg",100
Sample,14916,0,"s_059.ogg",100
Sample,14916,0,"s_040.ogg",100
Sample,15166,0,"m_050.ogg",100
Sample,15416,0,"s_035.ogg",100
Sample,15666,0,"s_051.ogg",100
Sample,15916,0,"s_059.ogg",100
Sample,15916,0,"s_035.ogg",100
Sample,16166,0,"m_050.ogg",100
Sample,16416,0,"s_040.ogg",100
Sample,16666,0,"s_063.ogg",100
Sample,16866,0,"s_037.ogg",100
Sample,16866,0,"s_052.ogg",100
Sample,17066,0,"m_057.ogg",100
Sample,17266,0,"s_037.ogg",100
Sample,17366,0,"s_061.ogg",100
Sample,17466,0,"s_051.ogg",100
Sample,17666,0,"s_064.ogg",100
Sample,17666,0,"s_045.ogg",100
Sample,17866,0,"m_049.ogg",100
Sample,18066,0,"s_040.ogg",100
Sample,18166,0,"s_052.ogg",100
Sample,18433,0,"s_059.ogg",100
Sample,18600,0,"m_062.ogg",100
Sample,18766,0,"s_044.ogg",100
Sample,18850,0,"s_064.ogg",100
Sample,19100,0,"s_059.ogg",100
Sample,19100,0,"s_044.ogg",100
Sample,19266,0,"m_066.ogg",100
Sample,19433,0,"s_040.ogg",100
Sample,19516,0,"s_052.ogg",100
Sample,19600,0,"s_051.ogg",100
Sample,19766,0,"s_061.ogg",100
Sample,19766,0,"s_045.ogg",100
Sample,19933,0,"m_057.ogg",100
Sample,20100,0,"s_045.ogg",100
Sample,20266,0,"s_063.ogg",100
Sample,20433,0,"s_045.ogg",100
Sample,20433,0,"s_052.ogg",100
Sample,20600,0,"m_057.ogg",100
Sample,20766,0,"s_037.ogg",100
Sample,20933,0,"s_056.ogg",100
Sample,21266,0,"m_050.ogg",100
Sample,21433,0,"s_044.ogg",100
Sample,21600,0,"s_051.ogg",100
Sample,21766,0,"s_035.ogg",100
Sample,21933,0,"m_062.ogg",100
Sample,22100,0,"s_040.ogg",100
Sample,22266,0,"s_060.ogg",100
Sample,22433,0,"s_064.ogg",100
Sample,22433,0,"s_045.ogg",100
Sample,22600,0,"m_049.ogg",100
Sample,22766,0,"s_040.ogg",100
Sample,22850,0,"s_064.ogg",100
Sample,22933,0,"s_051.ogg",100
Sample,23100,0,"s_052.ogg",100
Sample,23100,0,"s_037.ogg",100
Sample,23266,0,"m_057.ogg",100
Sample,23433,0,"s_040.ogg",100
Sample,23516,0,"s_052.ogg",100
Sample,23766,0,"s_064.ogg",100
Sample,23933,0,"m_054.ogg",100
Sample,24100,0,"s_044.ogg",100
Sample,24183,0,"s_059.ogg",100
Sample,24433,0,"s_064.ogg",100
Sample,24433,0,"s_044.ogg",100
Sample,24600,0,"m_066.ogg",100
Sample,24766,0,"s_044.ogg",100
Sample,24850,0,"s_064.ogg",100
Sample,24933,0,"s_033.ogg",100
Sample,25100,0,"s_061.ogg",100
Sample,25100,0,"s_040.ogg",100
Sample,25266,0,"m_069.ogg",100
Sample,25433,0,"s_045.ogg",100
Sample,25600,0,"s_060.ogg",100
Sample,25766,0,"s_037.ogg",100
Sample,25766,0,"s_052.ogg",100
Sample,25933,0,"m_061.ogg",100
Sample,26100,0,"s_037.ogg",100
Sample,26266,0,"s_066.ogg",100
Sample,27600,0,"s_052.ogg",100
Sample,28600,0,"m_057.ogg",100
Sample,28600,0,"m_052.ogg",100
Sample,29100,0,"s_062.ogg",100
Sample,30266,0,"s_061.ogg",100
Sample,31266,0,"m_052.ogg",100
Sample,31266,0,"m_064.ogg",100
Sample,33100,0,"s_045.ogg",100
Sample,33433,0,"s_045.ogg",100
Sample,34600,0,"s_068.ogg",100
Sample,35266,0,"s_068.ogg",100
Sample,35766,0,"s_037.ogg",100
Sample,35933,0,"s_061.ogg",100
Sample,36100,0,"s_037.ogg",100
Sample,36600,0,"s_061.ogg",100
Sample,42266,0,"s_062.ogg",100
Sample,42433,0,"s_064.ogg",100
Sample,42600,0,"s_062.ogg",100
Sample,42766,0,"s_071.ogg",100
Sample,42933,0,"s_068.ogg",100
Sample,43100,0,"s_071.ogg",100
Sample,43266,0,"s_068.ogg",100
Sample,43433,0,"s_071.ogg",100
Sample,43600,0,"s_061.ogg",100
Sample,43766,0,"s_064.ogg",100
Sample,43933,0,"s_061.ogg",100
Sample,44100,0,"s_064.ogg",100
Sample,44266,0,"s_061.ogg",100
Sample,44433,0,"s_064.ogg",100
Sample,44600,0,"s_069.ogg",100
Sample,44766,0,"s_064.ogg",100
Sample,44933,0,"s_068.ogg",100
Sample,45100,0,"s_071.ogg",100
Sample,45266,0,"s_068.ogg",100
Sample,45433,0,"s_071.ogg",100
Sample,45600,0,"s_068.ogg",100
Sample,45766,0,"s_071.ogg",100
Sample,45933,0,"s_068.ogg",100
Sample,46100,0,"s_064.ogg",100
Sample,46266,0,"s_069.ogg",100
Sample,46433,0,"s_073.ogg",100
Sample,46600,0,"s_069.ogg",100
Sample,46766,0,"s_064.ogg",100
Sample,46933,0,"s_069.ogg",100
Sample,47100,0,"s_073.ogg",100
Sample,47266,0,"s_061.ogg",100
Sample,47433,0,"s_064.ogg",100
Sample,47600,0,"s_068.ogg",100
Sample,47766,0,"s_071.ogg",100
Sample,47933,0,"s_068.ogg",100
Sample,48100,0,"s_064.ogg",100
Sample,48266,0,"s_062.ogg",100
Sample,48433,0,"s_064.ogg",100
Sample,48600,0,"m_068.ogg",100
Sample,48850,0,"s_052.ogg",100
Sample,48933,0,"s_069.ogg",100
Sample,49100,0,"s_064.ogg",100
Sample,49266,0,"s_069.ogg",100
Sample,49433,0,"s_064.ogg",100
Sample,49600,0,"s_069.ogg",100
Sample,49766,0,"s_073.ogg",100
Sample,49933,0,"m_069.ogg",100
Sample,50266,0,"s_062.ogg",100
Sample,50433,0,"s_064.ogg",100
Sample,50600,0,"s_068.ogg",100
Sample,50766,0,"s_071.ogg",100
Sample,50933,0,"s_068.ogg",100
Sample,51100,0,"s_071.ogg",100
Sample,51266,0,"m_056.ogg",100
Sample,51516,0,"s_052.ogg",100
Sample,51600,0,"s_069.ogg",100
Sample,51766,0,"s_064.ogg",100
Sample,51933,0,"s_069.ogg",100
Sample,52100,0,"s_064.ogg",100
Sample,52266,0,"s_069.ogg",100
Sample,52433,0,"s_064.ogg",100
Sample,52600,0,"m_069.ogg",100
Sample,53100,0,"s_044.ogg",100
Sample,53433,0,"s_050.ogg",100
Sample,53766,0,"s_050.ogg",100
Sample,54100,0,"s_050.ogg",100
Sample,54433,0,"s_040.ogg",100
Sample,54766,0,"s_045.ogg",100
Sample,55100,0,"s_045.ogg",100
Sample,55433,0,"s_045.ogg",100
Sample,55766,0,"s_050.ogg",100
Sample,56100,0,"s_050.ogg",100
Sample,56433,0,"s_040.ogg",100
Sample,56766,0,"s_050.ogg",100
Sample,57100,0,"s_040.ogg",100
Sample,57433,0,"s_040.ogg",100
Sample,57766,0,"s_040.ogg",100
Sample,58100,0,"s_045.ogg",100
Sample,58433,0,"s_040.ogg",100
Sample,58766,0,"s_050.ogg",100
Sample,59100,0,"s_050.ogg",100
Sample,59433,0,"s_044.ogg",100
Sample,59766,0,"s_040.ogg",100
Sample,61100,0,"s_044.ogg",100
Sample,61433,0,"s_044.ogg",100
Sample,61766,0,"s_044.ogg",100
Sample,62100,0,"s_044.ogg",100
Sample,62433,0,"s_037.ogg",100
Sample,62766,0,"s_037.ogg",100
Sample,63100,0,"s_037.ogg",100
Sample,63433,0,"s_037.ogg",100
Sample,63766,0,"s_035.ogg",100
Sample,65100,0,"s_044.ogg",100
Sample,66433,0,"s_033.ogg",100
Sample,66766,0,"s_039.ogg",100
Sample,67100,0,"s_045.ogg",100
Sample,67766,0,"s_035.ogg",100
Sample,68433,0,"s_040.ogg",100
Sample,69100,0,"s_039.ogg",100
Sample,70433,0,"s_035.ogg",100
Sample,71766,0,"s_039.ogg",100
Sample,72100,0,"s_039.ogg",100
Sample,72433,0,"s_039.ogg",100
Sample,72933,0,"s_056.ogg",100
Sample,72933,0,"s_040.ogg",100
Sample,77266,0,"s_016.ogg",100
Sample,77266,0,"s_068.ogg",100
Sample,77433,0,"s_075.ogg",100
Sample,77600,0,"s_023.ogg",100
Sample,77600,0,"s_068.ogg",100
Sample,77766,0,"s_063.ogg",100
Sample,77933,0,"s_028.ogg",100
Sample,77933,0,"s_076.ogg",100
Sample,78100,0,"s_069.ogg",100
Sample,78266,0,"s_064.ogg",100
Sample,78266,0,"s_028.ogg",100
Sample,80933,0,"s_055.ogg",100
Sample,80933,0,"s_028.ogg",100
Sample,80933,0,"s_060.ogg",100
Sample,80933,0,"s_024.ogg",100
Sample,81433,0,"s_021.ogg",100
Sample,81454,0,"s_024.ogg",100
Sample,81475,0,"s_028.ogg",100
Sample,81495,0,"s_033.ogg",100
Sample,81766,0,"s_019.ogg",100
Sample,81787,0,"s_024.ogg",100
Sample,81808,0,"s_028.ogg",100
Sample,81829,0,"s_031.ogg",100
Sample,82100,0,"s_019.ogg",100
Sample,82120,0,"s_024.ogg",100
Sample,82141,0,"s_028.ogg",100
Sample,82162,0,"s_031.ogg",100
Sample,83600,0,"s_060.ogg",100
Sample,83600,0,"s_028.ogg",100
Sample,83600,0,"s_024.ogg",100
Sample,83600,0,"s_048.ogg",100
Sample,84100,0,"s_048.ogg",100
Sample,84100,0,"s_043.ogg",100
Sample,84100,0,"s_024.ogg",100
Sample,84100,0,"s_019.ogg",100
Sample,84266,0,"m_048.ogg",100
Sample,84266,0,"m_028.ogg",100
Sample,84600,0,"m_064.ogg",100
Sample,84600,0,"m_028.ogg",100
Sample,84933,0,"s_071.ogg",100
Sample,85100,0,"s_067.ogg",100
Sample,85266,0,"s_065.ogg",100
Sample,85433,0,"s_067.ogg",100
Sample,85600,0,"s_065.ogg",100
Sample,85766,0,"s_074.ogg",100
Sample,85933,0,"s_065.ogg",100
Sample,86100,0,"s_074.ogg",100
Sample,86266,0,"s_064.ogg",100
Sample,86433,0,"s_076.ogg",100
Sample,86600,0,"s_072.ogg",100
Sample,86766,0,"s_067.ogg",100
Sample,86933,0,"s_064.ogg",100
Sample,87100,0,"s_067.ogg",100
Sample,87266,0,"s_072.ogg",100
Sample,87433,0,"s_067.ogg",100
Sample,87600,0,"s_065.ogg",100
Sample,87766,0,"s_067.ogg",100
Sample,87933,0,"s_065.ogg",100
Sample,88100,0,"s_074.ogg",100
Sample,88266,0,"s_071.ogg",100
Sample,88433,0,"s_067.ogg",100
Sample,88600,0,"s_071.ogg",100
Sample,88766,0,"s_067.ogg",100
Sample,88933,0,"s_064.ogg",100
Sample,89100,0,"s_076.ogg",100
Sample,89266,0,"s_072.ogg",100
Sample,89433,0,"s_067.ogg",100
Sample,89600,0,"s_072.ogg",100
Sample,89766,0,"s_067.ogg",100
Sample,89933,0,"s_064.ogg",100
Sample,90100,0,"s_067.ogg",100
Sample,90266,0,"s_069.ogg",100
Sample,90266,0,"s_043.ogg",100
Sample,90600,0,"s_065.ogg",100
Sample,90600,0,"s_043.ogg",100
Sample,90933,0,"s_043.ogg",100
Sample,90933,0,"s_062.ogg",100
Sample,91266,0,"s_059.ogg",100
Sample,91266,0,"s_041.ogg",100
Sample,91600,0,"s_040.ogg",100
Sample,91933,0,"s_036.ogg",100
Sample,92266,0,"s_043.ogg",100
Sample,92600,0,"s_036.ogg",100
Sample,92766,0,"s_076.ogg",100
Sample,92933,0,"s_043.ogg",100
Sample,92933,0,"s_077.ogg",100
Sample,93266,0,"s_065.ogg",100
Sample,93266,0,"s_043.ogg",100
Sample,93600,0,"s_043.ogg",100
Sample,93600,0,"s_071.ogg",100
Sample,93933,0,"s_067.ogg",100
Sample,93933,0,"s_041.ogg",100
Sample,94266,0,"s_036.ogg",100
Sample,94600,0,"s_043.ogg",100
Sample,94933,0,"s_043.ogg",100
Sample,95266,0,"s_043.ogg",100
Sample,95600,0,"s_044.ogg",100
Sample,95600,0,"s_066.ogg",100
Sample,95933,0,"s_062.ogg",100
Sample,95933,0,"s_040.ogg",100
Sample,96266,0,"s_059.ogg",100
Sample,96266,0,"s_040.ogg",100
Sample,96600,0,"s_044.ogg",100
Sample,96600,0,"s_056.ogg",100
Sample,97266,0,"s_045.ogg",100
Sample,97600,0,"s_045.ogg",100
Sample,97933,0,"s_045.ogg",100
Sample,98100,0,"s_069.ogg",100
Sample,98266,0,"s_066.ogg",100
Sample,98266,0,"s_035.ogg",100
Sample,98600,0,"s_071.ogg",100
Sample,98600,0,"s_035.ogg",100
Sample,98933,0,"s_035.ogg",100
Sample,98933,0,"s_059.ogg",100
Sample,99266,0,"s_064.ogg",100
Sample,99266,0,"s_035.ogg",100
Sample,99933,0,"s_045.ogg",100
Sample,100266,0,"s_045.ogg",100
Sample,100600,0,"s_037.ogg",100
Sample,101100,0,"s_047.ogg",100
Sample,101433,0,"s_047.ogg",100
Sample,102183,0,"s_052.ogg",100
Sample,102433,0,"s_040.ogg",100
Sample,102766,0,"s_049.ogg",100
Sample,103766,0,"s_040.ogg",100
Sample,104100,0,"s_040.ogg",100
Sample,104850,0,"s_052.ogg",100
Sample,105100,0,"s_040.ogg",100
Sample,105433,0,"s_040.ogg",100
Sample,106433,0,"s_040.ogg",100
Sample,106766,0,"s_040.ogg",100
Sample,111800,0,"s_040.ogg",100
Sample,112200,0,"s_040.ogg",100
Sample,112600,0,"s_048.ogg",100
Sample,113000,0,"s_040.ogg",100
Sample,113400,0,"s_050.ogg",100
Sample,113800,0,"s_044.ogg",100
Sample,114200,0,"s_050.ogg",100
Sample,114600,0,"s_044.ogg",100
Sample,115000,0,"s_045.ogg",100
Sample,115400,0,"s_045.ogg",100
Sample,115800,0,"s_040.ogg",100
Sample,116200,0,"s_048.ogg",100
Sample,116600,0,"s_050.ogg",100
Sample,117000,0,"s_044.ogg",100
Sample,117400,0,"s_050.ogg",100
Sample,117800,0,"s_050.ogg",100
Sample,118200,0,"s_045.ogg",100
Sample,118600,0,"s_045.ogg",100
Sample,119000,0,"s_040.ogg",100
Sample,119400,0,"s_040.ogg",100
Sample,119800,0,"s_050.ogg",100
Sample,120200,0,"s_040.ogg",100
Sample,121866,0,"s_023.ogg",100
Sample,121950,0,"s_040.ogg",100
Sample,123200,0,"s_033.ogg",100
Sample,123283,0,"s_040.ogg",100
Sample,126533,0,"s_023.ogg",100
Sample,126533,0,"s_020.ogg",100
Sample,126616,0,"s_052.ogg",100
Sample,126616,0,"s_047.ogg",100
Sample,127200,0,"s_028.ogg",100
Sample,127283,0,"s_047.ogg",100
Sample,127616,0,"s_047.ogg",100
Sample,127866,0,"s_028.ogg",100
Sample,127866,0,"s_025.ogg",100
Sample,127950,0,"s_057.ogg",100
Sample,127950,0,"s_049.ogg",100
Sample,128533,0,"s_028.ogg",100
Sample,128616,0,"s_052.ogg",100
Sample,128866,0,"s_040.ogg",100
Sample,128950,0,"s_057.ogg",100
Sample,129200,0,"s_035.ogg",100
Sample,129200,0,"s_028.ogg",100
Sample,129283,0,"s_056.ogg",100
Sample,129283,0,"s_064.ogg",100
Sample,129866,0,"s_047.ogg",100
Sample,129950,0,"s_064.ogg",100
Sample,130200,0,"s_035.ogg",100
Sample,130283,0,"s_071.ogg",100
Sample,130533,0,"s_040.ogg",100
Sample,130533,0,"s_045.ogg",100
Sample,130616,0,"s_064.ogg",100
Sample,130616,0,"s_061.ogg",100
Sample,131200,0,"s_040.ogg",100
Sample,131283,0,"s_069.ogg",100
Sample,131533,0,"s_052.ogg",100
Sample,131616,0,"s_064.ogg",100
Sample,137733,0,"s_056.ogg",100
Sample,137883,0,"m_050.ogg",100
Sample,137883,0,"m_040.ogg",100
Sample,138333,0,"s_057.ogg",100
Sample,138483,0,"m_057.ogg",100
Sample,138483,0,"m_040.ogg",100
Sample,139533,0,"s_052.ogg",100
Sample,139533,0,"s_064.ogg",100
Sample,139833,0,"s_081.ogg",100
Sample,139833,0,"s_057.ogg",100

[TimingPoints]
0,333.333333333335,4,2,0,100,1,0
14666,500,4,2,0,100,1,0
14666,-66.6666666666667,4,2,0,100,0,0
16666,400,4,2,0,100,1,0
16666,-83.3333333333333,4,2,0,100,0,0
18266.667,333.333333333334,4,2,0,100,1,0
111600,400,4,2,0,100,1,0
111600,-83.3333333333333,4,2,0,100,0,0
121200,333.333333333334,4,2,0,100,1,0
136533,300,4,2,0,100,1,0
136533,-111.111111111111,4,2,0,100,0,0

[HitObjects]
25,192,1333,5,0,0:0:0:0:m_035.ogg
486,192,1333,1,0,0:0:0:0:s_064.ogg
332,192,1416,1,0,0:0:0:0:s_052.ogg
435,192,1500,1,0,0:0:0:0:s_052.ogg
332,192,1583,1,0,0:0:0:0:s_052.ogg
179,192,1666,1,0,0:0:0:0:m_044.ogg
230,192,1666,1,0,0:0:0:0:m_040.ogg
486,192,1666,1,0,0:0:0:0:s_064.ogg
332,192,1750,1,0,0:0:0:0:s_052.ogg
435,192,1833,1,0,0:0:0:0:s_052.ogg
332,192,1916,1,0,0:0:0:0:s_052.ogg
76,192,2000,1,0,0:0:0:0:s_028.ogg
486,192,2000,1,0,0:0:0:0:s_064.ogg
332,192,2083,1,0,0:0:0:0:s_052.ogg
128,192,2166,1,0,0:0:0:0:s_044.ogg
230,192,2166,1,0,0:0:0:0:s_040.ogg
435,192,2166,1,0,0:0:0:0:s_052.ogg
332,192,2250,1,0,0:0:0:0:s_052.ogg
25,192,2333,1,0,0:0:0:0:s_038.ogg
486,192,2333,1,0,0:0:0:0:s_064.ogg
332,192,2416,1,0,0:0:0:0:s_052.ogg
128,192,2500,1,0,0:0:0:0:s_040.ogg
179,192,2500,1,0,0:0:0:0:s_047.ogg
435,192,2500,1,0,0:0:0:0:s_052.ogg
332,192,2583,1,0,0:0:0:0:s_052.ogg
25,192,2666,1,0,0:0:0:0:m_033.ogg
486,192,2666,1,0,0:0:0:0:s_064.ogg
332,192,2750,1,0,0:0:0:0:s_052.ogg
435,192,2833,1,0,0:0:0:0:s_052.ogg
332,192,2916,1,0,0:0:0:0:s_052.ogg
179,192,3000,1,0,0:0:0:0:m_045.ogg
230,192,3000,1,0,0:0:0:0:m_040.ogg
486,192,3000,1,0,0:0:0:0:s_064.ogg
332,192,3083,1,0,0:0:0:0:s_052.ogg
435,192,3166,1,0,0:0:0:0:s_052.ogg
332,192,3250,1,0,0:0:0:0:s_052.ogg
76,192,3333,1,0,0:0:0:0:s_028.ogg
486,192,3333,1,0,0:0:0:0:s_064.ogg
332,192,3416,1,0,0:0:0:0:s_052.ogg
128,192,3500,1,0,0:0:0:0:s_036.ogg
230,192,3500,1,0,0:0:0:0:s_040.ogg
435,192,3500,1,0,0:0:0:0:s_052.ogg
332,192,3583,1,0,0:0:0:0:s_052.ogg
25,192,3666,1,0,0:0:0:0:s_033.ogg
486,192,3666,1,0,0:0:0:0:s_064.ogg
332,192,3750,1,0,0:0:0:0:s_052.ogg
128,192,3833,1,0,0:0:0:0:s_045.ogg
179,192,3833,1,0,0:0:0:0:s_036.ogg
435,192,3833,1,0,0:0:0:0:s_052.ogg
332,192,3916,1,0,0:0:0:0:s_052.ogg
25,192,4000,1,0,0:0:0:0:m_035.ogg
486,192,4000,1,0,0:0:0:0:s_064.ogg
332,192,4083,1,0,0:0:0:0:s_052.ogg
435,192,4166,1,0,0:0:0:0:s_052.ogg
332,192,4250,1,0,0:0:0:0:s_052.ogg
179,192,4333,1,0,0:0:0:0:m_044.ogg
230,192,4333,1,0,0:0:0:0:m_040.ogg
486,192,4333,1,0,0:0:0:0:s_064.ogg
332,192,4416,1,0,0:0:0:0:s_052.ogg
435,192,4500,1,0,0:0:0:0:s_052.ogg
332,192,4583,1,0,0:0:0:0:s_052.ogg
76,192,4666,1,0,0:0:0:0:s_028.ogg
486,192,4666,1,0,0:0:0:0:s_064.ogg
332,192,4750,1,0,0:0:0:0:s_052.ogg
128,192,4833,1,0,0:0:0:0:s_044.ogg
230,192,4833,1,0,0:0:0:0:s_040.ogg
435,192,4833,1,0,0:0:0:0:s_052.ogg
332,192,4916,1,0,0:0:0:0:s_052.ogg
25,192,5000,1,0,0:0:0:0:s_038.ogg
486,192,5000,1,0,0:0:0:0:s_064.ogg
332,192,5083,1,0,0:0:0:0:s_052.ogg
128,192,5166,1,0,0:0:0:0:s_047.ogg
179,192,5166,1,0,0:0:0:0:s_040.ogg
435,192,5166,1,0,0:0:0:0:s_052.ogg
332,192,5250,1,0,0:0:0:0:s_052.ogg
25,192,5333,1,0,0:0:0:0:m_033.ogg
486,192,5333,1,0,0:0:0:0:s_064.ogg
332,192,5416,1,0,0:0:0:0:s_052.ogg
435,192,5500,1,0,0:0:0:0:s_052.ogg
332,192,5583,1,0,0:0:0:0:s_052.ogg
179,192,5666,1,0,0:0:0:0:m_040.ogg
230,192,5666,1,0,0:0:0:0:m_048.ogg
486,192,5666,1,0,0:0:0:0:s_064.ogg
332,192,5750,1,0,0:0:0:0:s_052.ogg
435,192,5833,1,0,0:0:0:0:s_052.ogg
332,192,5916,1,0,0:0:0:0:s_052.ogg
76,192,6000,1,0,0:0:0:0:s_028.ogg
486,192,6000,1,0,0:0:0:0:s_064.ogg
332,192,6083,1,0,0:0:0:0:s_052.ogg
128,192,6166,1,0,0:0:0:0:s_040.ogg
230,192,6166,1,0,0:0:0:0:s_047.ogg
435,192,6166,1,0,0:0:0:0:s_052.ogg
332,192,6250,1,0,0:0:0:0:s_052.ogg
25,192,6333,1,0,0:0:0:0:s_033.ogg
486,192,6333,1,0,0:0:0:0:s_064.ogg
332,192,6416,1,0,0:0:0:0:s_052.ogg
128,192,6500,1,0,0:0:0:0:s_036.ogg
179,192,6500,1,0,0:0:0:0:s_045.ogg
435,192,6500,1,0,0:0:0:0:s_052.ogg
332,192,6583,1,0,0:0:0:0:s_052.ogg
76,192,6666,1,0,0:0:0:0:m_035.ogg
384,192,6666,1,0,0:0:0:0:s_064.ogg
281,192,6750,1,0,0:0:0:0:s_052.ogg
435,192,6833,1,0,0:0:0:0:s_064.ogg
384,192,6916,1,0,0:0:0:0:s_064.ogg
179,192,7000,1,0,0:0:0:0:m_044.ogg
230,192,7000,1,0,0:0:0:0:m_040.ogg
486,192,7000,1,0,0:0:0:0:s_076.ogg
384,192,7083,1,0,0:0:0:0:s_064.ogg
435,192,7166,1,0,0:0:0:0:s_064.ogg
281,192,7250,1,0,0:0:0:0:s_052.ogg
25,192,7333,1,0,0:0:0:0:m_028.ogg
384,192,7333,1,0,0:0:0:0:s_064.ogg
281,192,7416,1,0,0:0:0:0:s_052.ogg
332,192,7500,1,0,0:0:0:0:s_052.ogg
281,192,7583,1,0,0:0:0:0:s_052.ogg
179,192,7666,1,0,0:0:0:0:m_040.ogg
230,192,7666,1,0,0:0:0:0:m_044.ogg
384,192,7666,1,0,0:0:0:0:s_064.ogg
281,192,7750,1,0,0:0:0:0:s_052.ogg
332,192,7833,1,0,0:0:0:0:s_052.ogg
281,192,7916,1,0,0:0:0:0:s_052.ogg
76,192,8000,1,0,0:0:0:0:m_033.ogg
384,192,8000,1,0,0:0:0:0:s_064.ogg
281,192,8083,1,0,0:0:0:0:s_052.ogg
435,192,8166,1,0,0:0:0:0:s_064.ogg
384,192,8250,1,0,0:0:0:0:s_064.ogg
128,192,8333,1,0,0:0:0:0:m_045.ogg
179,192,8333,1,0,0:0:0:0:m_040.ogg
486,192,8333,1,0,0:0:0:0:s_076.ogg
384,192,8416,1,0,0:0:0:0:s_064.ogg
435,192,8500,1,0,0:0:0:0:s_064.ogg
281,192,8583,1,0,0:0:0:0:s_052.ogg
25,192,8666,1,0,0:0:0:0:m_028.ogg
384,192,8666,1,0,0:0:0:0:s_064.ogg
281,192,8750,1,0,0:0:0:0:s_052.ogg
332,192,8833,1,0,0:0:0:0:s_052.ogg
281,192,8916,1,0,0:0:0:0:s_052.ogg
128,192,9000,1,0,0:0:0:0:m_045.ogg
179,192,9000,1,0,0:0:0:0:m_040.ogg
384,192,9000,1,0,0:0:0:0:s_064.ogg
281,192,9083,1,0,0:0:0:0:s_052.ogg
332,192,9166,1,0,0:0:0:0:s_052.ogg
281,192,9250,1,0,0:0:0:0:s_052.ogg
76,192,9333,1,0,0:0:0:0:s_035.ogg
384,192,9333,1,0,0:0:0:0:s_064.ogg
281,192,9416,1,0,0:0:0:0:s_052.ogg
179,192,9500,1,0,0:0:0:0:s_044.ogg
230,192,9500,1,0,0:0:0:0:s_040.ogg
435,192,9500,1,0,0:0:0:0:s_064.ogg
384,192,9583,1,0,0:0:0:0:s_064.ogg
25,192,9666,1,0,0:0:0:0:s_028.ogg
486,192,9666,1,0,0:0:0:0:s_076.ogg
384,192,9750,1,0,0:0:0:0:s_064.ogg
179,192,9833,1,0,0:0:0:0:s_040.ogg
230,192,9833,1,0,0:0:0:0:s_044.ogg
435,192,9833,1,0,0:0:0:0:s_064.ogg
281,192,9916,1,0,0:0:0:0:s_052.ogg
76,192,10000,1,0,0:0:0:0:s_035.ogg
384,192,10000,1,0,0:0:0:0:s_064.ogg
281,192,10083,1,0,0:0:0:0:s_052.ogg
179,192,10166,1,0,0:0:0:0:s_040.ogg
230,192,10166,1,0,0:0:0:0:s_044.ogg
332,192,10166,1,0,0:0:0:0:s_052.ogg
281,192,10250,1,0,0:0:0:0:s_052.ogg
25,192,10333,1,0,0:0:0:0:s_028.ogg
384,192,10333,1,0,0:0:0:0:s_064.ogg
281,192,10416,1,0,0:0:0:0:s_052.ogg
179,192,10500,1,0,0:0:0:0:s_040.ogg
230,192,10500,1,0,0:0:0:0:s_044.ogg
332,192,10500,1,0,0:0:0:0:s_052.ogg
281,192,10583,1,0,0:0:0:0:s_052.ogg
76,192,10666,1,0,0:0:0:0:s_033.ogg
384,192,10666,1,0,0:0:0:0:s_064.ogg
281,192,10750,1,0,0:0:0:0:s_052.ogg
128,192,10833,1,0,0:0:0:0:s_040.ogg
179,192,10833,1,0,0:0:0:0:s_045.ogg
435,192,10833,1,0,0:0:0:0:s_064.ogg
384,192,10916,1,0,0:0:0:0:s_064.ogg
25,192,11000,1,0,0:0:0:0:s_028.ogg
486,192,11000,1,0,0:0:0:0:s_076.ogg
384,192,11083,1,0,0:0:0:0:s_064.ogg
128,192,11166,1,0,0:0:0:0:s_049.ogg
179,192,11166,1,0,0:0:0:0:s_045.ogg
435,192,11166,1,0,0:0:0:0:s_064.ogg
281,192,11250,1,0,0:0:0:0:s_052.ogg
76,192,11333,1,0,0:0:0:0:s_033.ogg
384,192,11333,1,0,0:0:0:0:s_064.ogg
281,192,11416,1,0,0:0:0:0:s_052.ogg
128,192,11500,1,0,0:0:0:0:s_049.ogg
179,192,11500,1,0,0:0:0:0:s_045.ogg
332,192,11500,1,0,0:0:0:0:s_052.ogg
281,192,11583,1,0,0:0:0:0:s_052.ogg
25,192,11666,1,0,0:0:0:0:s_028.ogg
384,192,11666,1,0,0:0:0:0:s_064.ogg
281,192,11750,1,0,0:0:0:0:s_052.ogg
128,192,11833,1,0,0:0:0:0:s_049.ogg
179,192,11833,1,0,0:0:0:0:s_040.ogg
332,192,11833,1,0,0:0:0:0:s_052.ogg
281,192,11916,1,0,0:0:0:0:s_052.ogg
76,192,12000,1,0,0:0:0:0:s_035.ogg
384,192,12000,1,0,0:0:0:0:s_064.ogg
281,192,12083,1,0,0:0:0:0:s_052.ogg
179,192,12166,1,0,0:0:0:0:s_040.ogg
230,192,12166,1,0,0:0:0:0:s_044.ogg
435,192,12166,1,0,0:0:0:0:s_064.ogg
384,192,12250,1,0,0:0:0:0:s_064.ogg
25,192,12333,1,0,0:0:0:0:s_028.ogg
486,192,12333,1,0,0:0:0:0:s_076.ogg
384,192,12416,1,0,0:0:0:0:s_064.ogg
179,192,12500,1,0,0:0:0:0:s_040.ogg
230,192,12500,1,0,0:0:0:0:s_044.ogg
435,192,12500,1,0,0:0:0:0:s_064.ogg
281,192,12583,1,0,0:0:0:0:s_052.ogg
76,192,12666,1,0,0:0:0:0:s_035.ogg
384,192,12666,1,0,0:0:0:0:s_064.ogg
281,192,12750,1,0,0:0:0:0:s_052.ogg
179,192,12833,1,0,0:0:0:0:s_050.ogg
230,192,12833,1,0,0:0:0:0:s_044.ogg
332,192,12833,1,0,0:0:0:0:s_064.ogg
384,192,12916,1,0,0:0:0:0:s_064.ogg
25,192,13000,1,0,0:0:0:0:s_028.ogg
486,192,13000,1,0,0:0:0:0:s_076.ogg
384,192,13083,1,0,0:0:0:0:s_064.ogg
179,192,13166,1,0,0:0:0:0:s_050.ogg
230,192,13166,1,0,0:0:0:0:s_044.ogg
332,192,13166,1,0,0:0:0:0:s_064.ogg
281,192,13250,1,0,0:0:0:0:s_052.ogg
76,192,13333,1,0,0:0:0:0:s_033.ogg
384,192,13333,1,0,0:0:0:0:s_064.ogg
281,192,13416,1,0,0:0:0:0:s_052.ogg
128,192,13500,1,0,0:0:0:0:s_045.ogg
179,192,13500,1,0,0:0:0:0:s_040.ogg
435,192,13500,1,0,0:0:0:0:s_064.ogg
384,192,13583,1,0,0:0:0:0:s_064.ogg
25,192,13666,1,0,0:0:0:0:s_028.ogg
486,192,13666,1,0,0:0:0:0:s_076.ogg
384,192,13750,1,0,0:0:0:0:s_064.ogg
128,192,13833,1,0,0:0:0:0:s_049.ogg
179,192,13833,1,0,0:0:0:0:s_045.ogg
435,192,13833,1,0,0:0:0:0:s_064.ogg
281,192,13916,1,0,0:0:0:0:s_052.ogg
76,192,14000,1,0,0:0:0:0:s_033.ogg
384,192,14000,1,0,0:0:0:0:s_064.ogg
281,192,14083,1,0,0:0:0:0:s_052.ogg
128,192,14166,1,0,0:0:0:0:s_049.ogg
179,192,14166,1,0,0:0:0:0:s_045.ogg
332,192,14166,1,0,0:0:0:0:s_064.ogg
384,192,14250,1,0,0:0:0:0:s_064.ogg
25,192,14333,1,0,0:0:0:0:s_028.ogg
486,192,14333,1,0,0:0:0:0:s_076.ogg
384,192,14416,1,0,0:0:0:0:s_064.ogg
128,192,14500,1,0,0:0:0:0:s_040.ogg
179,192,14500,1,0,0:0:0:0:s_045.ogg
332,192,14500,1,0,0:0:0:0:s_064.ogg
281,192,14583,1,0,0:0:0:0:s_052.ogg
76,192,14666,1,0,0:0:0:0:s_023.ogg
128,192,14666,1,0,0:0:0:0:s_035.ogg
332,192,14666,1,0,0:0:0:0:s_056.ogg
384,192,14666,1,0,0:0:0:0:s_063.ogg
179,192,14916,1,0,0:0:0:0:s_035.ogg
230,192,14916,1,0,0:0:0:0:s_044.ogg
435,192,14916,1,0,0:0:0:0:s_052.ogg
486,192,14916,1,0,0:0:0:0:s_064.ogg
25,192,15166,1,0,0:0:0:0:s_028.ogg
76,192,15166,1,0,0:0:0:0:s_016.ogg
281,192,15166,1,0,0:0:0:0:m_056.ogg
332,192,15166,1,0,0:0:0:0:m_062.ogg
179,192,15416,1,0,0:0:0:0:s_040.ogg
230,192,15416,1,0,0:0:0:0:s_044.ogg
435,192,15541,1,0,0:0:0:0:s_052.ogg
486,192,15541,1,0,0:0:0:0:s_064.ogg
76,192,15666,1,0,0:0:0:0:s_023.ogg
128,192,15666,1,0,0:0:0:0:s_035.ogg
332,192,15666,1,0,0:0:0:0:s_056.ogg
384,192,15666,1,0,0:0:0:0:s_063.ogg
179,192,15916,1,0,0:0:0:0:s_040.ogg
230,192,15916,1,0,0:0:0:0:s_044.ogg
435,192,15916,1,0,0:0:0:0:s_052.ogg
486,192,15916,1,0,0:0:0:0:s_064.ogg
25,192,16166,1,0,0:0:0:0:s_016.ogg
76,192,16166,1,0,0:0:0:0:s_028.ogg
281,192,16166,1,0,0:0:0:0:m_056.ogg
332,192,16166,1,0,0:0:0:0:m_062.ogg
179,192,16416,1,0,0:0:0:0:s_035.ogg
230,192,16416,1,0,0:0:0:0:s_044.ogg
435,192,16541,1,0,0:0:0:0:s_052.ogg
486,192,16541,1,0,0:0:0:0:s_064.ogg
76,192,16666,1,0,0:0:0:0:s_033.ogg
128,192,16666,1,0,0:0:0:0:s_021.ogg
281,192,16666,1,0,0:0:0:0:s_051.ogg
332,192,16666,1,0,0:0:0:0:s_060.ogg
179,192,16866,1,0,0:0:0:0:s_040.ogg
230,192,16866,1,0,0:0:0:0:s_045.ogg
435,192,16866,1,0,0:0:0:0:s_061.ogg
486,192,16866,1,0,0:0:0:0:s_064.ogg
25,192,17066,1,0,0:0:0:0:s_028.ogg
76,192,17066,1,0,0:0:0:0:s_016.ogg
332,192,17066,1,0,0:0:0:0:m_049.ogg
384,192,17066,1,0,0:0:0:0:m_061.ogg
179,192,17266,1,0,0:0:0:0:s_045.ogg
230,192,17266,1,0,0:0:0:0:s_040.ogg
435,192,17366,1,0,0:0:0:0:s_052.ogg
486,192,17366,1,0,0:0:0:0:s_064.ogg
76,192,17466,1,0,0:0:0:0:s_033.ogg
128,192,17466,1,0,0:0:0:0:s_021.ogg
281,192,17466,1,0,0:0:0:0:s_060.ogg
332,192,17466,1,0,0:0:0:0:s_063.ogg
179,192,17666,1,0,0:0:0:0:s_040.ogg
230,192,17666,1,0,0:0:0:0:s_037.ogg
435,192,17666,1,0,0:0:0:0:s_061.ogg
486,192,17666,1,0,0:0:0:0:s_052.ogg
25,192,17866,1,0,0:0:0:0:s_028.ogg
76,192,17866,1,0,0:0:0:0:s_016.ogg
332,192,17866,1,0,0:0:0:0:m_061.ogg
384,192,17866,1,0,0:0:0:0:m_057.ogg
179,192,18066,1,0,0:0:0:0:s_037.ogg
230,192,18066,1,0,0:0:0:0:s_045.ogg
435,192,18166,1,0,0:0:0:0:s_064.ogg
486,192,18166,1,0,0:0:0:0:s_061.ogg
76,192,18266,1,0,0:0:0:0:s_035.ogg
128,192,18266,1,0,0:0:0:0:s_023.ogg
281,192,18266,1,0,0:0:0:0:s_063.ogg
384,192,18266,1,0,0:0:0:0:s_051.ogg
179,192,18433,1,0,0:0:0:0:s_044.ogg
230,192,18433,1,0,0:0:0:0:s_040.ogg
332,192,18433,1,0,0:0:0:0:s_064.ogg
435,192,18433,1,0,0:0:0:0:s_052.ogg
25,192,18600,1,0,0:0:0:0:s_016.ogg
76,192,18600,1,0,0:0:0:0:s_028.ogg
384,192,18600,1,0,0:0:0:0:m_066.ogg
486,192,18600,1,0,0:0:0:0:m_054.ogg
179,192,18766,1,0,0:0:0:0:s_038.ogg
230,192,18766,1,0,0:0:0:0:s_040.ogg
435,192,18850,1,0,0:0:0:0:s_059.ogg
486,192,18850,1,0,0:0:0:0:s_052.ogg
76,192,18933,1,0,0:0:0:0:s_035.ogg
128,192,18933,1,0,0:0:0:0:s_023.ogg
281,192,18933,1,0,0:0:0:0:s_063.ogg
384,192,18933,1,0,0:0:0:0:s_051.ogg
179,192,19100,1,0,0:0:0:0:s_040.ogg
230,192,19100,1,0,0:0:0:0:s_038.ogg
332,192,19100,1,0,0:0:0:0:s_064.ogg
435,192,19100,1,0,0:0:0:0:s_052.ogg
25,192,19266,1,0,0:0:0:0:s_028.ogg
76,192,19266,1,0,0:0:0:0:s_016.ogg
384,192,19266,1,0,0:0:0:0:m_054.ogg
486,192,19266,1,0,0:0:0:0:m_062.ogg
179,192,19433,1,0,0:0:0:0:s_044.ogg
230,192,19433,1,0,0:0:0:0:s_038.ogg
435,192,19516,1,0,0:0:0:0:s_059.ogg
486,192,19516,1,0,0:0:0:0:s_064.ogg
76,192,19600,1,0,0:0:0:0:s_033.ogg
128,192,19600,1,0,0:0:0:0:s_021.ogg
281,192,19600,1,0,0:0:0:0:s_060.ogg
384,192,19600,1,0,0:0:0:0:s_063.ogg
179,192,19766,1,0,0:0:0:0:s_037.ogg
230,192,19766,1,0,0:0:0:0:s_040.ogg
332,192,19766,1,0,0:0:0:0:s_064.ogg
435,192,19766,1,0,0:0:0:0:s_052.ogg
25,192,19933,1,0,0:0:0:0:s_028.ogg
76,192,19933,1,0,0:0:0:0:s_016.ogg
384,192,19933,1,0,0:0:0:0:m_069.ogg
486,192,19933,1,0,0:0:0:0:m_061.ogg
179,192,20100,1,0,0:0:0:0:s_037.ogg
230,192,20100,1,0,0:0:0:0:s_040.ogg
435,192,20183,1,0,0:0:0:0:s_052.ogg
486,192,20183,1,0,0:0:0:0:s_064.ogg
76,192,20266,1,0,0:0:0:0:s_033.ogg
128,192,20266,1,0,0:0:0:0:s_021.ogg
281,192,20266,1,0,0:0:0:0:s_060.ogg
384,192,20266,1,0,0:0:0:0:s_051.ogg
179,192,20433,1,0,0:0:0:0:s_040.ogg
230,192,20433,1,0,0:0:0:0:s_037.ogg
332,192,20433,1,0,0:0:0:0:s_061.ogg
435,192,20433,1,0,0:0:0:0:s_064.ogg
25,192,20600,1,0,0:0:0:0:s_028.ogg
76,192,20600,1,0,0:0:0:0:s_016.ogg
384,192,20600,1,0,0:0:0:0:m_061.ogg
486,192,20600,1,0,0:0:0:0:m_069.ogg
179,192,20766,1,0,0:0:0:0:s_045.ogg
230,192,20766,1,0,0:0:0:0:s_040.ogg
435,192,20850,1,0,0:0:0:0:s_052.ogg
486,192,20850,1,0,0:0:0:0:s_064.ogg
76,192,20933,1,0,0:0:0:0:s_035.ogg
332,192,20933,1,0,0:0:0:0:s_051.ogg
384,192,20933,1,0,0:0:0:0:s_063.ogg
179,192,21100,1,0,0:0:0:0:s_044.ogg
230,192,21100,1,0,0:0:0:0:s_040.ogg
435,192,21100,1,0,0:0:0:0:s_064.ogg
486,192,21100,1,0,0:0:0:0:s_052.ogg
25,192,21266,1,0,0:0:0:0:s_028.ogg
281,192,21266,1,0,0:0:0:0:m_062.ogg
332,192,21266,1,0,0:0:0:0:m_056.ogg
179,192,21433,1,0,0:0:0:0:s_040.ogg
230,192,21433,1,0,0:0:0:0:s_035.ogg
435,192,21516,1,0,0:0:0:0:s_052.ogg
486,192,21516,1,0,0:0:0:0:s_064.ogg
76,192,21600,1,0,0:0:0:0:s_023.ogg
332,192,21600,1,0,0:0:0:0:s_063.ogg
384,192,21600,1,0,0:0:0:0:s_056.ogg
179,192,21766,1,0,0:0:0:0:s_044.ogg
230,192,21766,1,0,0:0:0:0:s_040.ogg
435,192,21766,1,0,0:0:0:0:s_064.ogg
486,192,21766,1,0,0:0:0:0:s_052.ogg
25,192,21933,1,0,0:0:0:0:s_016.ogg
281,192,21933,1,0,0:0:0:0:m_050.ogg
332,192,21933,1,0,0:0:0:0:m_056.ogg
179,192,22100,1,0,0:0:0:0:s_044.ogg
230,192,22100,1,0,0:0:0:0:s_035.ogg
435,192,22183,1,0,0:0:0:0:s_052.ogg
486,192,22183,1,0,0:0:0:0:s_064.ogg
76,192,22266,1,0,0:0:0:0:s_033.ogg
281,192,22266,1,0,0:0:0:0:s_051.ogg
332,192,22266,1,0,0:0:0:0:s_063.ogg
128,192,22433,1,0,0:0:0:0:s_040.ogg
179,192,22433,1,0,0:0:0:0:s_037.ogg
435,192,22433,1,0,0:0:0:0:s_061.ogg
486,192,22433,1,0,0:0:0:0:s_052.ogg
25,192,22600,1,0,0:0:0:0:s_028.ogg
332,192,22600,1,0,0:0:0:0:m_061.ogg
384,192,22600,1,0,0:0:0:0:m_057.ogg
128,192,22766,1,0,0:0:0:0:s_045.ogg
179,192,22766,1,0,0:0:0:0:s_037.ogg
435,192,22850,1,0,0:0:0:0:s_061.ogg
486,192,22850,1,0,0:0:0:0:s_052.ogg
76,192,22933,1,0,0:0:0:0:s_021.ogg
281,192,22933,1,0,0:0:0:0:s_063.ogg
332,192,22933,1,0,0:0:0:0:s_060.ogg
128,192,23100,1,0,0:0:0:0:s_045.ogg
179,192,23100,1,0,0:0:0:0:s_040.ogg
435,192,23100,1,0,0:0:0:0:s_061.ogg
486,192,23100,1,0,0:0:0:0:s_064.ogg
25,192,23266,1,0,0:0:0:0:s_016.ogg
332,192,23266,1,0,0:0:0:0:m_061.ogg
384,192,23266,1,0,0:0:0:0:m_049.ogg
128,192,23433,1,0,0:0:0:0:s_037.ogg
179,192,23433,1,0,0:0:0:0:s_045.ogg
435,192,23516,1,0,0:0:0:0:s_064.ogg
486,192,23516,1,0,0:0:0:0:s_061.ogg
76,192,23600,1,0,0:0:0:0:s_035.ogg
281,192,23600,1,0,0:0:0:0:s_051.ogg
384,192,23600,1,0,0:0:0:0:s_063.ogg
179,192,23766,1,0,0:0:0:0:s_044.ogg
230,192,23766,1,0,0:0:0:0:s_040.ogg
332,192,23766,1,0,0:0:0:0:s_059.ogg
435,192,23766,1,0,0:0:0:0:s_052.ogg
25,192,23933,1,0,0:0:0:0:s_028.ogg
384,192,23933,1,0,0:0:0:0:m_066.ogg
486,192,23933,1,0,0:0:0:0:m_062.ogg
179,192,24100,1,0,0:0:0:0:s_035.ogg
230,192,24100,1,0,0:0:0:0:s_040.ogg
435,192,24183,1,0,0:0:0:0:s_064.ogg
486,192,24183,1,0,0:0:0:0:s_052.ogg
76,192,24266,1,0,0:0:0:0:s_023.ogg
281,192,24266,1,0,0:0:0:0:s_063.ogg
384,192,24266,1,0,0:0:0:0:s_051.ogg
179,192,24433,1,0,0:0:0:0:s_040.ogg
230,192,24433,1,0,0:0:0:0:s_035.ogg
332,192,24433,1,0,0:0:0:0:s_052.ogg
435,192,24433,1,0,0:0:0:0:s_059.ogg
25,192,24600,1,0,0:0:0:0:s_016.ogg
384,192,24600,1,0,0:0:0:0:m_062.ogg
486,192,24600,1,0,0:0:0:0:m_054.ogg
179,192,24766,1,0,0:0:0:0:s_035.ogg
230,192,24766,1,0,0:0:0:0:s_040.ogg
435,192,24850,1,0,0:0:0:0:s_059.ogg
486,192,24850,1,0,0:0:0:0:s_052.ogg
76,192,24933,1,0,0:0:0:0:s_051.ogg
281,192,24933,1,0,0:0:0:0:s_063.ogg
384,192,24933,1,0,0:0:0:0:s_060.ogg
128,192,25100,1,0,0:0:0:0:s_045.ogg
230,192,25100,1,0,0:0:0:0:s_037.ogg
332,192,25100,1,0,0:0:0:0:s_064.ogg
435,192,25100,1,0,0:0:0:0:s_052.ogg
25,192,25266,1,0,0:0:0:0:s_028.ogg
384,192,25266,1,0,0:0:0:0:m_061.ogg
486,192,25266,1,0,0:0:0:0:m_057.ogg
128,192,25433,1,0,0:0:0:0:s_037.ogg
230,192,25433,1,0,0:0:0:0:s_040.ogg
435,192,25516,1,0,0:0:0:0:s_064.ogg
486,192,25516,1,0,0:0:0:0:s_052.ogg
76,192,25600,1,0,0:0:0:0:s_021.ogg
281,192,25600,1,0,0:0:0:0:s_063.ogg
384,192,25600,1,0,0:0:0:0:s_051.ogg
128,192,25766,1,0,0:0:0:0:s_045.ogg
230,192,25766,1,0,0:0:0:0:s_040.ogg
332,192,25766,1,0,0:0:0:0:s_064.ogg
435,192,25766,1,0,0:0:0:0:s_061.ogg
25,192,25933,1,0,0:0:0:0:s_016.ogg
384,192,25933,1,0,0:0:0:0:m_069.ogg
486,192,25933,1,0,0:0:0:0:m_057.ogg
128,192,26100,1,0,0:0:0:0:s_045.ogg
230,192,26100,1,0,0:0:0:0:s_040.ogg
281,192,26183,1,0,0:0:0:0:s_052.ogg
332,192,26183,1,0,0:0:0:0:s_064.ogg
76,192,26266,1,0,0:0:0:0:s_033.ogg
435,192,26266,1,0,0:0:0:0:s_062.ogg
486,192,26266,1,0,0:0:0:0:s_054.ogg
128,192,26433,1,0,0:0:0:0:s_042.ogg
179,192,26433,1,0,0:0:0:0:s_038.ogg
384,192,26433,1,0,0:0:0:0:s_062.ogg
435,192,26433,1,0,0:0:0:0:s_057.ogg
25,192,26600,1,0,0:0:0:0:s_028.ogg
332,192,26600,1,0,0:0:0:0:s_054.ogg
384,192,26600,1,0,0:0:0:0:s_057.ogg
179,192,26766,1,0,0:0:0:0:s_042.ogg
230,192,26766,1,0,0:0:0:0:s_045.ogg
281,192,26766,1,0,0:0:0:0:s_050.ogg
332,192,26766,1,0,0:0:0:0:s_054.ogg
76,192,26933,1,0,0:0:0:0:s_033.ogg
332,192,26933,1,0,0:0:0:0:s_054.ogg
384,192,26933,1,0,0:0:0:0:s_057.ogg
128,192,27100,1,0,0:0:0:0:s_038.ogg
179,192,27100,1,0,0:0:0:0:s_042.ogg
384,192,27100,1,0,0:0:0:0:s_062.ogg
435,192,27100,1,0,0:0:0:0:s_057.ogg
25,192,27266,1,0,0:0:0:0:s_028.ogg
435,192,27266,1,0,0:0:0:0:s_062.ogg
486,192,27266,1,0,0:0:0:0:s_066.ogg
179,192,27433,1,0,0:0:0:0:s_042.ogg
230,192,27433,1,0,0:0:0:0:s_045.ogg
281,192,27433,1,0,0:0:0:0:s_066.ogg
332,192,27433,1,0,0:0:0:0:s_069.ogg
76,192,27600,1,0,0:0:0:0:s_033.ogg
435,192,27600,1,0,0:0:0:0:s_064.ogg
486,192,27600,1,0,0:0:0:0:s_061.ogg
128,192,27766,1,0,0:0:0:0:s_040.ogg
179,192,27766,1,0,0:0:0:0:s_037.ogg
384,192,27766,1,0,0:0:0:0:s_061.ogg
435,192,27766,1,0,0:0:0:0:s_057.ogg
25,192,27933,1,0,0:0:0:0:s_028.ogg
332,192,27933,1,0,0:0:0:0:s_057.ogg
384,192,27933,1,0,0:0:0:0:s_052.ogg
179,192,28100,1,0,0:0:0:0:s_045.ogg
230,192,28100,1,0,0:0:0:0:s_040.ogg
281,192,28100,1,0,0:0:0:0:s_052.ogg
332,192,28100,1,0,0:0:0:0:s_049.ogg
76,192,28266,1,0,0:0:0:0:s_033.ogg
332,192,28266,1,0,0:0:0:0:s_052.ogg
384,192,28266,1,0,0:0:0:0:s_057.ogg
128,192,28433,1,0,0:0:0:0:s_040.ogg
179,192,28433,1,0,0:0:0:0:s_037.ogg
384,192,28433,1,0,0:0:0:0:s_061.ogg
435,192,28433,1,0,0:0:0:0:s_057.ogg
25,192,28600,1,0,0:0:0:0:s_028.ogg
486,192,28600,128,0,28850:0:0:0:0:m_064.ogg
435,192,28600,128,0,28850:0:0:0:0:m_061.ogg
179,192,28766,1,0,0:0:0:0:s_040.ogg
230,192,28766,1,0,0:0:0:0:s_045.ogg
76,192,28933,1,0,0:0:0:0:s_033.ogg
281,192,28933,1,0,0:0:0:0:s_054.ogg
332,192,28954,1,0,0:0:0:0:s_057.ogg
384,192,28975,1,0,0:0:0:0:s_062.ogg
435,192,28995,1,0,0:0:0:0:s_066.ogg
128,192,29100,1,0,0:0:0:0:s_042.ogg
179,192,29100,1,0,0:0:0:0:s_038.ogg
486,192,29100,1,0,0:0:0:0:s_057.ogg
25,192,29266,1,0,0:0:0:0:s_028.ogg
384,192,29266,1,0,0:0:0:0:s_054.ogg
435,192,29266,1,0,0:0:0:0:s_057.ogg
179,192,29433,1,0,0:0:0:0:s_045.ogg
230,192,29433,1,0,0:0:0:0:s_042.ogg
332,192,29433,1,0,0:0:0:0:s_050.ogg
384,192,29433,1,0,0:0:0:0:s_054.ogg
76,192,29600,1,0,0:0:0:0:s_033.ogg
281,192,29600,1,0,0:0:0:0:s_054.ogg
332,192,29600,1,0,0:0:0:0:s_057.ogg
128,192,29766,1,0,0:0:0:0:s_038.ogg
179,192,29766,1,0,0:0:0:0:s_042.ogg
332,192,29766,1,0,0:0:0:0:s_057.ogg
384,192,29766,1,0,0:0:0:0:s_062.ogg
25,192,29933,1,0,0:0:0:0:s_028.ogg
384,192,29933,1,0,0:0:0:0:s_066.ogg
435,192,29933,1,0,0:0:0:0:s_062.ogg
179,192,30100,1,0,0:0:0:0:s_042.ogg
230,192,30100,1,0,0:0:0:0:s_045.ogg
435,192,30100,1,0,0:0:0:0:s_069.ogg
486,192,30100,1,0,0:0:0:0:s_066.ogg
76,192,30266,1,0,0:0:0:0:s_033.ogg
281,192,30266,1,0,0:0:0:0:s_064.ogg
332,192,30266,1,0,0:0:0:0:s_052.ogg
128,192,30433,1,0,0:0:0:0:s_040.ogg
179,192,30433,1,0,0:0:0:0:s_037.ogg
435,192,30433,1,0,0:0:0:0:s_061.ogg
486,192,30433,1,0,0:0:0:0:s_057.ogg
25,192,30600,1,0,0:0:0:0:s_028.ogg
384,192,30600,1,0,0:0:0:0:s_057.ogg
435,192,30600,1,0,0:0:0:0:s_052.ogg
179,192,30766,1,0,0:0:0:0:s_040.ogg
230,192,30766,1,0,0:0:0:0:s_045.ogg
332,192,30766,1,0,0:0:0:0:s_049.ogg
384,192,30766,1,0,0:0:0:0:s_052.ogg
76,192,30933,1,0,0:0:0:0:s_033.ogg
281,192,30933,1,0,0:0:0:0:s_052.ogg
332,192,30933,1,0,0:0:0:0:s_057.ogg
128,192,31100,1,0,0:0:0:0:s_040.ogg
179,192,31100,1,0,0:0:0:0:s_037.ogg
332,192,31100,1,0,0:0:0:0:s_057.ogg
384,192,31100,1,0,0:0:0:0:s_061.ogg
25,192,31266,1,0,0:0:0:0:s_028.ogg
435,192,31266,128,0,31516:0:0:0:0:m_061.ogg
384,192,31266,128,0,31516:0:0:0:0:m_057.ogg
179,192,31433,1,0,0:0:0:0:s_040.ogg
230,192,31433,1,0,0:0:0:0:s_045.ogg
76,192,31600,1,0,0:0:0:0:s_035.ogg
332,192,31600,1,0,0:0:0:0:s_063.ogg
435,192,31683,1,0,0:0:0:0:s_076.ogg
128,192,31766,1,0,0:0:0:0:s_044.ogg
179,192,31766,1,0,0:0:0:0:s_040.ogg
384,192,31766,1,0,0:0:0:0:s_064.ogg
435,192,31850,1,0,0:0:0:0:s_076.ogg
25,192,31933,1,0,0:0:0:0:s_028.ogg
281,192,31933,1,0,0:0:0:0:s_062.ogg
435,192,32016,1,0,0:0:0:0:s_076.ogg
128,192,32100,1,0,0:0:0:0:s_040.ogg
179,192,32100,1,0,0:0:0:0:s_044.ogg
384,192,32100,1,0,0:0:0:0:s_064.ogg
435,192,32183,1,0,0:0:0:0:s_076.ogg
76,192,32266,1,0,0:0:0:0:s_047.ogg
332,192,32266,1,0,0:0:0:0:s_063.ogg
435,192,32350,1,0,0:0:0:0:s_076.ogg
179,192,32433,1,0,0:0:0:0:s_052.ogg
230,192,32433,1,0,0:0:0:0:s_056.ogg
384,192,32433,1,0,0:0:0:0:s_064.ogg
435,192,32516,1,0,0:0:0:0:s_076.ogg
25,192,32600,1,0,0:0:0:0:s_040.ogg
281,192,32600,1,0,0:0:0:0:s_062.ogg
435,192,32683,1,0,0:0:0:0:s_076.ogg
179,192,32766,1,0,0:0:0:0:s_056.ogg
230,192,32766,1,0,0:0:0:0:s_052.ogg
384,192,32766,1,0,0:0:0:0:s_064.ogg
435,192,32850,1,0,0:0:0:0:s_076.ogg
76,192,32933,1,0,0:0:0:0:s_033.ogg
332,192,32933,1,0,0:0:0:0:s_063.ogg
435,192,33016,1,0,0:0:0:0:s_076.ogg
128,192,33100,1,0,0:0:0:0:s_040.ogg
179,192,33100,1,0,0:0:0:0:s_037.ogg
384,192,33100,1,0,0:0:0:0:s_064.ogg
435,192,33183,1,0,0:0:0:0:s_076.ogg
25,192,33266,1,0,0:0:0:0:s_028.ogg
281,192,33266,1,0,0:0:0:0:s_061.ogg
435,192,33350,1,0,0:0:0:0:s_076.ogg
128,192,33433,1,0,0:0:0:0:s_040.ogg
179,192,33433,1,0,0:0:0:0:s_037.ogg
384,192,33433,1,0,0:0:0:0:s_064.ogg
435,192,33516,1,0,0:0:0:0:s_076.ogg
76,192,33600,1,0,0:0:0:0:s_049.ogg
332,192,33600,1,0,0:0:0:0:s_063.ogg
435,192,33683,1,0,0:0:0:0:s_076.ogg
179,192,33766,1,0,0:0:0:0:s_057.ogg
230,192,33766,1,0,0:0:0:0:s_052.ogg
384,192,33766,1,0,0:0:0:0:s_064.ogg
435,192,33850,1,0,0:0:0:0:s_076.ogg
25,192,33933,1,0,0:0:0:0:s_045.ogg
281,192,33933,1,0,0:0:0:0:s_061.ogg
435,192,34016,1,0,0:0:0:0:s_076.ogg
179,192,34100,1,0,0:0:0:0:s_057.ogg
230,192,34100,1,0,0:0:0:0:s_052.ogg
384,192,34100,1,0,0:0:0:0:s_064.ogg
435,192,34183,1,0,0:0:0:0:s_076.ogg
76,192,34266,1,0,0:0:0:0:s_035.ogg
332,192,34266,1,0,0:0:0:0:s_063.ogg
486,192,34350,1,0,0:0:0:0:s_076.ogg
128,192,34433,1,0,0:0:0:0:s_040.ogg
179,192,34433,1,0,0:0:0:0:s_044.ogg
384,192,34433,1,0,0:0:0:0:s_064.ogg
486,192,34516,1,0,0:0:0:0:s_076.ogg
25,192,34600,1,0,0:0:0:0:s_028.ogg
435,192,34600,1,0,0:0:0:0:s_062.ogg
486,192,34683,1,0,0:0:0:0:s_076.ogg
128,192,34766,1,0,0:0:0:0:s_044.ogg
179,192,34766,1,0,0:0:0:0:s_040.ogg
384,192,34766,1,0,0:0:0:0:s_064.ogg
486,192,34850,1,0,0:0:0:0:s_076.ogg
76,192,34933,1,0,0:0:0:0:s_047.ogg
332,192,34933,1,0,0:0:0:0:s_063.ogg
486,192,35016,1,0,0:0:0:0:s_076.ogg
179,192,35100,1,0,0:0:0:0:s_056.ogg
230,192,35100,1,0,0:0:0:0:s_052.ogg
384,192,35100,1,0,0:0:0:0:s_064.ogg
486,192,35183,1,0,0:0:0:0:s_076.ogg
25,192,35266,1,0,0:0:0:0:s_040.ogg
435,192,35266,1,0,0:0:0:0:s_062.ogg
486,192,35350,1,0,0:0:0:0:s_076.ogg
179,192,35433,1,0,0:0:0:0:s_052.ogg
230,192,35433,1,0,0:0:0:0:s_056.ogg
384,192,35433,1,0,0:0:0:0:s_064.ogg
486,192,35516,1,0,0:0:0:0:s_076.ogg
76,192,35600,1,0,0:0:0:0:s_033.ogg
281,192,35600,1,0,0:0:0:0:s_061.ogg
486,192,35683,1,0,0:0:0:0:s_076.ogg
128,192,35766,1,0,0:0:0:0:s_045.ogg
179,192,35766,1,0,0:0:0:0:s_040.ogg
332,192,35766,1,0,0:0:0:0:s_064.ogg
486,192,35850,1,0,0:0:0:0:s_076.ogg
25,192,35933,1,0,0:0:0:0:s_028.ogg
384,192,35933,1,0,0:0:0:0:s_069.ogg
486,192,36016,1,0,0:0:0:0:s_076.ogg
128,192,36100,1,0,0:0:0:0:s_045.ogg
179,192,36100,1,0,0:0:0:0:s_040.ogg
332,192,36100,1,0,0:0:0:0:s_064.ogg
486,192,36183,1,0,0:0:0:0:s_076.ogg
76,192,36266,1,0,0:0:0:0:s_049.ogg
281,192,36266,1,0,0:0:0:0:s_061.ogg
486,192,36350,1,0,0:0:0:0:s_076.ogg
179,192,36433,1,0,0:0:0:0:s_057.ogg
230,192,36433,1,0,0:0:0:0:s_052.ogg
332,192,36433,1,0,0:0:0:0:s_064.ogg
486,192,36516,1,0,0:0:0:0:s_076.ogg
25,192,36600,1,0,0:0:0:0:s_045.ogg
384,192,36600,1,0,0:0:0:0:s_069.ogg
486,192,36683,1,0,0:0:0:0:s_076.ogg
179,192,36766,1,0,0:0:0:0:s_052.ogg
230,192,36766,1,0,0:0:0:0:s_057.ogg
332,192,36766,1,0,0:0:0:0:s_064.ogg
486,192,36850,1,0,0:0:0:0:s_076.ogg
76,192,36933,1,0,0:0:0:0:s_045.ogg
384,192,36933,1,0,0:0:0:0:s_066.ogg
435,192,37016,1,0,0:0:0:0:s_076.ogg
128,192,37100,1,0,0:0:0:0:s_054.ogg
179,192,37100,1,0,0:0:0:0:s_050.ogg
332,192,37100,1,0,0:0:0:0:s_062.ogg
435,192,37183,1,0,0:0:0:0:s_076.ogg
25,192,37266,1,0,0:0:0:0:s_040.ogg
281,192,37266,1,0,0:0:0:0:s_061.ogg
435,192,37350,1,0,0:0:0:0:s_076.ogg
179,192,37433,1,0,0:0:0:0:s_057.ogg
230,192,37433,1,0,0:0:0:0:s_054.ogg
332,192,37433,1,0,0:0:0:0:s_062.ogg
435,192,37516,1,0,0:0:0:0:s_076.ogg
76,192,37600,1,0,0:0:0:0:s_045.ogg
384,192,37600,1,0,0:0:0:0:s_066.ogg
435,192,37683,1,0,0:0:0:0:s_076.ogg
179,192,37766,1,0,0:0:0:0:s_057.ogg
230,192,37766,1,0,0:0:0:0:s_054.ogg
281,192,37766,1,0,0:0:0:0:s_062.ogg
435,192,37850,1,0,0:0:0:0:s_076.ogg
128,192,37933,1,0,0:0:0:0:s_050.ogg
384,192,37933,1,0,0:0:0:0:s_069.ogg
435,192,38016,1,0,0:0:0:0:s_076.ogg
179,192,38100,1,0,0:0:0:0:s_054.ogg
230,192,38100,1,0,0:0:0:0:s_057.ogg
332,192,38100,1,0,0:0:0:0:s_066.ogg
435,192,38183,1,0,0:0:0:0:s_076.ogg
76,192,38266,1,0,0:0:0:0:s_045.ogg
384,192,38266,1,0,0:0:0:0:s_064.ogg
435,192,38350,1,0,0:0:0:0:s_076.ogg
128,192,38433,1,0,0:0:0:0:s_049.ogg
179,192,38433,1,0,0:0:0:0:s_052.ogg
332,192,38433,1,0,0:0:0:0:s_061.ogg
435,192,38516,1,0,0:0:0:0:s_076.ogg
25,192,38600,1,0,0:0:0:0:s_040.ogg
281,192,38600,1,0,0:0:0:0:s_060.ogg
435,192,38683,1,0,0:0:0:0:s_076.ogg
179,192,38766,1,0,0:0:0:0:s_052.ogg
230,192,38766,1,0,0:0:0:0:s_057.ogg
332,192,38766,1,0,0:0:0:0:s_061.ogg
435,192,38850,1,0,0:0:0:0:s_076.ogg
76,192,38933,1,0,0:0:0:0:s_045.ogg
384,192,38933,1,0,0:0:0:0:s_064.ogg
435,192,39016,1,0,0:0:0:0:s_076.ogg
179,192,39100,1,0,0:0:0:0:s_052.ogg
230,192,39100,1,0,0:0:0:0:s_057.ogg
281,192,39100,1,0,0:0:0:0:s_061.ogg
435,192,39183,1,0,0:0:0:0:s_076.ogg
128,192,39266,1,0,0:0:0:0:s_049.ogg
384,192,39266,1,0,0:0:0:0:s_069.ogg
435,192,39350,1,0,0:0:0:0:s_076.ogg
179,192,39433,1,0,0:0:0:0:s_057.ogg
230,192,39433,1,0,0:0:0:0:s_052.ogg
332,192,39433,1,0,0:0:0:0:s_064.ogg
435,192,39516,1,0,0:0:0:0:s_076.ogg
76,192,39600,1,0,0:0:0:0:s_045.ogg
384,192,39600,1,0,0:0:0:0:s_066.ogg
486,192,39683,1,0,0:0:0:0:s_076.ogg
128,192,39766,1,0,0:0:0:0:s_050.ogg
179,192,39766,1,0,0:0:0:0:s_054.ogg
332,192,39766,1,0,0:0:0:0:s_062.ogg
486,192,39850,1,0,0:0:0:0:s_076.ogg
25,192,39933,1,0,0:0:0:0:s_040.ogg
281,192,39933,1,0,0:0:0:0:s_061.ogg
486,192,40016,1,0,0:0:0:0:s_076.ogg
179,192,40100,1,0,0:0:0:0:s_057.ogg
230,192,40100,1,0,0:0:0:0:s_054.ogg
332,192,40100,1,0,0:0:0:0:s_062.ogg
486,192,40183,1,0,0:0:0:0:s_076.ogg
76,192,40266,1,0,0:0:0:0:s_045.ogg
384,192,40266,1,0,0:0:0:0:s_066.ogg
486,192,40350,1,0,0:0:0:0:s_076.ogg
179,192,40433,1,0,0:0:0:0:s_054.ogg
230,192,40433,1,0,0:0:0:0:s_057.ogg
281,192,40433,1,0,0:0:0:0:s_062.ogg
486,192,40516,1,0,0:0:0:0:s_076.ogg
128,192,40600,1,0,0:0:0:0:s_050.ogg
435,192,40600,1,0,0:0:0:0:s_069.ogg
486,192,40683,1,0,0:0:0:0:s_076.ogg
179,192,40766,1,0,0:0:0:0:s_057.ogg
230,192,40766,1,0,0:0:0:0:s_054.ogg
332,192,40766,1,0,0:0:0:0:s_066.ogg
486,192,40850,1,0,0:0:0:0:s_076.ogg
76,192,40933,1,0,0:0:0:0:s_045.ogg
384,192,40933,1,0,0:0:0:0:s_064.ogg
486,192,41016,1,0,0:0:0:0:s_076.ogg
128,192,41100,1,0,0:0:0:0:s_049.ogg
179,192,41100,1,0,0:0:0:0:s_052.ogg
332,192,41100,1,0,0:0:0:0:s_061.ogg
486,192,41183,1,0,0:0:0:0:s_076.ogg
25,192,41266,1,0,0:0:0:0:s_040.ogg
281,192,41266,1,0,0:0:0:0:s_060.ogg
486,192,41350,1,0,0:0:0:0:s_076.ogg
179,192,41433,1,0,0:0:0:0:s_057.ogg
230,192,41433,1,0,0:0:0:0:s_052.ogg
332,192,41433,1,0,0:0:0:0:s_061.ogg
486,192,41516,1,0,0:0:0:0:s_076.ogg
76,192,41600,1,0,0:0:0:0:s_045.ogg
384,192,41600,1,0,0:0:0:0:s_064.ogg
486,192,41683,1,0,0:0:0:0:s_076.ogg
179,192,41766,1,0,0:0:0:0:s_057.ogg
230,192,41766,1,0,0:0:0:0:s_052.ogg
281,192,41766,1,0,0:0:0:0:s_061.ogg
486,192,41850,1,0,0:0:0:0:s_076.ogg
128,192,41933,1,0,0:0:0:0:s_049.ogg
435,192,41933,1,0,0:0:0:0:s_069.ogg
486,192,42016,1,0,0:0:0:0:s_076.ogg
179,192,42100,1,0,0:0:0:0:s_052.ogg
230,192,42100,1,0,0:0:0:0:s_057.ogg
332,192,42100,1,0,0:0:0:0:s_064.ogg
486,192,42183,1,0,0:0:0:0:s_076.ogg
281,192,42266,1,0,0:0:0:0:s_068.ogg
435,192,42350,1,0,0:0:0:0:s_076.ogg
25,192,42433,1,0,0:0:0:0:s_039.ogg
332,192,42433,1,0,0:0:0:0:s_071.ogg
128,192,42475,1,0,0:0:0:0:s_040.ogg
435,192,42516,1,0,0:0:0:0:s_076.ogg
281,192,42600,1,0,0:0:0:0:s_068.ogg
435,192,42683,1,0,0:0:0:0:s_076.ogg
76,192,42766,1,0,0:0:0:0:s_043.ogg
332,192,42766,1,0,0:0:0:0:s_064.ogg
179,192,42808,1,0,0:0:0:0:s_044.ogg
435,192,42850,1,0,0:0:0:0:s_076.ogg
281,192,42933,1,0,0:0:0:0:s_062.ogg
435,192,43016,1,0,0:0:0:0:s_076.ogg
128,192,43100,1,0,0:0:0:0:s_048.ogg
332,192,43100,1,0,0:0:0:0:s_064.ogg
230,192,43141,1,0,0:0:0:0:s_049.ogg
435,192,43183,1,0,0:0:0:0:s_076.ogg
281,192,43266,1,0,0:0:0:0:s_062.ogg
435,192,43350,1,0,0:0:0:0:s_076.ogg
76,192,43433,1,0,0:0:0:0:s_046.ogg
332,192,43433,1,0,0:0:0:0:s_064.ogg
179,192,43475,1,0,0:0:0:0:s_047.ogg
435,192,43516,1,0,0:0:0:0:s_076.ogg
281,192,43600,1,0,0:0:0:0:s_069.ogg
486,192,43683,1,0,0:0:0:0:s_076.ogg
179,192,43766,1,0,0:0:0:0:s_044.ogg
384,192,43766,1,0,0:0:0:0:s_073.ogg
230,192,43808,1,0,0:0:0:0:s_045.ogg
486,192,43850,1,0,0:0:0:0:s_076.ogg
128,192,43933,1,0,0:0:0:0:s_043.ogg
281,192,43933,1,0,0:0:0:0:s_069.ogg
179,192,43975,1,0,0:0:0:0:s_044.ogg
486,192,44016,1,0,0:0:0:0:s_076.ogg
76,192,44100,1,0,0:0:0:0:s_042.ogg
384,192,44100,1,0,0:0:0:0:s_073.ogg
128,192,44141,1,0,0:0:0:0:s_043.ogg
486,192,44183,1,0,0:0:0:0:s_076.ogg
281,192,44266,1,0,0:0:0:0:s_069.ogg
486,192,44350,1,0,0:0:0:0:s_076.ogg
128,192,44433,1,0,0:0:0:0:s_041.ogg
384,192,44433,1,0,0:0:0:0:s_073.ogg
179,192,44475,1,0,0:0:0:0:s_042.ogg
486,192,44516,1,0,0:0:0:0:s_076.ogg
76,192,44600,1,0,0:0:0:0:s_040.ogg
281,192,44600,1,0,0:0:0:0:s_061.ogg
128,192,44641,1,0,0:0:0:0:s_041.ogg
486,192,44683,1,0,0:0:0:0:s_076.ogg
25,192,44766,1,0,0:0:0:0:s_039.ogg
384,192,44766,1,0,0:0:0:0:s_073.ogg
76,192,44808,1,0,0:0:0:0:s_040.ogg
486,192,44850,1,0,0:0:0:0:s_076.ogg
281,192,44933,1,0,0:0:0:0:s_062.ogg
435,192,45016,1,0,0:0:0:0:s_076.ogg
25,192,45100,1,0,0:0:0:0:s_039.ogg
332,192,45100,1,0,0:0:0:0:s_064.ogg
128,192,45141,1,0,0:0:0:0:s_040.ogg
435,192,45183,1,0,0:0:0:0:s_076.ogg
281,192,45266,1,0,0:0:0:0:s_062.ogg
435,192,45350,1,0,0:0:0:0:s_076.ogg
76,192,45433,1,0,0:0:0:0:s_043.ogg
332,192,45433,1,0,0:0:0:0:s_064.ogg
179,192,45475,1,0,0:0:0:0:s_044.ogg
435,192,45516,1,0,0:0:0:0:s_076.ogg
281,192,45600,1,0,0:0:0:0:s_062.ogg
435,192,45683,1,0,0:0:0:0:s_076.ogg
128,192,45766,1,0,0:0:0:0:s_048.ogg
332,192,45766,1,0,0:0:0:0:s_064.ogg
230,192,45808,1,0,0:0:0:0:s_049.ogg
435,192,45850,1,0,0:0:0:0:s_076.ogg
281,192,45933,1,0,0:0:0:0:s_062.ogg
435,192,46016,1,0,0:0:0:0:s_076.ogg
76,192,46100,1,0,0:0:0:0:s_046.ogg
332,192,46100,1,0,0:0:0:0:s_071.ogg
179,192,46141,1,0,0:0:0:0:s_047.ogg
435,192,46183,1,0,0:0:0:0:s_076.ogg
281,192,46266,1,0,0:0:0:0:s_061.ogg
486,192,46350,1,0,0:0:0:0:s_076.ogg
179,192,46433,1,0,0:0:0:0:s_044.ogg
384,192,46433,1,0,0:0:0:0:s_064.ogg
230,192,46475,1,0,0:0:0:0:s_045.ogg
486,192,46516,1,0,0:0:0:0:s_076.ogg
128,192,46600,1,0,0:0:0:0:s_043.ogg
281,192,46600,1,0,0:0:0:0:s_061.ogg
179,192,46641,1,0,0:0:0:0:s_044.ogg
486,192,46683,1,0,0:0:0:0:s_076.ogg
76,192,46766,1,0,0:0:0:0:s_042.ogg
384,192,46766,1,0,0:0:0:0:s_073.ogg
128,192,46808,1,0,0:0:0:0:s_043.ogg
486,192,46850,1,0,0:0:0:0:s_076.ogg
281,192,46933,1,0,0:0:0:0:s_061.ogg
486,192,47016,1,0,0:0:0:0:s_076.ogg
128,192,47100,1,0,0:0:0:0:s_041.ogg
384,192,47100,1,0,0:0:0:0:s_064.ogg
179,192,47141,1,0,0:0:0:0:s_042.ogg
486,192,47183,1,0,0:0:0:0:s_076.ogg
76,192,47266,1,0,0:0:0:0:s_040.ogg
281,192,47266,1,0,0:0:0:0:s_069.ogg
128,192,47308,1,0,0:0:0:0:s_041.ogg
486,192,47350,1,0,0:0:0:0:s_076.ogg
25,192,47433,1,0,0:0:0:0:s_039.ogg
384,192,47433,1,0,0:0:0:0:s_073.ogg
76,192,47475,1,0,0:0:0:0:s_040.ogg
486,192,47516,1,0,0:0:0:0:s_076.ogg
25,192,47600,1,0,0:0:0:0:s_035.ogg
281,192,47600,1,0,0:0:0:0:s_062.ogg
435,192,47683,1,0,0:0:0:0:s_076.ogg
128,192,47766,1,0,0:0:0:0:s_040.ogg
179,192,47766,1,0,0:0:0:0:s_044.ogg
332,192,47766,1,0,0:0:0:0:s_064.ogg
435,192,47850,1,0,0:0:0:0:s_076.ogg
25,192,47933,1,0,0:0:0:0:s_028.ogg
281,192,47933,1,0,0:0:0:0:s_062.ogg
435,192,48016,1,0,0:0:0:0:s_076.ogg
128,192,48100,1,0,0:0:0:0:s_040.ogg
179,192,48100,1,0,0:0:0:0:s_044.ogg
332,192,48100,1,0,0:0:0:0:s_071.ogg
435,192,48183,1,0,0:0:0:0:s_076.ogg
25,192,48266,1,0,0:0:0:0:s_051.ogg
76,192,48266,1,0,0:0:0:0:s_047.ogg
281,192,48266,1,0,0:0:0:0:s_068.ogg
435,192,48350,1,0,0:0:0:0:s_076.ogg
179,192,48433,1,0,0:0:0:0:s_052.ogg
230,192,48433,1,0,0:0:0:0:s_044.ogg
332,192,48433,1,0,0:0:0:0:s_071.ogg
435,192,48516,1,0,0:0:0:0:s_076.ogg
76,192,48600,1,0,0:0:0:0:m_050.ogg
128,192,48600,1,0,0:0:0:0:m_047.ogg
281,192,48600,1,0,0:0:0:0:m_064.ogg
384,192,48600,1,0,0:0:0:0:m_056.ogg
230,192,48850,1,0,0:0:0:0:s_044.ogg
25,192,48933,1,0,0:0:0:0:s_033.ogg
332,192,48933,1,0,0:0:0:0:s_061.ogg
486,192,49016,1,0,0:0:0:0:s_076.ogg
128,192,49100,1,0,0:0:0:0:s_040.ogg
179,192,49100,1,0,0:0:0:0:s_045.ogg
384,192,49100,1,0,0:0:0:0:s_073.ogg
486,192,49183,1,0,0:0:0:0:s_076.ogg
25,192,49266,1,0,0:0:0:0:s_028.ogg
332,192,49266,1,0,0:0:0:0:s_061.ogg
486,192,49350,1,0,0:0:0:0:s_076.ogg
128,192,49433,1,0,0:0:0:0:s_045.ogg
179,192,49433,1,0,0:0:0:0:s_040.ogg
384,192,49433,1,0,0:0:0:0:s_073.ogg
486,192,49516,1,0,0:0:0:0:s_076.ogg
25,192,49600,1,0,0:0:0:0:s_048.ogg
76,192,49600,1,0,0:0:0:0:s_051.ogg
332,192,49600,1,0,0:0:0:0:s_061.ogg
486,192,49683,1,0,0:0:0:0:s_076.ogg
179,192,49766,1,0,0:0:0:0:s_049.ogg
230,192,49766,1,0,0:0:0:0:s_052.ogg
384,192,49766,1,0,0:0:0:0:s_064.ogg
486,192,49850,1,0,0:0:0:0:s_076.ogg
76,192,49933,1,0,0:0:0:0:m_049.ogg
128,192,49933,1,0,0:0:0:0:m_045.ogg
332,192,49933,1,0,0:0:0:0:m_064.ogg
281,192,49933,1,0,0:0:0:0:m_057.ogg
230,192,50183,1,0,0:0:0:0:s_052.ogg
25,192,50266,1,0,0:0:0:0:s_035.ogg
281,192,50266,1,0,0:0:0:0:s_068.ogg
435,192,50350,1,0,0:0:0:0:s_076.ogg
128,192,50433,1,0,0:0:0:0:s_040.ogg
179,192,50433,1,0,0:0:0:0:s_044.ogg
332,192,50433,1,0,0:0:0:0:s_071.ogg
435,192,50516,1,0,0:0:0:0:s_076.ogg
25,192,50600,1,0,0:0:0:0:s_028.ogg
281,192,50600,1,0,0:0:0:0:s_062.ogg
435,192,50683,1,0,0:0:0:0:s_076.ogg
128,192,50766,1,0,0:0:0:0:s_044.ogg
179,192,50766,1,0,0:0:0:0:s_040.ogg
332,192,50766,1,0,0:0:0:0:s_064.ogg
435,192,50850,1,0,0:0:0:0:s_076.ogg
25,192,50933,1,0,0:0:0:0:s_051.ogg
76,192,50933,1,0,0:0:0:0:s_047.ogg
281,192,50933,1,0,0:0:0:0:s_062.ogg
435,192,51016,1,0,0:0:0:0:s_076.ogg
179,192,51100,1,0,0:0:0:0:s_052.ogg
230,192,51100,1,0,0:0:0:0:s_044.ogg
332,192,51100,1,0,0:0:0:0:s_064.ogg
435,192,51183,1,0,0:0:0:0:s_076.ogg
76,192,51266,1,0,0:0:0:0:m_050.ogg
128,192,51266,1,0,0:0:0:0:m_047.ogg
281,192,51266,1,0,0:0:0:0:m_068.ogg
384,192,51266,1,0,0:0:0:0:m_064.ogg
230,192,51516,1,0,0:0:0:0:s_044.ogg
25,192,51600,1,0,0:0:0:0:s_033.ogg
332,192,51600,1,0,0:0:0:0:s_061.ogg
486,192,51683,1,0,0:0:0:0:s_076.ogg
128,192,51766,1,0,0:0:0:0:s_045.ogg
179,192,51766,1,0,0:0:0:0:s_040.ogg
384,192,51766,1,0,0:0:0:0:s_073.ogg
486,192,51850,1,0,0:0:0:0:s_076.ogg
25,192,51933,1,0,0:0:0:0:s_028.ogg
332,192,51933,1,0,0:0:0:0:s_061.ogg
486,192,52016,1,0,0:0:0:0:s_076.ogg
128,192,52100,1,0,0:0:0:0:s_045.ogg
179,192,52100,1,0,0:0:0:0:s_040.ogg
384,192,52100,1,0,0:0:0:0:s_073.ogg
486,192,52183,1,0,0:0:0:0:s_076.ogg
25,192,52266,1,0,0:0:0:0:s_051.ogg
76,192,52266,1,0,0:0:0:0:s_048.ogg
332,192,52266,1,0,0:0:0:0:s_061.ogg
486,192,52350,1,0,0:0:0:0:s_076.ogg
179,192,52433,1,0,0:0:0:0:s_052.ogg
230,192,52433,1,0,0:0:0:0:s_049.ogg
384,192,52433,1,0,0:0:0:0:s_073.ogg
486,192,52516,1,0,0:0:0:0:s_076.ogg
76,192,52600,1,0,0:0:0:0:m_049.ogg
128,192,52600,1,0,0:0:0:0:m_045.ogg
332,192,52600,1,0,0:0:0:0:m_064.ogg
281,192,52600,1,0,0:0:0:0:m_057.ogg
230,192,52850,1,0,0:0:0:0:s_052.ogg
76,192,52933,1,0,0:0:0:0:s_035.ogg
332,192,52933,1,0,0:0:0:0:s_062.ogg
486,192,52975,1,0,0:0:0:0:s_078.ogg
179,192,53100,1,0,0:0:0:0:s_050.ogg
230,192,53100,1,0,0:0:0:0:s_040.ogg
25,192,53266,1,0,0:0:0:0:s_028.ogg
281,192,53266,128,0,53683:0:0:0:0:m_059.ogg
179,192,53433,1,0,0:0:0:0:s_044.ogg
230,192,53433,1,0,0:0:0:0:s_040.ogg
76,192,53600,1,0,0:0:0:0:s_035.ogg
179,192,53766,1,0,0:0:0:0:s_040.ogg
230,192,53766,1,0,0:0:0:0:s_044.ogg
332,192,53766,1,0,0:0:0:0:s_061.ogg
25,192,53933,1,0,0:0:0:0:s_028.ogg
384,192,53933,1,0,0:0:0:0:s_062.ogg
179,192,54100,1,0,0:0:0:0:s_040.ogg
230,192,54100,1,0,0:0:0:0:s_044.ogg
281,192,54100,1,0,0:0:0:0:s_059.ogg
76,192,54266,1,0,0:0:0:0:s_033.ogg
332,192,54266,1,0,0:0:0:0:s_061.ogg
486,192,54308,1,0,0:0:0:0:s_076.ogg
128,192,54433,1,0,0:0:0:0:s_049.ogg
179,192,54433,1,0,0:0:0:0:s_045.ogg
25,192,54600,1,0,0:0:0:0:s_028.ogg
281,192,54600,128,0,55016:0:0:0:0:m_057.ogg
128,192,54766,1,0,0:0:0:0:s_040.ogg
179,192,54766,1,0,0:0:0:0:s_049.ogg
76,192,54933,1,0,0:0:0:0:s_033.ogg
128,192,55100,1,0,0:0:0:0:s_049.ogg
179,192,55100,1,0,0:0:0:0:s_040.ogg
332,192,55100,1,0,0:0:0:0:s_059.ogg
25,192,55266,1,0,0:0:0:0:s_028.ogg
384,192,55266,1,0,0:0:0:0:s_061.ogg
128,192,55433,1,0,0:0:0:0:s_049.ogg
179,192,55433,1,0,0:0:0:0:s_040.ogg
281,192,55433,1,0,0:0:0:0:s_057.ogg
76,192,55600,1,0,0:0:0:0:s_035.ogg
332,192,55600,1,0,0:0:0:0:s_056.ogg
179,192,55766,1,0,0:0:0:0:s_040.ogg
230,192,55766,1,0,0:0:0:0:s_044.ogg
384,192,55766,1,0,0:0:0:0:s_057.ogg
25,192,55933,1,0,0:0:0:0:s_028.ogg
435,192,55933,1,0,0:0:0:0:s_059.ogg
179,192,56100,1,0,0:0:0:0:s_044.ogg
230,192,56100,1,0,0:0:0:0:s_040.ogg
486,192,56100,1,0,0:0:0:0:s_061.ogg
76,192,56266,1,0,0:0:0:0:s_035.ogg
281,192,56266,1,0,0:0:0:0:s_062.ogg
179,192,56433,1,0,0:0:0:0:s_050.ogg
230,192,56433,1,0,0:0:0:0:s_044.ogg
332,192,56433,1,0,0:0:0:0:s_064.ogg
25,192,56600,1,0,0:0:0:0:s_028.ogg
384,192,56600,1,0,0:0:0:0:s_066.ogg
179,192,56766,1,0,0:0:0:0:s_044.ogg
230,192,56766,1,0,0:0:0:0:s_040.ogg
435,192,56766,1,0,0:0:0:0:s_068.ogg
76,192,56933,1,0,0:0:0:0:s_033.ogg
332,192,56933,1,0,0:0:0:0:s_069.ogg
384,192,56975,1,0,0:0:0:0:s_071.ogg
128,192,57100,1,0,0:0:0:0:s_049.ogg
179,192,57100,1,0,0:0:0:0:s_045.ogg
281,192,57100,1,0,0:0:0:0:s_068.ogg
25,192,57266,1,0,0:0:0:0:s_028.ogg
332,192,57266,1,0,0:0:0:0:s_069.ogg
128,192,57433,1,0,0:0:0:0:s_049.ogg
179,192,57433,1,0,0:0:0:0:s_045.ogg
384,192,57433,1,0,0:0:0:0:s_071.ogg
76,192,57600,1,0,0:0:0:0:s_033.ogg
435,192,57600,1,0,0:0:0:0:s_073.ogg
128,192,57766,1,0,0:0:0:0:s_049.ogg
179,192,57766,1,0,0:0:0:0:s_045.ogg
384,192,57766,1,0,0:0:0:0:s_071.ogg
25,192,57933,1,0,0:0:0:0:s_028.ogg
435,192,57933,1,0,0:0:0:0:s_073.ogg
128,192,58100,1,0,0:0:0:0:s_040.ogg
179,192,58100,1,0,0:0:0:0:s_049.ogg
332,192,58100,1,0,0:0:0:0:s_069.ogg
76,192,58266,1,0,0:0:0:0:s_035.ogg
281,192,58266,1,0,0:0:0:0:s_062.ogg
384,192,58308,1,0,0:0:0:0:s_068.ogg
435,192,58350,1,0,0:0:0:0:s_071.ogg
486,192,58391,1,0,0:0:0:0:s_078.ogg
179,192,58433,1,0,0:0:0:0:s_050.ogg
230,192,58433,1,0,0:0:0:0:s_044.ogg
25,192,58600,1,0,0:0:0:0:s_028.ogg
281,192,58600,128,0,59016:0:0:0:0:m_056.ogg
332,192,58600,128,0,59016:0:0:0:0:m_059.ogg
179,192,58766,1,0,0:0:0:0:s_040.ogg
230,192,58766,1,0,0:0:0:0:s_044.ogg
76,192,58933,1,0,0:0:0:0:s_035.ogg
179,192,59100,1,0,0:0:0:0:s_044.ogg
230,192,59100,1,0,0:0:0:0:s_040.ogg
332,192,59100,1,0,0:0:0:0:s_061.ogg
384,192,59100,1,0,0:0:0:0:s_057.ogg
25,192,59266,1,0,0:0:0:0:s_028.ogg
384,192,59266,1,0,0:0:0:0:s_062.ogg
435,192,59266,1,0,0:0:0:0:s_059.ogg
179,192,59433,1,0,0:0:0:0:s_040.ogg
230,192,59433,1,0,0:0:0:0:s_050.ogg
281,192,59433,1,0,0:0:0:0:s_059.ogg
332,192,59433,1,0,0:0:0:0:s_056.ogg
76,192,59600,1,0,0:0:0:0:s_033.ogg
281,192,59600,1,0,0:0:0:0:s_061.ogg
384,192,59641,1,0,0:0:0:0:s_064.ogg
435,192,59683,1,0,0:0:0:0:s_069.ogg
486,192,59725,1,0,0:0:0:0:s_076.ogg
128,192,59766,1,0,0:0:0:0:s_049.ogg
179,192,59766,1,0,0:0:0:0:s_045.ogg
25,192,59933,1,0,0:0:0:0:s_028.ogg
332,192,59933,128,0,60350:0:0:0:0:m_049.ogg
281,192,59933,128,0,60350:0:0:0:0:m_057.ogg
128,192,60100,1,0,0:0:0:0:s_045.ogg
179,192,60100,1,0,0:0:0:0:s_040.ogg
76,192,60266,1,0,0:0:0:0:s_033.ogg
128,192,60433,1,0,0:0:0:0:s_045.ogg
179,192,60433,1,0,0:0:0:0:s_040.ogg
332,192,60433,1,0,0:0:0:0:s_059.ogg
384,192,60433,1,0,0:0:0:0:s_050.ogg
25,192,60600,1,0,0:0:0:0:s_028.ogg
384,192,60600,1,0,0:0:0:0:s_061.ogg
435,192,60600,1,0,0:0:0:0:s_052.ogg
128,192,60766,1,0,0:0:0:0:s_045.ogg
179,192,60766,1,0,0:0:0:0:s_040.ogg
281,192,60766,1,0,0:0:0:0:s_057.ogg
332,192,60766,1,0,0:0:0:0:s_049.ogg
76,192,60933,1,0,0:0:0:0:s_035.ogg
281,192,60933,1,0,0:0:0:0:s_056.ogg
435,192,60933,1,0,0:0:0:0:s_047.ogg
128,192,61100,1,0,0:0:0:0:s_040.ogg
230,192,61100,1,0,0:0:0:0:s_038.ogg
332,192,61100,1,0,0:0:0:0:s_057.ogg
486,192,61100,1,0,0:0:0:0:s_049.ogg
25,192,61266,1,0,0:0:0:0:s_028.ogg
281,192,61266,1,0,0:0:0:0:s_059.ogg
384,192,61266,1,0,0:0:0:0:s_050.ogg
128,192,61433,1,0,0:0:0:0:s_040.ogg
230,192,61433,1,0,0:0:0:0:s_038.ogg
332,192,61433,1,0,0:0:0:0:s_061.ogg
435,192,61433,1,0,0:0:0:0:s_052.ogg
76,192,61600,1,0,0:0:0:0:s_035.ogg
384,192,61600,1,0,0:0:0:0:s_054.ogg
486,192,61600,1,0,0:0:0:0:s_062.ogg
128,192,61766,1,0,0:0:0:0:s_040.ogg
230,192,61766,1,0,0:0:0:0:s_038.ogg
281,192,61766,1,0,0:0:0:0:s_056.ogg
435,192,61766,1,0,0:0:0:0:s_064.ogg
25,192,61933,1,0,0:0:0:0:s_028.ogg
332,192,61933,1,0,0:0:0:0:s_066.ogg
486,192,61933,1,0,0:0:0:0:s_057.ogg
128,192,62100,1,0,0:0:0:0:s_040.ogg
230,192,62100,1,0,0:0:0:0:s_038.ogg
281,192,62100,1,0,0:0:0:0:s_068.ogg
384,192,62100,1,0,0:0:0:0:s_059.ogg
76,192,62266,1,0,0:0:0:0:s_033.ogg
332,192,62266,1,0,0:0:0:0:s_061.ogg
435,192,62266,1,0,0:0:0:0:s_069.ogg
128,192,62433,1,0,0:0:0:0:s_045.ogg
179,192,62433,1,0,0:0:0:0:s_040.ogg
281,192,62433,1,0,0:0:0:0:s_068.ogg
384,192,62433,1,0,0:0:0:0:s_059.ogg
25,192,62600,1,0,0:0:0:0:s_028.ogg
332,192,62600,1,0,0:0:0:0:s_061.ogg
435,192,62600,1,0,0:0:0:0:s_069.ogg
128,192,62766,1,0,0:0:0:0:s_045.ogg
179,192,62766,1,0,0:0:0:0:s_040.ogg
384,192,62766,1,0,0:0:0:0:s_071.ogg
486,192,62766,1,0,0:0:0:0:s_062.ogg
76,192,62933,1,0,0:0:0:0:s_033.ogg
435,192,62933,1,0,0:0:0:0:s_073.ogg
486,192,62933,1,0,0:0:0:0:s_064.ogg
128,192,63100,1,0,0:0:0:0:s_040.ogg
179,192,63100,1,0,0:0:0:0:s_045.ogg
332,192,63100,1,0,0:0:0:0:s_062.ogg
384,192,63100,1,0,0:0:0:0:s_071.ogg
25,192,63266,1,0,0:0:0:0:s_028.ogg
435,192,63266,1,0,0:0:0:0:s_064.ogg
486,192,63266,1,0,0:0:0:0:s_073.ogg
128,192,63433,1,0,0:0:0:0:s_045.ogg
179,192,63433,1,0,0:0:0:0:s_040.ogg
281,192,63433,1,0,0:0:0:0:s_061.ogg
332,192,63433,1,0,0:0:0:0:s_069.ogg
76,192,63600,1,0,0:0:0:0:s_030.ogg
384,192,63600,1,0,0:0:0:0:s_066.ogg
435,192,63641,1,0,0:0:0:0:s_073.ogg
486,192,63683,1,0,0:0:0:0:s_081.ogg
179,192,63766,1,0,0:0:0:0:s_045.ogg
230,192,63766,1,0,0:0:0:0:s_039.ogg
25,192,63933,1,0,0:0:0:0:s_023.ogg
332,192,63933,128,0,64350:0:0:0:0:m_045.ogg
281,192,63933,128,0,64350:0:0:0:0:m_054.ogg
179,192,64100,1,0,0:0:0:0:s_035.ogg
230,192,64100,1,0,0:0:0:0:s_039.ogg
76,192,64266,1,0,0:0:0:0:s_030.ogg
179,192,64433,1,0,0:0:0:0:s_035.ogg
230,192,64433,1,0,0:0:0:0:s_039.ogg
332,192,64433,1,0,0:0:0:0:s_047.ogg
384,192,64433,1,0,0:0:0:0:s_056.ogg
25,192,64600,1,0,0:0:0:0:s_023.ogg
435,192,64600,1,0,0:0:0:0:s_049.ogg
486,192,64600,1,0,0:0:0:0:s_057.ogg
179,192,64766,1,0,0:0:0:0:s_039.ogg
230,192,64766,1,0,0:0:0:0:s_035.ogg
281,192,64766,1,0,0:0:0:0:s_054.ogg
332,192,64766,1,0,0:0:0:0:s_045.ogg
76,192,64933,1,0,0:0:0:0:s_028.ogg
384,192,64933,1,0,0:0:0:0:s_064.ogg
435,192,64975,1,0,0:0:0:0:s_071.ogg
486,192,65016,1,0,0:0:0:0:s_080.ogg
128,192,65100,1,0,0:0:0:0:s_040.ogg
179,192,65100,1,0,0:0:0:0:s_035.ogg
25,192,65266,1,0,0:0:0:0:s_023.ogg
332,192,65266,128,0,65683:0:0:0:0:m_052.ogg
281,192,65266,128,0,65683:0:0:0:0:m_044.ogg
128,192,65433,1,0,0:0:0:0:s_035.ogg
179,192,65433,1,0,0:0:0:0:s_040.ogg
76,192,65600,1,0,0:0:0:0:s_028.ogg
128,192,65766,1,0,0:0:0:0:s_040.ogg
179,192,65766,1,0,0:0:0:0:s_035.ogg
332,192,65766,1,0,0:0:0:0:s_054.ogg
384,192,65766,1,0,0:0:0:0:s_045.ogg
25,192,65933,1,0,0:0:0:0:s_023.ogg
435,192,65933,1,0,0:0:0:0:s_047.ogg
486,192,65933,1,0,0:0:0:0:s_056.ogg
128,192,66100,1,0,0:0:0:0:s_040.ogg
179,192,66100,1,0,0:0:0:0:s_035.ogg
281,192,66100,1,0,0:0:0:0:s_044.ogg
332,192,66100,1,0,0:0:0:0:s_052.ogg
76,192,66266,1,0,0:0:0:0:s_030.ogg
281,192,66266,1,0,0:0:0:0:s_051.ogg
384,192,66266,1,0,0:0:0:0:s_042.ogg
179,192,66433,1,0,0:0:0:0:s_039.ogg
230,192,66433,1,0,0:0:0:0:s_035.ogg
332,192,66433,1,0,0:0:0:0:s_044.ogg
435,192,66433,1,0,0:0:0:0:s_052.ogg
25,192,66600,1,0,0:0:0:0:s_023.ogg
384,192,66600,1,0,0:0:0:0:s_045.ogg
486,192,66600,1,0,0:0:0:0:s_054.ogg
179,192,66766,1,0,0:0:0:0:s_035.ogg
230,192,66766,1,0,0:0:0:0:s_033.ogg
281,192,66766,1,0,0:0:0:0:s_047.ogg
435,192,66766,1,0,0:0:0:0:s_056.ogg
76,192,66933,1,0,0:0:0:0:s_030.ogg
332,192,66933,1,0,0:0:0:0:s_057.ogg
486,192,66933,1,0,0:0:0:0:s_049.ogg
128,192,67100,1,0,0:0:0:0:s_035.ogg
230,192,67100,1,0,0:0:0:0:s_039.ogg
281,192,67100,1,0,0:0:0:0:s_059.ogg
384,192,67100,1,0,0:0:0:0:s_051.ogg
25,192,67266,1,0,0:0:0:0:s_023.ogg
332,192,67266,1,0,0:0:0:0:s_061.ogg
435,192,67266,1,0,0:0:0:0:s_052.ogg
179,192,67433,1,0,0:0:0:0:s_035.ogg
230,192,67433,1,0,0:0:0:0:s_039.ogg
384,192,67433,1,0,0:0:0:0:s_063.ogg
486,192,67433,1,0,0:0:0:0:s_054.ogg
76,192,67600,1,0,0:0:0:0:s_028.ogg
435,192,67600,1,0,0:0:0:0:s_056.ogg
486,192,67600,1,0,0:0:0:0:s_064.ogg
128,192,67766,1,0,0:0:0:0:s_040.ogg
230,192,67766,1,0,0:0:0:0:s_044.ogg
281,192,67766,1,0,0:0:0:0:s_063.ogg
332,192,67766,1,0,0:0:0:0:s_054.ogg
25,192,67933,1,0,0:0:0:0:s_023.ogg
332,192,67933,1,0,0:0:0:0:s_056.ogg
384,192,67933,1,0,0:0:0:0:s_064.ogg
128,192,68100,1,0,0:0:0:0:s_035.ogg
179,192,68100,1,0,0:0:0:0:s_040.ogg
384,192,68100,1,0,0:0:0:0:s_057.ogg
435,192,68100,1,0,0:0:0:0:s_066.ogg
76,192,68266,1,0,0:0:0:0:s_028.ogg
435,192,68266,1,0,0:0:0:0:s_068.ogg
486,192,68266,1,0,0:0:0:0:s_059.ogg
128,192,68433,1,0,0:0:0:0:s_044.ogg
230,192,68433,1,0,0:0:0:0:s_035.ogg
332,192,68433,1,0,0:0:0:0:s_066.ogg
384,192,68433,1,0,0:0:0:0:s_057.ogg
25,192,68600,1,0,0:0:0:0:s_023.ogg
435,192,68600,1,0,0:0:0:0:s_068.ogg
486,192,68600,1,0,0:0:0:0:s_059.ogg
128,192,68766,1,0,0:0:0:0:s_040.ogg
179,192,68766,1,0,0:0:0:0:s_035.ogg
281,192,68766,1,0,0:0:0:0:s_056.ogg
332,192,68766,1,0,0:0:0:0:s_064.ogg
76,192,68933,1,0,0:0:0:0:s_030.ogg
384,192,68933,1,0,0:0:0:0:s_066.ogg
435,192,68975,1,0,0:0:0:0:s_073.ogg
486,192,69016,1,0,0:0:0:0:s_081.ogg
179,192,69100,1,0,0:0:0:0:s_045.ogg
230,192,69100,1,0,0:0:0:0:s_035.ogg
25,192,69266,1,0,0:0:0:0:s_023.ogg
332,192,69266,128,0,69683:0:0:0:0:m_045.ogg
281,192,69266,128,0,69683:0:0:0:0:m_054.ogg
179,192,69433,1,0,0:0:0:0:s_039.ogg
230,192,69433,1,0,0:0:0:0:s_035.ogg
76,192,69600,1,0,0:0:0:0:s_030.ogg
179,192,69766,1,0,0:0:0:0:s_039.ogg
230,192,69766,1,0,0:0:0:0:s_035.ogg
332,192,69766,1,0,0:0:0:0:s_047.ogg
384,192,69766,1,0,0:0:0:0:s_056.ogg
25,192,69933,1,0,0:0:0:0:s_023.ogg
435,192,69933,1,0,0:0:0:0:s_057.ogg
486,192,69933,1,0,0:0:0:0:s_049.ogg
179,192,70100,1,0,0:0:0:0:s_035.ogg
230,192,70100,1,0,0:0:0:0:s_039.ogg
281,192,70100,1,0,0:0:0:0:s_045.ogg
332,192,70100,1,0,0:0:0:0:s_054.ogg
76,192,70266,1,0,0:0:0:0:s_028.ogg
384,192,70266,1,0,0:0:0:0:s_064.ogg
435,192,70308,1,0,0:0:0:0:s_071.ogg
486,192,70350,1,0,0:0:0:0:s_080.ogg
128,192,70433,1,0,0:0:0:0:s_044.ogg
179,192,70433,1,0,0:0:0:0:s_040.ogg
25,192,70600,1,0,0:0:0:0:s_023.ogg
332,192,70600,128,0,71016:0:0:0:0:m_052.ogg
281,192,70600,128,0,71016:0:0:0:0:m_044.ogg
128,192,70766,1,0,0:0:0:0:s_035.ogg
179,192,70766,1,0,0:0:0:0:s_040.ogg
76,192,70933,1,0,0:0:0:0:s_028.ogg
128,192,71100,1,0,0:0:0:0:s_040.ogg
179,192,71100,1,0,0:0:0:0:s_035.ogg
332,192,71100,1,0,0:0:0:0:s_054.ogg
384,192,71100,1,0,0:0:0:0:s_045.ogg
25,192,71266,1,0,0:0:0:0:s_023.ogg
435,192,71266,1,0,0:0:0:0:s_056.ogg
486,192,71266,1,0,0:0:0:0:s_047.ogg
128,192,71433,1,0,0:0:0:0:s_040.ogg
179,192,71433,1,0,0:0:0:0:s_035.ogg
281,192,71433,1,0,0:0:0:0:s_052.ogg
332,192,71433,1,0,0:0:0:0:s_044.ogg
76,192,71600,1,0,0:0:0:0:s_030.ogg
281,192,71600,1,0,0:0:0:0:s_051.ogg
384,192,71600,1,0,0:0:0:0:s_042.ogg
179,192,71766,1,0,0:0:0:0:s_035.ogg
230,192,71766,1,0,0:0:0:0:s_033.ogg
332,192,71766,1,0,0:0:0:0:s_052.ogg
435,192,71766,1,0,0:0:0:0:s_044.ogg
25,192,71933,1,0,0:0:0:0:s_023.ogg
384,192,71933,1,0,0:0:0:0:s_054.ogg
486,192,71933,1,0,0:0:0:0:s_045.ogg
179,192,72100,1,0,0:0:0:0:s_035.ogg
230,192,72100,1,0,0:0:0:0:s_033.ogg
281,192,72100,1,0,0:0:0:0:s_056.ogg
435,192,72100,1,0,0:0:0:0:s_047.ogg
76,192,72266,1,0,0:0:0:0:s_030.ogg
332,192,72266,1,0,0:0:0:0:s_049.ogg
486,192,72266,1,0,0:0:0:0:s_057.ogg
128,192,72433,1,0,0:0:0:0:s_045.ogg
230,192,72433,1,0,0:0:0:0:s_035.ogg
281,192,72433,1,0,0:0:0:0:s_059.ogg
384,192,72433,1,0,0:0:0:0:s_051.ogg
25,192,72600,1,0,0:0:0:0:s_023.ogg
332,192,72600,1,0,0:0:0:0:s_061.ogg
435,192,72600,1,0,0:0:0:0:s_052.ogg
128,192,72766,1,0,0:0:0:0:s_039.ogg
179,192,72766,1,0,0:0:0:0:s_035.ogg
384,192,72766,1,0,0:0:0:0:s_063.ogg
486,192,72766,1,0,0:0:0:0:s_054.ogg
25,192,72933,1,0,0:0:0:0:s_035.ogg
230,192,72933,1,0,0:0:0:0:s_028.ogg
281,192,72933,1,0,0:0:0:0:s_064.ogg
486,192,72933,1,0,0:0:0:0:s_052.ogg
76,192,73100,1,0,0:0:0:0:s_041.ogg
128,192,73100,1,0,0:0:0:0:s_029.ogg
384,192,73100,1,0,0:0:0:0:s_063.ogg
435,192,73100,1,0,0:0:0:0:s_051.ogg
230,192,73266,1,0,0:0:0:0:s_039.ogg
179,192,73266,1,0,0:0:0:0:s_027.ogg
281,192,73266,1,0,0:0:0:0:s_065.ogg
332,192,73266,1,0,0:0:0:0:s_053.ogg
76,192,73433,1,0,0:0:0:0:s_028.ogg
25,192,73433,1,0,0:0:0:0:s_040.ogg
435,192,73433,1,0,0:0:0:0:s_064.ogg
486,192,73433,1,0,0:0:0:0:s_052.ogg
179,192,73600,1,0,0:0:0:0:s_038.ogg
128,192,73600,1,0,0:0:0:0:s_026.ogg
332,192,73600,1,0,0:0:0:0:s_066.ogg
384,192,73600,1,0,0:0:0:0:s_054.ogg
25,192,73766,1,0,0:0:0:0:s_027.ogg
230,192,73766,1,0,0:0:0:0:s_039.ogg
281,192,73766,1,0,0:0:0:0:s_065.ogg
486,192,73766,1,0,0:0:0:0:s_053.ogg
76,192,73933,1,0,0:0:0:0:s_025.ogg
128,192,73933,1,0,0:0:0:0:s_037.ogg
435,192,73933,1,0,0:0:0:0:s_067.ogg
384,192,73933,1,0,0:0:0:0:s_055.ogg
179,192,74100,1,0,0:0:0:0:s_038.ogg
230,192,74100,1,0,0:0:0:0:s_026.ogg
332,192,74100,1,0,0:0:0:0:s_054.ogg
281,192,74100,1,0,0:0:0:0:s_066.ogg
25,192,74266,1,0,0:0:0:0:s_024.ogg
76,192,74266,1,0,0:0:0:0:s_036.ogg
435,192,74266,1,0,0:0:0:0:s_056.ogg
486,192,74266,1,0,0:0:0:0:s_068.ogg
128,192,74433,1,0,0:0:0:0:s_037.ogg
179,192,74433,1,0,0:0:0:0:s_025.ogg
332,192,74433,1,0,0:0:0:0:s_055.ogg
384,192,74433,1,0,0:0:0:0:s_067.ogg
25,192,74600,1,0,0:0:0:0:s_023.ogg
230,192,74600,1,0,0:0:0:0:s_035.ogg
281,192,74600,1,0,0:0:0:0:s_057.ogg
486,192,74600,1,0,0:0:0:0:s_069.ogg
128,192,74766,1,0,0:0:0:0:s_036.ogg
76,192,74766,1,0,0:0:0:0:s_024.ogg
384,192,74766,1,0,0:0:0:0:s_068.ogg
435,192,74766,1,0,0:0:0:0:s_056.ogg
230,192,74933,1,0,0:0:0:0:s_034.ogg
179,192,74933,1,0,0:0:0:0:s_022.ogg
281,192,74933,1,0,0:0:0:0:s_070.ogg
332,192,74933,1,0,0:0:0:0:s_058.ogg
76,192,75100,1,0,0:0:0:0:s_023.ogg
25,192,75100,1,0,0:0:0:0:s_035.ogg
435,192,75100,1,0,0:0:0:0:s_069.ogg
486,192,75100,1,0,0:0:0:0:s_057.ogg
128,192,75266,1,0,0:0:0:0:s_033.ogg
179,192,75266,1,0,0:0:0:0:s_021.ogg
332,192,75266,1,0,0:0:0:0:s_071.ogg
384,192,75266,1,0,0:0:0:0:s_059.ogg
25,192,75433,1,0,0:0:0:0:s_022.ogg
230,192,75433,1,0,0:0:0:0:s_034.ogg
281,192,75433,1,0,0:0:0:0:s_070.ogg
486,192,75433,1,0,0:0:0:0:s_058.ogg
76,192,75600,1,0,0:0:0:0:s_032.ogg
128,192,75600,1,0,0:0:0:0:s_020.ogg
384,192,75600,1,0,0:0:0:0:s_072.ogg
435,192,75600,1,0,0:0:0:0:s_060.ogg
179,192,75766,1,0,0:0:0:0:s_033.ogg
230,192,75766,1,0,0:0:0:0:s_021.ogg
281,192,75766,1,0,0:0:0:0:s_071.ogg
332,192,75766,1,0,0:0:0:0:s_059.ogg
25,192,75933,1,0,0:0:0:0:s_031.ogg
76,192,75933,1,0,0:0:0:0:s_019.ogg
435,192,75933,1,0,0:0:0:0:s_073.ogg
486,192,75933,1,0,0:0:0:0:s_061.ogg
128,192,76100,1,0,0:0:0:0:s_032.ogg
179,192,76100,1,0,0:0:0:0:s_020.ogg
332,192,76100,1,0,0:0:0:0:s_072.ogg
384,192,76100,1,0,0:0:0:0:s_060.ogg
25,192,76266,1,0,0:0:0:0:s_030.ogg
230,192,76266,1,0,0:0:0:0:s_018.ogg
281,192,76266,1,0,0:0:0:0:s_074.ogg
486,192,76266,1,0,0:0:0:0:s_062.ogg
76,192,76433,1,0,0:0:0:0:s_031.ogg
128,192,76433,1,0,0:0:0:0:s_019.ogg
384,192,76433,1,0,0:0:0:0:s_073.ogg
435,192,76433,1,0,0:0:0:0:s_061.ogg
25,192,76600,1,0,0:0:0:0:s_029.ogg
230,192,76600,1,0,0:0:0:0:s_017.ogg
281,192,76600,1,0,0:0:0:0:s_074.ogg
486,192,76600,1,0,0:0:0:0:s_062.ogg
128,192,76766,1,0,0:0:0:0:s_030.ogg
179,192,76766,1,0,0:0:0:0:s_018.ogg
384,192,76766,1,0,0:0:0:0:s_075.ogg
332,192,76766,1,0,0:0:0:0:s_063.ogg
25,192,76933,1,0,0:0:0:0:s_028.ogg
76,192,76933,1,0,0:0:0:0:s_016.ogg
435,192,76933,1,0,0:0:0:0:s_064.ogg
486,192,76933,1,0,0:0:0:0:s_076.ogg
179,192,77100,1,0,0:0:0:0:s_029.ogg
230,192,77100,1,0,0:0:0:0:s_017.ogg
281,192,77100,1,0,0:0:0:0:s_075.ogg
332,192,77100,1,0,0:0:0:0:s_063.ogg
25,192,77266,1,0,0:0:0:0:s_028.ogg
76,192,77266,1,0,0:0:0:0:s_023.ogg
435,192,77266,1,0,0:0:0:0:s_076.ogg
486,192,77266,1,0,0:0:0:0:s_064.ogg
179,192,77433,1,0,0:0:0:0:s_017.ogg
230,192,77433,1,0,0:0:0:0:s_029.ogg
281,192,77433,1,0,0:0:0:0:s_069.ogg
332,192,77433,1,0,0:0:0:0:s_063.ogg
25,192,77600,1,0,0:0:0:0:s_016.ogg
76,192,77600,1,0,0:0:0:0:s_028.ogg
435,192,77600,1,0,0:0:0:0:s_064.ogg
486,192,77600,1,0,0:0:0:0:s_076.ogg
179,192,77766,1,0,0:0:0:0:s_017.ogg
230,192,77766,1,0,0:0:0:0:s_029.ogg
281,192,77766,1,0,0:0:0:0:s_075.ogg
332,192,77766,1,0,0:0:0:0:s_069.ogg
25,192,77933,1,0,0:0:0:0:s_016.ogg
76,192,77933,1,0,0:0:0:0:s_021.ogg
435,192,77933,1,0,0:0:0:0:s_068.ogg
486,192,77933,1,0,0:0:0:0:s_064.ogg
179,192,78100,1,0,0:0:0:0:s_029.ogg
230,192,78100,1,0,0:0:0:0:s_017.ogg
281,192,78100,1,0,0:0:0:0:s_075.ogg
332,192,78100,1,0,0:0:0:0:s_063.ogg
25,192,78266,1,0,0:0:0:0:s_016.ogg
76,192,78266,1,0,0:0:0:0:s_023.ogg
435,192,78266,1,0,0:0:0:0:s_068.ogg
486,192,78266,1,0,0:0:0:0:s_076.ogg
25,192,78433,1,0,0:0:0:0:s_027.ogg
128,192,78433,1,0,0:0:0:0:s_039.ogg
281,192,78433,1,0,0:0:0:0:s_051.ogg
384,192,78433,1,0,0:0:0:0:s_063.ogg
179,192,78600,1,0,0:0:0:0:s_028.ogg
230,192,78600,1,0,0:0:0:0:s_040.ogg
435,192,78600,1,0,0:0:0:0:s_052.ogg
486,192,78600,1,0,0:0:0:0:s_064.ogg
25,192,78766,1,0,0:0:0:0:s_027.ogg
128,192,78766,1,0,0:0:0:0:s_039.ogg
281,192,78766,1,0,0:0:0:0:s_051.ogg
384,192,78766,1,0,0:0:0:0:s_063.ogg
179,192,78933,1,0,0:0:0:0:s_028.ogg
230,192,78933,1,0,0:0:0:0:s_040.ogg
435,192,78933,1,0,0:0:0:0:s_052.ogg
486,192,78933,1,0,0:0:0:0:s_064.ogg
25,192,79100,1,0,0:0:0:0:s_016.ogg
128,192,79100,1,0,0:0:0:0:s_028.ogg
281,192,79100,1,0,0:0:0:0:s_040.ogg
384,192,79100,1,0,0:0:0:0:s_052.ogg
76,192,79266,1,0,0:0:0:0:s_017.ogg
179,192,79266,1,0,0:0:0:0:s_029.ogg
332,192,79266,1,0,0:0:0:0:s_053.ogg
435,192,79266,1,0,0:0:0:0:s_041.ogg
128,192,79433,1,0,0:0:0:0:s_030.ogg
230,192,79433,1,0,0:0:0:0:s_018.ogg
384,192,79433,1,0,0:0:0:0:s_054.ogg
486,192,79433,1,0,0:0:0:0:s_042.ogg
128,192,79600,1,0,0:0:0:0:m_019.ogg
179,192,79600,1,0,0:0:0:0:m_031.ogg
384,192,79600,1,0,0:0:0:0:m_043.ogg
435,192,79600,1,0,0:0:0:0:m_055.ogg
25,192,79766,1,0,0:0:0:0:s_035.ogg
76,192,79766,1,0,0:0:0:0:s_038.ogg
281,192,79766,1,0,0:0:0:0:s_047.ogg
332,192,79766,1,0,0:0:0:0:s_050.ogg
128,192,79933,1,0,0:0:0:0:m_023.ogg
230,192,79933,1,0,0:0:0:0:m_035.ogg
384,192,79933,1,0,0:0:0:0:m_047.ogg
486,192,79933,1,0,0:0:0:0:m_059.ogg
25,192,80100,1,0,0:0:0:0:s_043.ogg
76,192,80100,1,0,0:0:0:0:s_038.ogg
281,192,80100,1,0,0:0:0:0:s_055.ogg
332,192,80100,1,0,0:0:0:0:s_050.ogg
179,192,80266,1,0,0:0:0:0:m_028.ogg
230,192,80266,1,0,0:0:0:0:m_040.ogg
435,192,80266,1,0,0:0:0:0:m_052.ogg
486,192,80266,1,0,0:0:0:0:m_064.ogg
25,192,80433,1,0,0:0:0:0:s_047.ogg
76,192,80433,1,0,0:0:0:0:s_043.ogg
281,192,80433,1,0,0:0:0:0:s_055.ogg
332,192,80433,1,0,0:0:0:0:s_059.ogg
25,192,80600,1,0,0:0:0:0:s_043.ogg
76,192,80600,1,0,0:0:0:0:s_047.ogg
281,192,80600,1,0,0:0:0:0:s_055.ogg
332,192,80600,1,0,0:0:0:0:s_059.ogg
128,192,80766,1,0,0:0:0:0:s_038.ogg
230,192,80766,1,0,0:0:0:0:s_026.ogg
384,192,80766,1,0,0:0:0:0:s_050.ogg
486,192,80766,1,0,0:0:0:0:s_062.ogg
76,192,80933,1,0,0:0:0:0:s_036.ogg
179,192,80933,1,0,0:0:0:0:s_031.ogg
332,192,80933,1,0,0:0:0:0:s_052.ogg
435,192,80933,1,0,0:0:0:0:s_048.ogg
25,192,81100,1,0,0:0:0:0:s_023.ogg
128,192,81100,1,0,0:0:0:0:s_035.ogg
281,192,81100,1,0,0:0:0:0:s_047.ogg
384,192,81100,1,0,0:0:0:0:s_059.ogg
76,192,81266,1,0,0:0:0:0:s_034.ogg
230,192,81266,1,0,0:0:0:0:s_022.ogg
332,192,81266,1,0,0:0:0:0:s_058.ogg
486,192,81266,1,0,0:0:0:0:s_046.ogg
25,192,81433,1,0,0:0:0:0:s_045.ogg
179,192,81454,1,0,0:0:0:0:s_048.ogg
281,192,81475,1,0,0:0:0:0:s_052.ogg
435,192,81495,1,0,0:0:0:0:s_057.ogg
128,192,81600,1,0,0:0:0:0:s_032.ogg
230,192,81600,1,0,0:0:0:0:s_020.ogg
384,192,81600,1,0,0:0:0:0:s_044.ogg
486,192,81600,1,0,0:0:0:0:s_056.ogg
76,192,81766,1,0,0:0:0:0:s_043.ogg
179,192,81787,1,0,0:0:0:0:s_048.ogg
332,192,81808,1,0,0:0:0:0:s_052.ogg
435,192,81829,1,0,0:0:0:0:s_055.ogg
25,192,81933,1,0,0:0:0:0:s_018.ogg
128,192,81933,1,0,0:0:0:0:s_030.ogg
281,192,81933,1,0,0:0:0:0:s_042.ogg
384,192,81933,1,0,0:0:0:0:s_054.ogg
76,192,82100,1,0,0:0:0:0:s_043.ogg
179,192,82120,1,0,0:0:0:0:s_048.ogg
332,192,82141,1,0,0:0:0:0:s_052.ogg
435,192,82162,1,0,0:0:0:0:s_055.ogg
128,192,82266,1,0,0:0:0:0:m_019.ogg
230,192,82266,1,0,0:0:0:0:m_031.ogg
384,192,82266,1,0,0:0:0:0:m_043.ogg
486,192,82266,1,0,0:0:0:0:m_055.ogg
25,192,82433,1,0,0:0:0:0:s_035.ogg
76,192,82433,1,0,0:0:0:0:s_038.ogg
281,192,82433,1,0,0:0:0:0:s_047.ogg
332,192,82433,1,0,0:0:0:0:s_050.ogg
128,192,82600,1,0,0:0:0:0:m_023.ogg
179,192,82600,1,0,0:0:0:0:m_035.ogg
384,192,82600,1,0,0:0:0:0:m_059.ogg
435,192,82600,1,0,0:0:0:0:m_047.ogg
25,192,82766,1,0,0:0:0:0:s_038.ogg
76,192,82766,1,0,0:0:0:0:s_043.ogg
281,192,82766,1,0,0:0:0:0:s_055.ogg
332,192,82766,1,0,0:0:0:0:s_050.ogg
179,192,82933,1,0,0:0:0:0:m_028.ogg
230,192,82933,1,0,0:0:0:0:m_040.ogg
435,192,82933,1,0,0:0:0:0:m_064.ogg
486,192,82933,1,0,0:0:0:0:m_052.ogg
25,192,83100,1,0,0:0:0:0:s_043.ogg
76,192,83100,1,0,0:0:0:0:s_047.ogg
281,192,83100,1,0,0:0:0:0:s_055.ogg
332,192,83100,1,0,0:0:0:0:s_059.ogg
25,192,83266,1,0,0:0:0:0:s_043.ogg
76,192,83266,1,0,0:0:0:0:s_047.ogg
281,192,83266,1,0,0:0:0:0:s_059.ogg
332,192,83266,1,0,0:0:0:0:s_055.ogg
128,192,83433,1,0,0:0:0:0:s_026.ogg
230,192,83433,1,0,0:0:0:0:s_038.ogg
384,192,83433,1,0,0:0:0:0:s_050.ogg
486,192,83433,1,0,0:0:0:0:s_062.ogg
76,192,83600,1,0,0:0:0:0:s_036.ogg
179,192,83600,1,0,0:0:0:0:s_031.ogg
332,192,83600,1,0,0:0:0:0:s_052.ogg
435,192,83600,1,0,0:0:0:0:s_055.ogg
25,192,83766,1,0,0:0:0:0:s_023.ogg
128,192,83766,1,0,0:0:0:0:s_035.ogg
281,192,83766,1,0,0:0:0:0:s_047.ogg
384,192,83766,1,0,0:0:0:0:s_059.ogg
76,192,83933,1,0,0:0:0:0:s_021.ogg
230,192,83933,1,0,0:0:0:0:s_033.ogg
332,192,83933,1,0,0:0:0:0:s_057.ogg
486,192,83933,1,0,0:0:0:0:s_045.ogg
25,192,84100,1,0,0:0:0:0:s_031.ogg
179,192,84100,1,0,0:0:0:0:s_028.ogg
281,192,84100,1,0,0:0:0:0:s_052.ogg
435,192,84100,1,0,0:0:0:0:s_055.ogg
76,192,84266,1,0,0:0:0:0:m_024.ogg
128,192,84266,1,0,0:0:0:0:m_036.ogg
230,192,84266,1,0,0:0:0:0:m_031.ogg
332,192,84266,1,0,0:0:0:0:m_055.ogg
384,192,84266,1,0,0:0:0:0:m_052.ogg
486,192,84266,1,0,0:0:0:0:m_060.ogg
128,192,84600,1,0,0:0:0:0:m_031.ogg
179,192,84600,1,0,0:0:0:0:m_040.ogg
230,192,84600,1,0,0:0:0:0:m_036.ogg
384,192,84600,1,0,0:0:0:0:m_052.ogg
435,192,84600,1,0,0:0:0:0:m_055.ogg
486,192,84600,1,0,0:0:0:0:m_060.ogg
25,192,84933,1,0,0:0:0:0:s_019.ogg
179,192,84933,1,0,0:0:0:0:s_031.ogg
281,192,84933,1,0,0:0:0:0:s_065.ogg
435,192,85016,1,0,0:0:0:0:s_079.ogg
128,192,85100,1,0,0:0:0:0:s_043.ogg
230,192,85100,1,0,0:0:0:0:s_031.ogg
384,192,85100,1,0,0:0:0:0:s_074.ogg
435,192,85183,1,0,0:0:0:0:s_079.ogg
76,192,85266,1,0,0:0:0:0:s_038.ogg
179,192,85266,1,0,0:0:0:0:s_026.ogg
281,192,85266,1,0,0:0:0:0:s_071.ogg
435,192,85350,1,0,0:0:0:0:s_079.ogg
128,192,85433,1,0,0:0:0:0:s_035.ogg
230,192,85433,1,0,0:0:0:0:s_047.ogg
384,192,85433,1,0,0:0:0:0:s_074.ogg
435,192,85516,1,0,0:0:0:0:s_079.ogg
25,192,85600,1,0,0:0:0:0:s_043.ogg
76,192,85600,1,0,0:0:0:0:s_031.ogg
281,192,85600,1,0,0:0:0:0:s_071.ogg
435,192,85683,1,0,0:0:0:0:s_079.ogg
179,192,85766,1,0,0:0:0:0:m_052.ogg
230,192,85766,1,0,0:0:0:0:m_040.ogg
384,192,85766,1,0,0:0:0:0:s_067.ogg
435,192,85850,1,0,0:0:0:0:s_079.ogg
281,192,85933,1,0,0:0:0:0:s_071.ogg
435,192,86016,1,0,0:0:0:0:s_079.ogg
128,192,86100,1,0,0:0:0:0:s_050.ogg
230,192,86100,1,0,0:0:0:0:s_038.ogg
384,192,86100,1,0,0:0:0:0:s_067.ogg
435,192,86183,1,0,0:0:0:0:s_079.ogg
76,192,86266,1,0,0:0:0:0:s_036.ogg
179,192,86266,1,0,0:0:0:0:s_048.ogg
332,192,86266,1,0,0:0:0:0:s_072.ogg
486,192,86350,1,0,0:0:0:0:s_079.ogg
25,192,86433,1,0,0:0:0:0:s_047.ogg
128,192,86433,1,0,0:0:0:0:s_035.ogg
384,192,86433,1,0,0:0:0:0:s_067.ogg
486,192,86516,1,0,0:0:0:0:s_079.ogg
76,192,86600,1,0,0:0:0:0:s_034.ogg
230,192,86600,1,0,0:0:0:0:s_046.ogg
332,192,86600,1,0,0:0:0:0:s_064.ogg
486,192,86683,1,0,0:0:0:0:s_079.ogg
25,192,86766,1,0,0:0:0:0:s_045.ogg
179,192,86766,1,0,0:0:0:0:s_033.ogg
384,192,86766,1,0,0:0:0:0:s_076.ogg
486,192,86850,1,0,0:0:0:0:s_079.ogg
128,192,86933,1,0,0:0:0:0:s_032.ogg
230,192,86933,1,0,0:0:0:0:s_044.ogg
332,192,86933,1,0,0:0:0:0:s_072.ogg
486,192,87016,1,0,0:0:0:0:s_079.ogg
76,192,87100,1,0,0:0:0:0:s_031.ogg
179,192,87100,1,0,0:0:0:0:s_043.ogg
384,192,87100,1,0,0:0:0:0:s_076.ogg
486,192,87183,1,0,0:0:0:0:s_079.ogg
25,192,87266,1,0,0:0:0:0:s_040.ogg
128,192,87266,1,0,0:0:0:0:s_028.ogg
332,192,87266,1,0,0:0:0:0:s_064.ogg
486,192,87350,1,0,0:0:0:0:s_079.ogg
76,192,87433,1,0,0:0:0:0:s_036.ogg
230,192,87433,1,0,0:0:0:0:s_024.ogg
384,192,87433,1,0,0:0:0:0:s_076.ogg
486,192,87516,1,0,0:0:0:0:s_079.ogg
25,192,87600,1,0,0:0:0:0:s_031.ogg
179,192,87600,1,0,0:0:0:0:s_019.ogg
281,192,87600,1,0,0:0:0:0:s_071.ogg
435,192,87683,1,0,0:0:0:0:s_079.ogg
128,192,87766,1,0,0:0:0:0:s_043.ogg
230,192,87766,1,0,0:0:0:0:s_031.ogg
384,192,87766,1,0,0:0:0:0:s_074.ogg
435,192,87850,1,0,0:0:0:0:s_079.ogg
76,192,87933,1,0,0:0:0:0:s_026.ogg
179,192,87933,1,0,0:0:0:0:s_038.ogg
281,192,87933,1,0,0:0:0:0:s_071.ogg
435,192,88016,1,0,0:0:0:0:s_079.ogg
128,192,88100,1,0,0:0:0:0:s_047.ogg
230,192,88100,1,0,0:0:0:0:s_035.ogg
384,192,88100,1,0,0:0:0:0:s_067.ogg
435,192,88183,1,0,0:0:0:0:s_079.ogg
25,192,88266,1,0,0:0:0:0:s_043.ogg
76,192,88266,1,0,0:0:0:0:s_031.ogg
281,192,88266,1,0,0:0:0:0:s_065.ogg
435,192,88350,1,0,0:0:0:0:s_079.ogg
179,192,88433,1,0,0:0:0:0:m_052.ogg
230,192,88433,1,0,0:0:0:0:m_040.ogg
384,192,88433,1,0,0:0:0:0:s_074.ogg
435,192,88516,1,0,0:0:0:0:s_079.ogg
281,192,88600,1,0,0:0:0:0:s_065.ogg
435,192,88683,1,0,0:0:0:0:s_079.ogg
128,192,88766,1,0,0:0:0:0:s_050.ogg
230,192,88766,1,0,0:0:0:0:s_038.ogg
384,192,88766,1,0,0:0:0:0:s_074.ogg
435,192,88850,1,0,0:0:0:0:s_079.ogg
76,192,88933,1,0,0:0:0:0:s_048.ogg
179,192,88933,1,0,0:0:0:0:s_036.ogg
332,192,88933,1,0,0:0:0:0:s_072.ogg
486,192,89016,1,0,0:0:0:0:s_079.ogg
25,192,89100,1,0,0:0:0:0:s_035.ogg
128,192,89100,1,0,0:0:0:0:s_047.ogg
384,192,89100,1,0,0:0:0:0:s_067.ogg
486,192,89183,1,0,0:0:0:0:s_079.ogg
76,192,89266,1,0,0:0:0:0:s_034.ogg
230,192,89266,1,0,0:0:0:0:s_046.ogg
332,192,89266,1,0,0:0:0:0:s_064.ogg
486,192,89350,1,0,0:0:0:0:s_079.ogg
25,192,89433,1,0,0:0:0:0:s_045.ogg
179,192,89433,1,0,0:0:0:0:s_033.ogg
384,192,89433,1,0,0:0:0:0:s_076.ogg
486,192,89516,1,0,0:0:0:0:s_079.ogg
128,192,89600,1,0,0:0:0:0:s_044.ogg
230,192,89600,1,0,0:0:0:0:s_032.ogg
332,192,89600,1,0,0:0:0:0:s_064.ogg
486,192,89683,1,0,0:0:0:0:s_079.ogg
76,192,89766,1,0,0:0:0:0:s_043.ogg
179,192,89766,1,0,0:0:0:0:s_031.ogg
384,192,89766,1,0,0:0:0:0:s_076.ogg
486,192,89850,1,0,0:0:0:0:s_079.ogg
25,192,89933,1,0,0:0:0:0:s_030.ogg
128,192,89933,1,0,0:0:0:0:s_042.ogg
332,192,89933,1,0,0:0:0:0:s_072.ogg
486,192,90016,1,0,0:0:0:0:s_079.ogg
76,192,90100,1,0,0:0:0:0:s_043.ogg
179,192,90100,1,0,0:0:0:0:s_031.ogg
384,192,90100,1,0,0:0:0:0:s_076.ogg
486,192,90183,1,0,0:0:0:0:s_079.ogg
179,192,90266,1,0,0:0:0:0:s_041.ogg
230,192,90266,1,0,0:0:0:0:s_035.ogg
281,192,90266,1,0,0:0:0:0:s_077.ogg
332,192,90308,1,0,0:0:0:0:s_079.ogg
384,192,90350,1,0,0:0:0:0:s_081.ogg
128,192,90433,1,0,0:0:0:0:s_031.ogg
179,192,90600,1,0,0:0:0:0:s_041.ogg
230,192,90600,1,0,0:0:0:0:s_035.ogg
384,192,90600,1,0,0:0:0:0:s_074.ogg
435,192,90641,1,0,0:0:0:0:s_076.ogg
486,192,90683,1,0,0:0:0:0:s_077.ogg
76,192,90766,1,0,0:0:0:0:s_026.ogg
179,192,90933,1,0,0:0:0:0:s_035.ogg
230,192,90933,1,0,0:0:0:0:s_041.ogg
332,192,90933,1,0,0:0:0:0:s_071.ogg
384,192,90975,1,0,0:0:0:0:s_072.ogg
435,192,91016,1,0,0:0:0:0:s_074.ogg
25,192,91100,1,0,0:0:0:0:s_019.ogg
179,192,91266,1,0,0:0:0:0:s_043.ogg
230,192,91266,1,0,0:0:0:0:s_035.ogg
281,192,91266,1,0,0:0:0:0:s_067.ogg
332,192,91308,1,0,0:0:0:0:s_069.ogg
384,192,91350,1,0,0:0:0:0:s_071.ogg
76,192,91433,1,0,0:0:0:0:s_026.ogg
179,192,91600,1,0,0:0:0:0:s_043.ogg
230,192,91600,1,0,0:0:0:0:s_036.ogg
486,192,91600,1,0,0:0:0:0:s_048.ogg
281,192,91641,1,0,0:0:0:0:s_050.ogg
332,192,91690,1,0,0:0:0:0:s_052.ogg
384,192,91738,1,0,0:0:0:0:s_053.ogg
128,192,91766,1,0,0:0:0:0:s_031.ogg
435,192,91787,1,0,0:0:0:0:s_055.ogg
486,192,91836,1,0,0:0:0:0:s_057.ogg
281,192,91884,1,0,0:0:0:0:s_059.ogg
179,192,91933,1,0,0:0:0:0:s_040.ogg
230,192,91933,1,0,0:0:0:0:s_043.ogg
332,192,91933,1,0,0:0:0:0:s_060.ogg
384,192,91975,1,0,0:0:0:0:s_062.ogg
435,192,92023,1,0,0:0:0:0:s_064.ogg
486,192,92072,1,0,0:0:0:0:s_065.ogg
76,192,92100,1,0,0:0:0:0:s_028.ogg
281,192,92120,1,0,0:0:0:0:s_067.ogg
332,192,92169,1,0,0:0:0:0:s_069.ogg
384,192,92218,1,0,0:0:0:0:s_071.ogg
179,192,92266,1,0,0:0:0:0:s_040.ogg
230,192,92266,1,0,0:0:0:0:s_036.ogg
435,192,92266,1,0,0:0:0:0:s_072.ogg
486,192,92308,1,0,0:0:0:0:s_074.ogg
281,192,92356,1,0,0:0:0:0:s_076.ogg
332,192,92405,1,0,0:0:0:0:s_077.ogg
25,192,92433,1,0,0:0:0:0:s_019.ogg
384,192,92454,1,0,0:0:0:0:s_079.ogg
435,192,92502,1,0,0:0:0:0:s_081.ogg
486,192,92551,1,0,0:0:0:0:s_083.ogg
179,192,92600,1,0,0:0:0:0:s_043.ogg
230,192,92600,1,0,0:0:0:0:s_040.ogg
281,192,92600,1,0,0:0:0:0:s_084.ogg
76,192,92766,1,0,0:0:0:0:s_028.ogg
435,192,92766,1,0,0:0:0:0:s_072.ogg
179,192,92933,1,0,0:0:0:0:s_041.ogg
230,192,92933,1,0,0:0:0:0:s_035.ogg
281,192,92933,1,0,0:0:0:0:s_069.ogg
332,192,92975,1,0,0:0:0:0:s_079.ogg
384,192,93016,1,0,0:0:0:0:s_081.ogg
128,192,93100,1,0,0:0:0:0:s_031.ogg
179,192,93266,1,0,0:0:0:0:s_041.ogg
230,192,93266,1,0,0:0:0:0:s_035.ogg
384,192,93266,1,0,0:0:0:0:s_074.ogg
435,192,93308,1,0,0:0:0:0:s_076.ogg
486,192,93350,1,0,0:0:0:0:s_077.ogg
76,192,93433,1,0,0:0:0:0:s_026.ogg
179,192,93600,1,0,0:0:0:0:s_041.ogg
230,192,93600,1,0,0:0:0:0:s_035.ogg
332,192,93600,1,0,0:0:0:0:s_062.ogg
384,192,93641,1,0,0:0:0:0:s_072.ogg
435,192,93683,1,0,0:0:0:0:s_074.ogg
25,192,93766,1,0,0:0:0:0:s_019.ogg
179,192,93933,1,0,0:0:0:0:s_035.ogg
230,192,93933,1,0,0:0:0:0:s_043.ogg
281,192,93933,1,0,0:0:0:0:s_059.ogg
332,192,93975,1,0,0:0:0:0:s_069.ogg
384,192,94016,1,0,0:0:0:0:s_071.ogg
76,192,94100,1,0,0:0:0:0:s_026.ogg
179,192,94266,1,0,0:0:0:0:s_043.ogg
230,192,94266,1,0,0:0:0:0:s_040.ogg
486,192,94266,1,0,0:0:0:0:s_048.ogg
281,192,94308,1,0,0:0:0:0:s_050.ogg
332,192,94356,1,0,0:0:0:0:s_052.ogg
384,192,94405,1,0,0:0:0:0:s_053.ogg
128,192,94433,1,0,0:0:0:0:s_031.ogg
435,192,94454,1,0,0:0:0:0:s_055.ogg
486,192,94502,1,0,0:0:0:0:s_057.ogg
281,192,94551,1,0,0:0:0:0:s_059.ogg
179,192,94600,1,0,0:0:0:0:s_040.ogg
230,192,94600,1,0,0:0:0:0:s_036.ogg
332,192,94600,1,0,0:0:0:0:s_060.ogg
384,192,94641,1,0,0:0:0:0:s_062.ogg
435,192,94690,1,0,0:0:0:0:s_064.ogg
486,192,94738,1,0,0:0:0:0:s_065.ogg
76,192,94766,1,0,0:0:0:0:s_028.ogg
281,192,94787,1,0,0:0:0:0:s_067.ogg
332,192,94836,1,0,0:0:0:0:s_069.ogg
384,192,94884,1,0,0:0:0:0:s_071.ogg
179,192,94933,1,0,0:0:0:0:s_036.ogg
230,192,94933,1,0,0:0:0:0:s_040.ogg
435,192,94933,1,0,0:0:0:0:s_072.ogg
486,192,94975,1,0,0:0:0:0:s_074.ogg
281,192,95023,1,0,0:0:0:0:s_076.ogg
332,192,95072,1,0,0:0:0:0:s_077.ogg
25,192,95100,1,0,0:0:0:0:s_019.ogg
384,192,95120,1,0,0:0:0:0:s_079.ogg
435,192,95169,1,0,0:0:0:0:s_081.ogg
486,192,95218,1,0,0:0:0:0:s_083.ogg
179,192,95266,1,0,0:0:0:0:s_040.ogg
230,192,95266,1,0,0:0:0:0:s_036.ogg
281,192,95266,1,0,0:0:0:0:s_084.ogg
76,192,95433,1,0,0:0:0:0:s_028.ogg
179,192,95600,1,0,0:0:0:0:s_040.ogg
230,192,95600,1,0,0:0:0:0:s_035.ogg
384,192,95600,1,0,0:0:0:0:s_074.ogg
435,192,95641,1,0,0:0:0:0:s_076.ogg
486,192,95683,1,0,0:0:0:0:s_078.ogg
128,192,95766,1,0,0:0:0:0:s_028.ogg
179,192,95933,1,0,0:0:0:0:s_035.ogg
230,192,95933,1,0,0:0:0:0:s_044.ogg
332,192,95933,1,0,0:0:0:0:s_071.ogg
384,192,95975,1,0,0:0:0:0:s_073.ogg
435,192,96016,1,0,0:0:0:0:s_074.ogg
76,192,96100,1,0,0:0:0:0:s_023.ogg
179,192,96266,1,0,0:0:0:0:s_035.ogg
230,192,96266,1,0,0:0:0:0:s_044.ogg
332,192,96266,1,0,0:0:0:0:s_068.ogg
384,192,96308,1,0,0:0:0:0:s_069.ogg
435,192,96350,1,0,0:0:0:0:s_071.ogg
25,192,96433,1,0,0:0:0:0:s_016.ogg
179,192,96600,1,0,0:0:0:0:s_035.ogg
230,192,96600,1,0,0:0:0:0:s_040.ogg
281,192,96600,1,0,0:0:0:0:s_064.ogg
332,192,96641,1,0,0:0:0:0:s_066.ogg
384,192,96683,1,0,0:0:0:0:s_068.ogg
128,192,96766,1,0,0:0:0:0:s_028.ogg
179,192,96933,1,0,0:0:0:0:s_040.ogg
230,192,96933,1,0,0:0:0:0:s_037.ogg
486,192,96933,1,0,0:0:0:0:s_045.ogg
281,192,96975,1,0,0:0:0:0:s_047.ogg
332,192,97023,1,0,0:0:0:0:s_049.ogg
384,192,97072,1,0,0:0:0:0:s_050.ogg
128,192,97100,1,0,0:0:0:0:s_028.ogg
435,192,97120,1,0,0:0:0:0:s_052.ogg
486,192,97169,1,0,0:0:0:0:s_054.ogg
281,192,97218,1,0,0:0:0:0:s_056.ogg
179,192,97266,1,0,0:0:0:0:s_040.ogg
230,192,97266,1,0,0:0:0:0:s_037.ogg
332,192,97266,1,0,0:0:0:0:s_057.ogg
384,192,97308,1,0,0:0:0:0:s_059.ogg
435,192,97356,1,0,0:0:0:0:s_061.ogg
486,192,97405,1,0,0:0:0:0:s_062.ogg
76,192,97433,1,0,0:0:0:0:s_025.ogg
281,192,97454,1,0,0:0:0:0:s_064.ogg
332,192,97502,1,0,0:0:0:0:s_066.ogg
384,192,97551,1,0,0:0:0:0:s_068.ogg
179,192,97600,1,0,0:0:0:0:s_040.ogg
230,192,97600,1,0,0:0:0:0:s_037.ogg
435,192,97600,1,0,0:0:0:0:s_069.ogg
486,192,97641,1,0,0:0:0:0:s_071.ogg
281,192,97690,1,0,0:0:0:0:s_073.ogg
332,192,97738,1,0,0:0:0:0:s_074.ogg
25,192,97766,1,0,0:0:0:0:s_016.ogg
384,192,97787,1,0,0:0:0:0:s_076.ogg
435,192,97836,1,0,0:0:0:0:s_078.ogg
486,192,97884,1,0,0:0:0:0:s_080.ogg
179,192,97933,1,0,0:0:0:0:s_037.ogg
230,192,97933,1,0,0:0:0:0:s_040.ogg
281,192,97933,1,0,0:0:0:0:s_081.ogg
128,192,98100,1,0,0:0:0:0:s_028.ogg
332,192,98100,1,0,0:0:0:0:s_073.ogg
179,192,98266,1,0,0:0:0:0:s_044.ogg
230,192,98266,1,0,0:0:0:0:s_040.ogg
384,192,98266,1,0,0:0:0:0:s_074.ogg
435,192,98308,1,0,0:0:0:0:s_076.ogg
486,192,98350,1,0,0:0:0:0:s_078.ogg
128,192,98433,1,0,0:0:0:0:s_028.ogg
179,192,98600,1,0,0:0:0:0:s_040.ogg
230,192,98600,1,0,0:0:0:0:s_044.ogg
332,192,98600,1,0,0:0:0:0:s_062.ogg
384,192,98641,1,0,0:0:0:0:s_073.ogg
435,192,98683,1,0,0:0:0:0:s_074.ogg
76,192,98766,1,0,0:0:0:0:s_023.ogg
179,192,98933,1,0,0:0:0:0:s_040.ogg
230,192,98933,1,0,0:0:0:0:s_044.ogg
281,192,98933,1,0,0:0:0:0:s_068.ogg
332,192,98975,1,0,0:0:0:0:s_069.ogg
384,192,99016,1,0,0:0:0:0:s_071.ogg
25,192,99100,1,0,0:0:0:0:s_016.ogg
179,192,99266,1,0,0:0:0:0:s_040.ogg
230,192,99266,1,0,0:0:0:0:s_044.ogg
281,192,99266,1,0,0:0:0:0:s_056.ogg
332,192,99308,1,0,0:0:0:0:s_066.ogg
384,192,99350,1,0,0:0:0:0:s_068.ogg
128,192,99433,1,0,0:0:0:0:s_028.ogg
179,192,99600,1,0,0:0:0:0:s_037.ogg
230,192,99600,1,0,0:0:0:0:s_040.ogg
486,192,99600,1,0,0:0:0:0:s_045.ogg
281,192,99641,1,0,0:0:0:0:s_047.ogg
332,192,99690,1,0,0:0:0:0:s_049.ogg
384,192,99738,1,0,0:0:0:0:s_050.ogg
128,192,99766,1,0,0:0:0:0:s_028.ogg
435,192,99787,1,0,0:0:0:0:s_052.ogg
486,192,99836,1,0,0:0:0:0:s_054.ogg
281,192,99884,1,0,0:0:0:0:s_056.ogg
179,192,99933,1,0,0:0:0:0:s_040.ogg
230,192,99933,1,0,0:0:0:0:s_037.ogg
332,192,99933,1,0,0:0:0:0:s_057.ogg
384,192,99975,1,0,0:0:0:0:s_059.ogg
435,192,100023,1,0,0:0:0:0:s_061.ogg
486,192,100072,1,0,0:0:0:0:s_062.ogg
76,192,100100,1,0,0:0:0:0:s_025.ogg
281,192,100120,1,0,0:0:0:0:s_064.ogg
332,192,100169,1,0,0:0:0:0:s_066.ogg
384,192,100218,1,0,0:0:0:0:s_068.ogg
179,192,100266,1,0,0:0:0:0:s_040.ogg
230,192,100266,1,0,0:0:0:0:s_037.ogg
435,192,100266,1,0,0:0:0:0:s_069.ogg
486,192,100329,1,0,0:0:0:0:s_071.ogg
281,192,100398,1,0,0:0:0:0:s_073.ogg
25,192,100433,1,0,0:0:0:0:s_016.ogg
332,192,100461,1,0,0:0:0:0:s_074.ogg
384,192,100530,1,0,0:0:0:0:s_076.ogg
179,192,100600,1,0,0:0:0:0:s_040.ogg
230,192,100600,1,0,0:0:0:0:s_045.ogg
435,192,100600,1,0,0:0:0:0:s_078.ogg
384,192,100662,1,0,0:0:0:0:s_076.ogg
332,192,100731,1,0,0:0:0:0:s_075.ogg
128,192,100766,1,0,0:0:0:0:s_028.ogg
384,192,100794,1,0,0:0:0:0:s_076.ogg
435,192,100863,1,0,0:0:0:0:s_078.ogg
25,192,100933,1,0,0:0:0:0:s_035.ogg
486,192,100933,1,0,0:0:0:0:s_080.ogg
332,192,101016,1,0,0:0:0:0:s_076.ogg
128,192,101100,1,0,0:0:0:0:s_040.ogg
179,192,101100,1,0,0:0:0:0:s_044.ogg
435,192,101100,1,0,0:0:0:0:s_076.ogg
332,192,101183,1,0,0:0:0:0:s_076.ogg
25,192,101266,1,0,0:0:0:0:s_028.ogg
281,192,101266,1,0,0:0:0:0:s_068.ogg
332,192,101350,1,0,0:0:0:0:s_076.ogg
128,192,101433,1,0,0:0:0:0:s_040.ogg
179,192,101433,1,0,0:0:0:0:s_044.ogg
435,192,101433,1,0,0:0:0:0:s_076.ogg
332,192,101516,1,0,0:0:0:0:s_076.ogg
25,192,101600,1,0,0:0:0:0:s_051.ogg
76,192,101600,1,0,0:0:0:0:s_047.ogg
486,192,101600,1,0,0:0:0:0:s_080.ogg
332,192,101683,1,0,0:0:0:0:s_076.ogg
179,192,101766,1,0,0:0:0:0:s_044.ogg
230,192,101766,1,0,0:0:0:0:s_052.ogg
435,192,101766,1,0,0:0:0:0:s_076.ogg
332,192,101850,1,0,0:0:0:0:s_076.ogg
76,192,101933,1,0,0:0:0:0:m_047.ogg
128,192,101933,1,0,0:0:0:0:m_050.ogg
281,192,101933,1,0,0:0:0:0:s_068.ogg
332,192,102016,1,0,0:0:0:0:s_076.ogg
435,192,102100,1,0,0:0:0:0:s_076.ogg
230,192,102183,1,0,0:0:0:0:s_044.ogg
332,192,102183,1,0,0:0:0:0:s_076.ogg
25,192,102266,1,0,0:0:0:0:s_033.ogg
384,192,102266,1,0,0:0:0:0:s_081.ogg
332,192,102350,1,0,0:0:0:0:s_076.ogg
128,192,102433,1,0,0:0:0:0:s_049.ogg
179,192,102433,1,0,0:0:0:0:s_045.ogg
435,192,102433,1,0,0:0:0:0:s_076.ogg
332,192,102516,1,0,0:0:0:0:s_076.ogg
25,192,102600,1,0,0:0:0:0:s_028.ogg
281,192,102600,1,0,0:0:0:0:s_069.ogg
332,192,102683,1,0,0:0:0:0:s_076.ogg
128,192,102766,1,0,0:0:0:0:s_040.ogg
179,192,102766,1,0,0:0:0:0:s_045.ogg
435,192,102766,1,0,0:0:0:0:s_076.ogg
332,192,102850,1,0,0:0:0:0:s_076.ogg
25,192,102933,1,0,0:0:0:0:s_051.ogg
76,192,102933,1,0,0:0:0:0:s_048.ogg
384,192,102933,1,0,0:0:0:0:s_081.ogg
332,192,103016,1,0,0:0:0:0:s_076.ogg
179,192,103100,1,0,0:0:0:0:s_052.ogg
230,192,103100,1,0,0:0:0:0:s_049.ogg
435,192,103100,1,0,0:0:0:0:s_076.ogg
332,192,103183,1,0,0:0:0:0:s_076.ogg
76,192,103266,1,0,0:0:0:0:m_049.ogg
128,192,103266,1,0,0:0:0:0:m_045.ogg
281,192,103266,1,0,0:0:0:0:s_069.ogg
332,192,103350,1,0,0:0:0:0:s_076.ogg
435,192,103433,1,0,0:0:0:0:s_076.ogg
230,192,103516,1,0,0:0:0:0:s_052.ogg
332,192,103516,1,0,0:0:0:0:s_076.ogg
25,192,103600,1,0,0:0:0:0:s_035.ogg
486,192,103600,1,0,0:0:0:0:s_080.ogg
332,192,103683,1,0,0:0:0:0:s_076.ogg
128,192,103766,1,0,0:0:0:0:s_044.ogg
179,192,103766,1,0,0:0:0:0:s_047.ogg
435,192,103766,1,0,0:0:0:0:s_076.ogg
332,192,103850,1,0,0:0:0:0:s_076.ogg
25,192,103933,1,0,0:0:0:0:s_028.ogg
281,192,103933,1,0,0:0:0:0:s_068.ogg
332,192,104016,1,0,0:0:0:0:s_076.ogg
128,192,104100,1,0,0:0:0:0:s_047.ogg
179,192,104100,1,0,0:0:0:0:s_044.ogg
435,192,104100,1,0,0:0:0:0:s_076.ogg
332,192,104183,1,0,0:0:0:0:s_076.ogg
25,192,104266,1,0,0:0:0:0:s_047.ogg
76,192,104266,1,0,0:0:0:0:s_051.ogg
486,192,104266,1,0,0:0:0:0:s_080.ogg
332,192,104350,1,0,0:0:0:0:s_076.ogg
179,192,104433,1,0,0:0:0:0:s_044.ogg
230,192,104433,1,0,0:0:0:0:s_052.ogg
435,192,104433,1,0,0:0:0:0:s_076.ogg
332,192,104516,1,0,0:0:0:0:s_076.ogg
76,192,104600,1,0,0:0:0:0:m_047.ogg
128,192,104600,1,0,0:0:0:0:m_050.ogg
281,192,104600,1,0,0:0:0:0:s_068.ogg
332,192,104683,1,0,0:0:0:0:s_076.ogg
435,192,104766,1,0,0:0:0:0:s_076.ogg
230,192,104850,1,0,0:0:0:0:s_044.ogg
332,192,104850,1,0,0:0:0:0:s_076.ogg
25,192,104933,1,0,0:0:0:0:s_033.ogg
384,192,104933,1,0,0:0:0:0:s_081.ogg
332,192,105016,1,0,0:0:0:0:s_076.ogg
128,192,105100,1,0,0:0:0:0:s_049.ogg
179,192,105100,1,0,0:0:0:0:s_045.ogg
435,192,105100,1,0,0:0:0:0:s_076.ogg
332,192,105183,1,0,0:0:0:0:s_076.ogg
25,192,105266,1,0,0:0:0:0:s_028.ogg
281,192,105266,1,0,0:0:0:0:s_069.ogg
332,192,105350,1,0,0:0:0:0:s_076.ogg
128,192,105433,1,0,0:0:0:0:s_049.ogg
179,192,105433,1,0,0:0:0:0:s_045.ogg
435,192,105433,1,0,0:0:0:0:s_076.ogg
332,192,105516,1,0,0:0:0:0:s_076.ogg
25,192,105600,1,0,0:0:0:0:s_051.ogg
76,192,105600,1,0,0:0:0:0:s_048.ogg
384,192,105600,1,0,0:0:0:0:s_081.ogg
332,192,105683,1,0,0:0:0:0:s_076.ogg
179,192,105766,1,0,0:0:0:0:s_052.ogg
230,192,105766,1,0,0:0:0:0:s_049.ogg
435,192,105766,1,0,0:0:0:0:s_076.ogg
332,192,105850,1,0,0:0:0:0:s_076.ogg
76,192,105933,1,0,0:0:0:0:m_049.ogg
128,192,105933,1,0,0:0:0:0:m_045.ogg
281,192,105933,1,0,0:0:0:0:s_069.ogg
332,192,106016,1,0,0:0:0:0:s_076.ogg
435,192,106100,1,0,0:0:0:0:s_076.ogg
230,192,106183,1,0,0:0:0:0:s_052.ogg
332,192,106183,1,0,0:0:0:0:s_076.ogg
25,192,106266,1,0,0:0:0:0:s_035.ogg
486,192,106266,1,0,0:0:0:0:s_080.ogg
332,192,106350,1,0,0:0:0:0:s_076.ogg
128,192,106433,1,0,0:0:0:0:s_044.ogg
179,192,106433,1,0,0:0:0:0:s_050.ogg
435,192,106433,1,0,0:0:0:0:s_076.ogg
332,192,106516,1,0,0:0:0:0:s_076.ogg
25,192,106600,1,0,0:0:0:0:s_028.ogg
281,192,106600,1,0,0:0:0:0:s_068.ogg
332,192,106683,1,0,0:0:0:0:s_076.ogg
128,192,106766,1,0,0:0:0:0:s_044.ogg
179,192,106766,1,0,0:0:0:0:s_050.ogg
435,192,106766,1,0,0:0:0:0:s_076.ogg
332,192,106850,1,0,0:0:0:0:s_076.ogg
25,192,106933,1,0,0:0:0:0:s_047.ogg
76,192,106933,1,0,0:0:0:0:s_051.ogg
486,192,106933,1,0,0:0:0:0:s_080.ogg
332,192,107016,1,0,0:0:0:0:s_076.ogg
179,192,107100,1,0,0:0:0:0:s_044.ogg
230,192,107100,1,0,0:0:0:0:s_052.ogg
435,192,107100,1,0,0:0:0:0:s_076.ogg
332,192,107183,1,0,0:0:0:0:s_076.ogg
76,192,107266,1,0,0:0:0:0:m_050.ogg
128,192,107266,1,0,0:0:0:0:m_047.ogg
281,192,107266,1,0,0:0:0:0:s_068.ogg
332,192,107350,1,0,0:0:0:0:s_076.ogg
435,192,107433,1,0,0:0:0:0:s_076.ogg
230,192,107516,1,0,0:0:0:0:s_052.ogg
332,192,107516,1,0,0:0:0:0:s_076.ogg
76,192,107600,1,0,0:0:0:0:s_059.ogg
128,192,107600,1,0,0:0:0:0:s_063.ogg
486,192,107600,1,0,0:0:0:0:s_080.ogg
332,192,107683,1,0,0:0:0:0:s_076.ogg
179,192,107766,1,0,0:0:0:0:s_056.ogg
230,192,107766,1,0,0:0:0:0:s_064.ogg
435,192,107766,1,0,0:0:0:0:s_076.ogg
332,192,107850,1,0,0:0:0:0:s_076.ogg
25,192,107933,1,0,0:0:0:0:m_062.ogg
76,192,107933,1,0,0:0:0:0:m_059.ogg
281,192,107933,1,0,0:0:0:0:s_068.ogg
332,192,108016,1,0,0:0:0:0:s_076.ogg
435,192,108100,1,0,0:0:0:0:s_076.ogg
230,192,108183,1,0,0:0:0:0:s_064.ogg
332,192,108183,1,0,0:0:0:0:s_076.ogg
25,192,108266,1,0,0:0:0:0:s_063.ogg
128,192,108266,1,0,0:0:0:0:s_059.ogg
486,192,108266,1,0,0:0:0:0:s_080.ogg
332,192,108350,1,0,0:0:0:0:s_076.ogg
76,192,108433,1,0,0:0:0:0:s_064.ogg
179,192,108433,1,0,0:0:0:0:s_056.ogg
435,192,108433,1,0,0:0:0:0:s_076.ogg
332,192,108516,1,0,0:0:0:0:s_076.ogg
128,192,108600,1,0,0:0:0:0:m_066.ogg
230,192,108600,1,0,0:0:0:0:m_062.ogg
281,192,108600,1,0,0:0:0:0:s_068.ogg
332,192,108683,1,0,0:0:0:0:s_076.ogg
435,192,108766,1,0,0:0:0:0:s_076.ogg
25,192,108850,1,0,0:0:0:0:s_059.ogg
76,192,108850,1,0,0:0:0:0:s_064.ogg
332,192,108850,1,0,0:0:0:0:s_076.ogg
486,192,108933,1,0,0:0:0:0:s_080.ogg
332,192,109016,1,0,0:0:0:0:s_076.ogg
435,192,109100,1,0,0:0:0:0:s_076.ogg
332,192,109183,1,0,0:0:0:0:s_076.ogg
281,192,109266,1,0,0:0:0:0:s_068.ogg
332,192,109350,1,0,0:0:0:0:s_076.ogg
435,192,109433,1,0,0:0:0:0:s_076.ogg
332,192,109516,1,0,0:0:0:0:s_076.ogg
486,192,109600,1,0,0:0:0:0:s_080.ogg
332,192,109683,1,0,0:0:0:0:s_076.ogg
435,192,109766,1,0,0:0:0:0:s_076.ogg
332,192,109850,1,0,0:0:0:0:s_076.ogg
281,192,109933,1,0,0:0:0:0:s_068.ogg
332,192,110016,1,0,0:0:0:0:s_076.ogg
435,192,110100,1,0,0:0:0:0:s_076.ogg
332,192,110183,1,0,0:0:0:0:s_076.ogg
486,192,110266,1,0,0:0:0:0:s_080.ogg
332,192,110350,1,0,0:0:0:0:s_076.ogg
435,192,110433,1,0,0:0:0:0:s_076.ogg
332,192,110516,1,0,0:0:0:0:s_076.ogg
281,192,110600,1,0,0:0:0:0:s_068.ogg
332,192,110683,1,0,0:0:0:0:s_076.ogg
435,192,110766,1,0,0:0:0:0:s_076.ogg
332,192,110850,1,0,0:0:0:0:s_076.ogg
486,192,110933,1,0,0:0:0:0:s_080.ogg
332,192,111016,1,0,0:0:0:0:s_076.ogg
435,192,111100,1,0,0:0:0:0:s_076.ogg
332,192,111183,1,0,0:0:0:0:s_076.ogg
281,192,111266,1,0,0:0:0:0:s_068.ogg
332,192,111350,1,0,0:0:0:0:s_076.ogg
435,192,111433,1,0,0:0:0:0:s_076.ogg
332,192,111516,1,0,0:0:0:0:s_076.ogg
76,192,111600,1,0,0:0:0:0:s_033.ogg
384,192,111600,1,0,0:0:0:0:s_081.ogg
179,192,111800,1,0,0:0:0:0:s_045.ogg
230,192,111800,1,0,0:0:0:0:s_049.ogg
25,192,112000,1,0,0:0:0:0:s_028.ogg
435,192,112000,1,0,0:0:0:0:m_057.ogg
179,192,112200,1,0,0:0:0:0:s_045.ogg
230,192,112200,1,0,0:0:0:0:s_049.ogg
76,192,112400,1,0,0:0:0:0:s_033.ogg
486,192,112400,128,0,113100:0:0:0:0:m_060.ogg
128,192,112600,1,0,0:0:0:0:s_040.ogg
179,192,112600,1,0,0:0:0:0:s_045.ogg
25,192,112800,1,0,0:0:0:0:s_028.ogg
128,192,113000,1,0,0:0:0:0:s_048.ogg
179,192,113000,1,0,0:0:0:0:s_045.ogg
76,192,113200,1,0,0:0:0:0:s_035.ogg
281,192,113200,1,0,0:0:0:0:s_059.ogg
179,192,113400,1,0,0:0:0:0:s_044.ogg
230,192,113400,1,0,0:0:0:0:s_040.ogg
332,192,113500,1,0,0:0:0:0:s_060.ogg
25,192,113600,1,0,0:0:0:0:s_028.ogg
384,192,113600,1,0,0:0:0:0:s_062.ogg
179,192,113800,1,0,0:0:0:0:s_050.ogg
230,192,113800,1,0,0:0:0:0:s_040.ogg
486,192,113900,1,0,0:0:0:0:s_065.ogg
76,192,114000,1,0,0:0:0:0:s_035.ogg
435,192,114000,1,0,0:0:0:0:s_064.ogg
179,192,114200,1,0,0:0:0:0:s_040.ogg
230,192,114200,1,0,0:0:0:0:s_044.ogg
332,192,114300,1,0,0:0:0:0:s_052.ogg
25,192,114400,1,0,0:0:0:0:s_028.ogg
384,192,114400,1,0,0:0:0:0:s_054.ogg
179,192,114600,1,0,0:0:0:0:s_050.ogg
230,192,114600,1,0,0:0:0:0:s_040.ogg
281,192,114700,1,0,0:0:0:0:s_056.ogg
76,192,114800,1,0,0:0:0:0:s_033.ogg
384,192,114800,1,0,0:0:0:0:s_057.ogg
486,192,114850,1,0,0:0:0:0:s_059.ogg
384,192,114900,1,0,0:0:0:0:s_057.ogg
128,192,115000,1,0,0:0:0:0:s_049.ogg
230,192,115000,1,0,0:0:0:0:s_040.ogg
332,192,115100,1,0,0:0:0:0:s_056.ogg
25,192,115200,1,0,0:0:0:0:s_028.ogg
384,192,115200,1,0,0:0:0:0:s_057.ogg
128,192,115400,1,0,0:0:0:0:s_049.ogg
230,192,115400,1,0,0:0:0:0:s_040.ogg
435,192,115500,1,0,0:0:0:0:s_059.ogg
25,192,115600,1,0,0:0:0:0:s_028.ogg
486,192,115600,128,0,116300:0:0:0:0:m_060.ogg
128,192,115800,1,0,0:0:0:0:s_048.ogg
179,192,115800,1,0,0:0:0:0:s_045.ogg
25,192,116000,1,0,0:0:0:0:s_028.ogg
128,192,116200,1,0,0:0:0:0:s_045.ogg
179,192,116200,1,0,0:0:0:0:s_040.ogg
76,192,116400,1,0,0:0:0:0:s_035.ogg
281,192,116400,1,0,0:0:0:0:s_059.ogg
179,192,116600,1,0,0:0:0:0:s_044.ogg
230,192,116600,1,0,0:0:0:0:s_040.ogg
332,192,116700,1,0,0:0:0:0:s_060.ogg
25,192,116800,1,0,0:0:0:0:s_028.ogg
384,192,116800,1,0,0:0:0:0:s_062.ogg
179,192,117000,1,0,0:0:0:0:s_050.ogg
230,192,117000,1,0,0:0:0:0:s_040.ogg
486,192,117100,1,0,0:0:0:0:s_065.ogg
76,192,117200,1,0,0:0:0:0:s_035.ogg
435,192,117200,1,0,0:0:0:0:s_064.ogg
179,192,117400,1,0,0:0:0:0:s_040.ogg
230,192,117400,1,0,0:0:0:0:s_044.ogg
332,192,117500,1,0,0:0:0:0:s_052.ogg
25,192,117600,1,0,0:0:0:0:s_028.ogg
384,192,117600,1,0,0:0:0:0:s_054.ogg
179,192,117800,1,0,0:0:0:0:s_044.ogg
230,192,117800,1,0,0:0:0:0:s_040.ogg
281,192,117900,1,0,0:0:0:0:s_056.ogg
76,192,118000,1,0,0:0:0:0:s_033.ogg
384,192,118000,1,0,0:0:0:0:s_057.ogg
486,192,118050,1,0,0:0:0:0:s_059.ogg
384,192,118100,1,0,0:0:0:0:s_057.ogg
128,192,118200,1,0,0:0:0:0:s_049.ogg
230,192,118200,1,0,0:0:0:0:s_040.ogg
281,192,118300,1,0,0:0:0:0:s_056.ogg
25,192,118400,1,0,0:0:0:0:s_028.ogg
332,192,118400,1,0,0:0:0:0:s_057.ogg
128,192,118600,1,0,0:0:0:0:s_040.ogg
230,192,118600,1,0,0:0:0:0:s_049.ogg
384,192,118700,1,0,0:0:0:0:s_059.ogg
25,192,118800,1,0,0:0:0:0:s_028.ogg
332,192,118800,1,0,0:0:0:0:s_057.ogg
384,192,118850,1,0,0:0:0:0:s_059.ogg
435,192,118900,1,0,0:0:0:0:s_060.ogg
128,192,119000,1,0,0:0:0:0:s_045.ogg
179,192,119000,1,0,0:0:0:0:s_048.ogg
25,192,119200,1,0,0:0:0:0:s_028.ogg
435,192,119200,1,0,0:0:0:0:m_060.ogg
128,192,119400,1,0,0:0:0:0:s_045.ogg
179,192,119400,1,0,0:0:0:0:s_048.ogg
76,192,119600,1,0,0:0:0:0:s_035.ogg
281,192,119600,1,0,0:0:0:0:s_059.ogg
179,192,119800,1,0,0:0:0:0:s_040.ogg
230,192,119800,1,0,0:0:0:0:s_044.ogg
332,192,119900,1,0,0:0:0:0:s_060.ogg
25,192,120000,1,0,0:0:0:0:s_028.ogg
384,192,120000,1,0,0:0:0:0:s_062.ogg
179,192,120200,1,0,0:0:0:0:s_050.ogg
230,192,120200,1,0,0:0:0:0:s_044.ogg
486,192,120300,1,0,0:0:0:0:s_065.ogg
435,192,120400,1,0,0:0:0:0:s_064.ogg
25,192,121200,1,0,0:0:0:0:s_016.ogg
281,192,121283,1,0,0:0:0:0:s_040.ogg
384,192,121283,1,0,0:0:0:0:s_028.ogg
76,192,121366,1,0,0:0:0:0:s_018.ogg
332,192,121450,1,0,0:0:0:0:s_042.ogg
435,192,121450,1,0,0:0:0:0:s_030.ogg
128,192,121533,1,0,0:0:0:0:s_020.ogg
384,192,121616,1,0,0:0:0:0:s_044.ogg
486,192,121616,1,0,0:0:0:0:s_032.ogg
179,192,121700,1,0,0:0:0:0:s_021.ogg
281,192,121783,1,0,0:0:0:0:s_033.ogg
435,192,121783,1,0,0:0:0:0:s_045.ogg
230,192,121866,1,0,0:0:0:0:s_028.ogg
332,192,121950,1,0,0:0:0:0:s_035.ogg
486,192,121950,1,0,0:0:0:0:s_047.ogg
179,192,122033,1,0,0:0:0:0:s_022.ogg
281,192,122116,1,0,0:0:0:0:s_034.ogg
435,192,122116,1,0,0:0:0:0:s_046.ogg
230,192,122200,1,0,0:0:0:0:s_023.ogg
332,192,122283,1,0,0:0:0:0:s_047.ogg
486,192,122283,1,0,0:0:0:0:s_035.ogg
128,192,122366,1,0,0:0:0:0:s_020.ogg
281,192,122450,1,0,0:0:0:0:s_032.ogg
435,192,122450,1,0,0:0:0:0:s_044.ogg
25,192,122533,1,0,0:0:0:0:s_021.ogg
332,192,122616,1,0,0:0:0:0:s_045.ogg
486,192,122616,1,0,0:0:0:0:s_033.ogg
76,192,122700,1,0,0:0:0:0:s_023.ogg
281,192,122783,1,0,0:0:0:0:s_035.ogg
384,192,122783,1,0,0:0:0:0:s_047.ogg
128,192,122866,1,0,0:0:0:0:s_025.ogg
332,192,122950,1,0,0:0:0:0:s_049.ogg
435,192,122950,1,0,0:0:0:0:s_037.ogg
179,192,123033,1,0,0:0:0:0:s_026.ogg
384,192,123116,1,0,0:0:0:0:s_038.ogg
486,192,123116,1,0,0:0:0:0:s_050.ogg
230,192,123200,1,0,0:0:0:0:s_028.ogg
281,192,123283,1,0,0:0:0:0:s_052.ogg
435,192,123283,1,0,0:0:0:0:s_045.ogg
179,192,123366,1,0,0:0:0:0:s_027.ogg
384,192,123450,1,0,0:0:0:0:s_051.ogg
486,192,123450,1,0,0:0:0:0:s_039.ogg
230,192,123533,1,0,0:0:0:0:s_028.ogg
281,192,123616,1,0,0:0:0:0:s_040.ogg
435,192,123616,1,0,0:0:0:0:s_052.ogg
128,192,123700,1,0,0:0:0:0:s_025.ogg
384,192,123783,1,0,0:0:0:0:s_037.ogg
486,192,123783,1,0,0:0:0:0:s_049.ogg
76,192,123866,1,0,0:0:0:0:s_026.ogg
281,192,123950,1,0,0:0:0:0:s_038.ogg
332,192,123950,1,0,0:0:0:0:s_050.ogg
179,192,124033,1,0,0:0:0:0:s_030.ogg
384,192,124116,1,0,0:0:0:0:s_054.ogg
435,192,124116,1,0,0:0:0:0:s_042.ogg
25,192,124200,1,0,0:0:0:0:s_023.ogg
281,192,124283,1,0,0:0:0:0:s_035.ogg
486,192,124283,1,0,0:0:0:0:s_047.ogg
128,192,124366,1,0,0:0:0:0:s_026.ogg
332,192,124450,1,0,0:0:0:0:s_038.ogg
384,192,124450,1,0,0:0:0:0:s_050.ogg
76,192,124533,1,0,0:0:0:0:s_020.ogg
486,192,124616,1,0,0:0:0:0:s_044.ogg
435,192,124616,1,0,0:0:0:0:s_032.ogg
230,192,124700,1,0,0:0:0:0:s_023.ogg
332,192,124783,1,0,0:0:0:0:s_047.ogg
281,192,124783,1,0,0:0:0:0:s_035.ogg
25,192,124866,1,0,0:0:0:0:s_016.ogg
435,192,124950,1,0,0:0:0:0:s_040.ogg
384,192,124950,1,0,0:0:0:0:s_028.ogg
179,192,125033,1,0,0:0:0:0:s_020.ogg
281,192,125116,1,0,0:0:0:0:s_044.ogg
486,192,125116,1,0,0:0:0:0:s_032.ogg
128,192,125200,1,0,0:0:0:0:s_021.ogg
281,192,125283,1,0,0:0:0:0:s_033.ogg
332,192,125283,1,0,0:0:0:0:s_045.ogg
230,192,125366,1,0,0:0:0:0:s_025.ogg
384,192,125450,1,0,0:0:0:0:s_049.ogg
435,192,125450,1,0,0:0:0:0:s_037.ogg
76,192,125533,1,0,0:0:0:0:s_016.ogg
281,192,125616,1,0,0:0:0:0:s_040.ogg
486,192,125616,1,0,0:0:0:0:s_028.ogg
179,192,125700,1,0,0:0:0:0:s_021.ogg
332,192,125783,1,0,0:0:0:0:s_045.ogg
384,192,125783,1,0,0:0:0:0:s_033.ogg
25,192,125866,1,0,0:0:0:0:s_013.ogg
435,192,125950,1,0,0:0:0:0:s_037.ogg
486,192,125950,1,0,0:0:0:0:s_025.ogg
128,192,126033,1,0,0:0:0:0:s_016.ogg
332,192,126116,1,0,0:0:0:0:s_040.ogg
281,192,126116,1,0,0:0:0:0:s_028.ogg
76,192,126200,1,0,0:0:0:0:s_009.ogg
230,192,126200,1,0,0:0:0:0:s_021.ogg
384,192,126283,1,0,0:0:0:0:s_045.ogg
435,192,126283,1,0,0:0:0:0:s_033.ogg
25,192,126366,1,0,0:0:0:0:s_025.ogg
128,192,126366,1,0,0:0:0:0:s_013.ogg
281,192,126450,1,0,0:0:0:0:s_049.ogg
486,192,126450,1,0,0:0:0:0:s_037.ogg
76,192,126533,1,0,0:0:0:0:s_028.ogg
179,192,126533,1,0,0:0:0:0:s_016.ogg
332,192,126616,1,0,0:0:0:0:s_040.ogg
435,192,126616,1,0,0:0:0:0:s_044.ogg
128,192,126700,1,0,0:0:0:0:s_030.ogg
230,192,126700,1,0,0:0:0:0:s_018.ogg
384,192,126783,1,0,0:0:0:0:s_042.ogg
486,192,126783,1,0,0:0:0:0:s_054.ogg
25,192,126866,1,0,0:0:0:0:s_020.ogg
179,192,126866,1,0,0:0:0:0:s_032.ogg
281,192,126950,1,0,0:0:0:0:s_044.ogg
435,192,126950,1,0,0:0:0:0:s_056.ogg
76,192,127033,1,0,0:0:0:0:s_033.ogg
230,192,127033,1,0,0:0:0:0:s_021.ogg
332,192,127116,1,0,0:0:0:0:s_057.ogg
486,192,127116,1,0,0:0:0:0:s_045.ogg
25,192,127200,1,0,0:0:0:0:s_023.ogg
128,192,127200,1,0,0:0:0:0:s_035.ogg
281,192,127283,1,0,0:0:0:0:s_059.ogg
384,192,127283,1,0,0:0:0:0:s_052.ogg
76,192,127366,1,0,0:0:0:0:s_034.ogg
230,192,127366,1,0,0:0:0:0:s_022.ogg
332,192,127450,1,0,0:0:0:0:s_046.ogg
486,192,127450,1,0,0:0:0:0:s_058.ogg
25,192,127533,1,0,0:0:0:0:s_023.ogg
128,192,127533,1,0,0:0:0:0:s_035.ogg
281,192,127616,1,0,0:0:0:0:s_059.ogg
384,192,127616,1,0,0:0:0:0:s_052.ogg
76,192,127700,1,0,0:0:0:0:s_032.ogg
230,192,127700,1,0,0:0:0:0:s_020.ogg
332,192,127783,1,0,0:0:0:0:s_044.ogg
486,192,127783,1,0,0:0:0:0:s_056.ogg
25,192,127866,1,0,0:0:0:0:s_033.ogg
128,192,127866,1,0,0:0:0:0:s_021.ogg
281,192,127950,1,0,0:0:0:0:s_052.ogg
384,192,127950,1,0,0:0:0:0:s_045.ogg
76,192,128033,1,0,0:0:0:0:s_023.ogg
179,192,128033,1,0,0:0:0:0:s_035.ogg
332,192,128116,1,0,0:0:0:0:s_059.ogg
435,192,128116,1,0,0:0:0:0:s_047.ogg
128,192,128200,1,0,0:0:0:0:s_025.ogg
230,192,128200,1,0,0:0:0:0:s_037.ogg
384,192,128283,1,0,0:0:0:0:s_061.ogg
486,192,128283,1,0,0:0:0:0:s_049.ogg
25,192,128366,1,0,0:0:0:0:s_038.ogg
179,192,128366,1,0,0:0:0:0:s_026.ogg
281,192,128450,1,0,0:0:0:0:s_062.ogg
435,192,128450,1,0,0:0:0:0:s_050.ogg
76,192,128533,1,0,0:0:0:0:s_040.ogg
230,192,128533,1,0,0:0:0:0:s_033.ogg
332,192,128616,1,0,0:0:0:0:s_057.ogg
486,192,128616,1,0,0:0:0:0:s_064.ogg
25,192,128700,1,0,0:0:0:0:s_027.ogg
179,192,128700,1,0,0:0:0:0:s_039.ogg
281,192,128783,1,0,0:0:0:0:s_051.ogg
435,192,128783,1,0,0:0:0:0:s_063.ogg
76,192,128866,1,0,0:0:0:0:s_028.ogg
230,192,128866,1,0,0:0:0:0:s_033.ogg
332,192,128950,1,0,0:0:0:0:s_064.ogg
486,192,128950,1,0,0:0:0:0:s_052.ogg
25,192,129033,1,0,0:0:0:0:s_025.ogg
179,192,129033,1,0,0:0:0:0:s_037.ogg
281,192,129116,1,0,0:0:0:0:s_061.ogg
435,192,129116,1,0,0:0:0:0:s_049.ogg
76,192,129200,1,0,0:0:0:0:s_040.ogg
230,192,129200,1,0,0:0:0:0:s_032.ogg
332,192,129283,1,0,0:0:0:0:s_052.ogg
486,192,129283,1,0,0:0:0:0:s_059.ogg
25,192,129366,1,0,0:0:0:0:s_042.ogg
128,192,129366,1,0,0:0:0:0:s_030.ogg
281,192,129450,1,0,0:0:0:0:s_054.ogg
384,192,129450,1,0,0:0:0:0:s_066.ogg
76,192,129533,1,0,0:0:0:0:s_044.ogg
179,192,129533,1,0,0:0:0:0:s_032.ogg
332,192,129616,1,0,0:0:0:0:s_056.ogg
435,192,129616,1,0,0:0:0:0:s_068.ogg
128,192,129700,1,0,0:0:0:0:s_045.ogg
230,192,129700,1,0,0:0:0:0:s_033.ogg
384,192,129783,1,0,0:0:0:0:s_057.ogg
486,192,129783,1,0,0:0:0:0:s_069.ogg
25,192,129866,1,0,0:0:0:0:s_035.ogg
179,192,129866,1,0,0:0:0:0:s_040.ogg
281,192,129950,1,0,0:0:0:0:s_071.ogg
435,192,129950,1,0,0:0:0:0:s_059.ogg
128,192,130033,1,0,0:0:0:0:s_034.ogg
230,192,130033,1,0,0:0:0:0:s_046.ogg
384,192,130116,1,0,0:0:0:0:s_058.ogg
486,192,130116,1,0,0:0:0:0:s_070.ogg
25,192,130200,1,0,0:0:0:0:s_047.ogg
179,192,130200,1,0,0:0:0:0:s_040.ogg
281,192,130283,1,0,0:0:0:0:s_059.ogg
435,192,130283,1,0,0:0:0:0:s_064.ogg
128,192,130366,1,0,0:0:0:0:s_032.ogg
230,192,130366,1,0,0:0:0:0:s_044.ogg
384,192,130450,1,0,0:0:0:0:s_056.ogg
486,192,130450,1,0,0:0:0:0:s_068.ogg
25,192,130533,1,0,0:0:0:0:s_033.ogg
179,192,130533,1,0,0:0:0:0:s_037.ogg
281,192,130616,1,0,0:0:0:0:s_069.ogg
435,192,130616,1,0,0:0:0:0:s_057.ogg
76,192,130700,1,0,0:0:0:0:s_047.ogg
230,192,130700,1,0,0:0:0:0:s_035.ogg
332,192,130783,1,0,0:0:0:0:s_059.ogg
486,192,130783,1,0,0:0:0:0:s_071.ogg
25,192,130866,1,0,0:0:0:0:s_049.ogg
128,192,130866,1,0,0:0:0:0:s_037.ogg
281,192,130950,1,0,0:0:0:0:s_061.ogg
384,192,130950,1,0,0:0:0:0:s_073.ogg
76,192,131033,1,0,0:0:0:0:s_038.ogg
179,192,131033,1,0,0:0:0:0:s_050.ogg
332,192,131116,1,0,0:0:0:0:s_062.ogg
435,192,131116,1,0,0:0:0:0:s_074.ogg
128,192,131200,1,0,0:0:0:0:s_052.ogg
230,192,131200,1,0,0:0:0:0:s_045.ogg
384,192,131283,1,0,0:0:0:0:s_076.ogg
486,192,131283,1,0,0:0:0:0:s_064.ogg
76,192,131366,1,0,0:0:0:0:s_039.ogg
179,192,131366,1,0,0:0:0:0:s_051.ogg
332,192,131450,1,0,0:0:0:0:s_063.ogg
435,192,131450,1,0,0:0:0:0:s_075.ogg
128,192,131533,1,0,0:0:0:0:s_040.ogg
230,192,131533,1,0,0:0:0:0:s_045.ogg
384,192,131616,1,0,0:0:0:0:s_069.ogg
486,192,131616,1,0,0:0:0:0:s_076.ogg
76,192,131700,1,0,0:0:0:0:s_049.ogg
179,192,131700,1,0,0:0:0:0:s_037.ogg
332,192,131783,1,0,0:0:0:0:s_073.ogg
435,192,131783,1,0,0:0:0:0:s_061.ogg
25,192,131866,1,0,0:0:0:0:s_050.ogg
230,192,131866,1,0,0:0:0:0:s_038.ogg
281,192,131950,1,0,0:0:0:0:s_074.ogg
486,192,131950,1,0,0:0:0:0:s_062.ogg
76,192,132033,1,0,0:0:0:0:s_054.ogg
128,192,132033,1,0,0:0:0:0:s_042.ogg
332,192,132116,1,0,0:0:0:0:s_078.ogg
384,192,132116,1,0,0:0:0:0:s_066.ogg
230,192,132200,1,0,0:0:0:0:s_047.ogg
179,192,132200,1,0,0:0:0:0:s_035.ogg
486,192,132283,1,0,0:0:0:0:s_071.ogg
435,192,132283,1,0,0:0:0:0:s_059.ogg
25,192,132366,1,0,0:0:0:0:s_038.ogg
76,192,132366,1,0,0:0:0:0:s_050.ogg
332,192,132450,1,0,0:0:0:0:s_074.ogg
281,192,132450,1,0,0:0:0:0:s_062.ogg
179,192,132533,1,0,0:0:0:0:s_032.ogg
128,192,132533,1,0,0:0:0:0:s_044.ogg
435,192,132616,1,0,0:0:0:0:s_056.ogg
384,192,132616,1,0,0:0:0:0:s_068.ogg
230,192,132700,1,0,0:0:0:0:s_035.ogg
25,192,132700,1,0,0:0:0:0:s_047.ogg
281,192,132783,1,0,0:0:0:0:s_059.ogg
486,192,132783,1,0,0:0:0:0:s_071.ogg
76,192,132866,1,0,0:0:0:0:s_040.ogg
128,192,132866,1,0,0:0:0:0:s_028.ogg
332,192,132950,1,0,0:0:0:0:s_064.ogg
384,192,132950,1,0,0:0:0:0:s_052.ogg
230,192,133033,1,0,0:0:0:0:s_032.ogg
179,192,133033,1,0,0:0:0:0:s_044.ogg
486,192,133116,1,0,0:0:0:0:s_056.ogg
435,192,133116,1,0,0:0:0:0:s_068.ogg
25,192,133200,1,0,0:0:0:0:s_037.ogg
76,192,133200,1,0,0:0:0:0:s_025.ogg
281,192,133283,1,0,0:0:0:0:s_061.ogg
332,192,133283,1,0,0:0:0:0:s_049.ogg
128,192,133366,1,0,0:0:0:0:s_028.ogg
179,192,133366,1,0,0:0:0:0:s_040.ogg
384,192,133450,1,0,0:0:0:0:s_064.ogg
435,192,133450,1,0,0:0:0:0:s_052.ogg
25,192,133533,1,0,0:0:0:0:s_021.ogg
230,192,133533,1,0,0:0:0:0:s_033.ogg
281,192,133616,1,0,0:0:0:0:s_057.ogg
486,192,133616,1,0,0:0:0:0:s_045.ogg
76,192,133700,1,0,0:0:0:0:s_025.ogg
128,192,133700,1,0,0:0:0:0:s_037.ogg
332,192,133783,1,0,0:0:0:0:s_061.ogg
384,192,133783,1,0,0:0:0:0:s_049.ogg
230,192,133866,1,0,0:0:0:0:s_018.ogg
179,192,133866,1,0,0:0:0:0:s_030.ogg
486,192,133950,1,0,0:0:0:0:s_054.ogg
435,192,133950,1,0,0:0:0:0:s_042.ogg
76,192,134033,1,0,0:0:0:0:s_033.ogg
25,192,134033,1,0,0:0:0:0:s_021.ogg
332,192,134116,1,0,0:0:0:0:s_045.ogg
281,192,134116,1,0,0:0:0:0:s_057.ogg
179,192,134200,1,0,0:0:0:0:s_014.ogg
128,192,134200,1,0,0:0:0:0:s_026.ogg
435,192,134283,1,0,0:0:0:0:s_038.ogg
384,192,134283,1,0,0:0:0:0:s_050.ogg
25,192,134366,1,0,0:0:0:0:s_018.ogg
230,192,134366,1,0,0:0:0:0:s_030.ogg
281,192,134450,1,0,0:0:0:0:s_042.ogg
486,192,134450,1,0,0:0:0:0:s_054.ogg
76,192,134533,1,0,0:0:0:0:s_023.ogg
128,192,134533,1,0,0:0:0:0:s_011.ogg
332,192,134616,1,0,0:0:0:0:s_047.ogg
384,192,134616,1,0,0:0:0:0:s_035.ogg
230,192,134700,1,0,0:0:0:0:s_014.ogg
179,192,134700,1,0,0:0:0:0:s_026.ogg
486,192,134783,1,0,0:0:0:0:s_050.ogg
435,192,134783,1,0,0:0:0:0:s_038.ogg
25,192,134866,1,0,0:0:0:0:s_008.ogg
76,192,134866,1,0,0:0:0:0:s_020.ogg
281,192,134950,1,0,0:0:0:0:s_044.ogg
332,192,134950,1,0,0:0:0:0:s_032.ogg
179,192,135033,1,0,0:0:0:0:s_023.ogg
230,192,135033,1,0,0:0:0:0:s_011.ogg
435,192,135116,1,0,0:0:0:0:s_047.ogg
486,192,135116,1,0,0:0:0:0:s_035.ogg
128,192,135200,1,0,0:0:0:0:s_016.ogg
281,192,135283,1,0,0:0:0:0:s_028.ogg
384,192,135283,1,0,0:0:0:0:s_040.ogg
230,192,135366,1,0,0:0:0:0:s_020.ogg
435,192,135450,1,0,0:0:0:0:s_044.ogg
486,192,135450,1,0,0:0:0:0:s_032.ogg
128,192,135533,1,0,0:0:0:0:s_013.ogg
281,192,135616,1,0,0:0:0:0:s_025.ogg
332,192,135616,1,0,0:0:0:0:s_037.ogg
179,192,135700,1,0,0:0:0:0:s_016.ogg
384,192,135783,1,0,0:0:0:0:s_040.ogg
486,192,135783,1,0,0:0:0:0:s_028.ogg
76,192,135866,1,0,0:0:0:0:s_021.ogg
128,192,135866,1,0,0:0:0:0:s_009.ogg
332,192,135950,1,0,0:0:0:0:s_033.ogg
179,192,136033,1,0,0:0:0:0:s_025.ogg
230,192,136033,1,0,0:0:0:0:s_013.ogg
435,192,136116,1,0,0:0:0:0:s_037.ogg
25,192,136200,1,0,0:0:0:0:s_018.ogg
76,192,136200,1,0,0:0:0:0:s_006.ogg
281,192,136283,1,0,0:0:0:0:s_030.ogg
128,192,136366,1,0,0:0:0:0:s_021.ogg
179,192,136366,1,0,0:0:0:0:s_009.ogg
384,192,136450,1,0,0:0:0:0:s_033.ogg
25,192,136533,1,0,0:0:0:0:s_002.ogg
76,192,136533,1,0,0:0:0:0:s_014.ogg
332,192,136533,1,0,0:0:0:0:s_026.ogg
25,192,137133,1,0,0:0:0:0:s_014.ogg
76,192,137133,1,0,0:0:0:0:s_026.ogg
281,192,137133,1,0,0:0:0:0:s_054.ogg
332,192,137133,1,0,0:0:0:0:s_050.ogg
384,192,137133,1,0,0:0:0:0:s_042.ogg
128,192,137283,1,0,0:0:0:0:m_030.ogg
179,192,137283,1,0,0:0:0:0:m_033.ogg
230,192,137283,1,0,0:0:0:0:m_038.ogg
281,192,137283,1,0,0:0:0:0:m_054.ogg
332,192,137283,1,0,0:0:0:0:m_050.ogg
384,192,137283,1,0,0:0:0:0:m_042.ogg
25,192,137733,1,0,0:0:0:0:s_028.ogg
76,192,137733,1,0,0:0:0:0:s_016.ogg
332,192,137733,1,0,0:0:0:0:s_047.ogg
384,192,137733,1,0,0:0:0:0:s_044.ogg
435,192,137733,1,0,0:0:0:0:s_050.ogg
128,192,137883,1,0,0:0:0:0:m_028.ogg
179,192,137883,1,0,0:0:0:0:m_032.ogg
230,192,137883,1,0,0:0:0:0:m_035.ogg
332,192,137883,1,0,0:0:0:0:m_047.ogg
384,192,137883,1,0,0:0:0:0:m_044.ogg
435,192,137883,1,0,0:0:0:0:m_056.ogg
25,192,138333,1,0,0:0:0:0:s_021.ogg
76,192,138333,1,0,0:0:0:0:s_009.ogg
384,192,138333,1,0,0:0:0:0:s_045.ogg
435,192,138333,1,0,0:0:0:0:s_049.ogg
486,192,138333,1,0,0:0:0:0:s_052.ogg
128,192,138483,1,0,0:0:0:0:m_028.ogg
179,192,138483,1,0,0:0:0:0:m_033.ogg
230,192,138483,1,0,0:0:0:0:m_037.ogg
384,192,138483,1,0,0:0:0:0:m_045.ogg
435,192,138483,1,0,0:0:0:0:m_052.ogg
486,192,138483,1,0,0:0:0:0:m_049.ogg
25,192,139533,1,0,0:0:0:0:s_040.ogg
76,192,139533,1,0,0:0:0:0:s_045.ogg
128,192,139533,1,0,0:0:0:0:s_049.ogg
281,192,139533,1,0,0:0:0:0:s_069.ogg
332,192,139533,1,0,0:0:0:0:s_057.ogg
384,192,139533,1,0,0:0:0:0:s_061.ogg
128,192,139833,1,0,0:0:0:0:s_061.ogg
179,192,139833,1,0,0:0:0:0:s_064.ogg
230,192,139833,1,0,0:0:0:0:s_052.ogg
384,192,139833,1,0,0:0:0:0:s_069.ogg
435,192,139833,1,0,0:0:0:0:s_073.ogg
486,192,139833,1,0,0:0:0:0:s_076.ogg
25,192,140133,1,0,0:0:0:0:s_021.ogg
76,192,140133,1,0,0:0:0:0:s_009.ogg
281,192,140133,1,0,0:0:0:0:s_045.ogg
332,192,140133,1,0,0:0:0:0:s_033.ogg
