osu file format v14

[General]
AudioFilename: virtual
AudioLeadIn: 0
PreviewTime: 0
Countdown: 0
SampleSet: Soft
StackLeniency: 0.7
Mode: 3
LetterboxInBreaks: 0
SpecialStyle: 0
WidescreenStoryboard: 1

[Editor]
DistanceSpacing: 0.8
BeatDivisor: 4
GridSize: 32
TimelineZoom: 2.500006

[Metadata]
Title:Piano Beatmap Set
TitleUnicode:Piano Beatmap Set
Artist:Collection
ArtistUnicode:Collection
Creator:CircusGalop
Version:Hungarian Rhapsody - 10K Full
Source:BMS
Tags:
BeatmapID:823116
BeatmapSetID:332673

[Difficulty]
HPDrainRate:9
CircleSize:10
OverallDifficulty:5
ApproachRate:5
SliderMultiplier:1.4
SliderTickRate:1

[Events]
//Background and Video events
0,0,"CircusGalop.jpg",0,0
//Break Periods
//Storyboard Layer 0 (Background)
//Storyboard Layer 1 (Fail)
//Storyboard Layer 2 (Pass)
//Storyboard Layer 3 (Foreground)
//Storyboard Sound Samples

[TimingPoints]
0,400.000000000003,4,2,0,100,1,0
0,-83.3333333333333,4,2,0,100,0,0
33600,333.333333333334,4,2,0,100,1,0
46933,500,4,2,0,100,1,0
46933,-66.6666666666667,4,2,0,100,0,0
48933,400,4,2,0,100,1,0
48933,-83.3333333333333,4,2,0,100,0,0
50533.334,333.333333333334,4,2,0,100,1,0
201866,400,4,2,0,100,1,0
201866,-83.3333333333333,4,2,0,100,0,0
211466,300,4,2,0,100,1,0
211466,-111.111111111111,4,2,0,100,0,0

[HitObjects]
281,192,1600,5,0,0:0:0:0:s_052.ogg
384,192,1650,1,0,0:0:0:0:s_059.ogg
486,192,1700,1,0,0:0:0:0:s_064.ogg
384,192,1750,1,0,0:0:0:0:s_059.ogg
332,192,1900,1,0,0:0:0:0:s_052.ogg
384,192,2000,1,0,0:0:0:0:m_059.ogg
435,192,2300,1,0,0:0:0:0:s_060.ogg
281,192,2400,1,0,0:0:0:0:s_052.ogg
384,192,2450,1,0,0:0:0:0:s_059.ogg
486,192,2500,1,0,0:0:0:0:s_064.ogg
384,192,2550,1,0,0:0:0:0:s_059.ogg
435,192,2700,1,0,0:0:0:0:s_062.ogg
384,192,2800,1,0,0:0:0:0:m_060.ogg
332,192,3100,1,0,0:0:0:0:s_059.ogg
281,192,3200,1,0,0:0:0:0:s_052.ogg
384,192,3250,1,0,0:0:0:0:s_057.ogg
486,192,3300,1,0,0:0:0:0:s_064.ogg
384,192,3350,1,0,0:0:0:0:s_057.ogg
332,192,3500,1,0,0:0:0:0:s_052.ogg
384,192,3600,1,0,0:0:0:0:m_057.ogg
435,192,3900,1,0,0:0:0:0:s_059.ogg
281,192,4000,1,0,0:0:0:0:s_052.ogg
384,192,4050,1,0,0:0:0:0:s_060.ogg
486,192,4100,1,0,0:0:0:0:s_064.ogg
384,192,4150,1,0,0:0:0:0:s_060.ogg
435,192,4300,1,0,0:0:0:0:s_064.ogg
384,192,4400,1,0,0:0:0:0:m_062.ogg
332,192,4700,1,0,0:0:0:0:s_060.ogg
281,192,4800,1,0,0:0:0:0:s_052.ogg
384,192,4850,1,0,0:0:0:0:s_059.ogg
486,192,4900,1,0,0:0:0:0:s_064.ogg
384,192,4950,1,0,0:0:0:0:s_059.ogg
332,192,5100,1,0,0:0:0:0:s_052.ogg
384,192,5200,1,0,0:0:0:0:m_059.ogg
435,192,5500,1,0,0:0:0:0:s_060.ogg
281,192,5600,1,0,0:0:0:0:s_052.ogg
384,192,5650,1,0,0:0:0:0:s_059.ogg
486,192,5700,1,0,0:0:0:0:s_064.ogg
384,192,5750,1,0,0:0:0:0:s_059.ogg
435,192,5900,1,0,0:0:0:0:s_062.ogg
384,192,6000,1,0,0:0:0:0:m_060.ogg
332,192,6300,1,0,0:0:0:0:s_059.ogg
281,192,6400,1,0,0:0:0:0:s_052.ogg
384,192,6450,1,0,0:0:0:0:s_057.ogg
486,192,6500,1,0,0:0:0:0:s_064.ogg
384,192,6550,1,0,0:0:0:0:s_057.ogg
332,192,6700,1,0,0:0:0:0:s_052.ogg
384,192,6800,1,0,0:0:0:0:m_057.ogg
435,192,7100,1,0,0:0:0:0:s_059.ogg
281,192,7200,1,0,0:0:0:0:s_052.ogg
384,192,7250,1,0,0:0:0:0:s_057.ogg
486,192,7300,1,0,0:0:0:0:s_064.ogg
384,192,7350,1,0,0:0:0:0:s_057.ogg
332,192,7500,1,0,0:0:0:0:s_052.ogg
435,192,7600,1,0,0:0:0:0:m_060.ogg
332,192,7900,1,0,0:0:0:0:s_052.ogg
281,192,8000,1,0,0:0:0:0:s_052.ogg
384,192,8050,1,0,0:0:0:0:s_059.ogg
486,192,8100,1,0,0:0:0:0:s_064.ogg
384,192,8150,1,0,0:0:0:0:s_059.ogg
332,192,8300,1,0,0:0:0:0:s_052.ogg
76,192,8400,5,0,0:0:0:0:s_047.ogg
384,192,8400,1,0,0:0:0:0:m_059.ogg
179,192,8450,1,0,0:0:0:0:s_056.ogg
76,192,8500,1,0,0:0:0:0:m_047.ogg
435,192,8700,1,0,0:0:0:0:s_060.ogg
281,192,8800,1,0,0:0:0:0:s_052.ogg
384,192,8850,1,0,0:0:0:0:s_059.ogg
486,192,8900,1,0,0:0:0:0:s_064.ogg
384,192,8950,1,0,0:0:0:0:s_059.ogg
435,192,9100,1,0,0:0:0:0:s_062.ogg
128,192,9200,1,0,0:0:0:0:s_071.ogg
384,192,9200,1,0,0:0:0:0:m_060.ogg
230,192,9250,1,0,0:0:0:0:s_076.ogg
128,192,9300,1,0,0:0:0:0:m_071.ogg
332,192,9500,1,0,0:0:0:0:s_059.ogg
281,192,9600,1,0,0:0:0:0:s_052.ogg
384,192,9650,1,0,0:0:0:0:s_057.ogg
486,192,9700,1,0,0:0:0:0:s_064.ogg
384,192,9750,1,0,0:0:0:0:s_057.ogg
332,192,9900,1,0,0:0:0:0:s_052.ogg
25,192,10000,1,0,0:0:0:0:s_040.ogg
384,192,10000,1,0,0:0:0:0:m_057.ogg
128,192,10050,1,0,0:0:0:0:s_048.ogg
25,192,10100,1,0,0:0:0:0:m_040.ogg
435,192,10300,1,0,0:0:0:0:s_059.ogg
281,192,10400,1,0,0:0:0:0:s_052.ogg
384,192,10450,1,0,0:0:0:0:s_060.ogg
486,192,10500,1,0,0:0:0:0:s_064.ogg
384,192,10550,1,0,0:0:0:0:s_060.ogg
435,192,10700,1,0,0:0:0:0:s_064.ogg
128,192,10800,1,0,0:0:0:0:s_069.ogg
384,192,10800,1,0,0:0:0:0:m_062.ogg
230,192,10850,1,0,0:0:0:0:s_076.ogg
128,192,10900,1,0,0:0:0:0:m_069.ogg
332,192,11100,1,0,0:0:0:0:s_060.ogg
281,192,11200,1,0,0:0:0:0:s_052.ogg
384,192,11250,1,0,0:0:0:0:s_059.ogg
486,192,11300,1,0,0:0:0:0:s_064.ogg
384,192,11350,1,0,0:0:0:0:s_059.ogg
332,192,11500,1,0,0:0:0:0:s_052.ogg
76,192,11600,1,0,0:0:0:0:s_047.ogg
384,192,11600,1,0,0:0:0:0:m_059.ogg
179,192,11650,1,0,0:0:0:0:s_056.ogg
76,192,11700,1,0,0:0:0:0:m_047.ogg
435,192,11900,1,0,0:0:0:0:s_060.ogg
281,192,12000,1,0,0:0:0:0:s_052.ogg
384,192,12050,1,0,0:0:0:0:s_059.ogg
486,192,12100,1,0,0:0:0:0:s_064.ogg
384,192,12150,1,0,0:0:0:0:s_059.ogg
435,192,12300,1,0,0:0:0:0:s_062.ogg
128,192,12400,1,0,0:0:0:0:s_071.ogg
384,192,12400,1,0,0:0:0:0:m_060.ogg
230,192,12450,1,0,0:0:0:0:s_076.ogg
128,192,12500,1,0,0:0:0:0:m_071.ogg
332,192,12700,1,0,0:0:0:0:s_059.ogg
281,192,12800,1,0,0:0:0:0:s_052.ogg
384,192,12850,1,0,0:0:0:0:s_057.ogg
486,192,12900,1,0,0:0:0:0:s_064.ogg
384,192,12950,1,0,0:0:0:0:s_057.ogg
332,192,13100,1,0,0:0:0:0:s_052.ogg
25,192,13200,1,0,0:0:0:0:s_040.ogg
384,192,13200,1,0,0:0:0:0:m_057.ogg
128,192,13250,1,0,0:0:0:0:s_048.ogg
25,192,13300,1,0,0:0:0:0:m_040.ogg
435,192,13500,1,0,0:0:0:0:s_059.ogg
281,192,13600,1,0,0:0:0:0:s_052.ogg
384,192,13650,1,0,0:0:0:0:s_057.ogg
486,192,13700,1,0,0:0:0:0:s_064.ogg
384,192,13750,1,0,0:0:0:0:s_057.ogg
332,192,13900,1,0,0:0:0:0:s_052.ogg
128,192,14000,1,0,0:0:0:0:s_069.ogg
435,192,14000,1,0,0:0:0:0:m_060.ogg
230,192,14050,1,0,0:0:0:0:s_076.ogg
128,192,14100,1,0,0:0:0:0:m_069.ogg
332,192,14300,1,0,0:0:0:0:s_052.ogg
384,192,14400,1,0,0:0:0:0:s_059.ogg
486,192,14450,1,0,0:0:0:0:s_064.ogg
384,192,14500,1,0,0:0:0:0:s_059.ogg
332,192,14700,1,0,0:0:0:0:s_052.ogg
76,192,14800,1,0,0:0:0:0:s_047.ogg
435,192,14800,1,0,0:0:0:0:m_064.ogg
179,192,14850,1,0,0:0:0:0:s_056.ogg
76,192,14900,1,0,0:0:0:0:m_047.ogg
332,192,15100,1,0,0:0:0:0:s_052.ogg
384,192,15200,1,0,0:0:0:0:s_059.ogg
486,192,15250,1,0,0:0:0:0:s_064.ogg
384,192,15300,1,0,0:0:0:0:s_059.ogg
332,192,15500,1,0,0:0:0:0:s_052.ogg
128,192,15600,1,0,0:0:0:0:s_071.ogg
435,192,15600,1,0,0:0:0:0:m_064.ogg
230,192,15650,1,0,0:0:0:0:s_076.ogg
128,192,15700,1,0,0:0:0:0:m_071.ogg
281,192,15900,1,0,0:0:0:0:s_052.ogg
332,192,16000,1,0,0:0:0:0:s_057.ogg
435,192,16050,1,0,0:0:0:0:s_064.ogg
332,192,16100,1,0,0:0:0:0:s_057.ogg
281,192,16300,1,0,0:0:0:0:s_052.ogg
25,192,16400,1,0,0:0:0:0:s_040.ogg
486,192,16400,1,0,0:0:0:0:m_064.ogg
128,192,16450,1,0,0:0:0:0:s_048.ogg
25,192,16500,1,0,0:0:0:0:m_040.ogg
281,192,16700,1,0,0:0:0:0:s_052.ogg
384,192,16800,1,0,0:0:0:0:s_060.ogg
486,192,16850,1,0,0:0:0:0:s_064.ogg
384,192,16900,1,0,0:0:0:0:s_060.ogg
332,192,17100,1,0,0:0:0:0:s_052.ogg
128,192,17200,1,0,0:0:0:0:s_069.ogg
435,192,17200,1,0,0:0:0:0:m_064.ogg
230,192,17250,1,0,0:0:0:0:s_076.ogg
128,192,17300,1,0,0:0:0:0:m_069.ogg
332,192,17500,1,0,0:0:0:0:s_052.ogg
384,192,17600,1,0,0:0:0:0:s_059.ogg
486,192,17650,1,0,0:0:0:0:s_064.ogg
384,192,17700,1,0,0:0:0:0:s_059.ogg
332,192,17900,1,0,0:0:0:0:s_052.ogg
76,192,18000,1,0,0:0:0:0:s_047.ogg
435,192,18000,1,0,0:0:0:0:m_064.ogg
179,192,18050,1,0,0:0:0:0:s_056.ogg
76,192,18100,1,0,0:0:0:0:m_047.ogg
332,192,18300,1,0,0:0:0:0:s_052.ogg
384,192,18400,1,0,0:0:0:0:s_059.ogg
486,192,18450,1,0,0:0:0:0:s_064.ogg
384,192,18500,1,0,0:0:0:0:s_059.ogg
332,192,18700,1,0,0:0:0:0:s_052.ogg
128,192,18800,1,0,0:0:0:0:s_071.ogg
435,192,18800,1,0,0:0:0:0:m_064.ogg
230,192,18850,1,0,0:0:0:0:s_076.ogg
128,192,18900,1,0,0:0:0:0:m_071.ogg
281,192,19100,1,0,0:0:0:0:s_052.ogg
332,192,19200,1,0,0:0:0:0:s_057.ogg
435,192,19250,1,0,0:0:0:0:s_064.ogg
332,192,19300,1,0,0:0:0:0:s_057.ogg
281,192,19500,1,0,0:0:0:0:s_052.ogg
25,192,19600,1,0,0:0:0:0:s_040.ogg
486,192,19600,1,0,0:0:0:0:m_064.ogg
128,192,19650,1,0,0:0:0:0:s_048.ogg
25,192,19700,1,0,0:0:0:0:m_040.ogg
281,192,19900,1,0,0:0:0:0:s_052.ogg
384,192,20000,1,0,0:0:0:0:s_060.ogg
486,192,20050,1,0,0:0:0:0:s_064.ogg
384,192,20100,1,0,0:0:0:0:s_060.ogg
332,192,20300,1,0,0:0:0:0:s_052.ogg
128,192,20400,1,0,0:0:0:0:s_069.ogg
435,192,20400,1,0,0:0:0:0:m_064.ogg
230,192,20450,1,0,0:0:0:0:s_076.ogg
128,192,20500,1,0,0:0:0:0:m_069.ogg
332,192,20700,1,0,0:0:0:0:s_052.ogg
435,192,20800,1,0,0:0:0:0:m_047.ogg
384,192,20900,1,0,0:0:0:0:s_052.ogg
76,192,21000,1,0,0:0:0:0:s_028.ogg
384,192,21000,1,0,0:0:0:0:s_052.ogg
384,192,21100,1,0,0:0:0:0:s_052.ogg
128,192,21200,1,0,0:0:0:0:s_038.ogg
384,192,21200,1,0,0:0:0:0:s_052.ogg
384,192,21300,1,0,0:0:0:0:s_052.ogg
179,192,21400,1,0,0:0:0:0:s_044.ogg
384,192,21400,1,0,0:0:0:0:s_052.ogg
384,192,21500,1,0,0:0:0:0:s_052.ogg
230,192,21600,1,0,0:0:0:0:s_048.ogg
384,192,21700,1,0,0:0:0:0:s_052.ogg
76,192,21800,1,0,0:0:0:0:s_040.ogg
384,192,21800,1,0,0:0:0:0:s_052.ogg
384,192,21900,1,0,0:0:0:0:s_052.ogg
179,192,22000,1,0,0:0:0:0:s_047.ogg
384,192,22100,1,0,0:0:0:0:s_052.ogg
76,192,22200,1,0,0:0:0:0:s_040.ogg
384,192,22200,1,0,0:0:0:0:s_052.ogg
384,192,22300,1,0,0:0:0:0:s_052.ogg
332,192,22400,1,0,0:0:0:0:m_045.ogg
384,192,22500,1,0,0:0:0:0:s_052.ogg
25,192,22600,1,0,0:0:0:0:s_028.ogg
384,192,22600,1,0,0:0:0:0:s_052.ogg
384,192,22700,1,0,0:0:0:0:s_052.ogg
76,192,22800,1,0,0:0:0:0:s_036.ogg
384,192,22800,1,0,0:0:0:0:s_052.ogg
384,192,22900,1,0,0:0:0:0:s_052.ogg
128,192,23000,1,0,0:0:0:0:s_040.ogg
384,192,23000,1,0,0:0:0:0:s_052.ogg
435,192,23100,1,0,0:0:0:0:s_047.ogg
230,192,23200,1,0,0:0:0:0:s_048.ogg
384,192,23300,1,0,0:0:0:0:s_052.ogg
128,192,23400,1,0,0:0:0:0:s_040.ogg
384,192,23400,1,0,0:0:0:0:s_052.ogg
384,192,23500,1,0,0:0:0:0:s_052.ogg
179,192,23600,1,0,0:0:0:0:s_045.ogg
384,192,23700,1,0,0:0:0:0:s_052.ogg
128,192,23800,1,0,0:0:0:0:s_040.ogg
384,192,23800,1,0,0:0:0:0:s_052.ogg
384,192,23900,1,0,0:0:0:0:s_052.ogg
435,192,24000,1,0,0:0:0:0:m_047.ogg
384,192,24100,1,0,0:0:0:0:s_052.ogg
76,192,24200,1,0,0:0:0:0:s_028.ogg
384,192,24200,1,0,0:0:0:0:s_052.ogg
384,192,24300,1,0,0:0:0:0:s_052.ogg
128,192,24400,1,0,0:0:0:0:s_038.ogg
384,192,24400,1,0,0:0:0:0:s_052.ogg
384,192,24500,1,0,0:0:0:0:s_052.ogg
179,192,24600,1,0,0:0:0:0:s_044.ogg
384,192,24600,1,0,0:0:0:0:s_052.ogg
486,192,24700,1,0,0:0:0:0:s_050.ogg
230,192,24800,1,0,0:0:0:0:s_048.ogg
384,192,24900,1,0,0:0:0:0:s_052.ogg
76,192,25000,1,0,0:0:0:0:s_040.ogg
384,192,25000,1,0,0:0:0:0:s_052.ogg
384,192,25100,1,0,0:0:0:0:s_052.ogg
179,192,25200,1,0,0:0:0:0:s_047.ogg
384,192,25300,1,0,0:0:0:0:s_052.ogg
76,192,25400,1,0,0:0:0:0:s_040.ogg
384,192,25400,1,0,0:0:0:0:s_052.ogg
384,192,25500,1,0,0:0:0:0:s_052.ogg
332,192,25600,1,0,0:0:0:0:m_045.ogg
384,192,25700,1,0,0:0:0:0:s_052.ogg
25,192,25800,1,0,0:0:0:0:s_028.ogg
384,192,25800,1,0,0:0:0:0:s_052.ogg
384,192,25900,1,0,0:0:0:0:s_052.ogg
76,192,26000,1,0,0:0:0:0:s_036.ogg
384,192,26000,1,0,0:0:0:0:s_052.ogg
384,192,26100,1,0,0:0:0:0:s_052.ogg
128,192,26200,1,0,0:0:0:0:s_040.ogg
384,192,26200,1,0,0:0:0:0:s_052.ogg
435,192,26300,1,0,0:0:0:0:s_047.ogg
230,192,26400,1,0,0:0:0:0:s_048.ogg
384,192,26500,1,0,0:0:0:0:s_052.ogg
128,192,26600,1,0,0:0:0:0:s_040.ogg
384,192,26600,1,0,0:0:0:0:s_052.ogg
384,192,26700,1,0,0:0:0:0:s_052.ogg
179,192,26800,1,0,0:0:0:0:s_045.ogg
384,192,26900,1,0,0:0:0:0:s_052.ogg
128,192,27000,1,0,0:0:0:0:s_040.ogg
384,192,27000,1,0,0:0:0:0:s_052.ogg
384,192,27100,1,0,0:0:0:0:s_052.ogg
281,192,27200,1,0,0:0:0:0:s_059.ogg
486,192,27200,1,0,0:0:0:0:s_047.ogg
384,192,27300,1,0,0:0:0:0:s_052.ogg
25,192,27400,1,0,0:0:0:0:s_028.ogg
384,192,27400,1,0,0:0:0:0:s_052.ogg
384,192,27500,1,0,0:0:0:0:s_052.ogg
76,192,27600,1,0,0:0:0:0:s_038.ogg
384,192,27600,1,0,0:0:0:0:s_052.ogg
384,192,27700,1,0,0:0:0:0:s_052.ogg
179,192,27800,1,0,0:0:0:0:s_044.ogg
384,192,27800,1,0,0:0:0:0:s_052.ogg
384,192,27900,1,0,0:0:0:0:s_052.ogg
435,192,28000,1,0,0:0:0:0:s_060.ogg
486,192,28000,1,0,0:0:0:0:s_048.ogg
384,192,28100,1,0,0:0:0:0:s_052.ogg
179,192,28200,1,0,0:0:0:0:s_044.ogg
384,192,28200,1,0,0:0:0:0:s_052.ogg
384,192,28300,1,0,0:0:0:0:s_052.ogg
76,192,28400,1,0,0:0:0:0:s_038.ogg
332,192,28400,1,0,0:0:0:0:s_047.ogg
435,192,28400,1,0,0:0:0:0:s_059.ogg
384,192,28500,1,0,0:0:0:0:s_052.ogg
25,192,28600,1,0,0:0:0:0:s_028.ogg
384,192,28600,1,0,0:0:0:0:s_052.ogg
384,192,28700,1,0,0:0:0:0:s_052.ogg
281,192,28800,1,0,0:0:0:0:m_045.ogg
332,192,28800,1,0,0:0:0:0:m_057.ogg
384,192,28900,1,0,0:0:0:0:s_052.ogg
25,192,29000,1,0,0:0:0:0:s_028.ogg
384,192,29000,1,0,0:0:0:0:s_052.ogg
384,192,29100,1,0,0:0:0:0:s_052.ogg
128,192,29200,1,0,0:0:0:0:s_036.ogg
384,192,29200,1,0,0:0:0:0:s_052.ogg
384,192,29300,1,0,0:0:0:0:s_052.ogg
230,192,29400,1,0,0:0:0:0:s_045.ogg
384,192,29400,1,0,0:0:0:0:s_052.ogg
281,192,29500,1,0,0:0:0:0:s_059.ogg
435,192,29500,1,0,0:0:0:0:s_047.ogg
332,192,29600,1,0,0:0:0:0:m_060.ogg
486,192,29600,1,0,0:0:0:0:m_048.ogg
384,192,29700,1,0,0:0:0:0:s_052.ogg
230,192,29800,1,0,0:0:0:0:s_045.ogg
384,192,29800,1,0,0:0:0:0:s_052.ogg
384,192,29900,1,0,0:0:0:0:s_052.ogg
128,192,30000,1,0,0:0:0:0:s_036.ogg
281,192,30000,1,0,0:0:0:0:m_045.ogg
332,192,30000,1,0,0:0:0:0:m_057.ogg
384,192,30100,1,0,0:0:0:0:s_052.ogg
25,192,30200,1,0,0:0:0:0:s_028.ogg
384,192,30200,1,0,0:0:0:0:s_052.ogg
384,192,30300,1,0,0:0:0:0:s_052.ogg
435,192,30400,1,0,0:0:0:0:m_047.ogg
486,192,30400,1,0,0:0:0:0:m_059.ogg
384,192,30500,1,0,0:0:0:0:s_052.ogg
25,192,30600,1,0,0:0:0:0:s_028.ogg
384,192,30600,1,0,0:0:0:0:s_052.ogg
384,192,30700,1,0,0:0:0:0:s_052.ogg
76,192,30800,1,0,0:0:0:0:s_038.ogg
384,192,30800,1,0,0:0:0:0:s_052.ogg
384,192,30900,1,0,0:0:0:0:s_052.ogg
179,192,31000,1,0,0:0:0:0:s_044.ogg
332,192,31000,1,0,0:0:0:0:s_050.ogg
486,192,31000,1,0,0:0:0:0:s_062.ogg
384,192,31100,1,0,0:0:0:0:s_052.ogg
281,192,31200,1,0,0:0:0:0:s_048.ogg
435,192,31200,1,0,0:0:0:0:s_060.ogg
384,192,31300,1,0,0:0:0:0:s_052.ogg
179,192,31400,1,0,0:0:0:0:s_044.ogg
384,192,31400,1,0,0:0:0:0:s_052.ogg
384,192,31500,1,0,0:0:0:0:s_052.ogg
76,192,31600,1,0,0:0:0:0:s_038.ogg
435,192,31600,1,0,0:0:0:0:s_059.ogg
486,192,31600,1,0,0:0:0:0:s_047.ogg
384,192,31700,1,0,0:0:0:0:s_052.ogg
25,192,31800,1,0,0:0:0:0:s_028.ogg
384,192,31800,1,0,0:0:0:0:s_052.ogg
384,192,31900,1,0,0:0:0:0:s_052.ogg
281,192,32000,1,0,0:0:0:0:m_057.ogg
332,192,32000,1,0,0:0:0:0:m_045.ogg
384,192,32100,1,0,0:0:0:0:s_052.ogg
25,192,32200,1,0,0:0:0:0:s_028.ogg
384,192,32200,1,0,0:0:0:0:s_052.ogg
384,192,32300,1,0,0:0:0:0:s_052.ogg
128,192,32400,1,0,0:0:0:0:s_036.ogg
384,192,32400,1,0,0:0:0:0:s_052.ogg
384,192,32500,1,0,0:0:0:0:s_052.ogg
230,192,32600,1,0,0:0:0:0:s_045.ogg
384,192,32600,1,0,0:0:0:0:s_052.ogg
281,192,32700,1,0,0:0:0:0:s_059.ogg
435,192,32700,1,0,0:0:0:0:s_047.ogg
332,192,32800,1,0,0:0:0:0:m_060.ogg
486,192,32800,1,0,0:0:0:0:m_048.ogg
384,192,32900,1,0,0:0:0:0:s_052.ogg
230,192,33000,1,0,0:0:0:0:s_045.ogg
384,192,33000,1,0,0:0:0:0:s_052.ogg
384,192,33100,1,0,0:0:0:0:s_052.ogg
128,192,33200,1,0,0:0:0:0:s_036.ogg
281,192,33200,1,0,0:0:0:0:m_045.ogg
486,192,33200,1,0,0:0:0:0:m_057.ogg
384,192,33300,1,0,0:0:0:0:s_052.ogg
25,192,33400,1,0,0:0:0:0:s_028.ogg
384,192,33400,1,0,0:0:0:0:s_052.ogg
384,192,33500,1,0,0:0:0:0:s_052.ogg
25,192,33600,1,0,0:0:0:0:m_035.ogg
486,192,33600,1,0,0:0:0:0:s_064.ogg
332,192,33683,1,0,0:0:0:0:s_052.ogg
435,192,33766,1,0,0:0:0:0:s_052.ogg
332,192,33850,1,0,0:0:0:0:s_052.ogg
128,192,33933,1,0,0:0:0:0:m_050.ogg
179,192,33933,1,0,0:0:0:0:m_044.ogg
230,192,33933,1,0,0:0:0:0:m_040.ogg
486,192,33933,1,0,0:0:0:0:s_064.ogg
332,192,34016,1,0,0:0:0:0:s_052.ogg
435,192,34100,1,0,0:0:0:0:s_052.ogg
332,192,34183,1,0,0:0:0:0:s_052.ogg
25,192,34266,1,0,0:0:0:0:s_028.ogg
486,192,34266,1,0,0:0:0:0:s_064.ogg
332,192,34350,1,0,0:0:0:0:s_052.ogg
76,192,34433,1,0,0:0:0:0:s_048.ogg
128,192,34433,1,0,0:0:0:0:s_044.ogg
230,192,34433,1,0,0:0:0:0:s_040.ogg
435,192,34433,1,0,0:0:0:0:s_052.ogg
332,192,34516,1,0,0:0:0:0:s_052.ogg
25,192,34600,1,0,0:0:0:0:s_038.ogg
486,192,34600,1,0,0:0:0:0:s_064.ogg
332,192,34683,1,0,0:0:0:0:s_052.ogg
76,192,34766,1,0,0:0:0:0:s_040.ogg
128,192,34766,1,0,0:0:0:0:s_047.ogg
179,192,34766,1,0,0:0:0:0:s_044.ogg
435,192,34766,1,0,0:0:0:0:s_052.ogg
332,192,34850,1,0,0:0:0:0:s_052.ogg
25,192,34933,1,0,0:0:0:0:m_033.ogg
486,192,34933,1,0,0:0:0:0:s_064.ogg
332,192,35016,1,0,0:0:0:0:s_052.ogg
435,192,35100,1,0,0:0:0:0:s_052.ogg
332,192,35183,1,0,0:0:0:0:s_052.ogg
128,192,35266,1,0,0:0:0:0:m_048.ogg
179,192,35266,1,0,0:0:0:0:m_045.ogg
230,192,35266,1,0,0:0:0:0:m_040.ogg
486,192,35266,1,0,0:0:0:0:s_064.ogg
332,192,35350,1,0,0:0:0:0:s_052.ogg
435,192,35433,1,0,0:0:0:0:s_052.ogg
332,192,35516,1,0,0:0:0:0:s_052.ogg
25,192,35600,1,0,0:0:0:0:s_028.ogg
486,192,35600,1,0,0:0:0:0:s_064.ogg
332,192,35683,1,0,0:0:0:0:s_052.ogg
76,192,35766,1,0,0:0:0:0:s_047.ogg
179,192,35766,1,0,0:0:0:0:s_040.ogg
230,192,35766,1,0,0:0:0:0:s_036.ogg
435,192,35766,1,0,0:0:0:0:s_052.ogg
332,192,35850,1,0,0:0:0:0:s_052.ogg
25,192,35933,1,0,0:0:0:0:s_033.ogg
486,192,35933,1,0,0:0:0:0:s_064.ogg
332,192,36016,1,0,0:0:0:0:s_052.ogg
76,192,36100,1,0,0:0:0:0:s_045.ogg
128,192,36100,1,0,0:0:0:0:s_040.ogg
179,192,36100,1,0,0:0:0:0:s_036.ogg
435,192,36100,1,0,0:0:0:0:s_052.ogg
332,192,36183,1,0,0:0:0:0:s_052.ogg
25,192,36266,1,0,0:0:0:0:m_035.ogg
486,192,36266,1,0,0:0:0:0:s_064.ogg
332,192,36350,1,0,0:0:0:0:s_052.ogg
435,192,36433,1,0,0:0:0:0:s_052.ogg
332,192,36516,1,0,0:0:0:0:s_052.ogg
128,192,36600,1,0,0:0:0:0:m_044.ogg
179,192,36600,1,0,0:0:0:0:m_050.ogg
230,192,36600,1,0,0:0:0:0:m_040.ogg
486,192,36600,1,0,0:0:0:0:s_064.ogg
332,192,36683,1,0,0:0:0:0:s_052.ogg
435,192,36766,1,0,0:0:0:0:s_052.ogg
332,192,36850,1,0,0:0:0:0:s_052.ogg
25,192,36933,1,0,0:0:0:0:s_028.ogg
486,192,36933,1,0,0:0:0:0:s_064.ogg
332,192,37016,1,0,0:0:0:0:s_052.ogg
76,192,37100,1,0,0:0:0:0:s_048.ogg
128,192,37100,1,0,0:0:0:0:s_044.ogg
230,192,37100,1,0,0:0:0:0:s_040.ogg
435,192,37100,1,0,0:0:0:0:s_052.ogg
332,192,37183,1,0,0:0:0:0:s_052.ogg
25,192,37266,1,0,0:0:0:0:s_038.ogg
486,192,37266,1,0,0:0:0:0:s_064.ogg
332,192,37350,1,0,0:0:0:0:s_052.ogg
76,192,37433,1,0,0:0:0:0:s_047.ogg
128,192,37433,1,0,0:0:0:0:s_044.ogg
179,192,37433,1,0,0:0:0:0:s_040.ogg
435,192,37433,1,0,0:0:0:0:s_052.ogg
332,192,37516,1,0,0:0:0:0:s_052.ogg
25,192,37600,1,0,0:0:0:0:m_033.ogg
486,192,37600,1,0,0:0:0:0:s_064.ogg
332,192,37683,1,0,0:0:0:0:s_052.ogg
435,192,37766,1,0,0:0:0:0:s_052.ogg
332,192,37850,1,0,0:0:0:0:s_052.ogg
128,192,37933,1,0,0:0:0:0:m_045.ogg
179,192,37933,1,0,0:0:0:0:m_040.ogg
230,192,37933,1,0,0:0:0:0:m_048.ogg
486,192,37933,1,0,0:0:0:0:s_064.ogg
332,192,38016,1,0,0:0:0:0:s_052.ogg
435,192,38100,1,0,0:0:0:0:s_052.ogg
332,192,38183,1,0,0:0:0:0:s_052.ogg
25,192,38266,1,0,0:0:0:0:s_028.ogg
486,192,38266,1,0,0:0:0:0:s_064.ogg
332,192,38350,1,0,0:0:0:0:s_052.ogg
76,192,38433,1,0,0:0:0:0:s_040.ogg
179,192,38433,1,0,0:0:0:0:s_036.ogg
230,192,38433,1,0,0:0:0:0:s_047.ogg
435,192,38433,1,0,0:0:0:0:s_052.ogg
332,192,38516,1,0,0:0:0:0:s_052.ogg
25,192,38600,1,0,0:0:0:0:s_033.ogg
486,192,38600,1,0,0:0:0:0:s_064.ogg
332,192,38683,1,0,0:0:0:0:s_052.ogg
76,192,38766,1,0,0:0:0:0:s_036.ogg
128,192,38766,1,0,0:0:0:0:s_040.ogg
179,192,38766,1,0,0:0:0:0:s_045.ogg
435,192,38766,1,0,0:0:0:0:s_052.ogg
332,192,38850,1,0,0:0:0:0:s_052.ogg
25,192,38933,1,0,0:0:0:0:m_035.ogg
384,192,38933,1,0,0:0:0:0:s_064.ogg
281,192,39016,1,0,0:0:0:0:s_052.ogg
435,192,39100,1,0,0:0:0:0:s_064.ogg
384,192,39183,1,0,0:0:0:0:s_064.ogg
128,192,39266,1,0,0:0:0:0:m_050.ogg
179,192,39266,1,0,0:0:0:0:m_044.ogg
230,192,39266,1,0,0:0:0:0:m_040.ogg
486,192,39266,1,0,0:0:0:0:s_076.ogg
384,192,39350,1,0,0:0:0:0:s_064.ogg
435,192,39433,1,0,0:0:0:0:s_064.ogg
281,192,39516,1,0,0:0:0:0:s_052.ogg
25,192,39600,1,0,0:0:0:0:m_028.ogg
384,192,39600,1,0,0:0:0:0:s_064.ogg
281,192,39683,1,0,0:0:0:0:s_052.ogg
332,192,39766,1,0,0:0:0:0:s_052.ogg
281,192,39850,1,0,0:0:0:0:s_052.ogg
128,192,39933,1,0,0:0:0:0:m_050.ogg
179,192,39933,1,0,0:0:0:0:m_040.ogg
230,192,39933,1,0,0:0:0:0:m_044.ogg
384,192,39933,1,0,0:0:0:0:s_064.ogg
281,192,40016,1,0,0:0:0:0:s_052.ogg
332,192,40100,1,0,0:0:0:0:s_052.ogg
281,192,40183,1,0,0:0:0:0:s_052.ogg
25,192,40266,1,0,0:0:0:0:m_033.ogg
384,192,40266,1,0,0:0:0:0:s_064.ogg
281,192,40350,1,0,0:0:0:0:s_052.ogg
435,192,40433,1,0,0:0:0:0:s_064.ogg
384,192,40516,1,0,0:0:0:0:s_064.ogg
76,192,40600,1,0,0:0:0:0:m_049.ogg
128,192,40600,1,0,0:0:0:0:m_045.ogg
179,192,40600,1,0,0:0:0:0:m_040.ogg
486,192,40600,1,0,0:0:0:0:s_076.ogg
384,192,40683,1,0,0:0:0:0:s_064.ogg
435,192,40766,1,0,0:0:0:0:s_064.ogg
281,192,40850,1,0,0:0:0:0:s_052.ogg
25,192,40933,1,0,0:0:0:0:m_028.ogg
384,192,40933,1,0,0:0:0:0:s_064.ogg
281,192,41016,1,0,0:0:0:0:s_052.ogg
332,192,41100,1,0,0:0:0:0:s_052.ogg
281,192,41183,1,0,0:0:0:0:s_052.ogg
76,192,41266,1,0,0:0:0:0:m_049.ogg
128,192,41266,1,0,0:0:0:0:m_045.ogg
179,192,41266,1,0,0:0:0:0:m_040.ogg
384,192,41266,1,0,0:0:0:0:s_064.ogg
281,192,41350,1,0,0:0:0:0:s_052.ogg
332,192,41433,1,0,0:0:0:0:s_052.ogg
281,192,41516,1,0,0:0:0:0:s_052.ogg
25,192,41600,1,0,0:0:0:0:s_035.ogg
384,192,41600,1,0,0:0:0:0:s_064.ogg
281,192,41683,1,0,0:0:0:0:s_052.ogg
128,192,41766,1,0,0:0:0:0:s_050.ogg
179,192,41766,1,0,0:0:0:0:s_044.ogg
230,192,41766,1,0,0:0:0:0:s_040.ogg
435,192,41766,1,0,0:0:0:0:s_064.ogg
384,192,41850,1,0,0:0:0:0:s_064.ogg
25,192,41933,1,0,0:0:0:0:s_028.ogg
486,192,41933,1,0,0:0:0:0:s_076.ogg
384,192,42016,1,0,0:0:0:0:s_064.ogg
128,192,42100,1,0,0:0:0:0:s_050.ogg
179,192,42100,1,0,0:0:0:0:s_040.ogg
230,192,42100,1,0,0:0:0:0:s_044.ogg
435,192,42100,1,0,0:0:0:0:s_064.ogg
281,192,42183,1,0,0:0:0:0:s_052.ogg
25,192,42266,1,0,0:0:0:0:s_035.ogg
384,192,42266,1,0,0:0:0:0:s_064.ogg
281,192,42350,1,0,0:0:0:0:s_052.ogg
128,192,42433,1,0,0:0:0:0:s_050.ogg
179,192,42433,1,0,0:0:0:0:s_040.ogg
230,192,42433,1,0,0:0:0:0:s_044.ogg
332,192,42433,1,0,0:0:0:0:s_052.ogg
281,192,42516,1,0,0:0:0:0:s_052.ogg
25,192,42600,1,0,0:0:0:0:s_028.ogg
384,192,42600,1,0,0:0:0:0:s_064.ogg
281,192,42683,1,0,0:0:0:0:s_052.ogg
128,192,42766,1,0,0:0:0:0:s_050.ogg
179,192,42766,1,0,0:0:0:0:s_040.ogg
230,192,42766,1,0,0:0:0:0:s_044.ogg
332,192,42766,1,0,0:0:0:0:s_052.ogg
281,192,42850,1,0,0:0:0:0:s_052.ogg
25,192,42933,1,0,0:0:0:0:s_033.ogg
384,192,42933,1,0,0:0:0:0:s_064.ogg
281,192,43016,1,0,0:0:0:0:s_052.ogg
76,192,43100,1,0,0:0:0:0:s_049.ogg
128,192,43100,1,0,0:0:0:0:s_040.ogg
179,192,43100,1,0,0:0:0:0:s_045.ogg
435,192,43100,1,0,0:0:0:0:s_064.ogg
384,192,43183,1,0,0:0:0:0:s_064.ogg
25,192,43266,1,0,0:0:0:0:s_028.ogg
486,192,43266,1,0,0:0:0:0:s_076.ogg
384,192,43350,1,0,0:0:0:0:s_064.ogg
76,192,43433,1,0,0:0:0:0:s_040.ogg
128,192,43433,1,0,0:0:0:0:s_049.ogg
179,192,43433,1,0,0:0:0:0:s_045.ogg
435,192,43433,1,0,0:0:0:0:s_064.ogg
281,192,43516,1,0,0:0:0:0:s_052.ogg
25,192,43600,1,0,0:0:0:0:s_033.ogg
384,192,43600,1,0,0:0:0:0:s_064.ogg
281,192,43683,1,0,0:0:0:0:s_052.ogg
76,192,43766,1,0,0:0:0:0:s_040.ogg
128,192,43766,1,0,0:0:0:0:s_049.ogg
179,192,43766,1,0,0:0:0:0:s_045.ogg
332,192,43766,1,0,0:0:0:0:s_052.ogg
281,192,43850,1,0,0:0:0:0:s_052.ogg
25,192,43933,1,0,0:0:0:0:s_028.ogg
384,192,43933,1,0,0:0:0:0:s_064.ogg
281,192,44016,1,0,0:0:0:0:s_052.ogg
76,192,44100,1,0,0:0:0:0:s_045.ogg
128,192,44100,1,0,0:0:0:0:s_049.ogg
179,192,44100,1,0,0:0:0:0:s_040.ogg
332,192,44100,1,0,0:0:0:0:s_052.ogg
281,192,44183,1,0,0:0:0:0:s_052.ogg
25,192,44266,1,0,0:0:0:0:s_035.ogg
384,192,44266,1,0,0:0:0:0:s_064.ogg
281,192,44350,1,0,0:0:0:0:s_052.ogg
128,192,44433,1,0,0:0:0:0:s_050.ogg
179,192,44433,1,0,0:0:0:0:s_040.ogg
230,192,44433,1,0,0:0:0:0:s_044.ogg
435,192,44433,1,0,0:0:0:0:s_064.ogg
384,192,44516,1,0,0:0:0:0:s_064.ogg
25,192,44600,1,0,0:0:0:0:s_028.ogg
486,192,44600,1,0,0:0:0:0:s_076.ogg
384,192,44683,1,0,0:0:0:0:s_064.ogg
128,192,44766,1,0,0:0:0:0:s_050.ogg
179,192,44766,1,0,0:0:0:0:s_040.ogg
230,192,44766,1,0,0:0:0:0:s_044.ogg
435,192,44766,1,0,0:0:0:0:s_064.ogg
281,192,44850,1,0,0:0:0:0:s_052.ogg
25,192,44933,1,0,0:0:0:0:s_035.ogg
384,192,44933,1,0,0:0:0:0:s_064.ogg
281,192,45016,1,0,0:0:0:0:s_052.ogg
128,192,45100,1,0,0:0:0:0:s_040.ogg
179,192,45100,1,0,0:0:0:0:s_050.ogg
230,192,45100,1,0,0:0:0:0:s_044.ogg
332,192,45100,1,0,0:0:0:0:s_064.ogg
384,192,45183,1,0,0:0:0:0:s_064.ogg
25,192,45266,1,0,0:0:0:0:s_028.ogg
486,192,45266,1,0,0:0:0:0:s_076.ogg
384,192,45350,1,0,0:0:0:0:s_064.ogg
128,192,45433,1,0,0:0:0:0:s_040.ogg
179,192,45433,1,0,0:0:0:0:s_050.ogg
230,192,45433,1,0,0:0:0:0:s_044.ogg
332,192,45433,1,0,0:0:0:0:s_064.ogg
281,192,45516,1,0,0:0:0:0:s_052.ogg
25,192,45600,1,0,0:0:0:0:s_033.ogg
384,192,45600,1,0,0:0:0:0:s_064.ogg
281,192,45683,1,0,0:0:0:0:s_052.ogg
76,192,45766,1,0,0:0:0:0:s_049.ogg
128,192,45766,1,0,0:0:0:0:s_045.ogg
179,192,45766,1,0,0:0:0:0:s_040.ogg
435,192,45766,1,0,0:0:0:0:s_064.ogg
384,192,45850,1,0,0:0:0:0:s_064.ogg
25,192,45933,1,0,0:0:0:0:s_028.ogg
486,192,45933,1,0,0:0:0:0:s_076.ogg
384,192,46016,1,0,0:0:0:0:s_064.ogg
76,192,46100,1,0,0:0:0:0:s_040.ogg
128,192,46100,1,0,0:0:0:0:s_049.ogg
179,192,46100,1,0,0:0:0:0:s_045.ogg
435,192,46100,1,0,0:0:0:0:s_064.ogg
281,192,46183,1,0,0:0:0:0:s_052.ogg
25,192,46266,1,0,0:0:0:0:s_033.ogg
384,192,46266,1,0,0:0:0:0:s_064.ogg
281,192,46350,1,0,0:0:0:0:s_052.ogg
76,192,46433,1,0,0:0:0:0:s_040.ogg
128,192,46433,1,0,0:0:0:0:s_049.ogg
179,192,46433,1,0,0:0:0:0:s_045.ogg
332,192,46433,1,0,0:0:0:0:s_064.ogg
384,192,46516,1,0,0:0:0:0:s_064.ogg
25,192,46600,1,0,0:0:0:0:s_028.ogg
486,192,46600,1,0,0:0:0:0:s_076.ogg
384,192,46683,1,0,0:0:0:0:s_064.ogg
76,192,46766,1,0,0:0:0:0:s_049.ogg
128,192,46766,1,0,0:0:0:0:s_040.ogg
179,192,46766,1,0,0:0:0:0:s_045.ogg
332,192,46766,1,0,0:0:0:0:s_064.ogg
281,192,46850,1,0,0:0:0:0:s_052.ogg
25,192,46933,1,0,0:0:0:0:s_023.ogg
76,192,46933,1,0,0:0:0:0:s_035.ogg
332,192,46933,1,0,0:0:0:0:s_056.ogg
384,192,46933,1,0,0:0:0:0:s_051.ogg
435,192,46933,1,0,0:0:0:0:s_063.ogg
128,192,47183,1,0,0:0:0:0:s_040.ogg
179,192,47183,1,0,0:0:0:0:s_035.ogg
230,192,47183,1,0,0:0:0:0:s_044.ogg
384,192,47183,1,0,0:0:0:0:s_052.ogg
435,192,47183,1,0,0:0:0:0:s_059.ogg
486,192,47183,1,0,0:0:0:0:s_064.ogg
25,192,47433,1,0,0:0:0:0:s_028.ogg
76,192,47433,1,0,0:0:0:0:s_016.ogg
281,192,47433,1,0,0:0:0:0:m_056.ogg
332,192,47433,1,0,0:0:0:0:m_062.ogg
384,192,47433,1,0,0:0:0:0:m_050.ogg
128,192,47683,1,0,0:0:0:0:s_035.ogg
179,192,47683,1,0,0:0:0:0:s_040.ogg
230,192,47683,1,0,0:0:0:0:s_044.ogg
281,192,47808,1,0,0:0:0:0:s_052.ogg
486,192,47808,1,0,0:0:0:0:s_064.ogg
76,192,47933,1,0,0:0:0:0:s_023.ogg
128,192,47933,1,0,0:0:0:0:s_035.ogg
332,192,47933,1,0,0:0:0:0:s_051.ogg
384,192,47933,1,0,0:0:0:0:s_056.ogg
435,192,47933,1,0,0:0:0:0:s_063.ogg
128,192,48183,1,0,0:0:0:0:s_035.ogg
179,192,48183,1,0,0:0:0:0:s_040.ogg
230,192,48183,1,0,0:0:0:0:s_044.ogg
384,192,48183,1,0,0:0:0:0:s_059.ogg
435,192,48183,1,0,0:0:0:0:s_052.ogg
486,192,48183,1,0,0:0:0:0:s_064.ogg
25,192,48433,1,0,0:0:0:0:s_016.ogg
76,192,48433,1,0,0:0:0:0:s_028.ogg
281,192,48433,1,0,0:0:0:0:m_050.ogg
332,192,48433,1,0,0:0:0:0:m_056.ogg
384,192,48433,1,0,0:0:0:0:m_062.ogg
128,192,48683,1,0,0:0:0:0:s_040.ogg
179,192,48683,1,0,0:0:0:0:s_035.ogg
230,192,48683,1,0,0:0:0:0:s_044.ogg
435,192,48808,1,0,0:0:0:0:s_052.ogg
486,192,48808,1,0,0:0:0:0:s_064.ogg
25,192,48933,1,0,0:0:0:0:s_033.ogg
76,192,48933,1,0,0:0:0:0:s_021.ogg
281,192,48933,1,0,0:0:0:0:s_051.ogg
332,192,48933,1,0,0:0:0:0:s_060.ogg
384,192,48933,1,0,0:0:0:0:s_063.ogg
128,192,49133,1,0,0:0:0:0:s_037.ogg
179,192,49133,1,0,0:0:0:0:s_040.ogg
230,192,49133,1,0,0:0:0:0:s_045.ogg
384,192,49133,1,0,0:0:0:0:s_061.ogg
435,192,49133,1,0,0:0:0:0:s_064.ogg
486,192,49133,1,0,0:0:0:0:s_052.ogg
25,192,49333,1,0,0:0:0:0:s_028.ogg
76,192,49333,1,0,0:0:0:0:s_016.ogg
332,192,49333,1,0,0:0:0:0:m_049.ogg
384,192,49333,1,0,0:0:0:0:m_061.ogg
435,192,49333,1,0,0:0:0:0:m_057.ogg
128,192,49533,1,0,0:0:0:0:s_037.ogg
179,192,49533,1,0,0:0:0:0:s_045.ogg
230,192,49533,1,0,0:0:0:0:s_040.ogg
281,192,49633,1,0,0:0:0:0:s_061.ogg
435,192,49633,1,0,0:0:0:0:s_052.ogg
486,192,49633,1,0,0:0:0:0:s_064.ogg
25,192,49733,1,0,0:0:0:0:s_033.ogg
76,192,49733,1,0,0:0:0:0:s_021.ogg
128,192,49733,1,0,0:0:0:0:s_051.ogg
332,192,49733,1,0,0:0:0:0:s_060.ogg
384,192,49733,1,0,0:0:0:0:s_063.ogg
128,192,49933,1,0,0:0:0:0:s_045.ogg
179,192,49933,1,0,0:0:0:0:s_040.ogg
230,192,49933,1,0,0:0:0:0:s_037.ogg
384,192,49933,1,0,0:0:0:0:s_064.ogg
435,192,49933,1,0,0:0:0:0:s_061.ogg
486,192,49933,1,0,0:0:0:0:s_052.ogg
25,192,50133,1,0,0:0:0:0:s_028.ogg
76,192,50133,1,0,0:0:0:0:s_016.ogg
332,192,50133,1,0,0:0:0:0:m_061.ogg
384,192,50133,1,0,0:0:0:0:m_057.ogg
435,192,50133,1,0,0:0:0:0:m_049.ogg
128,192,50333,1,0,0:0:0:0:s_040.ogg
179,192,50333,1,0,0:0:0:0:s_037.ogg
230,192,50333,1,0,0:0:0:0:s_045.ogg
281,192,50433,1,0,0:0:0:0:s_052.ogg
435,192,50433,1,0,0:0:0:0:s_064.ogg
486,192,50433,1,0,0:0:0:0:s_061.ogg
25,192,50533,1,0,0:0:0:0:s_035.ogg
76,192,50533,1,0,0:0:0:0:s_023.ogg
332,192,50533,1,0,0:0:0:0:s_063.ogg
384,192,50533,1,0,0:0:0:0:s_051.ogg
179,192,50700,1,0,0:0:0:0:s_044.ogg
230,192,50700,1,0,0:0:0:0:s_040.ogg
332,192,50700,1,0,0:0:0:0:s_064.ogg
384,192,50700,1,0,0:0:0:0:s_059.ogg
435,192,50700,1,0,0:0:0:0:s_052.ogg
25,192,50866,1,0,0:0:0:0:s_016.ogg
76,192,50866,1,0,0:0:0:0:s_028.ogg
384,192,50866,1,0,0:0:0:0:m_066.ogg
435,192,50866,1,0,0:0:0:0:m_062.ogg
486,192,50866,1,0,0:0:0:0:m_054.ogg
128,192,51033,1,0,0:0:0:0:s_044.ogg
179,192,51033,1,0,0:0:0:0:s_038.ogg
230,192,51033,1,0,0:0:0:0:s_040.ogg
281,192,51116,1,0,0:0:0:0:s_064.ogg
435,192,51116,1,0,0:0:0:0:s_059.ogg
486,192,51116,1,0,0:0:0:0:s_052.ogg
25,192,51200,1,0,0:0:0:0:s_035.ogg
76,192,51200,1,0,0:0:0:0:s_023.ogg
332,192,51200,1,0,0:0:0:0:s_063.ogg
384,192,51200,1,0,0:0:0:0:s_051.ogg
128,192,51366,1,0,0:0:0:0:s_044.ogg
179,192,51366,1,0,0:0:0:0:s_040.ogg
230,192,51366,1,0,0:0:0:0:s_038.ogg
332,192,51366,1,0,0:0:0:0:s_064.ogg
384,192,51366,1,0,0:0:0:0:s_059.ogg
435,192,51366,1,0,0:0:0:0:s_052.ogg
25,192,51533,1,0,0:0:0:0:s_028.ogg
76,192,51533,1,0,0:0:0:0:s_016.ogg
384,192,51533,1,0,0:0:0:0:m_054.ogg
435,192,51533,1,0,0:0:0:0:m_066.ogg
486,192,51533,1,0,0:0:0:0:m_062.ogg
128,192,51700,1,0,0:0:0:0:s_040.ogg
179,192,51700,1,0,0:0:0:0:s_044.ogg
230,192,51700,1,0,0:0:0:0:s_038.ogg
281,192,51783,1,0,0:0:0:0:s_064.ogg
435,192,51783,1,0,0:0:0:0:s_059.ogg
486,192,51783,1,0,0:0:0:0:s_052.ogg
25,192,51866,1,0,0:0:0:0:s_033.ogg
76,192,51866,1,0,0:0:0:0:s_021.ogg
128,192,51866,1,0,0:0:0:0:s_051.ogg
332,192,51866,1,0,0:0:0:0:s_060.ogg
384,192,51866,1,0,0:0:0:0:s_063.ogg
128,192,52033,1,0,0:0:0:0:s_045.ogg
179,192,52033,1,0,0:0:0:0:s_037.ogg
230,192,52033,1,0,0:0:0:0:s_040.ogg
332,192,52033,1,0,0:0:0:0:s_064.ogg
384,192,52033,1,0,0:0:0:0:s_061.ogg
435,192,52033,1,0,0:0:0:0:s_052.ogg
25,192,52200,1,0,0:0:0:0:s_028.ogg
76,192,52200,1,0,0:0:0:0:s_016.ogg
384,192,52200,1,0,0:0:0:0:m_069.ogg
435,192,52200,1,0,0:0:0:0:m_057.ogg
486,192,52200,1,0,0:0:0:0:m_061.ogg
128,192,52366,1,0,0:0:0:0:s_045.ogg
179,192,52366,1,0,0:0:0:0:s_037.ogg
230,192,52366,1,0,0:0:0:0:s_040.ogg
435,192,52450,1,0,0:0:0:0:s_064.ogg
486,192,52450,1,0,0:0:0:0:s_052.ogg
25,192,52533,1,0,0:0:0:0:s_033.ogg
76,192,52533,1,0,0:0:0:0:s_021.ogg
281,192,52533,1,0,0:0:0:0:s_060.ogg
332,192,52533,1,0,0:0:0:0:s_063.ogg
384,192,52533,1,0,0:0:0:0:s_051.ogg
128,192,52700,1,0,0:0:0:0:s_045.ogg
179,192,52700,1,0,0:0:0:0:s_040.ogg
230,192,52700,1,0,0:0:0:0:s_037.ogg
332,192,52700,1,0,0:0:0:0:s_061.ogg
384,192,52700,1,0,0:0:0:0:s_052.ogg
435,192,52700,1,0,0:0:0:0:s_064.ogg
25,192,52866,1,0,0:0:0:0:s_028.ogg
76,192,52866,1,0,0:0:0:0:s_016.ogg
384,192,52866,1,0,0:0:0:0:m_061.ogg
435,192,52866,1,0,0:0:0:0:m_057.ogg
486,192,52866,1,0,0:0:0:0:m_069.ogg
128,192,53033,1,0,0:0:0:0:s_037.ogg
179,192,53033,1,0,0:0:0:0:s_045.ogg
230,192,53033,1,0,0:0:0:0:s_040.ogg
281,192,53116,1,0,0:0:0:0:s_064.ogg
486,192,53116,1,0,0:0:0:0:s_052.ogg
76,192,53200,1,0,0:0:0:0:s_035.ogg
332,192,53200,1,0,0:0:0:0:s_051.ogg
384,192,53200,1,0,0:0:0:0:s_063.ogg
435,192,53200,1,0,0:0:0:0:s_056.ogg
179,192,53366,1,0,0:0:0:0:s_044.ogg
230,192,53366,1,0,0:0:0:0:s_040.ogg
435,192,53366,1,0,0:0:0:0:s_064.ogg
486,192,53366,1,0,0:0:0:0:s_052.ogg
25,192,53533,1,0,0:0:0:0:s_028.ogg
281,192,53533,1,0,0:0:0:0:m_062.ogg
332,192,53533,1,0,0:0:0:0:m_056.ogg
384,192,53533,1,0,0:0:0:0:m_050.ogg
128,192,53700,1,0,0:0:0:0:s_040.ogg
179,192,53700,1,0,0:0:0:0:s_035.ogg
230,192,53700,1,0,0:0:0:0:s_044.ogg
281,192,53783,1,0,0:0:0:0:s_052.ogg
486,192,53783,1,0,0:0:0:0:s_064.ogg
76,192,53866,1,0,0:0:0:0:s_023.ogg
332,192,53866,1,0,0:0:0:0:s_063.ogg
384,192,53866,1,0,0:0:0:0:s_056.ogg
435,192,53866,1,0,0:0:0:0:s_051.ogg
128,192,54033,1,0,0:0:0:0:s_044.ogg
179,192,54033,1,0,0:0:0:0:s_040.ogg
230,192,54033,1,0,0:0:0:0:s_035.ogg
435,192,54033,1,0,0:0:0:0:s_064.ogg
486,192,54033,1,0,0:0:0:0:s_052.ogg
25,192,54200,1,0,0:0:0:0:s_016.ogg
281,192,54200,1,0,0:0:0:0:m_050.ogg
332,192,54200,1,0,0:0:0:0:m_056.ogg
384,192,54200,1,0,0:0:0:0:m_062.ogg
128,192,54366,1,0,0:0:0:0:s_044.ogg
179,192,54366,1,0,0:0:0:0:s_035.ogg
230,192,54366,1,0,0:0:0:0:s_040.ogg
435,192,54450,1,0,0:0:0:0:s_052.ogg
486,192,54450,1,0,0:0:0:0:s_064.ogg
76,192,54533,1,0,0:0:0:0:s_033.ogg
281,192,54533,1,0,0:0:0:0:s_051.ogg
332,192,54533,1,0,0:0:0:0:s_063.ogg
384,192,54533,1,0,0:0:0:0:s_060.ogg
128,192,54700,1,0,0:0:0:0:s_045.ogg
179,192,54700,1,0,0:0:0:0:s_040.ogg
230,192,54700,1,0,0:0:0:0:s_037.ogg
384,192,54700,1,0,0:0:0:0:s_064.ogg
435,192,54700,1,0,0:0:0:0:s_061.ogg
486,192,54700,1,0,0:0:0:0:s_052.ogg
25,192,54866,1,0,0:0:0:0:s_028.ogg
332,192,54866,1,0,0:0:0:0:m_061.ogg
384,192,54866,1,0,0:0:0:0:m_057.ogg
435,192,54866,1,0,0:0:0:0:m_049.ogg
128,192,55033,1,0,0:0:0:0:s_040.ogg
179,192,55033,1,0,0:0:0:0:s_045.ogg
230,192,55033,1,0,0:0:0:0:s_037.ogg
384,192,55116,1,0,0:0:0:0:s_064.ogg
435,192,55116,1,0,0:0:0:0:s_061.ogg
486,192,55116,1,0,0:0:0:0:s_052.ogg
25,192,55200,1,0,0:0:0:0:s_021.ogg
76,192,55200,1,0,0:0:0:0:s_051.ogg
281,192,55200,1,0,0:0:0:0:s_063.ogg
332,192,55200,1,0,0:0:0:0:s_060.ogg
128,192,55366,1,0,0:0:0:0:s_037.ogg
179,192,55366,1,0,0:0:0:0:s_045.ogg
230,192,55366,1,0,0:0:0:0:s_040.ogg
384,192,55366,1,0,0:0:0:0:s_052.ogg
435,192,55366,1,0,0:0:0:0:s_061.ogg
486,192,55366,1,0,0:0:0:0:s_064.ogg
25,192,55533,1,0,0:0:0:0:s_016.ogg
332,192,55533,1,0,0:0:0:0:m_061.ogg
384,192,55533,1,0,0:0:0:0:m_049.ogg
435,192,55533,1,0,0:0:0:0:m_057.ogg
128,192,55700,1,0,0:0:0:0:s_040.ogg
179,192,55700,1,0,0:0:0:0:s_037.ogg
230,192,55700,1,0,0:0:0:0:s_045.ogg
384,192,55783,1,0,0:0:0:0:s_052.ogg
435,192,55783,1,0,0:0:0:0:s_064.ogg
486,192,55783,1,0,0:0:0:0:s_061.ogg
76,192,55866,1,0,0:0:0:0:s_035.ogg
281,192,55866,1,0,0:0:0:0:s_051.ogg
332,192,55866,1,0,0:0:0:0:s_063.ogg
179,192,56033,1,0,0:0:0:0:s_044.ogg
230,192,56033,1,0,0:0:0:0:s_040.ogg
281,192,56033,1,0,0:0:0:0:s_064.ogg
332,192,56033,1,0,0:0:0:0:s_059.ogg
384,192,56033,1,0,0:0:0:0:s_052.ogg
25,192,56200,1,0,0:0:0:0:s_028.ogg
332,192,56200,1,0,0:0:0:0:m_054.ogg
384,192,56200,1,0,0:0:0:0:m_066.ogg
435,192,56200,1,0,0:0:0:0:m_062.ogg
128,192,56366,1,0,0:0:0:0:s_044.ogg
179,192,56366,1,0,0:0:0:0:s_035.ogg
230,192,56366,1,0,0:0:0:0:s_040.ogg
384,192,56450,1,0,0:0:0:0:s_059.ogg
435,192,56450,1,0,0:0:0:0:s_064.ogg
486,192,56450,1,0,0:0:0:0:s_052.ogg
76,192,56533,1,0,0:0:0:0:s_023.ogg
281,192,56533,1,0,0:0:0:0:s_063.ogg
332,192,56533,1,0,0:0:0:0:s_051.ogg
128,192,56700,1,0,0:0:0:0:s_044.ogg
179,192,56700,1,0,0:0:0:0:s_040.ogg
230,192,56700,1,0,0:0:0:0:s_035.ogg
281,192,56700,1,0,0:0:0:0:s_064.ogg
332,192,56700,1,0,0:0:0:0:s_052.ogg
384,192,56700,1,0,0:0:0:0:s_059.ogg
25,192,56866,1,0,0:0:0:0:s_016.ogg
332,192,56866,1,0,0:0:0:0:m_066.ogg
384,192,56866,1,0,0:0:0:0:m_062.ogg
435,192,56866,1,0,0:0:0:0:m_054.ogg
128,192,57033,1,0,0:0:0:0:s_044.ogg
179,192,57033,1,0,0:0:0:0:s_035.ogg
230,192,57033,1,0,0:0:0:0:s_040.ogg
281,192,57116,1,0,0:0:0:0:s_064.ogg
435,192,57116,1,0,0:0:0:0:s_059.ogg
486,192,57116,1,0,0:0:0:0:s_052.ogg
25,192,57200,1,0,0:0:0:0:s_033.ogg
76,192,57200,1,0,0:0:0:0:s_051.ogg
332,192,57200,1,0,0:0:0:0:s_063.ogg
384,192,57200,1,0,0:0:0:0:s_060.ogg
128,192,57366,1,0,0:0:0:0:s_045.ogg
179,192,57366,1,0,0:0:0:0:s_037.ogg
230,192,57366,1,0,0:0:0:0:s_040.ogg
332,192,57366,1,0,0:0:0:0:s_064.ogg
384,192,57366,1,0,0:0:0:0:s_061.ogg
435,192,57366,1,0,0:0:0:0:s_052.ogg
25,192,57533,1,0,0:0:0:0:s_028.ogg
384,192,57533,1,0,0:0:0:0:m_061.ogg
435,192,57533,1,0,0:0:0:0:m_069.ogg
486,192,57533,1,0,0:0:0:0:m_057.ogg
128,192,57700,1,0,0:0:0:0:s_037.ogg
179,192,57700,1,0,0:0:0:0:s_040.ogg
230,192,57700,1,0,0:0:0:0:s_045.ogg
435,192,57783,1,0,0:0:0:0:s_064.ogg
486,192,57783,1,0,0:0:0:0:s_052.ogg
76,192,57866,1,0,0:0:0:0:s_021.ogg
281,192,57866,1,0,0:0:0:0:s_063.ogg
332,192,57866,1,0,0:0:0:0:s_060.ogg
384,192,57866,1,0,0:0:0:0:s_051.ogg
128,192,58033,1,0,0:0:0:0:s_045.ogg
179,192,58033,1,0,0:0:0:0:s_040.ogg
230,192,58033,1,0,0:0:0:0:s_037.ogg
332,192,58033,1,0,0:0:0:0:s_064.ogg
384,192,58033,1,0,0:0:0:0:s_052.ogg
435,192,58033,1,0,0:0:0:0:s_061.ogg
25,192,58200,1,0,0:0:0:0:s_016.ogg
384,192,58200,1,0,0:0:0:0:m_069.ogg
435,192,58200,1,0,0:0:0:0:m_061.ogg
486,192,58200,1,0,0:0:0:0:m_057.ogg
128,192,58366,1,0,0:0:0:0:s_045.ogg
179,192,58366,1,0,0:0:0:0:s_040.ogg
230,192,58366,1,0,0:0:0:0:s_037.ogg
281,192,58450,1,0,0:0:0:0:s_052.ogg
384,192,58450,1,0,0:0:0:0:s_064.ogg
76,192,58533,1,0,0:0:0:0:s_033.ogg
332,192,58533,1,0,0:0:0:0:s_066.ogg
435,192,58533,1,0,0:0:0:0:s_062.ogg
486,192,58533,1,0,0:0:0:0:s_054.ogg
128,192,58700,1,0,0:0:0:0:s_042.ogg
179,192,58700,1,0,0:0:0:0:s_038.ogg
384,192,58700,1,0,0:0:0:0:s_062.ogg
435,192,58700,1,0,0:0:0:0:s_057.ogg
25,192,58866,1,0,0:0:0:0:s_028.ogg
332,192,58866,1,0,0:0:0:0:s_054.ogg
384,192,58866,1,0,0:0:0:0:s_057.ogg
179,192,59033,1,0,0:0:0:0:s_042.ogg
230,192,59033,1,0,0:0:0:0:s_045.ogg
281,192,59033,1,0,0:0:0:0:s_050.ogg
332,192,59033,1,0,0:0:0:0:s_054.ogg
76,192,59200,1,0,0:0:0:0:s_033.ogg
332,192,59200,1,0,0:0:0:0:s_054.ogg
384,192,59200,1,0,0:0:0:0:s_057.ogg
128,192,59366,1,0,0:0:0:0:s_038.ogg
179,192,59366,1,0,0:0:0:0:s_042.ogg
384,192,59366,1,0,0:0:0:0:s_062.ogg
435,192,59366,1,0,0:0:0:0:s_057.ogg
25,192,59533,1,0,0:0:0:0:s_028.ogg
435,192,59533,1,0,0:0:0:0:s_062.ogg
486,192,59533,1,0,0:0:0:0:s_066.ogg
179,192,59700,1,0,0:0:0:0:s_042.ogg
230,192,59700,1,0,0:0:0:0:s_045.ogg
281,192,59700,1,0,0:0:0:0:s_066.ogg
384,192,59700,1,0,0:0:0:0:s_069.ogg
76,192,59866,1,0,0:0:0:0:s_033.ogg
332,192,59866,1,0,0:0:0:0:s_052.ogg
435,192,59866,1,0,0:0:0:0:s_064.ogg
486,192,59866,1,0,0:0:0:0:s_061.ogg
128,192,60033,1,0,0:0:0:0:s_040.ogg
179,192,60033,1,0,0:0:0:0:s_037.ogg
384,192,60033,1,0,0:0:0:0:s_061.ogg
435,192,60033,1,0,0:0:0:0:s_057.ogg
25,192,60200,1,0,0:0:0:0:s_028.ogg
332,192,60200,1,0,0:0:0:0:s_057.ogg
384,192,60200,1,0,0:0:0:0:s_052.ogg
179,192,60366,1,0,0:0:0:0:s_045.ogg
230,192,60366,1,0,0:0:0:0:s_040.ogg
281,192,60366,1,0,0:0:0:0:s_052.ogg
332,192,60366,1,0,0:0:0:0:s_049.ogg
76,192,60533,1,0,0:0:0:0:s_033.ogg
332,192,60533,1,0,0:0:0:0:s_052.ogg
384,192,60533,1,0,0:0:0:0:s_057.ogg
128,192,60700,1,0,0:0:0:0:s_040.ogg
179,192,60700,1,0,0:0:0:0:s_037.ogg
384,192,60700,1,0,0:0:0:0:s_061.ogg
435,192,60700,1,0,0:0:0:0:s_057.ogg
25,192,60866,1,0,0:0:0:0:s_028.ogg
332,192,60866,128,0,61116:0:0:0:0:m_052.ogg
281,192,60866,128,0,61116:0:0:0:0:m_057.ogg
435,192,60866,128,0,61116:0:0:0:0:m_061.ogg
486,192,60866,128,0,61116:0:0:0:0:m_064.ogg
179,192,61033,1,0,0:0:0:0:s_040.ogg
230,192,61033,1,0,0:0:0:0:s_045.ogg
76,192,61200,1,0,0:0:0:0:s_033.ogg
281,192,61200,1,0,0:0:0:0:s_054.ogg
332,192,61220,1,0,0:0:0:0:s_057.ogg
384,192,61241,1,0,0:0:0:0:s_062.ogg
435,192,61262,1,0,0:0:0:0:s_066.ogg
128,192,61366,1,0,0:0:0:0:s_042.ogg
179,192,61366,1,0,0:0:0:0:s_038.ogg
281,192,61366,1,0,0:0:0:0:s_062.ogg
486,192,61366,1,0,0:0:0:0:s_057.ogg
25,192,61533,1,0,0:0:0:0:s_028.ogg
384,192,61533,1,0,0:0:0:0:s_054.ogg
435,192,61533,1,0,0:0:0:0:s_057.ogg
179,192,61700,1,0,0:0:0:0:s_045.ogg
230,192,61700,1,0,0:0:0:0:s_042.ogg
281,192,61700,1,0,0:0:0:0:s_050.ogg
332,192,61700,1,0,0:0:0:0:s_054.ogg
76,192,61866,1,0,0:0:0:0:s_033.ogg
281,192,61866,1,0,0:0:0:0:s_054.ogg
384,192,61866,1,0,0:0:0:0:s_057.ogg
128,192,62033,1,0,0:0:0:0:s_038.ogg
179,192,62033,1,0,0:0:0:0:s_042.ogg
332,192,62033,1,0,0:0:0:0:s_057.ogg
435,192,62033,1,0,0:0:0:0:s_062.ogg
25,192,62200,1,0,0:0:0:0:s_028.ogg
384,192,62200,1,0,0:0:0:0:s_066.ogg
486,192,62200,1,0,0:0:0:0:s_062.ogg
179,192,62366,1,0,0:0:0:0:s_042.ogg
230,192,62366,1,0,0:0:0:0:s_045.ogg
435,192,62366,1,0,0:0:0:0:s_069.ogg
486,192,62366,1,0,0:0:0:0:s_066.ogg
76,192,62533,1,0,0:0:0:0:s_033.ogg
281,192,62533,1,0,0:0:0:0:s_064.ogg
332,192,62533,1,0,0:0:0:0:s_052.ogg
384,192,62533,1,0,0:0:0:0:s_061.ogg
128,192,62700,1,0,0:0:0:0:s_040.ogg
179,192,62700,1,0,0:0:0:0:s_037.ogg
435,192,62700,1,0,0:0:0:0:s_061.ogg
486,192,62700,1,0,0:0:0:0:s_057.ogg
25,192,62866,1,0,0:0:0:0:s_028.ogg
384,192,62866,1,0,0:0:0:0:s_057.ogg
435,192,62866,1,0,0:0:0:0:s_052.ogg
179,192,63033,1,0,0:0:0:0:s_040.ogg
230,192,63033,1,0,0:0:0:0:s_045.ogg
332,192,63033,1,0,0:0:0:0:s_049.ogg
384,192,63033,1,0,0:0:0:0:s_052.ogg
76,192,63200,1,0,0:0:0:0:s_033.ogg
281,192,63200,1,0,0:0:0:0:s_052.ogg
332,192,63200,1,0,0:0:0:0:s_057.ogg
128,192,63366,1,0,0:0:0:0:s_040.ogg
179,192,63366,1,0,0:0:0:0:s_037.ogg
281,192,63366,1,0,0:0:0:0:s_057.ogg
384,192,63366,1,0,0:0:0:0:s_061.ogg
25,192,63533,1,0,0:0:0:0:s_028.ogg
332,192,63533,128,0,63783:0:0:0:0:m_052.ogg
384,192,63533,128,0,63783:0:0:0:0:m_057.ogg
435,192,63533,128,0,63783:0:0:0:0:m_061.ogg
486,192,63533,128,0,63783:0:0:0:0:m_064.ogg
179,192,63700,1,0,0:0:0:0:s_040.ogg
230,192,63700,1,0,0:0:0:0:s_045.ogg
76,192,63866,1,0,0:0:0:0:s_035.ogg
332,192,63866,1,0,0:0:0:0:s_063.ogg
486,192,63950,1,0,0:0:0:0:s_076.ogg
128,192,64033,1,0,0:0:0:0:s_044.ogg
179,192,64033,1,0,0:0:0:0:s_040.ogg
384,192,64033,1,0,0:0:0:0:s_064.ogg
486,192,64116,1,0,0:0:0:0:s_076.ogg
25,192,64200,1,0,0:0:0:0:s_028.ogg
281,192,64200,1,0,0:0:0:0:s_062.ogg
486,192,64283,1,0,0:0:0:0:s_076.ogg
128,192,64366,1,0,0:0:0:0:s_040.ogg
179,192,64366,1,0,0:0:0:0:s_044.ogg
384,192,64366,1,0,0:0:0:0:s_064.ogg
486,192,64450,1,0,0:0:0:0:s_076.ogg
76,192,64533,1,0,0:0:0:0:s_047.ogg
332,192,64533,1,0,0:0:0:0:s_063.ogg
486,192,64616,1,0,0:0:0:0:s_076.ogg
179,192,64700,1,0,0:0:0:0:s_052.ogg
230,192,64700,1,0,0:0:0:0:s_056.ogg
384,192,64700,1,0,0:0:0:0:s_064.ogg
486,192,64783,1,0,0:0:0:0:s_076.ogg
25,192,64866,1,0,0:0:0:0:s_040.ogg
281,192,64866,1,0,0:0:0:0:s_062.ogg
486,192,64950,1,0,0:0:0:0:s_076.ogg
179,192,65033,1,0,0:0:0:0:s_056.ogg
230,192,65033,1,0,0:0:0:0:s_052.ogg
384,192,65033,1,0,0:0:0:0:s_064.ogg
486,192,65116,1,0,0:0:0:0:s_076.ogg
76,192,65200,1,0,0:0:0:0:s_033.ogg
332,192,65200,1,0,0:0:0:0:s_063.ogg
486,192,65283,1,0,0:0:0:0:s_076.ogg
128,192,65366,1,0,0:0:0:0:s_040.ogg
179,192,65366,1,0,0:0:0:0:s_037.ogg
230,192,65366,1,0,0:0:0:0:s_045.ogg
384,192,65366,1,0,0:0:0:0:s_064.ogg
486,192,65450,1,0,0:0:0:0:s_076.ogg
25,192,65533,1,0,0:0:0:0:s_028.ogg
281,192,65533,1,0,0:0:0:0:s_061.ogg
486,192,65616,1,0,0:0:0:0:s_076.ogg
128,192,65700,1,0,0:0:0:0:s_040.ogg
179,192,65700,1,0,0:0:0:0:s_037.ogg
230,192,65700,1,0,0:0:0:0:s_045.ogg
384,192,65700,1,0,0:0:0:0:s_064.ogg
486,192,65783,1,0,0:0:0:0:s_076.ogg
76,192,65866,1,0,0:0:0:0:s_049.ogg
332,192,65866,1,0,0:0:0:0:s_063.ogg
486,192,65950,1,0,0:0:0:0:s_076.ogg
179,192,66033,1,0,0:0:0:0:s_057.ogg
230,192,66033,1,0,0:0:0:0:s_052.ogg
384,192,66033,1,0,0:0:0:0:s_064.ogg
486,192,66116,1,0,0:0:0:0:s_076.ogg
25,192,66200,1,0,0:0:0:0:s_045.ogg
281,192,66200,1,0,0:0:0:0:s_061.ogg
486,192,66283,1,0,0:0:0:0:s_076.ogg
179,192,66366,1,0,0:0:0:0:s_057.ogg
230,192,66366,1,0,0:0:0:0:s_052.ogg
384,192,66366,1,0,0:0:0:0:s_064.ogg
486,192,66450,1,0,0:0:0:0:s_076.ogg
76,192,66533,1,0,0:0:0:0:s_035.ogg
332,192,66533,1,0,0:0:0:0:s_063.ogg
486,192,66616,1,0,0:0:0:0:s_076.ogg
128,192,66700,1,0,0:0:0:0:s_040.ogg
179,192,66700,1,0,0:0:0:0:s_044.ogg
384,192,66700,1,0,0:0:0:0:s_064.ogg
486,192,66783,1,0,0:0:0:0:s_076.ogg
25,192,66866,1,0,0:0:0:0:s_028.ogg
281,192,66866,1,0,0:0:0:0:s_068.ogg
435,192,66866,1,0,0:0:0:0:s_062.ogg
486,192,66950,1,0,0:0:0:0:s_076.ogg
128,192,67033,1,0,0:0:0:0:s_044.ogg
179,192,67033,1,0,0:0:0:0:s_040.ogg
384,192,67033,1,0,0:0:0:0:s_064.ogg
486,192,67116,1,0,0:0:0:0:s_076.ogg
76,192,67200,1,0,0:0:0:0:s_047.ogg
332,192,67200,1,0,0:0:0:0:s_063.ogg
486,192,67283,1,0,0:0:0:0:s_076.ogg
179,192,67366,1,0,0:0:0:0:s_056.ogg
230,192,67366,1,0,0:0:0:0:s_052.ogg
384,192,67366,1,0,0:0:0:0:s_064.ogg
486,192,67450,1,0,0:0:0:0:s_076.ogg
25,192,67533,1,0,0:0:0:0:s_040.ogg
281,192,67533,1,0,0:0:0:0:s_068.ogg
435,192,67533,1,0,0:0:0:0:s_062.ogg
486,192,67616,1,0,0:0:0:0:s_076.ogg
179,192,67700,1,0,0:0:0:0:s_052.ogg
230,192,67700,1,0,0:0:0:0:s_056.ogg
384,192,67700,1,0,0:0:0:0:s_064.ogg
486,192,67783,1,0,0:0:0:0:s_076.ogg
76,192,67866,1,0,0:0:0:0:s_033.ogg
332,192,67866,1,0,0:0:0:0:s_061.ogg
486,192,67950,1,0,0:0:0:0:s_076.ogg
128,192,68033,1,0,0:0:0:0:s_045.ogg
179,192,68033,1,0,0:0:0:0:s_040.ogg
230,192,68033,1,0,0:0:0:0:s_037.ogg
384,192,68033,1,0,0:0:0:0:s_064.ogg
486,192,68116,1,0,0:0:0:0:s_076.ogg
25,192,68200,1,0,0:0:0:0:s_028.ogg
281,192,68200,1,0,0:0:0:0:s_061.ogg
435,192,68200,1,0,0:0:0:0:s_069.ogg
486,192,68283,1,0,0:0:0:0:s_076.ogg
128,192,68366,1,0,0:0:0:0:s_045.ogg
179,192,68366,1,0,0:0:0:0:s_040.ogg
230,192,68366,1,0,0:0:0:0:s_037.ogg
384,192,68366,1,0,0:0:0:0:s_064.ogg
486,192,68450,1,0,0:0:0:0:s_076.ogg
76,192,68533,1,0,0:0:0:0:s_049.ogg
332,192,68533,1,0,0:0:0:0:s_061.ogg
486,192,68616,1,0,0:0:0:0:s_076.ogg
179,192,68700,1,0,0:0:0:0:s_057.ogg
230,192,68700,1,0,0:0:0:0:s_052.ogg
384,192,68700,1,0,0:0:0:0:s_064.ogg
486,192,68783,1,0,0:0:0:0:s_076.ogg
25,192,68866,1,0,0:0:0:0:s_045.ogg
281,192,68866,1,0,0:0:0:0:s_061.ogg
435,192,68866,1,0,0:0:0:0:s_069.ogg
486,192,68950,1,0,0:0:0:0:s_076.ogg
179,192,69033,1,0,0:0:0:0:s_052.ogg
230,192,69033,1,0,0:0:0:0:s_057.ogg
384,192,69033,1,0,0:0:0:0:s_064.ogg
486,192,69116,1,0,0:0:0:0:s_076.ogg
76,192,69200,1,0,0:0:0:0:s_045.ogg
435,192,69200,1,0,0:0:0:0:s_066.ogg
486,192,69283,1,0,0:0:0:0:s_076.ogg
128,192,69366,1,0,0:0:0:0:s_054.ogg
179,192,69366,1,0,0:0:0:0:s_050.ogg
332,192,69366,1,0,0:0:0:0:s_062.ogg
486,192,69450,1,0,0:0:0:0:s_076.ogg
25,192,69533,1,0,0:0:0:0:s_040.ogg
281,192,69533,1,0,0:0:0:0:s_061.ogg
486,192,69616,1,0,0:0:0:0:s_076.ogg
179,192,69700,1,0,0:0:0:0:s_057.ogg
230,192,69700,1,0,0:0:0:0:s_054.ogg
332,192,69700,1,0,0:0:0:0:s_062.ogg
486,192,69783,1,0,0:0:0:0:s_076.ogg
76,192,69866,1,0,0:0:0:0:s_045.ogg
384,192,69866,1,0,0:0:0:0:s_066.ogg
486,192,69950,1,0,0:0:0:0:s_076.ogg
179,192,70033,1,0,0:0:0:0:s_057.ogg
230,192,70033,1,0,0:0:0:0:s_054.ogg
281,192,70033,1,0,0:0:0:0:s_062.ogg
486,192,70116,1,0,0:0:0:0:s_076.ogg
128,192,70200,1,0,0:0:0:0:s_050.ogg
435,192,70200,1,0,0:0:0:0:s_069.ogg
486,192,70283,1,0,0:0:0:0:s_076.ogg
179,192,70366,1,0,0:0:0:0:s_054.ogg
230,192,70366,1,0,0:0:0:0:s_057.ogg
332,192,70366,1,0,0:0:0:0:s_066.ogg
486,192,70450,1,0,0:0:0:0:s_076.ogg
76,192,70533,1,0,0:0:0:0:s_045.ogg
384,192,70533,1,0,0:0:0:0:s_064.ogg
486,192,70616,1,0,0:0:0:0:s_076.ogg
128,192,70700,1,0,0:0:0:0:s_049.ogg
179,192,70700,1,0,0:0:0:0:s_052.ogg
332,192,70700,1,0,0:0:0:0:s_061.ogg
486,192,70783,1,0,0:0:0:0:s_076.ogg
25,192,70866,1,0,0:0:0:0:s_040.ogg
281,192,70866,1,0,0:0:0:0:s_060.ogg
486,192,70950,1,0,0:0:0:0:s_076.ogg
179,192,71033,1,0,0:0:0:0:s_052.ogg
230,192,71033,1,0,0:0:0:0:s_057.ogg
332,192,71033,1,0,0:0:0:0:s_061.ogg
486,192,71116,1,0,0:0:0:0:s_076.ogg
76,192,71200,1,0,0:0:0:0:s_045.ogg
384,192,71200,1,0,0:0:0:0:s_064.ogg
486,192,71283,1,0,0:0:0:0:s_076.ogg
179,192,71366,1,0,0:0:0:0:s_052.ogg
230,192,71366,1,0,0:0:0:0:s_057.ogg
281,192,71366,1,0,0:0:0:0:s_061.ogg
486,192,71450,1,0,0:0:0:0:s_076.ogg
128,192,71533,1,0,0:0:0:0:s_049.ogg
435,192,71533,1,0,0:0:0:0:s_069.ogg
486,192,71616,1,0,0:0:0:0:s_076.ogg
179,192,71700,1,0,0:0:0:0:s_057.ogg
230,192,71700,1,0,0:0:0:0:s_052.ogg
332,192,71700,1,0,0:0:0:0:s_064.ogg
486,192,71783,1,0,0:0:0:0:s_076.ogg
76,192,71866,1,0,0:0:0:0:s_045.ogg
384,192,71866,1,0,0:0:0:0:s_066.ogg
486,192,71950,1,0,0:0:0:0:s_076.ogg
128,192,72033,1,0,0:0:0:0:s_050.ogg
179,192,72033,1,0,0:0:0:0:s_054.ogg
332,192,72033,1,0,0:0:0:0:s_062.ogg
486,192,72116,1,0,0:0:0:0:s_076.ogg
25,192,72200,1,0,0:0:0:0:s_040.ogg
281,192,72200,1,0,0:0:0:0:s_061.ogg
486,192,72283,1,0,0:0:0:0:s_076.ogg
179,192,72366,1,0,0:0:0:0:s_057.ogg
230,192,72366,1,0,0:0:0:0:s_054.ogg
332,192,72366,1,0,0:0:0:0:s_062.ogg
486,192,72450,1,0,0:0:0:0:s_076.ogg
76,192,72533,1,0,0:0:0:0:s_045.ogg
384,192,72533,1,0,0:0:0:0:s_066.ogg
486,192,72616,1,0,0:0:0:0:s_076.ogg
179,192,72700,1,0,0:0:0:0:s_054.ogg
230,192,72700,1,0,0:0:0:0:s_057.ogg
281,192,72700,1,0,0:0:0:0:s_062.ogg
486,192,72783,1,0,0:0:0:0:s_076.ogg
128,192,72866,1,0,0:0:0:0:s_050.ogg
435,192,72866,1,0,0:0:0:0:s_069.ogg
486,192,72950,1,0,0:0:0:0:s_076.ogg
179,192,73033,1,0,0:0:0:0:s_057.ogg
230,192,73033,1,0,0:0:0:0:s_054.ogg
332,192,73033,1,0,0:0:0:0:s_066.ogg
486,192,73116,1,0,0:0:0:0:s_076.ogg
76,192,73200,1,0,0:0:0:0:s_045.ogg
384,192,73200,1,0,0:0:0:0:s_064.ogg
486,192,73283,1,0,0:0:0:0:s_076.ogg
128,192,73366,1,0,0:0:0:0:s_049.ogg
179,192,73366,1,0,0:0:0:0:s_052.ogg
332,192,73366,1,0,0:0:0:0:s_061.ogg
486,192,73450,1,0,0:0:0:0:s_076.ogg
25,192,73533,1,0,0:0:0:0:s_040.ogg
281,192,73533,1,0,0:0:0:0:s_060.ogg
486,192,73616,1,0,0:0:0:0:s_076.ogg
179,192,73700,1,0,0:0:0:0:s_057.ogg
230,192,73700,1,0,0:0:0:0:s_052.ogg
332,192,73700,1,0,0:0:0:0:s_061.ogg
486,192,73783,1,0,0:0:0:0:s_076.ogg
76,192,73866,1,0,0:0:0:0:s_045.ogg
384,192,73866,1,0,0:0:0:0:s_064.ogg
486,192,73950,1,0,0:0:0:0:s_076.ogg
179,192,74033,1,0,0:0:0:0:s_057.ogg
230,192,74033,1,0,0:0:0:0:s_052.ogg
281,192,74033,1,0,0:0:0:0:s_061.ogg
486,192,74116,1,0,0:0:0:0:s_076.ogg
128,192,74200,1,0,0:0:0:0:s_049.ogg
435,192,74200,1,0,0:0:0:0:s_069.ogg
486,192,74283,1,0,0:0:0:0:s_076.ogg
179,192,74366,1,0,0:0:0:0:s_052.ogg
230,192,74366,1,0,0:0:0:0:s_057.ogg
332,192,74366,1,0,0:0:0:0:s_064.ogg
486,192,74450,1,0,0:0:0:0:s_076.ogg
281,192,74533,1,0,0:0:0:0:s_068.ogg
384,192,74533,1,0,0:0:0:0:s_062.ogg
486,192,74616,1,0,0:0:0:0:s_076.ogg
25,192,74700,1,0,0:0:0:0:s_039.ogg
332,192,74700,1,0,0:0:0:0:s_071.ogg
435,192,74700,1,0,0:0:0:0:s_064.ogg
128,192,74741,1,0,0:0:0:0:s_040.ogg
486,192,74783,1,0,0:0:0:0:s_076.ogg
281,192,74866,1,0,0:0:0:0:s_068.ogg
384,192,74866,1,0,0:0:0:0:s_062.ogg
486,192,74950,1,0,0:0:0:0:s_076.ogg
76,192,75033,1,0,0:0:0:0:s_043.ogg
332,192,75033,1,0,0:0:0:0:s_064.ogg
435,192,75033,1,0,0:0:0:0:s_071.ogg
179,192,75075,1,0,0:0:0:0:s_044.ogg
486,192,75116,1,0,0:0:0:0:s_076.ogg
281,192,75200,1,0,0:0:0:0:s_062.ogg
384,192,75200,1,0,0:0:0:0:s_068.ogg
486,192,75283,1,0,0:0:0:0:s_076.ogg
128,192,75366,1,0,0:0:0:0:s_048.ogg
332,192,75366,1,0,0:0:0:0:s_064.ogg
435,192,75366,1,0,0:0:0:0:s_071.ogg
230,192,75408,1,0,0:0:0:0:s_049.ogg
486,192,75450,1,0,0:0:0:0:s_076.ogg
281,192,75533,1,0,0:0:0:0:s_062.ogg
384,192,75533,1,0,0:0:0:0:s_068.ogg
486,192,75616,1,0,0:0:0:0:s_076.ogg
76,192,75700,1,0,0:0:0:0:s_046.ogg
332,192,75700,1,0,0:0:0:0:s_064.ogg
435,192,75700,1,0,0:0:0:0:s_071.ogg
179,192,75741,1,0,0:0:0:0:s_047.ogg
486,192,75783,1,0,0:0:0:0:s_076.ogg
281,192,75866,1,0,0:0:0:0:s_061.ogg
332,192,75866,1,0,0:0:0:0:s_069.ogg
486,192,75950,1,0,0:0:0:0:s_076.ogg
179,192,76033,1,0,0:0:0:0:s_044.ogg
384,192,76033,1,0,0:0:0:0:s_064.ogg
435,192,76033,1,0,0:0:0:0:s_073.ogg
230,192,76075,1,0,0:0:0:0:s_045.ogg
486,192,76116,1,0,0:0:0:0:s_076.ogg
128,192,76200,1,0,0:0:0:0:s_043.ogg
281,192,76200,1,0,0:0:0:0:s_061.ogg
332,192,76200,1,0,0:0:0:0:s_069.ogg
179,192,76241,1,0,0:0:0:0:s_044.ogg
486,192,76283,1,0,0:0:0:0:s_076.ogg
76,192,76366,1,0,0:0:0:0:s_042.ogg
384,192,76366,1,0,0:0:0:0:s_064.ogg
435,192,76366,1,0,0:0:0:0:s_073.ogg
128,192,76408,1,0,0:0:0:0:s_043.ogg
486,192,76450,1,0,0:0:0:0:s_076.ogg
281,192,76533,1,0,0:0:0:0:s_061.ogg
332,192,76533,1,0,0:0:0:0:s_069.ogg
486,192,76616,1,0,0:0:0:0:s_076.ogg
128,192,76700,1,0,0:0:0:0:s_041.ogg
384,192,76700,1,0,0:0:0:0:s_064.ogg
435,192,76700,1,0,0:0:0:0:s_073.ogg
179,192,76741,1,0,0:0:0:0:s_042.ogg
486,192,76783,1,0,0:0:0:0:s_076.ogg
76,192,76866,1,0,0:0:0:0:s_040.ogg
281,192,76866,1,0,0:0:0:0:s_069.ogg
332,192,76866,1,0,0:0:0:0:s_061.ogg
128,192,76908,1,0,0:0:0:0:s_041.ogg
486,192,76950,1,0,0:0:0:0:s_076.ogg
25,192,77033,1,0,0:0:0:0:s_039.ogg
384,192,77033,1,0,0:0:0:0:s_064.ogg
435,192,77033,1,0,0:0:0:0:s_073.ogg
76,192,77075,1,0,0:0:0:0:s_040.ogg
486,192,77116,1,0,0:0:0:0:s_076.ogg
281,192,77200,1,0,0:0:0:0:s_062.ogg
384,192,77200,1,0,0:0:0:0:s_068.ogg
486,192,77283,1,0,0:0:0:0:s_076.ogg
25,192,77366,1,0,0:0:0:0:s_039.ogg
332,192,77366,1,0,0:0:0:0:s_071.ogg
435,192,77366,1,0,0:0:0:0:s_064.ogg
128,192,77408,1,0,0:0:0:0:s_040.ogg
486,192,77450,1,0,0:0:0:0:s_076.ogg
281,192,77533,1,0,0:0:0:0:s_062.ogg
384,192,77533,1,0,0:0:0:0:s_068.ogg
486,192,77616,1,0,0:0:0:0:s_076.ogg
76,192,77700,1,0,0:0:0:0:s_043.ogg
332,192,77700,1,0,0:0:0:0:s_071.ogg
435,192,77700,1,0,0:0:0:0:s_064.ogg
179,192,77741,1,0,0:0:0:0:s_044.ogg
486,192,77783,1,0,0:0:0:0:s_076.ogg
281,192,77866,1,0,0:0:0:0:s_062.ogg
384,192,77866,1,0,0:0:0:0:s_068.ogg
486,192,77950,1,0,0:0:0:0:s_076.ogg
128,192,78033,1,0,0:0:0:0:s_048.ogg
332,192,78033,1,0,0:0:0:0:s_071.ogg
435,192,78033,1,0,0:0:0:0:s_064.ogg
230,192,78075,1,0,0:0:0:0:s_049.ogg
486,192,78116,1,0,0:0:0:0:s_076.ogg
281,192,78200,1,0,0:0:0:0:s_062.ogg
384,192,78200,1,0,0:0:0:0:s_068.ogg
486,192,78283,1,0,0:0:0:0:s_076.ogg
76,192,78366,1,0,0:0:0:0:s_046.ogg
332,192,78366,1,0,0:0:0:0:s_064.ogg
435,192,78366,1,0,0:0:0:0:s_071.ogg
179,192,78408,1,0,0:0:0:0:s_047.ogg
486,192,78450,1,0,0:0:0:0:s_076.ogg
281,192,78533,1,0,0:0:0:0:s_069.ogg
332,192,78533,1,0,0:0:0:0:s_061.ogg
486,192,78616,1,0,0:0:0:0:s_076.ogg
179,192,78700,1,0,0:0:0:0:s_044.ogg
384,192,78700,1,0,0:0:0:0:s_073.ogg
435,192,78700,1,0,0:0:0:0:s_064.ogg
230,192,78741,1,0,0:0:0:0:s_045.ogg
486,192,78783,1,0,0:0:0:0:s_076.ogg
128,192,78866,1,0,0:0:0:0:s_043.ogg
281,192,78866,1,0,0:0:0:0:s_069.ogg
332,192,78866,1,0,0:0:0:0:s_061.ogg
179,192,78908,1,0,0:0:0:0:s_044.ogg
486,192,78950,1,0,0:0:0:0:s_076.ogg
76,192,79033,1,0,0:0:0:0:s_042.ogg
384,192,79033,1,0,0:0:0:0:s_064.ogg
435,192,79033,1,0,0:0:0:0:s_073.ogg
128,192,79075,1,0,0:0:0:0:s_043.ogg
486,192,79116,1,0,0:0:0:0:s_076.ogg
281,192,79200,1,0,0:0:0:0:s_069.ogg
332,192,79200,1,0,0:0:0:0:s_061.ogg
486,192,79283,1,0,0:0:0:0:s_076.ogg
128,192,79366,1,0,0:0:0:0:s_041.ogg
384,192,79366,1,0,0:0:0:0:s_073.ogg
435,192,79366,1,0,0:0:0:0:s_064.ogg
179,192,79408,1,0,0:0:0:0:s_042.ogg
486,192,79450,1,0,0:0:0:0:s_076.ogg
76,192,79533,1,0,0:0:0:0:s_040.ogg
281,192,79533,1,0,0:0:0:0:s_061.ogg
332,192,79533,1,0,0:0:0:0:s_069.ogg
128,192,79575,1,0,0:0:0:0:s_041.ogg
486,192,79616,1,0,0:0:0:0:s_076.ogg
25,192,79700,1,0,0:0:0:0:s_039.ogg
384,192,79700,1,0,0:0:0:0:s_064.ogg
435,192,79700,1,0,0:0:0:0:s_073.ogg
76,192,79741,1,0,0:0:0:0:s_040.ogg
486,192,79783,1,0,0:0:0:0:s_076.ogg
25,192,79866,1,0,0:0:0:0:s_035.ogg
281,192,79866,1,0,0:0:0:0:s_062.ogg
384,192,79866,1,0,0:0:0:0:s_068.ogg
486,192,79950,1,0,0:0:0:0:s_076.ogg
128,192,80033,1,0,0:0:0:0:s_040.ogg
179,192,80033,1,0,0:0:0:0:s_044.ogg
332,192,80033,1,0,0:0:0:0:s_071.ogg
435,192,80033,1,0,0:0:0:0:s_064.ogg
486,192,80116,1,0,0:0:0:0:s_076.ogg
25,192,80200,1,0,0:0:0:0:s_028.ogg
281,192,80200,1,0,0:0:0:0:s_062.ogg
384,192,80200,1,0,0:0:0:0:s_068.ogg
486,192,80283,1,0,0:0:0:0:s_076.ogg
128,192,80366,1,0,0:0:0:0:s_040.ogg
179,192,80366,1,0,0:0:0:0:s_044.ogg
332,192,80366,1,0,0:0:0:0:s_064.ogg
435,192,80366,1,0,0:0:0:0:s_071.ogg
486,192,80450,1,0,0:0:0:0:s_076.ogg
25,192,80533,1,0,0:0:0:0:s_051.ogg
76,192,80533,1,0,0:0:0:0:s_047.ogg
281,192,80533,1,0,0:0:0:0:s_068.ogg
384,192,80533,1,0,0:0:0:0:s_062.ogg
486,192,80616,1,0,0:0:0:0:s_076.ogg
179,192,80700,1,0,0:0:0:0:s_052.ogg
230,192,80700,1,0,0:0:0:0:s_044.ogg
332,192,80700,1,0,0:0:0:0:s_064.ogg
435,192,80700,1,0,0:0:0:0:s_071.ogg
486,192,80783,1,0,0:0:0:0:s_076.ogg
25,192,80866,1,0,0:0:0:0:m_050.ogg
128,192,80866,1,0,0:0:0:0:m_047.ogg
281,192,80866,1,0,0:0:0:0:m_064.ogg
332,192,80866,1,0,0:0:0:0:m_056.ogg
384,192,80866,1,0,0:0:0:0:m_068.ogg
76,192,81116,1,0,0:0:0:0:s_044.ogg
179,192,81116,1,0,0:0:0:0:s_052.ogg
25,192,81200,1,0,0:0:0:0:s_033.ogg
281,192,81200,1,0,0:0:0:0:s_069.ogg
332,192,81200,1,0,0:0:0:0:s_061.ogg
486,192,81283,1,0,0:0:0:0:s_076.ogg
128,192,81366,1,0,0:0:0:0:s_040.ogg
179,192,81366,1,0,0:0:0:0:s_045.ogg
384,192,81366,1,0,0:0:0:0:s_064.ogg
435,192,81366,1,0,0:0:0:0:s_073.ogg
486,192,81450,1,0,0:0:0:0:s_076.ogg
25,192,81533,1,0,0:0:0:0:s_028.ogg
281,192,81533,1,0,0:0:0:0:s_069.ogg
332,192,81533,1,0,0:0:0:0:s_061.ogg
486,192,81616,1,0,0:0:0:0:s_076.ogg
128,192,81700,1,0,0:0:0:0:s_045.ogg
179,192,81700,1,0,0:0:0:0:s_040.ogg
384,192,81700,1,0,0:0:0:0:s_064.ogg
435,192,81700,1,0,0:0:0:0:s_073.ogg
486,192,81783,1,0,0:0:0:0:s_076.ogg
25,192,81866,1,0,0:0:0:0:s_048.ogg
76,192,81866,1,0,0:0:0:0:s_051.ogg
281,192,81866,1,0,0:0:0:0:s_069.ogg
332,192,81866,1,0,0:0:0:0:s_061.ogg
486,192,81950,1,0,0:0:0:0:s_076.ogg
179,192,82033,1,0,0:0:0:0:s_049.ogg
230,192,82033,1,0,0:0:0:0:s_052.ogg
384,192,82033,1,0,0:0:0:0:s_073.ogg
435,192,82033,1,0,0:0:0:0:s_064.ogg
486,192,82116,1,0,0:0:0:0:s_076.ogg
25,192,82200,1,0,0:0:0:0:m_049.ogg
128,192,82200,1,0,0:0:0:0:m_045.ogg
281,192,82200,1,0,0:0:0:0:m_069.ogg
332,192,82200,1,0,0:0:0:0:m_064.ogg
384,192,82200,1,0,0:0:0:0:m_057.ogg
76,192,82450,1,0,0:0:0:0:s_052.ogg
25,192,82533,1,0,0:0:0:0:s_035.ogg
281,192,82533,1,0,0:0:0:0:s_068.ogg
384,192,82533,1,0,0:0:0:0:s_062.ogg
486,192,82616,1,0,0:0:0:0:s_076.ogg
128,192,82700,1,0,0:0:0:0:s_040.ogg
179,192,82700,1,0,0:0:0:0:s_044.ogg
332,192,82700,1,0,0:0:0:0:s_071.ogg
435,192,82700,1,0,0:0:0:0:s_064.ogg
486,192,82783,1,0,0:0:0:0:s_076.ogg
25,192,82866,1,0,0:0:0:0:s_028.ogg
281,192,82866,1,0,0:0:0:0:s_062.ogg
384,192,82866,1,0,0:0:0:0:s_068.ogg
486,192,82950,1,0,0:0:0:0:s_076.ogg
128,192,83033,1,0,0:0:0:0:s_044.ogg
179,192,83033,1,0,0:0:0:0:s_040.ogg
332,192,83033,1,0,0:0:0:0:s_064.ogg
435,192,83033,1,0,0:0:0:0:s_071.ogg
486,192,83116,1,0,0:0:0:0:s_076.ogg
25,192,83200,1,0,0:0:0:0:s_051.ogg
76,192,83200,1,0,0:0:0:0:s_047.ogg
281,192,83200,1,0,0:0:0:0:s_062.ogg
384,192,83200,1,0,0:0:0:0:s_068.ogg
486,192,83283,1,0,0:0:0:0:s_076.ogg
179,192,83366,1,0,0:0:0:0:s_052.ogg
230,192,83366,1,0,0:0:0:0:s_044.ogg
332,192,83366,1,0,0:0:0:0:s_064.ogg
435,192,83366,1,0,0:0:0:0:s_071.ogg
486,192,83450,1,0,0:0:0:0:s_076.ogg
25,192,83533,1,0,0:0:0:0:m_050.ogg
128,192,83533,1,0,0:0:0:0:m_047.ogg
281,192,83533,1,0,0:0:0:0:m_068.ogg
332,192,83533,1,0,0:0:0:0:m_064.ogg
384,192,83533,1,0,0:0:0:0:m_056.ogg
76,192,83783,1,0,0:0:0:0:s_044.ogg
179,192,83783,1,0,0:0:0:0:s_052.ogg
25,192,83866,1,0,0:0:0:0:s_033.ogg
281,192,83866,1,0,0:0:0:0:s_069.ogg
332,192,83866,1,0,0:0:0:0:s_061.ogg
486,192,83950,1,0,0:0:0:0:s_076.ogg
128,192,84033,1,0,0:0:0:0:s_045.ogg
179,192,84033,1,0,0:0:0:0:s_040.ogg
384,192,84033,1,0,0:0:0:0:s_064.ogg
435,192,84033,1,0,0:0:0:0:s_073.ogg
486,192,84116,1,0,0:0:0:0:s_076.ogg
25,192,84200,1,0,0:0:0:0:s_028.ogg
281,192,84200,1,0,0:0:0:0:s_069.ogg
332,192,84200,1,0,0:0:0:0:s_061.ogg
486,192,84283,1,0,0:0:0:0:s_076.ogg
128,192,84366,1,0,0:0:0:0:s_045.ogg
179,192,84366,1,0,0:0:0:0:s_040.ogg
384,192,84366,1,0,0:0:0:0:s_064.ogg
435,192,84366,1,0,0:0:0:0:s_073.ogg
486,192,84450,1,0,0:0:0:0:s_076.ogg
25,192,84533,1,0,0:0:0:0:s_051.ogg
76,192,84533,1,0,0:0:0:0:s_048.ogg
281,192,84533,1,0,0:0:0:0:s_069.ogg
332,192,84533,1,0,0:0:0:0:s_061.ogg
486,192,84616,1,0,0:0:0:0:s_076.ogg
179,192,84700,1,0,0:0:0:0:s_052.ogg
230,192,84700,1,0,0:0:0:0:s_049.ogg
384,192,84700,1,0,0:0:0:0:s_064.ogg
435,192,84700,1,0,0:0:0:0:s_073.ogg
486,192,84783,1,0,0:0:0:0:s_076.ogg
25,192,84866,1,0,0:0:0:0:m_049.ogg
128,192,84866,1,0,0:0:0:0:m_045.ogg
281,192,84866,1,0,0:0:0:0:m_069.ogg
332,192,84866,1,0,0:0:0:0:m_064.ogg
384,192,84866,1,0,0:0:0:0:m_057.ogg
179,192,85116,1,0,0:0:0:0:s_052.ogg
76,192,85200,1,0,0:0:0:0:s_035.ogg
332,192,85200,1,0,0:0:0:0:s_062.ogg
486,192,85241,1,0,0:0:0:0:s_078.ogg
128,192,85366,1,0,0:0:0:0:s_044.ogg
179,192,85366,1,0,0:0:0:0:s_050.ogg
230,192,85366,1,0,0:0:0:0:s_040.ogg
25,192,85533,1,0,0:0:0:0:s_028.ogg
281,192,85533,128,0,85950:0:0:0:0:m_059.ogg
128,192,85700,1,0,0:0:0:0:s_050.ogg
179,192,85700,1,0,0:0:0:0:s_044.ogg
230,192,85700,1,0,0:0:0:0:s_040.ogg
76,192,85866,1,0,0:0:0:0:s_035.ogg
128,192,86033,1,0,0:0:0:0:s_050.ogg
179,192,86033,1,0,0:0:0:0:s_040.ogg
230,192,86033,1,0,0:0:0:0:s_044.ogg
332,192,86033,1,0,0:0:0:0:s_061.ogg
25,192,86200,1,0,0:0:0:0:s_028.ogg
384,192,86200,1,0,0:0:0:0:s_062.ogg
128,192,86366,1,0,0:0:0:0:s_050.ogg
179,192,86366,1,0,0:0:0:0:s_040.ogg
230,192,86366,1,0,0:0:0:0:s_044.ogg
281,192,86366,1,0,0:0:0:0:s_059.ogg
76,192,86533,1,0,0:0:0:0:s_033.ogg
332,192,86533,1,0,0:0:0:0:s_061.ogg
486,192,86575,1,0,0:0:0:0:s_076.ogg
128,192,86700,1,0,0:0:0:0:s_049.ogg
179,192,86700,1,0,0:0:0:0:s_045.ogg
230,192,86700,1,0,0:0:0:0:s_040.ogg
25,192,86866,1,0,0:0:0:0:s_028.ogg
281,192,86866,128,0,87283:0:0:0:0:m_057.ogg
128,192,87033,1,0,0:0:0:0:s_040.ogg
179,192,87033,1,0,0:0:0:0:s_049.ogg
230,192,87033,1,0,0:0:0:0:s_045.ogg
76,192,87200,1,0,0:0:0:0:s_033.ogg
128,192,87366,1,0,0:0:0:0:s_049.ogg
179,192,87366,1,0,0:0:0:0:s_040.ogg
230,192,87366,1,0,0:0:0:0:s_045.ogg
332,192,87366,1,0,0:0:0:0:s_059.ogg
25,192,87533,1,0,0:0:0:0:s_028.ogg
384,192,87533,1,0,0:0:0:0:s_061.ogg
128,192,87700,1,0,0:0:0:0:s_049.ogg
179,192,87700,1,0,0:0:0:0:s_040.ogg
230,192,87700,1,0,0:0:0:0:s_045.ogg
281,192,87700,1,0,0:0:0:0:s_057.ogg
76,192,87866,1,0,0:0:0:0:s_035.ogg
332,192,87866,1,0,0:0:0:0:s_056.ogg
128,192,88033,1,0,0:0:0:0:s_050.ogg
179,192,88033,1,0,0:0:0:0:s_040.ogg
230,192,88033,1,0,0:0:0:0:s_044.ogg
384,192,88033,1,0,0:0:0:0:s_057.ogg
25,192,88200,1,0,0:0:0:0:s_028.ogg
435,192,88200,1,0,0:0:0:0:s_059.ogg
128,192,88366,1,0,0:0:0:0:s_050.ogg
179,192,88366,1,0,0:0:0:0:s_044.ogg
230,192,88366,1,0,0:0:0:0:s_040.ogg
486,192,88366,1,0,0:0:0:0:s_061.ogg
76,192,88533,1,0,0:0:0:0:s_035.ogg
281,192,88533,1,0,0:0:0:0:s_062.ogg
128,192,88700,1,0,0:0:0:0:s_040.ogg
179,192,88700,1,0,0:0:0:0:s_050.ogg
230,192,88700,1,0,0:0:0:0:s_044.ogg
332,192,88700,1,0,0:0:0:0:s_064.ogg
25,192,88866,1,0,0:0:0:0:s_028.ogg
384,192,88866,1,0,0:0:0:0:s_066.ogg
128,192,89033,1,0,0:0:0:0:s_050.ogg
179,192,89033,1,0,0:0:0:0:s_044.ogg
230,192,89033,1,0,0:0:0:0:s_040.ogg
435,192,89033,1,0,0:0:0:0:s_068.ogg
76,192,89200,1,0,0:0:0:0:s_033.ogg
332,192,89200,1,0,0:0:0:0:s_069.ogg
384,192,89241,1,0,0:0:0:0:s_071.ogg
128,192,89366,1,0,0:0:0:0:s_049.ogg
179,192,89366,1,0,0:0:0:0:s_045.ogg
230,192,89366,1,0,0:0:0:0:s_040.ogg
281,192,89366,1,0,0:0:0:0:s_068.ogg
25,192,89533,1,0,0:0:0:0:s_028.ogg
332,192,89533,1,0,0:0:0:0:s_069.ogg
128,192,89700,1,0,0:0:0:0:s_049.ogg
179,192,89700,1,0,0:0:0:0:s_045.ogg
230,192,89700,1,0,0:0:0:0:s_040.ogg
384,192,89700,1,0,0:0:0:0:s_071.ogg
76,192,89866,1,0,0:0:0:0:s_033.ogg
435,192,89866,1,0,0:0:0:0:s_073.ogg
128,192,90033,1,0,0:0:0:0:s_049.ogg
179,192,90033,1,0,0:0:0:0:s_045.ogg
230,192,90033,1,0,0:0:0:0:s_040.ogg
384,192,90033,1,0,0:0:0:0:s_071.ogg
25,192,90200,1,0,0:0:0:0:s_028.ogg
435,192,90200,1,0,0:0:0:0:s_073.ogg
128,192,90366,1,0,0:0:0:0:s_040.ogg
179,192,90366,1,0,0:0:0:0:s_049.ogg
230,192,90366,1,0,0:0:0:0:s_045.ogg
332,192,90366,1,0,0:0:0:0:s_069.ogg
76,192,90533,1,0,0:0:0:0:s_035.ogg
281,192,90533,1,0,0:0:0:0:s_062.ogg
384,192,90575,1,0,0:0:0:0:s_068.ogg
435,192,90616,1,0,0:0:0:0:s_071.ogg
486,192,90658,1,0,0:0:0:0:s_078.ogg
128,192,90700,1,0,0:0:0:0:s_040.ogg
179,192,90700,1,0,0:0:0:0:s_050.ogg
230,192,90700,1,0,0:0:0:0:s_044.ogg
25,192,90866,1,0,0:0:0:0:s_028.ogg
332,192,90866,128,0,91283:0:0:0:0:m_059.ogg
281,192,90866,128,0,91283:0:0:0:0:m_056.ogg
128,192,91033,1,0,0:0:0:0:s_050.ogg
179,192,91033,1,0,0:0:0:0:s_040.ogg
230,192,91033,1,0,0:0:0:0:s_044.ogg
76,192,91200,1,0,0:0:0:0:s_035.ogg
128,192,91366,1,0,0:0:0:0:s_050.ogg
179,192,91366,1,0,0:0:0:0:s_044.ogg
230,192,91366,1,0,0:0:0:0:s_040.ogg
332,192,91366,1,0,0:0:0:0:s_061.ogg
384,192,91366,1,0,0:0:0:0:s_057.ogg
25,192,91533,1,0,0:0:0:0:s_028.ogg
384,192,91533,1,0,0:0:0:0:s_062.ogg
435,192,91533,1,0,0:0:0:0:s_059.ogg
128,192,91700,1,0,0:0:0:0:s_044.ogg
179,192,91700,1,0,0:0:0:0:s_040.ogg
230,192,91700,1,0,0:0:0:0:s_050.ogg
281,192,91700,1,0,0:0:0:0:s_059.ogg
332,192,91700,1,0,0:0:0:0:s_056.ogg
76,192,91866,1,0,0:0:0:0:s_033.ogg
281,192,91866,1,0,0:0:0:0:s_061.ogg
384,192,91908,1,0,0:0:0:0:s_064.ogg
435,192,91950,1,0,0:0:0:0:s_069.ogg
486,192,91991,1,0,0:0:0:0:s_076.ogg
128,192,92033,1,0,0:0:0:0:s_049.ogg
179,192,92033,1,0,0:0:0:0:s_045.ogg
230,192,92033,1,0,0:0:0:0:s_040.ogg
25,192,92200,1,0,0:0:0:0:s_028.ogg
332,192,92200,128,0,92616:0:0:0:0:m_049.ogg
281,192,92200,128,0,92616:0:0:0:0:m_057.ogg
128,192,92366,1,0,0:0:0:0:s_045.ogg
179,192,92366,1,0,0:0:0:0:s_040.ogg
76,192,92533,1,0,0:0:0:0:s_033.ogg
128,192,92700,1,0,0:0:0:0:s_045.ogg
179,192,92700,1,0,0:0:0:0:s_040.ogg
332,192,92700,1,0,0:0:0:0:s_059.ogg
384,192,92700,1,0,0:0:0:0:s_050.ogg
25,192,92866,1,0,0:0:0:0:s_028.ogg
384,192,92866,1,0,0:0:0:0:s_061.ogg
435,192,92866,1,0,0:0:0:0:s_052.ogg
128,192,93033,1,0,0:0:0:0:s_045.ogg
179,192,93033,1,0,0:0:0:0:s_040.ogg
281,192,93033,1,0,0:0:0:0:s_057.ogg
332,192,93033,1,0,0:0:0:0:s_049.ogg
76,192,93200,1,0,0:0:0:0:s_035.ogg
281,192,93200,1,0,0:0:0:0:s_056.ogg
435,192,93200,1,0,0:0:0:0:s_047.ogg
128,192,93366,1,0,0:0:0:0:s_044.ogg
179,192,93366,1,0,0:0:0:0:s_040.ogg
230,192,93366,1,0,0:0:0:0:s_038.ogg
332,192,93366,1,0,0:0:0:0:s_057.ogg
486,192,93366,1,0,0:0:0:0:s_049.ogg
25,192,93533,1,0,0:0:0:0:s_028.ogg
281,192,93533,1,0,0:0:0:0:s_059.ogg
384,192,93533,1,0,0:0:0:0:s_050.ogg
128,192,93700,1,0,0:0:0:0:s_044.ogg
179,192,93700,1,0,0:0:0:0:s_040.ogg
230,192,93700,1,0,0:0:0:0:s_038.ogg
332,192,93700,1,0,0:0:0:0:s_061.ogg
435,192,93700,1,0,0:0:0:0:s_052.ogg
76,192,93866,1,0,0:0:0:0:s_035.ogg
384,192,93866,1,0,0:0:0:0:s_054.ogg
486,192,93866,1,0,0:0:0:0:s_062.ogg
128,192,94033,1,0,0:0:0:0:s_044.ogg
179,192,94033,1,0,0:0:0:0:s_040.ogg
230,192,94033,1,0,0:0:0:0:s_038.ogg
281,192,94033,1,0,0:0:0:0:s_056.ogg
435,192,94033,1,0,0:0:0:0:s_064.ogg
25,192,94200,1,0,0:0:0:0:s_028.ogg
332,192,94200,1,0,0:0:0:0:s_066.ogg
486,192,94200,1,0,0:0:0:0:s_057.ogg
128,192,94366,1,0,0:0:0:0:s_044.ogg
179,192,94366,1,0,0:0:0:0:s_040.ogg
230,192,94366,1,0,0:0:0:0:s_038.ogg
281,192,94366,1,0,0:0:0:0:s_068.ogg
384,192,94366,1,0,0:0:0:0:s_059.ogg
76,192,94533,1,0,0:0:0:0:s_033.ogg
332,192,94533,1,0,0:0:0:0:s_061.ogg
435,192,94533,1,0,0:0:0:0:s_069.ogg
128,192,94700,1,0,0:0:0:0:s_045.ogg
179,192,94700,1,0,0:0:0:0:s_040.ogg
230,192,94700,1,0,0:0:0:0:s_037.ogg
281,192,94700,1,0,0:0:0:0:s_068.ogg
384,192,94700,1,0,0:0:0:0:s_059.ogg
25,192,94866,1,0,0:0:0:0:s_028.ogg
332,192,94866,1,0,0:0:0:0:s_061.ogg
435,192,94866,1,0,0:0:0:0:s_069.ogg
128,192,95033,1,0,0:0:0:0:s_045.ogg
179,192,95033,1,0,0:0:0:0:s_040.ogg
230,192,95033,1,0,0:0:0:0:s_037.ogg
384,192,95033,1,0,0:0:0:0:s_071.ogg
486,192,95033,1,0,0:0:0:0:s_062.ogg
76,192,95200,1,0,0:0:0:0:s_033.ogg
435,192,95200,1,0,0:0:0:0:s_073.ogg
486,192,95200,1,0,0:0:0:0:s_064.ogg
128,192,95366,1,0,0:0:0:0:s_040.ogg
179,192,95366,1,0,0:0:0:0:s_045.ogg
230,192,95366,1,0,0:0:0:0:s_037.ogg
332,192,95366,1,0,0:0:0:0:s_062.ogg
384,192,95366,1,0,0:0:0:0:s_071.ogg
25,192,95533,1,0,0:0:0:0:s_028.ogg
435,192,95533,1,0,0:0:0:0:s_064.ogg
486,192,95533,1,0,0:0:0:0:s_073.ogg
128,192,95700,1,0,0:0:0:0:s_045.ogg
179,192,95700,1,0,0:0:0:0:s_040.ogg
230,192,95700,1,0,0:0:0:0:s_037.ogg
281,192,95700,1,0,0:0:0:0:s_061.ogg
332,192,95700,1,0,0:0:0:0:s_069.ogg
76,192,95866,1,0,0:0:0:0:s_030.ogg
384,192,95866,1,0,0:0:0:0:s_066.ogg
435,192,95908,1,0,0:0:0:0:s_073.ogg
486,192,95950,1,0,0:0:0:0:s_081.ogg
128,192,96033,1,0,0:0:0:0:s_045.ogg
179,192,96033,1,0,0:0:0:0:s_039.ogg
230,192,96033,1,0,0:0:0:0:s_035.ogg
25,192,96200,1,0,0:0:0:0:s_023.ogg
332,192,96200,128,0,96616:0:0:0:0:m_045.ogg
281,192,96200,128,0,96616:0:0:0:0:m_054.ogg
128,192,96366,1,0,0:0:0:0:s_035.ogg
179,192,96366,1,0,0:0:0:0:s_039.ogg
76,192,96533,1,0,0:0:0:0:s_030.ogg
128,192,96700,1,0,0:0:0:0:s_035.ogg
179,192,96700,1,0,0:0:0:0:s_039.ogg
332,192,96700,1,0,0:0:0:0:s_047.ogg
384,192,96700,1,0,0:0:0:0:s_056.ogg
25,192,96866,1,0,0:0:0:0:s_023.ogg
435,192,96866,1,0,0:0:0:0:s_049.ogg
486,192,96866,1,0,0:0:0:0:s_057.ogg
128,192,97033,1,0,0:0:0:0:s_039.ogg
179,192,97033,1,0,0:0:0:0:s_035.ogg
281,192,97033,1,0,0:0:0:0:s_054.ogg
332,192,97033,1,0,0:0:0:0:s_045.ogg
76,192,97200,1,0,0:0:0:0:s_028.ogg
384,192,97200,1,0,0:0:0:0:s_064.ogg
435,192,97241,1,0,0:0:0:0:s_071.ogg
486,192,97283,1,0,0:0:0:0:s_080.ogg
128,192,97366,1,0,0:0:0:0:s_040.ogg
179,192,97366,1,0,0:0:0:0:s_035.ogg
230,192,97366,1,0,0:0:0:0:s_044.ogg
25,192,97533,1,0,0:0:0:0:s_023.ogg
332,192,97533,128,0,97950:0:0:0:0:m_052.ogg
281,192,97533,128,0,97950:0:0:0:0:m_044.ogg
128,192,97700,1,0,0:0:0:0:s_035.ogg
179,192,97700,1,0,0:0:0:0:s_040.ogg
76,192,97866,1,0,0:0:0:0:s_028.ogg
128,192,98033,1,0,0:0:0:0:s_040.ogg
179,192,98033,1,0,0:0:0:0:s_035.ogg
332,192,98033,1,0,0:0:0:0:s_054.ogg
384,192,98033,1,0,0:0:0:0:s_045.ogg
25,192,98200,1,0,0:0:0:0:s_023.ogg
435,192,98200,1,0,0:0:0:0:s_047.ogg
486,192,98200,1,0,0:0:0:0:s_056.ogg
128,192,98366,1,0,0:0:0:0:s_040.ogg
179,192,98366,1,0,0:0:0:0:s_035.ogg
281,192,98366,1,0,0:0:0:0:s_044.ogg
332,192,98366,1,0,0:0:0:0:s_052.ogg
76,192,98533,1,0,0:0:0:0:s_030.ogg
281,192,98533,1,0,0:0:0:0:s_051.ogg
384,192,98533,1,0,0:0:0:0:s_042.ogg
128,192,98700,1,0,0:0:0:0:s_033.ogg
179,192,98700,1,0,0:0:0:0:s_039.ogg
230,192,98700,1,0,0:0:0:0:s_035.ogg
332,192,98700,1,0,0:0:0:0:s_044.ogg
435,192,98700,1,0,0:0:0:0:s_052.ogg
25,192,98866,1,0,0:0:0:0:s_023.ogg
384,192,98866,1,0,0:0:0:0:s_045.ogg
486,192,98866,1,0,0:0:0:0:s_054.ogg
128,192,99033,1,0,0:0:0:0:s_039.ogg
179,192,99033,1,0,0:0:0:0:s_035.ogg
230,192,99033,1,0,0:0:0:0:s_033.ogg
281,192,99033,1,0,0:0:0:0:s_047.ogg
435,192,99033,1,0,0:0:0:0:s_056.ogg
76,192,99200,1,0,0:0:0:0:s_030.ogg
332,192,99200,1,0,0:0:0:0:s_057.ogg
486,192,99200,1,0,0:0:0:0:s_049.ogg
128,192,99366,1,0,0:0:0:0:s_035.ogg
179,192,99366,1,0,0:0:0:0:s_045.ogg
230,192,99366,1,0,0:0:0:0:s_039.ogg
281,192,99366,1,0,0:0:0:0:s_059.ogg
384,192,99366,1,0,0:0:0:0:s_051.ogg
25,192,99533,1,0,0:0:0:0:s_023.ogg
332,192,99533,1,0,0:0:0:0:s_061.ogg
435,192,99533,1,0,0:0:0:0:s_052.ogg
128,192,99700,1,0,0:0:0:0:s_035.ogg
179,192,99700,1,0,0:0:0:0:s_039.ogg
384,192,99700,1,0,0:0:0:0:s_063.ogg
486,192,99700,1,0,0:0:0:0:s_054.ogg
76,192,99866,1,0,0:0:0:0:s_028.ogg
435,192,99866,1,0,0:0:0:0:s_056.ogg
486,192,99866,1,0,0:0:0:0:s_064.ogg
128,192,100033,1,0,0:0:0:0:s_040.ogg
179,192,100033,1,0,0:0:0:0:s_035.ogg
230,192,100033,1,0,0:0:0:0:s_044.ogg
281,192,100033,1,0,0:0:0:0:s_063.ogg
332,192,100033,1,0,0:0:0:0:s_054.ogg
25,192,100200,1,0,0:0:0:0:s_023.ogg
332,192,100200,1,0,0:0:0:0:s_056.ogg
384,192,100200,1,0,0:0:0:0:s_064.ogg
128,192,100366,1,0,0:0:0:0:s_035.ogg
179,192,100366,1,0,0:0:0:0:s_040.ogg
384,192,100366,1,0,0:0:0:0:s_057.ogg
435,192,100366,1,0,0:0:0:0:s_066.ogg
76,192,100533,1,0,0:0:0:0:s_028.ogg
435,192,100533,1,0,0:0:0:0:s_068.ogg
486,192,100533,1,0,0:0:0:0:s_059.ogg
128,192,100700,1,0,0:0:0:0:s_044.ogg
179,192,100700,1,0,0:0:0:0:s_040.ogg
230,192,100700,1,0,0:0:0:0:s_035.ogg
332,192,100700,1,0,0:0:0:0:s_066.ogg
384,192,100700,1,0,0:0:0:0:s_057.ogg
25,192,100866,1,0,0:0:0:0:s_023.ogg
435,192,100866,1,0,0:0:0:0:s_068.ogg
486,192,100866,1,0,0:0:0:0:s_059.ogg
128,192,101033,1,0,0:0:0:0:s_040.ogg
179,192,101033,1,0,0:0:0:0:s_035.ogg
281,192,101033,1,0,0:0:0:0:s_056.ogg
332,192,101033,1,0,0:0:0:0:s_064.ogg
76,192,101200,1,0,0:0:0:0:s_030.ogg
384,192,101200,1,0,0:0:0:0:s_066.ogg
435,192,101241,1,0,0:0:0:0:s_073.ogg
486,192,101283,1,0,0:0:0:0:s_081.ogg
128,192,101366,1,0,0:0:0:0:s_045.ogg
179,192,101366,1,0,0:0:0:0:s_035.ogg
230,192,101366,1,0,0:0:0:0:s_039.ogg
25,192,101533,1,0,0:0:0:0:s_023.ogg
332,192,101533,128,0,101950:0:0:0:0:m_045.ogg
281,192,101533,128,0,101950:0:0:0:0:m_054.ogg
128,192,101700,1,0,0:0:0:0:s_039.ogg
179,192,101700,1,0,0:0:0:0:s_035.ogg
76,192,101866,1,0,0:0:0:0:s_030.ogg
128,192,102033,1,0,0:0:0:0:s_039.ogg
179,192,102033,1,0,0:0:0:0:s_035.ogg
332,192,102033,1,0,0:0:0:0:s_047.ogg
384,192,102033,1,0,0:0:0:0:s_056.ogg
25,192,102200,1,0,0:0:0:0:s_023.ogg
435,192,102200,1,0,0:0:0:0:s_057.ogg
486,192,102200,1,0,0:0:0:0:s_049.ogg
128,192,102366,1,0,0:0:0:0:s_035.ogg
179,192,102366,1,0,0:0:0:0:s_039.ogg
281,192,102366,1,0,0:0:0:0:s_045.ogg
332,192,102366,1,0,0:0:0:0:s_054.ogg
76,192,102533,1,0,0:0:0:0:s_028.ogg
384,192,102533,1,0,0:0:0:0:s_064.ogg
435,192,102575,1,0,0:0:0:0:s_071.ogg
486,192,102616,1,0,0:0:0:0:s_080.ogg
128,192,102700,1,0,0:0:0:0:s_044.ogg
179,192,102700,1,0,0:0:0:0:s_040.ogg
230,192,102700,1,0,0:0:0:0:s_035.ogg
25,192,102866,1,0,0:0:0:0:s_023.ogg
332,192,102866,128,0,103283:0:0:0:0:m_052.ogg
281,192,102866,128,0,103283:0:0:0:0:m_044.ogg
128,192,103033,1,0,0:0:0:0:s_035.ogg
179,192,103033,1,0,0:0:0:0:s_040.ogg
76,192,103200,1,0,0:0:0:0:s_028.ogg
128,192,103366,1,0,0:0:0:0:s_040.ogg
179,192,103366,1,0,0:0:0:0:s_035.ogg
332,192,103366,1,0,0:0:0:0:s_054.ogg
384,192,103366,1,0,0:0:0:0:s_045.ogg
25,192,103533,1,0,0:0:0:0:s_023.ogg
435,192,103533,1,0,0:0:0:0:s_056.ogg
486,192,103533,1,0,0:0:0:0:s_047.ogg
128,192,103700,1,0,0:0:0:0:s_040.ogg
179,192,103700,1,0,0:0:0:0:s_035.ogg
281,192,103700,1,0,0:0:0:0:s_052.ogg
332,192,103700,1,0,0:0:0:0:s_044.ogg
76,192,103866,1,0,0:0:0:0:s_030.ogg
281,192,103866,1,0,0:0:0:0:s_051.ogg
384,192,103866,1,0,0:0:0:0:s_042.ogg
128,192,104033,1,0,0:0:0:0:s_039.ogg
179,192,104033,1,0,0:0:0:0:s_035.ogg
230,192,104033,1,0,0:0:0:0:s_033.ogg
332,192,104033,1,0,0:0:0:0:s_052.ogg
435,192,104033,1,0,0:0:0:0:s_044.ogg
25,192,104200,1,0,0:0:0:0:s_023.ogg
384,192,104200,1,0,0:0:0:0:s_054.ogg
486,192,104200,1,0,0:0:0:0:s_045.ogg
128,192,104366,1,0,0:0:0:0:s_039.ogg
179,192,104366,1,0,0:0:0:0:s_035.ogg
230,192,104366,1,0,0:0:0:0:s_033.ogg
281,192,104366,1,0,0:0:0:0:s_056.ogg
435,192,104366,1,0,0:0:0:0:s_047.ogg
76,192,104533,1,0,0:0:0:0:s_030.ogg
332,192,104533,1,0,0:0:0:0:s_049.ogg
486,192,104533,1,0,0:0:0:0:s_057.ogg
128,192,104700,1,0,0:0:0:0:s_045.ogg
179,192,104700,1,0,0:0:0:0:s_039.ogg
230,192,104700,1,0,0:0:0:0:s_035.ogg
281,192,104700,1,0,0:0:0:0:s_059.ogg
384,192,104700,1,0,0:0:0:0:s_051.ogg
25,192,104866,1,0,0:0:0:0:s_023.ogg
332,192,104866,1,0,0:0:0:0:s_061.ogg
435,192,104866,1,0,0:0:0:0:s_052.ogg
128,192,105033,1,0,0:0:0:0:s_039.ogg
179,192,105033,1,0,0:0:0:0:s_035.ogg
384,192,105033,1,0,0:0:0:0:s_063.ogg
486,192,105033,1,0,0:0:0:0:s_054.ogg
25,192,105200,1,0,0:0:0:0:s_040.ogg
76,192,105200,1,0,0:0:0:0:s_035.ogg
179,192,105200,1,0,0:0:0:0:s_028.ogg
332,192,105200,1,0,0:0:0:0:s_064.ogg
435,192,105200,1,0,0:0:0:0:s_052.ogg
486,192,105200,1,0,0:0:0:0:s_056.ogg
128,192,105366,1,0,0:0:0:0:s_041.ogg
230,192,105366,1,0,0:0:0:0:s_029.ogg
281,192,105366,1,0,0:0:0:0:s_063.ogg
384,192,105366,1,0,0:0:0:0:s_051.ogg
25,192,105533,1,0,0:0:0:0:s_039.ogg
128,192,105533,1,0,0:0:0:0:s_027.ogg
384,192,105533,1,0,0:0:0:0:s_065.ogg
486,192,105533,1,0,0:0:0:0:s_053.ogg
76,192,105700,1,0,0:0:0:0:s_028.ogg
179,192,105700,1,0,0:0:0:0:s_040.ogg
332,192,105700,1,0,0:0:0:0:s_064.ogg
435,192,105700,1,0,0:0:0:0:s_052.ogg
76,192,105866,1,0,0:0:0:0:s_038.ogg
230,192,105866,1,0,0:0:0:0:s_026.ogg
281,192,105866,1,0,0:0:0:0:s_066.ogg
435,192,105866,1,0,0:0:0:0:s_054.ogg
25,192,106033,1,0,0:0:0:0:s_027.ogg
128,192,106033,1,0,0:0:0:0:s_039.ogg
384,192,106033,1,0,0:0:0:0:s_065.ogg
486,192,106033,1,0,0:0:0:0:s_053.ogg
25,192,106200,1,0,0:0:0:0:s_025.ogg
179,192,106200,1,0,0:0:0:0:s_037.ogg
332,192,106200,1,0,0:0:0:0:s_067.ogg
486,192,106200,1,0,0:0:0:0:s_055.ogg
76,192,106366,1,0,0:0:0:0:s_038.ogg
230,192,106366,1,0,0:0:0:0:s_026.ogg
281,192,106366,1,0,0:0:0:0:s_054.ogg
435,192,106366,1,0,0:0:0:0:s_066.ogg
128,192,106533,1,0,0:0:0:0:s_024.ogg
230,192,106533,1,0,0:0:0:0:s_036.ogg
281,192,106533,1,0,0:0:0:0:s_056.ogg
384,192,106533,1,0,0:0:0:0:s_068.ogg
25,192,106700,1,0,0:0:0:0:s_037.ogg
179,192,106700,1,0,0:0:0:0:s_025.ogg
332,192,106700,1,0,0:0:0:0:s_055.ogg
486,192,106700,1,0,0:0:0:0:s_067.ogg
76,192,106866,1,0,0:0:0:0:s_023.ogg
179,192,106866,1,0,0:0:0:0:s_035.ogg
332,192,106866,1,0,0:0:0:0:s_057.ogg
435,192,106866,1,0,0:0:0:0:s_069.ogg
128,192,107033,1,0,0:0:0:0:s_036.ogg
230,192,107033,1,0,0:0:0:0:s_024.ogg
281,192,107033,1,0,0:0:0:0:s_068.ogg
384,192,107033,1,0,0:0:0:0:s_056.ogg
25,192,107200,1,0,0:0:0:0:s_034.ogg
128,192,107200,1,0,0:0:0:0:s_022.ogg
384,192,107200,1,0,0:0:0:0:s_070.ogg
486,192,107200,1,0,0:0:0:0:s_058.ogg
76,192,107366,1,0,0:0:0:0:s_023.ogg
179,192,107366,1,0,0:0:0:0:s_035.ogg
332,192,107366,1,0,0:0:0:0:s_069.ogg
435,192,107366,1,0,0:0:0:0:s_057.ogg
76,192,107533,1,0,0:0:0:0:s_033.ogg
230,192,107533,1,0,0:0:0:0:s_021.ogg
281,192,107533,1,0,0:0:0:0:s_071.ogg
435,192,107533,1,0,0:0:0:0:s_059.ogg
25,192,107700,1,0,0:0:0:0:s_022.ogg
128,192,107700,1,0,0:0:0:0:s_034.ogg
384,192,107700,1,0,0:0:0:0:s_070.ogg
486,192,107700,1,0,0:0:0:0:s_058.ogg
25,192,107866,1,0,0:0:0:0:s_032.ogg
179,192,107866,1,0,0:0:0:0:s_020.ogg
332,192,107866,1,0,0:0:0:0:s_072.ogg
486,192,107866,1,0,0:0:0:0:s_060.ogg
76,192,108033,1,0,0:0:0:0:s_033.ogg
230,192,108033,1,0,0:0:0:0:s_021.ogg
281,192,108033,1,0,0:0:0:0:s_071.ogg
435,192,108033,1,0,0:0:0:0:s_059.ogg
128,192,108200,1,0,0:0:0:0:s_031.ogg
230,192,108200,1,0,0:0:0:0:s_019.ogg
281,192,108200,1,0,0:0:0:0:s_073.ogg
384,192,108200,1,0,0:0:0:0:s_061.ogg
25,192,108366,1,0,0:0:0:0:s_032.ogg
179,192,108366,1,0,0:0:0:0:s_020.ogg
332,192,108366,1,0,0:0:0:0:s_072.ogg
486,192,108366,1,0,0:0:0:0:s_060.ogg
76,192,108533,1,0,0:0:0:0:s_030.ogg
179,192,108533,1,0,0:0:0:0:s_018.ogg
332,192,108533,1,0,0:0:0:0:s_074.ogg
435,192,108533,1,0,0:0:0:0:s_062.ogg
128,192,108700,1,0,0:0:0:0:s_031.ogg
230,192,108700,1,0,0:0:0:0:s_019.ogg
281,192,108700,1,0,0:0:0:0:s_073.ogg
384,192,108700,1,0,0:0:0:0:s_061.ogg
25,192,108866,1,0,0:0:0:0:s_029.ogg
128,192,108866,1,0,0:0:0:0:s_017.ogg
332,192,108866,1,0,0:0:0:0:s_074.ogg
435,192,108866,1,0,0:0:0:0:s_062.ogg
76,192,109033,1,0,0:0:0:0:s_030.ogg
179,192,109033,1,0,0:0:0:0:s_018.ogg
384,192,109033,1,0,0:0:0:0:s_075.ogg
486,192,109033,1,0,0:0:0:0:s_063.ogg
25,192,109200,1,0,0:0:0:0:s_028.ogg
76,192,109200,1,0,0:0:0:0:s_016.ogg
435,192,109200,1,0,0:0:0:0:s_064.ogg
486,192,109200,1,0,0:0:0:0:s_076.ogg
179,192,109366,1,0,0:0:0:0:s_029.ogg
230,192,109366,1,0,0:0:0:0:s_017.ogg
281,192,109366,1,0,0:0:0:0:s_075.ogg
332,192,109366,1,0,0:0:0:0:s_063.ogg
25,192,109533,1,0,0:0:0:0:s_028.ogg
76,192,109533,1,0,0:0:0:0:s_023.ogg
128,192,109533,1,0,0:0:0:0:s_016.ogg
384,192,109533,1,0,0:0:0:0:s_068.ogg
435,192,109533,1,0,0:0:0:0:s_076.ogg
486,192,109533,1,0,0:0:0:0:s_064.ogg
179,192,109700,1,0,0:0:0:0:s_017.ogg
230,192,109700,1,0,0:0:0:0:s_029.ogg
281,192,109700,1,0,0:0:0:0:s_069.ogg
332,192,109700,1,0,0:0:0:0:s_063.ogg
384,192,109700,1,0,0:0:0:0:s_075.ogg
25,192,109866,1,0,0:0:0:0:s_016.ogg
76,192,109866,1,0,0:0:0:0:s_028.ogg
128,192,109866,1,0,0:0:0:0:s_023.ogg
384,192,109866,1,0,0:0:0:0:s_068.ogg
435,192,109866,1,0,0:0:0:0:s_064.ogg
486,192,109866,1,0,0:0:0:0:s_076.ogg
179,192,110033,1,0,0:0:0:0:s_017.ogg
230,192,110033,1,0,0:0:0:0:s_029.ogg
281,192,110033,1,0,0:0:0:0:s_075.ogg
332,192,110033,1,0,0:0:0:0:s_069.ogg
384,192,110033,1,0,0:0:0:0:s_063.ogg
25,192,110200,1,0,0:0:0:0:s_016.ogg
76,192,110200,1,0,0:0:0:0:s_021.ogg
128,192,110200,1,0,0:0:0:0:s_028.ogg
384,192,110200,1,0,0:0:0:0:s_076.ogg
435,192,110200,1,0,0:0:0:0:s_068.ogg
486,192,110200,1,0,0:0:0:0:s_064.ogg
179,192,110366,1,0,0:0:0:0:s_029.ogg
230,192,110366,1,0,0:0:0:0:s_017.ogg
281,192,110366,1,0,0:0:0:0:s_075.ogg
332,192,110366,1,0,0:0:0:0:s_063.ogg
384,192,110366,1,0,0:0:0:0:s_069.ogg
25,192,110533,1,0,0:0:0:0:s_028.ogg
76,192,110533,1,0,0:0:0:0:s_023.ogg
128,192,110533,1,0,0:0:0:0:s_016.ogg
384,192,110533,1,0,0:0:0:0:s_068.ogg
435,192,110533,1,0,0:0:0:0:s_076.ogg
486,192,110533,1,0,0:0:0:0:s_064.ogg
76,192,110700,1,0,0:0:0:0:s_039.ogg
128,192,110700,1,0,0:0:0:0:s_027.ogg
332,192,110700,1,0,0:0:0:0:s_063.ogg
384,192,110700,1,0,0:0:0:0:s_051.ogg
179,192,110866,1,0,0:0:0:0:s_028.ogg
230,192,110866,1,0,0:0:0:0:s_040.ogg
435,192,110866,1,0,0:0:0:0:s_064.ogg
486,192,110866,1,0,0:0:0:0:s_052.ogg
76,192,111033,1,0,0:0:0:0:s_039.ogg
128,192,111033,1,0,0:0:0:0:s_027.ogg
332,192,111033,1,0,0:0:0:0:s_063.ogg
384,192,111033,1,0,0:0:0:0:s_051.ogg
179,192,111200,1,0,0:0:0:0:s_028.ogg
230,192,111200,1,0,0:0:0:0:s_040.ogg
435,192,111200,1,0,0:0:0:0:s_064.ogg
486,192,111200,1,0,0:0:0:0:s_052.ogg
25,192,111366,1,0,0:0:0:0:s_027.ogg
76,192,111366,1,0,0:0:0:0:s_015.ogg
281,192,111366,1,0,0:0:0:0:s_051.ogg
332,192,111366,1,0,0:0:0:0:s_039.ogg
128,192,111533,1,0,0:0:0:0:s_028.ogg
179,192,111533,1,0,0:0:0:0:s_016.ogg
384,192,111533,1,0,0:0:0:0:s_052.ogg
435,192,111533,1,0,0:0:0:0:s_040.ogg
25,192,111700,1,0,0:0:0:0:s_027.ogg
76,192,111700,1,0,0:0:0:0:s_015.ogg
281,192,111700,1,0,0:0:0:0:s_051.ogg
332,192,111700,1,0,0:0:0:0:s_039.ogg
179,192,111866,128,0,112116:0:0:0:0:m_016.ogg
128,192,111866,128,0,112116:0:0:0:0:m_028.ogg
384,192,111866,128,0,112116:0:0:0:0:m_052.ogg
435,192,111866,128,0,112116:0:0:0:0:m_040.ogg
25,192,112033,1,0,0:0:0:0:s_035.ogg
76,192,112033,1,0,0:0:0:0:s_032.ogg
281,192,112033,1,0,0:0:0:0:s_047.ogg
332,192,112033,1,0,0:0:0:0:s_044.ogg
486,192,112200,128,0,112450:0:0:0:0:m_044.ogg
384,192,112200,128,0,112450:0:0:0:0:m_056.ogg
230,192,112200,128,0,112450:0:0:0:0:m_020.ogg
128,192,112200,128,0,112450:0:0:0:0:m_032.ogg
25,192,112366,1,0,0:0:0:0:s_035.ogg
76,192,112366,1,0,0:0:0:0:s_040.ogg
281,192,112366,1,0,0:0:0:0:s_052.ogg
332,192,112366,1,0,0:0:0:0:s_047.ogg
230,192,112533,128,0,112950:0:0:0:0:m_025.ogg
179,192,112533,128,0,112950:0:0:0:0:m_037.ogg
486,192,112533,128,0,112950:0:0:0:0:m_049.ogg
435,192,112533,128,0,112950:0:0:0:0:m_061.ogg
25,192,112700,1,0,0:0:0:0:s_044.ogg
76,192,112700,1,0,0:0:0:0:s_040.ogg
281,192,112700,1,0,0:0:0:0:s_056.ogg
332,192,112700,1,0,0:0:0:0:s_052.ogg
25,192,112866,1,0,0:0:0:0:s_044.ogg
76,192,112866,1,0,0:0:0:0:s_040.ogg
281,192,112866,1,0,0:0:0:0:s_056.ogg
332,192,112866,1,0,0:0:0:0:s_052.ogg
128,192,113033,1,0,0:0:0:0:s_035.ogg
230,192,113033,1,0,0:0:0:0:s_023.ogg
384,192,113033,1,0,0:0:0:0:s_047.ogg
486,192,113033,1,0,0:0:0:0:s_059.ogg
25,192,113200,1,0,0:0:0:0:s_033.ogg
76,192,113200,1,0,0:0:0:0:s_021.ogg
179,192,113200,1,0,0:0:0:0:s_028.ogg
230,192,113200,1,0,0:0:0:0:s_025.ogg
281,192,113200,1,0,0:0:0:0:s_057.ogg
332,192,113200,1,0,0:0:0:0:s_045.ogg
435,192,113200,1,0,0:0:0:0:s_052.ogg
486,192,113200,1,0,0:0:0:0:s_049.ogg
25,192,113366,1,0,0:0:0:0:s_032.ogg
128,192,113366,1,0,0:0:0:0:s_020.ogg
281,192,113366,1,0,0:0:0:0:s_056.ogg
384,192,113366,1,0,0:0:0:0:s_044.ogg
76,192,113533,1,0,0:0:0:0:s_019.ogg
230,192,113533,1,0,0:0:0:0:s_031.ogg
332,192,113533,1,0,0:0:0:0:s_055.ogg
486,192,113533,1,0,0:0:0:0:s_043.ogg
25,192,113700,1,0,0:0:0:0:s_018.ogg
281,192,113700,1,0,0:0:0:0:s_042.ogg
332,192,113720,1,0,0:0:0:0:s_045.ogg
76,192,113720,1,0,0:0:0:0:s_021.ogg
384,192,113741,1,0,0:0:0:0:s_049.ogg
128,192,113741,1,0,0:0:0:0:s_025.ogg
435,192,113762,1,0,0:0:0:0:s_054.ogg
179,192,113762,1,0,0:0:0:0:s_030.ogg
128,192,113866,1,0,0:0:0:0:s_029.ogg
230,192,113866,1,0,0:0:0:0:s_017.ogg
384,192,113866,1,0,0:0:0:0:s_053.ogg
486,192,113866,1,0,0:0:0:0:s_041.ogg
281,192,114033,1,0,0:0:0:0:s_040.ogg
25,192,114033,1,0,0:0:0:0:s_016.ogg
76,192,114054,1,0,0:0:0:0:s_021.ogg
332,192,114054,1,0,0:0:0:0:s_045.ogg
179,192,114075,1,0,0:0:0:0:s_025.ogg
435,192,114075,1,0,0:0:0:0:s_049.ogg
230,192,114095,1,0,0:0:0:0:s_028.ogg
486,192,114095,1,0,0:0:0:0:s_052.ogg
25,192,114200,1,0,0:0:0:0:s_027.ogg
128,192,114200,1,0,0:0:0:0:s_015.ogg
281,192,114200,1,0,0:0:0:0:s_051.ogg
384,192,114200,1,0,0:0:0:0:s_039.ogg
76,192,114366,1,0,0:0:0:0:s_028.ogg
179,192,114366,1,0,0:0:0:0:s_016.ogg
332,192,114366,1,0,0:0:0:0:s_040.ogg
435,192,114366,1,0,0:0:0:0:s_052.ogg
230,192,114533,128,0,114783:0:0:0:0:m_016.ogg
128,192,114533,128,0,114783:0:0:0:0:m_028.ogg
384,192,114533,128,0,114783:0:0:0:0:m_052.ogg
486,192,114533,128,0,114783:0:0:0:0:m_040.ogg
25,192,114700,1,0,0:0:0:0:s_035.ogg
76,192,114700,1,0,0:0:0:0:s_032.ogg
281,192,114700,1,0,0:0:0:0:s_047.ogg
332,192,114700,1,0,0:0:0:0:s_044.ogg
435,192,114866,128,0,115116:0:0:0:0:m_044.ogg
384,192,114866,128,0,115116:0:0:0:0:m_056.ogg
179,192,114866,128,0,115116:0:0:0:0:m_020.ogg
128,192,114866,128,0,115116:0:0:0:0:m_032.ogg
25,192,115033,1,0,0:0:0:0:s_040.ogg
76,192,115033,1,0,0:0:0:0:s_035.ogg
281,192,115033,1,0,0:0:0:0:s_047.ogg
332,192,115033,1,0,0:0:0:0:s_052.ogg
230,192,115200,128,0,115616:0:0:0:0:m_025.ogg
179,192,115200,128,0,115616:0:0:0:0:m_037.ogg
486,192,115200,128,0,115616:0:0:0:0:m_049.ogg
435,192,115200,128,0,115616:0:0:0:0:m_061.ogg
25,192,115366,1,0,0:0:0:0:s_044.ogg
76,192,115366,1,0,0:0:0:0:s_040.ogg
281,192,115366,1,0,0:0:0:0:s_056.ogg
332,192,115366,1,0,0:0:0:0:s_052.ogg
25,192,115533,1,0,0:0:0:0:s_044.ogg
76,192,115533,1,0,0:0:0:0:s_040.ogg
281,192,115533,1,0,0:0:0:0:s_056.ogg
332,192,115533,1,0,0:0:0:0:s_052.ogg
128,192,115700,1,0,0:0:0:0:s_035.ogg
230,192,115700,1,0,0:0:0:0:s_023.ogg
384,192,115700,1,0,0:0:0:0:s_059.ogg
486,192,115700,1,0,0:0:0:0:s_047.ogg
25,192,115866,1,0,0:0:0:0:s_033.ogg
76,192,115866,1,0,0:0:0:0:s_025.ogg
179,192,115866,1,0,0:0:0:0:s_021.ogg
230,192,115866,1,0,0:0:0:0:s_028.ogg
281,192,115866,1,0,0:0:0:0:s_057.ogg
332,192,115866,1,0,0:0:0:0:s_045.ogg
435,192,115866,1,0,0:0:0:0:s_049.ogg
486,192,115866,1,0,0:0:0:0:s_052.ogg
25,192,116033,1,0,0:0:0:0:s_032.ogg
128,192,116033,1,0,0:0:0:0:s_020.ogg
281,192,116033,1,0,0:0:0:0:s_056.ogg
384,192,116033,1,0,0:0:0:0:s_044.ogg
76,192,116200,1,0,0:0:0:0:s_018.ogg
230,192,116200,1,0,0:0:0:0:s_030.ogg
332,192,116200,1,0,0:0:0:0:s_042.ogg
486,192,116200,1,0,0:0:0:0:s_054.ogg
25,192,116366,1,0,0:0:0:0:s_028.ogg
76,192,116366,1,0,0:0:0:0:s_016.ogg
128,192,116366,1,0,0:0:0:0:s_021.ogg
179,192,116366,1,0,0:0:0:0:s_025.ogg
281,192,116366,1,0,0:0:0:0:s_052.ogg
332,192,116366,1,0,0:0:0:0:s_045.ogg
384,192,116366,1,0,0:0:0:0:s_049.ogg
435,192,116366,1,0,0:0:0:0:s_040.ogg
25,192,116533,1,0,0:0:0:0:m_021.ogg
128,192,116533,1,0,0:0:0:0:m_028.ogg
179,192,116533,1,0,0:0:0:0:m_033.ogg
230,192,116533,1,0,0:0:0:0:m_025.ogg
281,192,116533,1,0,0:0:0:0:m_049.ogg
384,192,116533,1,0,0:0:0:0:m_052.ogg
435,192,116533,1,0,0:0:0:0:m_057.ogg
486,192,116533,1,0,0:0:0:0:m_045.ogg
76,192,116866,1,0,0:0:0:0:m_028.ogg
128,192,116866,1,0,0:0:0:0:m_033.ogg
179,192,116866,1,0,0:0:0:0:m_037.ogg
230,192,116866,1,0,0:0:0:0:m_025.ogg
332,192,116866,1,0,0:0:0:0:m_061.ogg
384,192,116866,1,0,0:0:0:0:m_057.ogg
435,192,116866,1,0,0:0:0:0:m_049.ogg
486,192,116866,1,0,0:0:0:0:m_052.ogg
25,192,117200,1,0,0:0:0:0:s_028.ogg
179,192,117200,1,0,0:0:0:0:s_016.ogg
281,192,117200,1,0,0:0:0:0:s_068.ogg
332,192,117200,1,0,0:0:0:0:s_062.ogg
486,192,117283,1,0,0:0:0:0:s_076.ogg
128,192,117366,1,0,0:0:0:0:s_040.ogg
230,192,117366,1,0,0:0:0:0:s_028.ogg
384,192,117366,1,0,0:0:0:0:s_064.ogg
435,192,117366,1,0,0:0:0:0:s_071.ogg
486,192,117450,1,0,0:0:0:0:s_076.ogg
76,192,117533,1,0,0:0:0:0:s_035.ogg
179,192,117533,1,0,0:0:0:0:s_023.ogg
281,192,117533,1,0,0:0:0:0:s_063.ogg
332,192,117533,1,0,0:0:0:0:s_068.ogg
486,192,117616,1,0,0:0:0:0:s_076.ogg
128,192,117700,1,0,0:0:0:0:s_044.ogg
230,192,117700,1,0,0:0:0:0:s_032.ogg
384,192,117700,1,0,0:0:0:0:s_064.ogg
435,192,117700,1,0,0:0:0:0:s_071.ogg
486,192,117783,1,0,0:0:0:0:s_076.ogg
25,192,117866,1,0,0:0:0:0:s_028.ogg
76,192,117866,1,0,0:0:0:0:s_040.ogg
281,192,117866,1,0,0:0:0:0:s_062.ogg
332,192,117866,1,0,0:0:0:0:s_068.ogg
486,192,117950,1,0,0:0:0:0:s_076.ogg
384,192,118033,1,0,0:0:0:0:s_064.ogg
435,192,118033,1,0,0:0:0:0:s_071.ogg
230,192,118033,128,0,118283:0:0:0:0:m_049.ogg
179,192,118033,128,0,118283:0:0:0:0:m_037.ogg
486,192,118116,1,0,0:0:0:0:s_076.ogg
281,192,118200,1,0,0:0:0:0:s_063.ogg
332,192,118200,1,0,0:0:0:0:s_068.ogg
486,192,118283,1,0,0:0:0:0:s_076.ogg
128,192,118366,1,0,0:0:0:0:s_047.ogg
230,192,118366,1,0,0:0:0:0:s_035.ogg
384,192,118366,1,0,0:0:0:0:s_071.ogg
435,192,118366,1,0,0:0:0:0:s_064.ogg
486,192,118450,1,0,0:0:0:0:s_076.ogg
76,192,118533,1,0,0:0:0:0:s_045.ogg
179,192,118533,1,0,0:0:0:0:s_033.ogg
281,192,118533,1,0,0:0:0:0:s_061.ogg
384,192,118533,1,0,0:0:0:0:s_069.ogg
486,192,118616,1,0,0:0:0:0:s_076.ogg
25,192,118700,1,0,0:0:0:0:s_044.ogg
128,192,118700,1,0,0:0:0:0:s_032.ogg
332,192,118700,1,0,0:0:0:0:s_064.ogg
435,192,118700,1,0,0:0:0:0:s_073.ogg
486,192,118783,1,0,0:0:0:0:s_076.ogg
76,192,118866,1,0,0:0:0:0:s_043.ogg
230,192,118866,1,0,0:0:0:0:s_031.ogg
281,192,118866,1,0,0:0:0:0:s_069.ogg
384,192,118866,1,0,0:0:0:0:s_063.ogg
486,192,118950,1,0,0:0:0:0:s_076.ogg
25,192,119033,1,0,0:0:0:0:s_042.ogg
179,192,119033,1,0,0:0:0:0:s_030.ogg
332,192,119033,1,0,0:0:0:0:s_064.ogg
435,192,119033,1,0,0:0:0:0:s_073.ogg
486,192,119116,1,0,0:0:0:0:s_076.ogg
128,192,119200,1,0,0:0:0:0:s_041.ogg
230,192,119200,1,0,0:0:0:0:s_029.ogg
281,192,119200,1,0,0:0:0:0:s_061.ogg
384,192,119200,1,0,0:0:0:0:s_069.ogg
486,192,119283,1,0,0:0:0:0:s_076.ogg
76,192,119366,1,0,0:0:0:0:s_040.ogg
179,192,119366,1,0,0:0:0:0:s_028.ogg
332,192,119366,1,0,0:0:0:0:s_064.ogg
435,192,119366,1,0,0:0:0:0:s_073.ogg
486,192,119450,1,0,0:0:0:0:s_076.ogg
25,192,119533,1,0,0:0:0:0:s_037.ogg
128,192,119533,1,0,0:0:0:0:s_025.ogg
281,192,119533,1,0,0:0:0:0:s_063.ogg
384,192,119533,1,0,0:0:0:0:s_069.ogg
486,192,119616,1,0,0:0:0:0:s_076.ogg
76,192,119700,1,0,0:0:0:0:s_033.ogg
230,192,119700,1,0,0:0:0:0:s_021.ogg
332,192,119700,1,0,0:0:0:0:s_073.ogg
435,192,119700,1,0,0:0:0:0:s_064.ogg
486,192,119783,1,0,0:0:0:0:s_076.ogg
25,192,119866,1,0,0:0:0:0:s_028.ogg
179,192,119866,1,0,0:0:0:0:s_016.ogg
281,192,119866,1,0,0:0:0:0:s_062.ogg
332,192,119866,1,0,0:0:0:0:s_068.ogg
486,192,119950,1,0,0:0:0:0:s_076.ogg
128,192,120033,1,0,0:0:0:0:s_040.ogg
230,192,120033,1,0,0:0:0:0:s_028.ogg
384,192,120033,1,0,0:0:0:0:s_064.ogg
435,192,120033,1,0,0:0:0:0:s_071.ogg
486,192,120116,1,0,0:0:0:0:s_076.ogg
76,192,120200,1,0,0:0:0:0:s_023.ogg
179,192,120200,1,0,0:0:0:0:s_035.ogg
281,192,120200,1,0,0:0:0:0:s_068.ogg
332,192,120200,1,0,0:0:0:0:s_063.ogg
486,192,120283,1,0,0:0:0:0:s_076.ogg
128,192,120366,1,0,0:0:0:0:s_044.ogg
230,192,120366,1,0,0:0:0:0:s_032.ogg
384,192,120366,1,0,0:0:0:0:s_071.ogg
435,192,120366,1,0,0:0:0:0:s_064.ogg
486,192,120450,1,0,0:0:0:0:s_076.ogg
25,192,120533,1,0,0:0:0:0:s_040.ogg
76,192,120533,1,0,0:0:0:0:s_028.ogg
281,192,120533,1,0,0:0:0:0:s_062.ogg
332,192,120533,1,0,0:0:0:0:s_068.ogg
486,192,120616,1,0,0:0:0:0:s_076.ogg
384,192,120700,1,0,0:0:0:0:s_064.ogg
435,192,120700,1,0,0:0:0:0:s_071.ogg
230,192,120700,128,0,120950:0:0:0:0:m_037.ogg
179,192,120700,128,0,120950:0:0:0:0:m_049.ogg
486,192,120783,1,0,0:0:0:0:s_076.ogg
281,192,120866,1,0,0:0:0:0:s_063.ogg
332,192,120866,1,0,0:0:0:0:s_068.ogg
486,192,120950,1,0,0:0:0:0:s_076.ogg
128,192,121033,1,0,0:0:0:0:s_047.ogg
230,192,121033,1,0,0:0:0:0:s_035.ogg
384,192,121033,1,0,0:0:0:0:s_071.ogg
435,192,121033,1,0,0:0:0:0:s_064.ogg
486,192,121116,1,0,0:0:0:0:s_076.ogg
76,192,121200,1,0,0:0:0:0:s_033.ogg
179,192,121200,1,0,0:0:0:0:s_045.ogg
281,192,121200,1,0,0:0:0:0:s_069.ogg
384,192,121200,1,0,0:0:0:0:s_061.ogg
486,192,121283,1,0,0:0:0:0:s_076.ogg
25,192,121366,1,0,0:0:0:0:s_032.ogg
128,192,121366,1,0,0:0:0:0:s_044.ogg
332,192,121366,1,0,0:0:0:0:s_073.ogg
435,192,121366,1,0,0:0:0:0:s_064.ogg
486,192,121450,1,0,0:0:0:0:s_076.ogg
76,192,121533,1,0,0:0:0:0:s_031.ogg
230,192,121533,1,0,0:0:0:0:s_043.ogg
281,192,121533,1,0,0:0:0:0:s_063.ogg
384,192,121533,1,0,0:0:0:0:s_069.ogg
486,192,121616,1,0,0:0:0:0:s_076.ogg
25,192,121700,1,0,0:0:0:0:s_042.ogg
179,192,121700,1,0,0:0:0:0:s_030.ogg
332,192,121700,1,0,0:0:0:0:s_073.ogg
435,192,121700,1,0,0:0:0:0:s_064.ogg
486,192,121783,1,0,0:0:0:0:s_076.ogg
128,192,121866,1,0,0:0:0:0:s_041.ogg
230,192,121866,1,0,0:0:0:0:s_029.ogg
281,192,121866,1,0,0:0:0:0:s_061.ogg
384,192,121866,1,0,0:0:0:0:s_069.ogg
486,192,121950,1,0,0:0:0:0:s_076.ogg
76,192,122033,1,0,0:0:0:0:s_040.ogg
179,192,122033,1,0,0:0:0:0:s_028.ogg
332,192,122033,1,0,0:0:0:0:s_064.ogg
435,192,122033,1,0,0:0:0:0:s_073.ogg
486,192,122116,1,0,0:0:0:0:s_076.ogg
25,192,122200,1,0,0:0:0:0:s_039.ogg
128,192,122200,1,0,0:0:0:0:s_027.ogg
281,192,122200,1,0,0:0:0:0:s_061.ogg
384,192,122200,1,0,0:0:0:0:s_069.ogg
486,192,122283,1,0,0:0:0:0:s_076.ogg
76,192,122366,1,0,0:0:0:0:s_040.ogg
179,192,122366,1,0,0:0:0:0:s_028.ogg
332,192,122366,1,0,0:0:0:0:s_064.ogg
435,192,122366,1,0,0:0:0:0:s_073.ogg
486,192,122450,1,0,0:0:0:0:s_076.ogg
25,192,122533,1,0,0:0:0:0:s_035.ogg
281,192,122533,1,0,0:0:0:0:s_062.ogg
332,192,122533,1,0,0:0:0:0:s_068.ogg
486,192,122616,1,0,0:0:0:0:s_076.ogg
128,192,122700,1,0,0:0:0:0:s_044.ogg
179,192,122700,1,0,0:0:0:0:s_040.ogg
230,192,122700,1,0,0:0:0:0:s_047.ogg
384,192,122700,1,0,0:0:0:0:s_071.ogg
435,192,122700,1,0,0:0:0:0:s_064.ogg
486,192,122783,1,0,0:0:0:0:s_076.ogg
25,192,122866,1,0,0:0:0:0:s_028.ogg
281,192,122866,1,0,0:0:0:0:s_062.ogg
332,192,122866,1,0,0:0:0:0:s_068.ogg
486,192,122950,1,0,0:0:0:0:s_076.ogg
128,192,123033,1,0,0:0:0:0:s_047.ogg
179,192,123033,1,0,0:0:0:0:s_044.ogg
230,192,123033,1,0,0:0:0:0:s_040.ogg
384,192,123033,1,0,0:0:0:0:s_071.ogg
435,192,123033,1,0,0:0:0:0:s_064.ogg
486,192,123116,1,0,0:0:0:0:s_076.ogg
25,192,123200,1,0,0:0:0:0:s_047.ogg
76,192,123200,1,0,0:0:0:0:s_051.ogg
281,192,123200,1,0,0:0:0:0:s_062.ogg
332,192,123200,1,0,0:0:0:0:s_068.ogg
486,192,123283,1,0,0:0:0:0:s_076.ogg
179,192,123366,1,0,0:0:0:0:s_044.ogg
230,192,123366,1,0,0:0:0:0:s_052.ogg
384,192,123366,1,0,0:0:0:0:s_064.ogg
435,192,123366,1,0,0:0:0:0:s_071.ogg
486,192,123450,1,0,0:0:0:0:s_076.ogg
25,192,123533,1,0,0:0:0:0:m_050.ogg
128,192,123533,1,0,0:0:0:0:m_047.ogg
281,192,123533,1,0,0:0:0:0:m_064.ogg
332,192,123533,1,0,0:0:0:0:m_056.ogg
384,192,123533,1,0,0:0:0:0:m_068.ogg
76,192,123783,1,0,0:0:0:0:s_052.ogg
179,192,123783,1,0,0:0:0:0:s_044.ogg
25,192,123866,1,0,0:0:0:0:s_033.ogg
281,192,123866,1,0,0:0:0:0:s_061.ogg
384,192,123866,1,0,0:0:0:0:s_069.ogg
486,192,123950,1,0,0:0:0:0:s_076.ogg
128,192,124033,1,0,0:0:0:0:s_049.ogg
179,192,124033,1,0,0:0:0:0:s_045.ogg
230,192,124033,1,0,0:0:0:0:s_040.ogg
332,192,124033,1,0,0:0:0:0:s_064.ogg
435,192,124033,1,0,0:0:0:0:s_073.ogg
486,192,124116,1,0,0:0:0:0:s_076.ogg
25,192,124200,1,0,0:0:0:0:s_028.ogg
281,192,124200,1,0,0:0:0:0:s_061.ogg
384,192,124200,1,0,0:0:0:0:s_069.ogg
486,192,124283,1,0,0:0:0:0:s_076.ogg
128,192,124366,1,0,0:0:0:0:s_049.ogg
179,192,124366,1,0,0:0:0:0:s_045.ogg
230,192,124366,1,0,0:0:0:0:s_040.ogg
332,192,124366,1,0,0:0:0:0:s_064.ogg
435,192,124366,1,0,0:0:0:0:s_073.ogg
486,192,124450,1,0,0:0:0:0:s_076.ogg
25,192,124533,1,0,0:0:0:0:s_048.ogg
76,192,124533,1,0,0:0:0:0:s_051.ogg
281,192,124533,1,0,0:0:0:0:s_061.ogg
384,192,124533,1,0,0:0:0:0:s_069.ogg
486,192,124616,1,0,0:0:0:0:s_076.ogg
179,192,124700,1,0,0:0:0:0:s_049.ogg
230,192,124700,1,0,0:0:0:0:s_052.ogg
332,192,124700,1,0,0:0:0:0:s_073.ogg
435,192,124700,1,0,0:0:0:0:s_064.ogg
486,192,124783,1,0,0:0:0:0:s_076.ogg
25,192,124866,1,0,0:0:0:0:m_049.ogg
128,192,124866,1,0,0:0:0:0:m_045.ogg
281,192,124866,1,0,0:0:0:0:m_069.ogg
332,192,124866,1,0,0:0:0:0:m_064.ogg
384,192,124866,1,0,0:0:0:0:m_057.ogg
179,192,125116,1,0,0:0:0:0:s_052.ogg
25,192,125200,1,0,0:0:0:0:s_035.ogg
281,192,125200,1,0,0:0:0:0:s_062.ogg
332,192,125200,1,0,0:0:0:0:s_068.ogg
486,192,125283,1,0,0:0:0:0:s_076.ogg
128,192,125366,1,0,0:0:0:0:s_044.ogg
230,192,125366,1,0,0:0:0:0:s_040.ogg
384,192,125366,1,0,0:0:0:0:s_064.ogg
435,192,125366,1,0,0:0:0:0:s_071.ogg
486,192,125450,1,0,0:0:0:0:s_076.ogg
25,192,125533,1,0,0:0:0:0:s_028.ogg
281,192,125533,1,0,0:0:0:0:s_062.ogg
332,192,125533,1,0,0:0:0:0:s_068.ogg
486,192,125616,1,0,0:0:0:0:s_076.ogg
128,192,125700,1,0,0:0:0:0:s_044.ogg
230,192,125700,1,0,0:0:0:0:s_040.ogg
384,192,125700,1,0,0:0:0:0:s_064.ogg
435,192,125700,1,0,0:0:0:0:s_071.ogg
486,192,125783,1,0,0:0:0:0:s_076.ogg
25,192,125866,1,0,0:0:0:0:s_047.ogg
76,192,125866,1,0,0:0:0:0:s_051.ogg
281,192,125866,1,0,0:0:0:0:s_062.ogg
332,192,125866,1,0,0:0:0:0:s_068.ogg
486,192,125950,1,0,0:0:0:0:s_076.ogg
179,192,126033,1,0,0:0:0:0:s_044.ogg
230,192,126033,1,0,0:0:0:0:s_052.ogg
384,192,126033,1,0,0:0:0:0:s_064.ogg
435,192,126033,1,0,0:0:0:0:s_071.ogg
486,192,126116,1,0,0:0:0:0:s_076.ogg
25,192,126200,1,0,0:0:0:0:m_047.ogg
128,192,126200,1,0,0:0:0:0:m_050.ogg
281,192,126200,1,0,0:0:0:0:m_064.ogg
332,192,126200,1,0,0:0:0:0:m_068.ogg
384,192,126200,1,0,0:0:0:0:m_056.ogg
76,192,126450,1,0,0:0:0:0:s_044.ogg
179,192,126450,1,0,0:0:0:0:s_052.ogg
25,192,126533,1,0,0:0:0:0:s_033.ogg
281,192,126533,1,0,0:0:0:0:s_061.ogg
384,192,126533,1,0,0:0:0:0:s_069.ogg
486,192,126616,1,0,0:0:0:0:s_076.ogg
128,192,126700,1,0,0:0:0:0:s_040.ogg
230,192,126700,1,0,0:0:0:0:s_045.ogg
332,192,126700,1,0,0:0:0:0:s_073.ogg
435,192,126700,1,0,0:0:0:0:s_064.ogg
486,192,126783,1,0,0:0:0:0:s_076.ogg
25,192,126866,1,0,0:0:0:0:s_028.ogg
281,192,126866,1,0,0:0:0:0:s_069.ogg
384,192,126866,1,0,0:0:0:0:s_061.ogg
486,192,126950,1,0,0:0:0:0:s_076.ogg
128,192,127033,1,0,0:0:0:0:s_045.ogg
230,192,127033,1,0,0:0:0:0:s_040.ogg
332,192,127033,1,0,0:0:0:0:s_064.ogg
435,192,127033,1,0,0:0:0:0:s_073.ogg
486,192,127116,1,0,0:0:0:0:s_076.ogg
25,192,127200,1,0,0:0:0:0:s_051.ogg
76,192,127200,1,0,0:0:0:0:s_048.ogg
281,192,127200,1,0,0:0:0:0:s_061.ogg
384,192,127200,1,0,0:0:0:0:s_069.ogg
486,192,127283,1,0,0:0:0:0:s_076.ogg
179,192,127366,1,0,0:0:0:0:s_052.ogg
230,192,127366,1,0,0:0:0:0:s_049.ogg
332,192,127366,1,0,0:0:0:0:s_064.ogg
435,192,127366,1,0,0:0:0:0:s_073.ogg
486,192,127450,1,0,0:0:0:0:s_076.ogg
25,192,127533,1,0,0:0:0:0:m_049.ogg
128,192,127533,1,0,0:0:0:0:m_045.ogg
281,192,127533,1,0,0:0:0:0:m_064.ogg
332,192,127533,1,0,0:0:0:0:m_057.ogg
384,192,127533,1,0,0:0:0:0:m_069.ogg
179,192,127783,1,0,0:0:0:0:s_052.ogg
76,192,127866,1,0,0:0:0:0:s_045.ogg
384,192,127866,1,0,0:0:0:0:s_066.ogg
486,192,127950,1,0,0:0:0:0:s_076.ogg
128,192,128033,1,0,0:0:0:0:s_050.ogg
179,192,128033,1,0,0:0:0:0:s_054.ogg
332,192,128033,1,0,0:0:0:0:s_062.ogg
486,192,128116,1,0,0:0:0:0:s_076.ogg
25,192,128200,1,0,0:0:0:0:s_040.ogg
281,192,128200,1,0,0:0:0:0:s_061.ogg
486,192,128283,1,0,0:0:0:0:s_076.ogg
179,192,128366,1,0,0:0:0:0:s_057.ogg
230,192,128366,1,0,0:0:0:0:s_054.ogg
332,192,128366,1,0,0:0:0:0:s_062.ogg
486,192,128450,1,0,0:0:0:0:s_076.ogg
76,192,128533,1,0,0:0:0:0:s_045.ogg
384,192,128533,1,0,0:0:0:0:s_066.ogg
486,192,128616,1,0,0:0:0:0:s_076.ogg
179,192,128700,1,0,0:0:0:0:s_054.ogg
230,192,128700,1,0,0:0:0:0:s_057.ogg
281,192,128700,1,0,0:0:0:0:s_062.ogg
486,192,128783,1,0,0:0:0:0:s_076.ogg
128,192,128866,1,0,0:0:0:0:s_050.ogg
435,192,128866,1,0,0:0:0:0:s_069.ogg
486,192,128950,1,0,0:0:0:0:s_076.ogg
179,192,129033,1,0,0:0:0:0:s_054.ogg
230,192,129033,1,0,0:0:0:0:s_057.ogg
332,192,129033,1,0,0:0:0:0:s_066.ogg
486,192,129116,1,0,0:0:0:0:s_076.ogg
76,192,129200,1,0,0:0:0:0:s_045.ogg
384,192,129200,1,0,0:0:0:0:s_064.ogg
486,192,129283,1,0,0:0:0:0:s_076.ogg
128,192,129366,1,0,0:0:0:0:s_049.ogg
179,192,129366,1,0,0:0:0:0:s_052.ogg
332,192,129366,1,0,0:0:0:0:s_061.ogg
486,192,129450,1,0,0:0:0:0:s_076.ogg
25,192,129533,1,0,0:0:0:0:s_040.ogg
281,192,129533,1,0,0:0:0:0:s_060.ogg
486,192,129616,1,0,0:0:0:0:s_076.ogg
179,192,129700,1,0,0:0:0:0:s_052.ogg
230,192,129700,1,0,0:0:0:0:s_057.ogg
332,192,129700,1,0,0:0:0:0:s_061.ogg
486,192,129783,1,0,0:0:0:0:s_076.ogg
76,192,129866,1,0,0:0:0:0:s_045.ogg
384,192,129866,1,0,0:0:0:0:s_064.ogg
486,192,129950,1,0,0:0:0:0:s_076.ogg
179,192,130033,1,0,0:0:0:0:s_057.ogg
230,192,130033,1,0,0:0:0:0:s_052.ogg
281,192,130033,1,0,0:0:0:0:s_061.ogg
486,192,130116,1,0,0:0:0:0:s_076.ogg
128,192,130200,1,0,0:0:0:0:s_049.ogg
435,192,130200,1,0,0:0:0:0:s_069.ogg
486,192,130283,1,0,0:0:0:0:s_076.ogg
179,192,130366,1,0,0:0:0:0:s_057.ogg
230,192,130366,1,0,0:0:0:0:s_052.ogg
332,192,130366,1,0,0:0:0:0:s_064.ogg
486,192,130450,1,0,0:0:0:0:s_076.ogg
76,192,130533,1,0,0:0:0:0:s_045.ogg
384,192,130533,1,0,0:0:0:0:s_066.ogg
486,192,130616,1,0,0:0:0:0:s_076.ogg
128,192,130700,1,0,0:0:0:0:s_054.ogg
179,192,130700,1,0,0:0:0:0:s_050.ogg
332,192,130700,1,0,0:0:0:0:s_062.ogg
486,192,130783,1,0,0:0:0:0:s_076.ogg
25,192,130866,1,0,0:0:0:0:s_040.ogg
281,192,130866,1,0,0:0:0:0:s_061.ogg
486,192,130950,1,0,0:0:0:0:s_076.ogg
179,192,131033,1,0,0:0:0:0:s_057.ogg
230,192,131033,1,0,0:0:0:0:s_054.ogg
332,192,131033,1,0,0:0:0:0:s_062.ogg
486,192,131116,1,0,0:0:0:0:s_076.ogg
76,192,131200,1,0,0:0:0:0:s_045.ogg
384,192,131200,1,0,0:0:0:0:s_066.ogg
486,192,131283,1,0,0:0:0:0:s_076.ogg
179,192,131366,1,0,0:0:0:0:s_054.ogg
230,192,131366,1,0,0:0:0:0:s_057.ogg
281,192,131366,1,0,0:0:0:0:s_062.ogg
486,192,131450,1,0,0:0:0:0:s_076.ogg
128,192,131533,1,0,0:0:0:0:s_050.ogg
435,192,131533,1,0,0:0:0:0:s_069.ogg
486,192,131616,1,0,0:0:0:0:s_076.ogg
179,192,131700,1,0,0:0:0:0:s_057.ogg
230,192,131700,1,0,0:0:0:0:s_054.ogg
332,192,131700,1,0,0:0:0:0:s_066.ogg
486,192,131783,1,0,0:0:0:0:s_076.ogg
76,192,131866,1,0,0:0:0:0:s_045.ogg
384,192,131866,1,0,0:0:0:0:s_064.ogg
486,192,131950,1,0,0:0:0:0:s_076.ogg
128,192,132033,1,0,0:0:0:0:s_049.ogg
179,192,132033,1,0,0:0:0:0:s_052.ogg
332,192,132033,1,0,0:0:0:0:s_061.ogg
486,192,132116,1,0,0:0:0:0:s_076.ogg
25,192,132200,1,0,0:0:0:0:s_040.ogg
281,192,132200,1,0,0:0:0:0:s_060.ogg
486,192,132283,1,0,0:0:0:0:s_076.ogg
179,192,132366,1,0,0:0:0:0:s_057.ogg
230,192,132366,1,0,0:0:0:0:s_052.ogg
332,192,132366,1,0,0:0:0:0:s_061.ogg
486,192,132450,1,0,0:0:0:0:s_076.ogg
76,192,132533,1,0,0:0:0:0:s_045.ogg
384,192,132533,1,0,0:0:0:0:s_064.ogg
486,192,132616,1,0,0:0:0:0:s_076.ogg
179,192,132700,1,0,0:0:0:0:s_057.ogg
230,192,132700,1,0,0:0:0:0:s_052.ogg
281,192,132700,1,0,0:0:0:0:s_061.ogg
486,192,132783,1,0,0:0:0:0:s_076.ogg
128,192,132866,1,0,0:0:0:0:s_049.ogg
435,192,132866,1,0,0:0:0:0:s_069.ogg
486,192,132950,1,0,0:0:0:0:s_076.ogg
179,192,133033,1,0,0:0:0:0:s_057.ogg
230,192,133033,1,0,0:0:0:0:s_052.ogg
25,192,133200,1,0,0:0:0:0:s_035.ogg
281,192,133200,1,0,0:0:0:0:s_028.ogg
128,192,133366,1,0,0:0:0:0:s_050.ogg
230,192,133366,1,0,0:0:0:0:s_044.ogg
332,192,133366,1,0,0:0:0:0:s_030.ogg
76,192,133533,1,0,0:0:0:0:s_040.ogg
384,192,133533,1,0,0:0:0:0:s_032.ogg
128,192,133700,1,0,0:0:0:0:s_050.ogg
230,192,133700,1,0,0:0:0:0:s_044.ogg
435,192,133700,1,0,0:0:0:0:s_033.ogg
25,192,133866,1,0,0:0:0:0:s_035.ogg
486,192,133866,1,0,0:0:0:0:s_037.ogg
435,192,133908,1,0,0:0:0:0:s_035.ogg
128,192,134033,1,0,0:0:0:0:s_050.ogg
230,192,134033,1,0,0:0:0:0:s_044.ogg
384,192,134033,1,0,0:0:0:0:s_034.ogg
76,192,134200,1,0,0:0:0:0:s_040.ogg
435,192,134200,1,0,0:0:0:0:s_035.ogg
128,192,134366,1,0,0:0:0:0:s_044.ogg
230,192,134366,1,0,0:0:0:0:s_050.ogg
332,192,134366,1,0,0:0:0:0:s_032.ogg
25,192,134533,1,0,0:0:0:0:s_037.ogg
281,192,134533,1,0,0:0:0:0:s_033.ogg
179,192,134700,1,0,0:0:0:0:s_045.ogg
230,192,134700,1,0,0:0:0:0:s_049.ogg
332,192,134700,1,0,0:0:0:0:s_035.ogg
76,192,134866,1,0,0:0:0:0:s_040.ogg
384,192,134866,1,0,0:0:0:0:s_037.ogg
179,192,135033,1,0,0:0:0:0:s_049.ogg
230,192,135033,1,0,0:0:0:0:s_045.ogg
435,192,135033,1,0,0:0:0:0:s_038.ogg
25,192,135200,1,0,0:0:0:0:s_037.ogg
486,192,135200,1,0,0:0:0:0:s_042.ogg
435,192,135241,1,0,0:0:0:0:s_040.ogg
179,192,135366,1,0,0:0:0:0:s_049.ogg
230,192,135366,1,0,0:0:0:0:s_045.ogg
384,192,135366,1,0,0:0:0:0:s_039.ogg
435,192,135533,1,0,0:0:0:0:s_040.ogg
179,192,135700,1,0,0:0:0:0:s_045.ogg
230,192,135700,1,0,0:0:0:0:s_049.ogg
332,192,135700,1,0,0:0:0:0:s_037.ogg
25,192,135866,1,0,0:0:0:0:s_035.ogg
281,192,135866,1,0,0:0:0:0:s_038.ogg
128,192,136033,1,0,0:0:0:0:s_050.ogg
230,192,136033,1,0,0:0:0:0:s_044.ogg
435,192,136033,1,0,0:0:0:0:s_041.ogg
486,192,136075,1,0,0:0:0:0:s_042.ogg
76,192,136200,1,0,0:0:0:0:s_040.ogg
281,192,136200,1,0,0:0:0:0:s_035.ogg
128,192,136366,1,0,0:0:0:0:s_044.ogg
230,192,136366,1,0,0:0:0:0:s_050.ogg
384,192,136366,1,0,0:0:0:0:s_037.ogg
435,192,136408,1,0,0:0:0:0:s_038.ogg
25,192,136533,1,0,0:0:0:0:s_035.ogg
281,192,136533,1,0,0:0:0:0:s_032.ogg
128,192,136700,1,0,0:0:0:0:s_050.ogg
230,192,136700,1,0,0:0:0:0:s_044.ogg
332,192,136700,1,0,0:0:0:0:s_034.ogg
384,192,136741,1,0,0:0:0:0:s_035.ogg
76,192,136866,1,0,0:0:0:0:s_040.ogg
435,192,136866,1,0,0:0:0:0:s_028.ogg
128,192,137033,1,0,0:0:0:0:s_044.ogg
230,192,137033,1,0,0:0:0:0:s_050.ogg
281,192,137033,1,0,0:0:0:0:s_031.ogg
332,192,137075,1,0,0:0:0:0:s_032.ogg
25,192,137200,1,0,0:0:0:0:s_037.ogg
486,192,137200,1,0,0:0:0:0:s_033.ogg
179,192,137366,1,0,0:0:0:0:s_049.ogg
230,192,137366,1,0,0:0:0:0:s_045.ogg
384,192,137366,1,0,0:0:0:0:s_036.ogg
435,192,137408,1,0,0:0:0:0:s_037.ogg
76,192,137533,1,0,0:0:0:0:s_040.ogg
486,192,137533,1,0,0:0:0:0:s_028.ogg
179,192,137700,1,0,0:0:0:0:s_049.ogg
230,192,137700,1,0,0:0:0:0:s_045.ogg
332,192,137700,1,0,0:0:0:0:s_032.ogg
384,192,137741,1,0,0:0:0:0:s_033.ogg
25,192,137866,1,0,0:0:0:0:s_037.ogg
486,192,137866,1,0,0:0:0:0:s_025.ogg
179,192,138033,1,0,0:0:0:0:s_045.ogg
230,192,138033,1,0,0:0:0:0:s_049.ogg
281,192,138033,1,0,0:0:0:0:s_027.ogg
332,192,138075,1,0,0:0:0:0:s_028.ogg
76,192,138200,1,0,0:0:0:0:s_040.ogg
435,192,138200,1,0,0:0:0:0:s_021.ogg
179,192,138366,1,0,0:0:0:0:s_049.ogg
230,192,138366,1,0,0:0:0:0:s_045.ogg
76,192,138533,1,0,0:0:0:0:s_035.ogg
281,192,138533,1,0,0:0:0:0:s_040.ogg
384,192,138533,1,0,0:0:0:0:s_052.ogg
128,192,138700,1,0,0:0:0:0:s_038.ogg
230,192,138700,1,0,0:0:0:0:s_044.ogg
332,192,138700,1,0,0:0:0:0:s_042.ogg
435,192,138700,1,0,0:0:0:0:s_054.ogg
25,192,138866,1,0,0:0:0:0:s_028.ogg
384,192,138866,1,0,0:0:0:0:s_056.ogg
486,192,138866,1,0,0:0:0:0:s_044.ogg
128,192,139033,1,0,0:0:0:0:s_038.ogg
179,192,139033,1,0,0:0:0:0:s_040.ogg
281,192,139033,1,0,0:0:0:0:s_057.ogg
435,192,139033,1,0,0:0:0:0:s_045.ogg
76,192,139200,1,0,0:0:0:0:s_035.ogg
486,192,139200,1,0,0:0:0:0:s_061.ogg
384,192,139241,1,0,0:0:0:0:s_047.ogg
435,192,139241,1,0,0:0:0:0:s_059.ogg
128,192,139366,1,0,0:0:0:0:s_044.ogg
230,192,139366,1,0,0:0:0:0:s_038.ogg
281,192,139366,1,0,0:0:0:0:s_058.ogg
332,192,139366,1,0,0:0:0:0:s_046.ogg
25,192,139533,1,0,0:0:0:0:s_028.ogg
435,192,139533,1,0,0:0:0:0:s_059.ogg
486,192,139533,1,0,0:0:0:0:s_047.ogg
128,192,139700,1,0,0:0:0:0:s_040.ogg
179,192,139700,1,0,0:0:0:0:s_038.ogg
332,192,139700,1,0,0:0:0:0:s_056.ogg
384,192,139700,1,0,0:0:0:0:s_044.ogg
76,192,139866,1,0,0:0:0:0:s_033.ogg
281,192,139866,1,0,0:0:0:0:s_057.ogg
384,192,139866,1,0,0:0:0:0:s_045.ogg
128,192,140033,1,0,0:0:0:0:s_045.ogg
230,192,140033,1,0,0:0:0:0:s_037.ogg
332,192,140033,1,0,0:0:0:0:s_059.ogg
435,192,140033,1,0,0:0:0:0:s_047.ogg
25,192,140200,1,0,0:0:0:0:s_028.ogg
384,192,140200,1,0,0:0:0:0:s_049.ogg
486,192,140200,1,0,0:0:0:0:s_061.ogg
128,192,140366,1,0,0:0:0:0:s_037.ogg
179,192,140366,1,0,0:0:0:0:s_040.ogg
281,192,140366,1,0,0:0:0:0:s_050.ogg
435,192,140366,1,0,0:0:0:0:s_062.ogg
76,192,140533,1,0,0:0:0:0:s_033.ogg
486,192,140533,1,0,0:0:0:0:s_066.ogg
384,192,140575,1,0,0:0:0:0:s_064.ogg
435,192,140575,1,0,0:0:0:0:s_052.ogg
128,192,140700,1,0,0:0:0:0:s_045.ogg
230,192,140700,1,0,0:0:0:0:s_037.ogg
281,192,140700,1,0,0:0:0:0:s_063.ogg
332,192,140700,1,0,0:0:0:0:s_051.ogg
25,192,140866,1,0,0:0:0:0:s_028.ogg
435,192,140866,1,0,0:0:0:0:s_064.ogg
486,192,140866,1,0,0:0:0:0:s_052.ogg
128,192,141033,1,0,0:0:0:0:s_040.ogg
179,192,141033,1,0,0:0:0:0:s_037.ogg
332,192,141033,1,0,0:0:0:0:s_061.ogg
384,192,141033,1,0,0:0:0:0:s_049.ogg
76,192,141200,1,0,0:0:0:0:s_035.ogg
281,192,141200,1,0,0:0:0:0:s_062.ogg
384,192,141200,1,0,0:0:0:0:s_054.ogg
128,192,141366,1,0,0:0:0:0:s_038.ogg
230,192,141366,1,0,0:0:0:0:s_044.ogg
435,192,141366,1,0,0:0:0:0:s_065.ogg
486,192,141408,1,0,0:0:0:0:s_066.ogg
25,192,141533,1,0,0:0:0:0:s_028.ogg
281,192,141533,1,0,0:0:0:0:s_059.ogg
332,192,141533,1,0,0:0:0:0:s_050.ogg
128,192,141700,1,0,0:0:0:0:s_038.ogg
179,192,141700,1,0,0:0:0:0:s_040.ogg
384,192,141700,1,0,0:0:0:0:s_061.ogg
435,192,141741,1,0,0:0:0:0:s_062.ogg
76,192,141866,1,0,0:0:0:0:s_035.ogg
281,192,141866,1,0,0:0:0:0:s_056.ogg
486,192,141866,1,0,0:0:0:0:s_047.ogg
128,192,142033,1,0,0:0:0:0:s_044.ogg
230,192,142033,1,0,0:0:0:0:s_038.ogg
332,192,142033,1,0,0:0:0:0:s_058.ogg
384,192,142075,1,0,0:0:0:0:s_059.ogg
25,192,142200,1,0,0:0:0:0:s_028.ogg
435,192,142200,1,0,0:0:0:0:s_052.ogg
486,192,142200,1,0,0:0:0:0:s_044.ogg
128,192,142366,1,0,0:0:0:0:s_040.ogg
179,192,142366,1,0,0:0:0:0:s_038.ogg
281,192,142366,1,0,0:0:0:0:s_055.ogg
332,192,142408,1,0,0:0:0:0:s_056.ogg
76,192,142533,1,0,0:0:0:0:s_033.ogg
435,192,142533,1,0,0:0:0:0:s_049.ogg
486,192,142533,1,0,0:0:0:0:s_057.ogg
128,192,142700,1,0,0:0:0:0:s_037.ogg
230,192,142700,1,0,0:0:0:0:s_045.ogg
384,192,142700,1,0,0:0:0:0:s_060.ogg
435,192,142741,1,0,0:0:0:0:s_061.ogg
25,192,142866,1,0,0:0:0:0:s_028.ogg
281,192,142866,1,0,0:0:0:0:s_045.ogg
486,192,142866,1,0,0:0:0:0:s_052.ogg
128,192,143033,1,0,0:0:0:0:s_037.ogg
179,192,143033,1,0,0:0:0:0:s_040.ogg
332,192,143033,1,0,0:0:0:0:s_056.ogg
384,192,143075,1,0,0:0:0:0:s_057.ogg
76,192,143200,1,0,0:0:0:0:s_033.ogg
435,192,143200,1,0,0:0:0:0:s_049.ogg
486,192,143200,1,0,0:0:0:0:s_040.ogg
128,192,143366,1,0,0:0:0:0:s_045.ogg
230,192,143366,1,0,0:0:0:0:s_037.ogg
281,192,143366,1,0,0:0:0:0:s_051.ogg
332,192,143408,1,0,0:0:0:0:s_052.ogg
25,192,143533,1,0,0:0:0:0:s_028.ogg
384,192,143533,1,0,0:0:0:0:s_037.ogg
435,192,143533,1,0,0:0:0:0:s_045.ogg
128,192,143700,1,0,0:0:0:0:s_037.ogg
179,192,143700,1,0,0:0:0:0:s_040.ogg
25,192,143866,1,0,0:0:0:0:s_030.ogg
281,192,143866,1,0,0:0:0:0:s_023.ogg
128,192,144033,1,0,0:0:0:0:s_045.ogg
230,192,144033,1,0,0:0:0:0:s_039.ogg
332,192,144033,1,0,0:0:0:0:s_025.ogg
76,192,144200,1,0,0:0:0:0:s_035.ogg
384,192,144200,1,0,0:0:0:0:s_027.ogg
128,192,144366,1,0,0:0:0:0:s_045.ogg
230,192,144366,1,0,0:0:0:0:s_039.ogg
435,192,144366,1,0,0:0:0:0:s_028.ogg
25,192,144533,1,0,0:0:0:0:s_030.ogg
486,192,144533,1,0,0:0:0:0:s_032.ogg
435,192,144575,1,0,0:0:0:0:s_030.ogg
128,192,144700,1,0,0:0:0:0:s_045.ogg
230,192,144700,1,0,0:0:0:0:s_039.ogg
384,192,144700,1,0,0:0:0:0:s_029.ogg
76,192,144866,1,0,0:0:0:0:s_035.ogg
435,192,144866,1,0,0:0:0:0:s_030.ogg
128,192,145033,1,0,0:0:0:0:s_039.ogg
230,192,145033,1,0,0:0:0:0:s_045.ogg
332,192,145033,1,0,0:0:0:0:s_027.ogg
25,192,145200,1,0,0:0:0:0:s_032.ogg
281,192,145200,1,0,0:0:0:0:s_028.ogg
179,192,145366,1,0,0:0:0:0:s_044.ogg
230,192,145366,1,0,0:0:0:0:s_040.ogg
332,192,145366,1,0,0:0:0:0:s_030.ogg
76,192,145533,1,0,0:0:0:0:s_035.ogg
384,192,145533,1,0,0:0:0:0:s_032.ogg
179,192,145700,1,0,0:0:0:0:s_044.ogg
230,192,145700,1,0,0:0:0:0:s_040.ogg
435,192,145700,1,0,0:0:0:0:s_033.ogg
25,192,145866,1,0,0:0:0:0:s_032.ogg
486,192,145866,1,0,0:0:0:0:s_037.ogg
435,192,145908,1,0,0:0:0:0:s_035.ogg
179,192,146033,1,0,0:0:0:0:s_044.ogg
230,192,146033,1,0,0:0:0:0:s_040.ogg
384,192,146033,1,0,0:0:0:0:s_034.ogg
435,192,146200,1,0,0:0:0:0:s_035.ogg
179,192,146366,1,0,0:0:0:0:s_044.ogg
230,192,146366,1,0,0:0:0:0:s_040.ogg
332,192,146366,1,0,0:0:0:0:s_032.ogg
25,192,146533,1,0,0:0:0:0:s_030.ogg
281,192,146533,1,0,0:0:0:0:s_033.ogg
128,192,146700,1,0,0:0:0:0:s_039.ogg
230,192,146700,1,0,0:0:0:0:s_045.ogg
435,192,146700,1,0,0:0:0:0:s_036.ogg
486,192,146741,1,0,0:0:0:0:s_037.ogg
76,192,146866,1,0,0:0:0:0:s_035.ogg
281,192,146866,1,0,0:0:0:0:s_030.ogg
128,192,147033,1,0,0:0:0:0:s_045.ogg
230,192,147033,1,0,0:0:0:0:s_039.ogg
384,192,147033,1,0,0:0:0:0:s_032.ogg
435,192,147075,1,0,0:0:0:0:s_033.ogg
25,192,147200,1,0,0:0:0:0:s_030.ogg
281,192,147200,1,0,0:0:0:0:s_027.ogg
128,192,147366,1,0,0:0:0:0:s_045.ogg
230,192,147366,1,0,0:0:0:0:s_039.ogg
332,192,147366,1,0,0:0:0:0:s_029.ogg
384,192,147408,1,0,0:0:0:0:s_030.ogg
76,192,147533,1,0,0:0:0:0:s_035.ogg
435,192,147533,1,0,0:0:0:0:s_023.ogg
128,192,147700,1,0,0:0:0:0:s_039.ogg
230,192,147700,1,0,0:0:0:0:s_045.ogg
281,192,147700,1,0,0:0:0:0:s_026.ogg
332,192,147741,1,0,0:0:0:0:s_027.ogg
25,192,147866,1,0,0:0:0:0:s_032.ogg
486,192,147866,1,0,0:0:0:0:s_028.ogg
179,192,148033,1,0,0:0:0:0:s_044.ogg
230,192,148033,1,0,0:0:0:0:s_040.ogg
384,192,148033,1,0,0:0:0:0:s_031.ogg
435,192,148075,1,0,0:0:0:0:s_032.ogg
76,192,148200,1,0,0:0:0:0:s_035.ogg
486,192,148200,1,0,0:0:0:0:s_023.ogg
179,192,148366,1,0,0:0:0:0:s_040.ogg
230,192,148366,1,0,0:0:0:0:s_044.ogg
332,192,148366,1,0,0:0:0:0:s_027.ogg
384,192,148408,1,0,0:0:0:0:s_028.ogg
25,192,148533,1,0,0:0:0:0:s_032.ogg
486,192,148533,1,0,0:0:0:0:s_020.ogg
179,192,148700,1,0,0:0:0:0:s_044.ogg
230,192,148700,1,0,0:0:0:0:s_040.ogg
281,192,148700,1,0,0:0:0:0:s_022.ogg
332,192,148741,1,0,0:0:0:0:s_023.ogg
76,192,148866,1,0,0:0:0:0:s_035.ogg
435,192,148866,1,0,0:0:0:0:s_016.ogg
179,192,149033,1,0,0:0:0:0:s_040.ogg
230,192,149033,1,0,0:0:0:0:s_044.ogg
76,192,149200,1,0,0:0:0:0:s_030.ogg
281,192,149200,1,0,0:0:0:0:s_047.ogg
332,192,149200,1,0,0:0:0:0:s_059.ogg
384,192,149200,1,0,0:0:0:0:s_051.ogg
128,192,149366,1,0,0:0:0:0:s_039.ogg
179,192,149366,1,0,0:0:0:0:s_035.ogg
230,192,149366,1,0,0:0:0:0:s_045.ogg
281,192,149366,1,0,0:0:0:0:s_061.ogg
332,192,149366,1,0,0:0:0:0:s_049.ogg
435,192,149366,1,0,0:0:0:0:s_052.ogg
25,192,149533,1,0,0:0:0:0:s_023.ogg
281,192,149533,1,0,0:0:0:0:s_063.ogg
332,192,149533,1,0,0:0:0:0:s_054.ogg
486,192,149533,1,0,0:0:0:0:s_051.ogg
128,192,149700,1,0,0:0:0:0:s_035.ogg
179,192,149700,1,0,0:0:0:0:s_045.ogg
230,192,149700,1,0,0:0:0:0:s_039.ogg
281,192,149700,1,0,0:0:0:0:s_064.ogg
332,192,149700,1,0,0:0:0:0:s_052.ogg
384,192,149700,1,0,0:0:0:0:s_056.ogg
76,192,149866,1,0,0:0:0:0:s_030.ogg
384,192,149866,1,0,0:0:0:0:s_057.ogg
435,192,149866,1,0,0:0:0:0:s_054.ogg
486,192,149866,1,0,0:0:0:0:s_066.ogg
128,192,150033,1,0,0:0:0:0:s_045.ogg
179,192,150033,1,0,0:0:0:0:s_039.ogg
230,192,150033,1,0,0:0:0:0:s_035.ogg
332,192,150033,1,0,0:0:0:0:s_065.ogg
435,192,150033,1,0,0:0:0:0:s_056.ogg
486,192,150033,1,0,0:0:0:0:s_053.ogg
25,192,150200,1,0,0:0:0:0:s_023.ogg
384,192,150200,1,0,0:0:0:0:s_057.ogg
435,192,150200,1,0,0:0:0:0:s_066.ogg
486,192,150200,1,0,0:0:0:0:s_054.ogg
128,192,150366,1,0,0:0:0:0:s_035.ogg
179,192,150366,1,0,0:0:0:0:s_039.ogg
230,192,150366,1,0,0:0:0:0:s_045.ogg
281,192,150366,1,0,0:0:0:0:s_063.ogg
435,192,150366,1,0,0:0:0:0:s_051.ogg
486,192,150366,1,0,0:0:0:0:s_054.ogg
76,192,150533,1,0,0:0:0:0:s_028.ogg
281,192,150533,1,0,0:0:0:0:s_052.ogg
332,192,150533,1,0,0:0:0:0:s_056.ogg
384,192,150533,1,0,0:0:0:0:s_064.ogg
128,192,150700,1,0,0:0:0:0:s_035.ogg
179,192,150700,1,0,0:0:0:0:s_040.ogg
230,192,150700,1,0,0:0:0:0:s_044.ogg
281,192,150700,1,0,0:0:0:0:s_059.ogg
332,192,150700,1,0,0:0:0:0:s_054.ogg
435,192,150700,1,0,0:0:0:0:s_066.ogg
25,192,150866,1,0,0:0:0:0:s_023.ogg
281,192,150866,1,0,0:0:0:0:s_068.ogg
332,192,150866,1,0,0:0:0:0:s_056.ogg
486,192,150866,1,0,0:0:0:0:s_064.ogg
128,192,151033,1,0,0:0:0:0:s_044.ogg
179,192,151033,1,0,0:0:0:0:s_040.ogg
230,192,151033,1,0,0:0:0:0:s_035.ogg
281,192,151033,1,0,0:0:0:0:s_066.ogg
332,192,151033,1,0,0:0:0:0:s_069.ogg
384,192,151033,1,0,0:0:0:0:s_057.ogg
76,192,151200,1,0,0:0:0:0:s_028.ogg
384,192,151200,1,0,0:0:0:0:s_071.ogg
435,192,151200,1,0,0:0:0:0:s_068.ogg
486,192,151200,1,0,0:0:0:0:s_059.ogg
128,192,151366,1,0,0:0:0:0:s_035.ogg
179,192,151366,1,0,0:0:0:0:s_044.ogg
230,192,151366,1,0,0:0:0:0:s_040.ogg
332,192,151366,1,0,0:0:0:0:s_070.ogg
435,192,151366,1,0,0:0:0:0:s_067.ogg
486,192,151366,1,0,0:0:0:0:s_058.ogg
25,192,151533,1,0,0:0:0:0:s_023.ogg
384,192,151533,1,0,0:0:0:0:s_068.ogg
435,192,151533,1,0,0:0:0:0:s_059.ogg
486,192,151533,1,0,0:0:0:0:s_071.ogg
128,192,151700,1,0,0:0:0:0:s_044.ogg
179,192,151700,1,0,0:0:0:0:s_040.ogg
230,192,151700,1,0,0:0:0:0:s_035.ogg
281,192,151700,1,0,0:0:0:0:s_056.ogg
435,192,151700,1,0,0:0:0:0:s_064.ogg
486,192,151700,1,0,0:0:0:0:s_068.ogg
76,192,151866,1,0,0:0:0:0:s_030.ogg
332,192,151866,1,0,0:0:0:0:s_061.ogg
384,192,151866,1,0,0:0:0:0:s_069.ogg
128,192,152033,1,0,0:0:0:0:s_039.ogg
179,192,152033,1,0,0:0:0:0:s_045.ogg
230,192,152033,1,0,0:0:0:0:s_035.ogg
435,192,152033,1,0,0:0:0:0:s_072.ogg
486,192,152075,1,0,0:0:0:0:s_073.ogg
25,192,152200,1,0,0:0:0:0:s_023.ogg
281,192,152200,1,0,0:0:0:0:s_066.ogg
332,192,152200,1,0,0:0:0:0:s_057.ogg
128,192,152366,1,0,0:0:0:0:s_045.ogg
179,192,152366,1,0,0:0:0:0:s_039.ogg
230,192,152366,1,0,0:0:0:0:s_035.ogg
384,192,152366,1,0,0:0:0:0:s_068.ogg
435,192,152408,1,0,0:0:0:0:s_069.ogg
76,192,152533,1,0,0:0:0:0:s_030.ogg
281,192,152533,1,0,0:0:0:0:s_063.ogg
486,192,152533,1,0,0:0:0:0:s_054.ogg
128,192,152700,1,0,0:0:0:0:s_045.ogg
179,192,152700,1,0,0:0:0:0:s_039.ogg
230,192,152700,1,0,0:0:0:0:s_035.ogg
332,192,152700,1,0,0:0:0:0:s_065.ogg
384,192,152741,1,0,0:0:0:0:s_066.ogg
25,192,152866,1,0,0:0:0:0:s_023.ogg
435,192,152866,1,0,0:0:0:0:s_059.ogg
486,192,152866,1,0,0:0:0:0:s_051.ogg
128,192,153033,1,0,0:0:0:0:s_045.ogg
179,192,153033,1,0,0:0:0:0:s_035.ogg
230,192,153033,1,0,0:0:0:0:s_039.ogg
281,192,153033,1,0,0:0:0:0:s_062.ogg
332,192,153075,1,0,0:0:0:0:s_063.ogg
76,192,153200,1,0,0:0:0:0:s_028.ogg
435,192,153200,1,0,0:0:0:0:s_056.ogg
486,192,153200,1,0,0:0:0:0:s_064.ogg
128,192,153366,1,0,0:0:0:0:s_040.ogg
179,192,153366,1,0,0:0:0:0:s_044.ogg
230,192,153366,1,0,0:0:0:0:s_035.ogg
384,192,153366,1,0,0:0:0:0:s_067.ogg
435,192,153408,1,0,0:0:0:0:s_068.ogg
25,192,153533,1,0,0:0:0:0:s_023.ogg
281,192,153533,1,0,0:0:0:0:s_052.ogg
486,192,153533,1,0,0:0:0:0:s_059.ogg
128,192,153700,1,0,0:0:0:0:s_044.ogg
179,192,153700,1,0,0:0:0:0:s_040.ogg
230,192,153700,1,0,0:0:0:0:s_035.ogg
332,192,153700,1,0,0:0:0:0:s_063.ogg
384,192,153741,1,0,0:0:0:0:s_064.ogg
76,192,153866,1,0,0:0:0:0:s_028.ogg
435,192,153866,1,0,0:0:0:0:s_056.ogg
486,192,153866,1,0,0:0:0:0:s_047.ogg
128,192,154033,1,0,0:0:0:0:s_040.ogg
179,192,154033,1,0,0:0:0:0:s_044.ogg
230,192,154033,1,0,0:0:0:0:s_035.ogg
281,192,154033,1,0,0:0:0:0:s_058.ogg
332,192,154075,1,0,0:0:0:0:s_059.ogg
25,192,154200,1,0,0:0:0:0:s_023.ogg
384,192,154200,1,0,0:0:0:0:s_052.ogg
435,192,154200,1,0,0:0:0:0:s_044.ogg
128,192,154366,1,0,0:0:0:0:s_040.ogg
179,192,154366,1,0,0:0:0:0:s_044.ogg
230,192,154366,1,0,0:0:0:0:s_035.ogg
76,192,154533,1,0,0:0:0:0:s_030.ogg
281,192,154533,1,0,0:0:0:0:s_059.ogg
332,192,154533,1,0,0:0:0:0:s_051.ogg
384,192,154533,1,0,0:0:0:0:s_047.ogg
128,192,154700,1,0,0:0:0:0:s_045.ogg
179,192,154700,1,0,0:0:0:0:s_039.ogg
230,192,154700,1,0,0:0:0:0:s_035.ogg
281,192,154700,1,0,0:0:0:0:s_052.ogg
332,192,154700,1,0,0:0:0:0:s_061.ogg
435,192,154700,1,0,0:0:0:0:s_049.ogg
25,192,154866,1,0,0:0:0:0:s_023.ogg
281,192,154866,1,0,0:0:0:0:s_063.ogg
332,192,154866,1,0,0:0:0:0:s_054.ogg
486,192,154866,1,0,0:0:0:0:s_051.ogg
128,192,155033,1,0,0:0:0:0:s_035.ogg
179,192,155033,1,0,0:0:0:0:s_045.ogg
230,192,155033,1,0,0:0:0:0:s_039.ogg
281,192,155033,1,0,0:0:0:0:s_056.ogg
332,192,155033,1,0,0:0:0:0:s_064.ogg
384,192,155033,1,0,0:0:0:0:s_052.ogg
76,192,155200,1,0,0:0:0:0:s_030.ogg
384,192,155200,1,0,0:0:0:0:s_057.ogg
435,192,155200,1,0,0:0:0:0:s_054.ogg
486,192,155200,1,0,0:0:0:0:s_066.ogg
128,192,155366,1,0,0:0:0:0:s_045.ogg
179,192,155366,1,0,0:0:0:0:s_039.ogg
230,192,155366,1,0,0:0:0:0:s_035.ogg
332,192,155366,1,0,0:0:0:0:s_053.ogg
435,192,155366,1,0,0:0:0:0:s_065.ogg
486,192,155366,1,0,0:0:0:0:s_056.ogg
25,192,155533,1,0,0:0:0:0:s_023.ogg
384,192,155533,1,0,0:0:0:0:s_066.ogg
435,192,155533,1,0,0:0:0:0:s_054.ogg
486,192,155533,1,0,0:0:0:0:s_057.ogg
128,192,155700,1,0,0:0:0:0:s_045.ogg
179,192,155700,1,0,0:0:0:0:s_039.ogg
230,192,155700,1,0,0:0:0:0:s_035.ogg
281,192,155700,1,0,0:0:0:0:s_051.ogg
435,192,155700,1,0,0:0:0:0:s_054.ogg
486,192,155700,1,0,0:0:0:0:s_063.ogg
76,192,155866,1,0,0:0:0:0:s_028.ogg
281,192,155866,1,0,0:0:0:0:s_052.ogg
332,192,155866,1,0,0:0:0:0:s_064.ogg
384,192,155866,1,0,0:0:0:0:s_056.ogg
128,192,156033,1,0,0:0:0:0:s_040.ogg
179,192,156033,1,0,0:0:0:0:s_035.ogg
230,192,156033,1,0,0:0:0:0:s_044.ogg
281,192,156033,1,0,0:0:0:0:s_066.ogg
332,192,156033,1,0,0:0:0:0:s_059.ogg
435,192,156033,1,0,0:0:0:0:s_054.ogg
25,192,156200,1,0,0:0:0:0:s_023.ogg
281,192,156200,1,0,0:0:0:0:s_068.ogg
332,192,156200,1,0,0:0:0:0:s_064.ogg
486,192,156200,1,0,0:0:0:0:s_056.ogg
128,192,156366,1,0,0:0:0:0:s_044.ogg
179,192,156366,1,0,0:0:0:0:s_040.ogg
230,192,156366,1,0,0:0:0:0:s_035.ogg
281,192,156366,1,0,0:0:0:0:s_069.ogg
332,192,156366,1,0,0:0:0:0:s_066.ogg
384,192,156366,1,0,0:0:0:0:s_057.ogg
76,192,156533,1,0,0:0:0:0:s_028.ogg
384,192,156533,1,0,0:0:0:0:s_068.ogg
435,192,156533,1,0,0:0:0:0:s_059.ogg
486,192,156533,1,0,0:0:0:0:s_071.ogg
128,192,156700,1,0,0:0:0:0:s_035.ogg
179,192,156700,1,0,0:0:0:0:s_040.ogg
230,192,156700,1,0,0:0:0:0:s_044.ogg
332,192,156700,1,0,0:0:0:0:s_067.ogg
435,192,156700,1,0,0:0:0:0:s_058.ogg
486,192,156700,1,0,0:0:0:0:s_070.ogg
25,192,156866,1,0,0:0:0:0:s_023.ogg
384,192,156866,1,0,0:0:0:0:s_059.ogg
435,192,156866,1,0,0:0:0:0:s_068.ogg
486,192,156866,1,0,0:0:0:0:s_071.ogg
128,192,157033,1,0,0:0:0:0:s_040.ogg
179,192,157033,1,0,0:0:0:0:s_035.ogg
230,192,157033,1,0,0:0:0:0:s_044.ogg
281,192,157033,1,0,0:0:0:0:s_056.ogg
435,192,157033,1,0,0:0:0:0:s_068.ogg
486,192,157033,1,0,0:0:0:0:s_064.ogg
76,192,157200,1,0,0:0:0:0:s_030.ogg
384,192,157200,1,0,0:0:0:0:s_060.ogg
435,192,157241,1,0,0:0:0:0:s_061.ogg
486,192,157241,1,0,0:0:0:0:s_069.ogg
128,192,157366,1,0,0:0:0:0:s_039.ogg
179,192,157366,1,0,0:0:0:0:s_045.ogg
230,192,157366,1,0,0:0:0:0:s_035.ogg
281,192,157366,1,0,0:0:0:0:s_057.ogg
25,192,157533,1,0,0:0:0:0:s_023.ogg
332,192,157533,1,0,0:0:0:0:s_056.ogg
384,192,157575,1,0,0:0:0:0:s_066.ogg
435,192,157575,1,0,0:0:0:0:s_057.ogg
128,192,157700,1,0,0:0:0:0:s_045.ogg
179,192,157700,1,0,0:0:0:0:s_035.ogg
230,192,157700,1,0,0:0:0:0:s_039.ogg
281,192,157700,1,0,0:0:0:0:s_054.ogg
76,192,157866,1,0,0:0:0:0:s_030.ogg
332,192,157866,1,0,0:0:0:0:s_053.ogg
384,192,157908,1,0,0:0:0:0:s_054.ogg
435,192,157908,1,0,0:0:0:0:s_063.ogg
128,192,158033,1,0,0:0:0:0:s_039.ogg
179,192,158033,1,0,0:0:0:0:s_035.ogg
230,192,158033,1,0,0:0:0:0:s_045.ogg
486,192,158033,1,0,0:0:0:0:s_051.ogg
25,192,158200,1,0,0:0:0:0:s_023.ogg
281,192,158200,1,0,0:0:0:0:s_050.ogg
332,192,158241,1,0,0:0:0:0:s_059.ogg
384,192,158241,1,0,0:0:0:0:s_051.ogg
128,192,158366,1,0,0:0:0:0:s_039.ogg
179,192,158366,1,0,0:0:0:0:s_035.ogg
230,192,158366,1,0,0:0:0:0:s_045.ogg
486,192,158366,1,0,0:0:0:0:s_047.ogg
25,192,158533,1,0,0:0:0:0:s_040.ogg
179,192,158533,1,0,0:0:0:0:s_028.ogg
281,192,158533,1,0,0:0:0:0:s_052.ogg
332,192,158533,1,0,0:0:0:0:s_056.ogg
435,192,158533,1,0,0:0:0:0:s_064.ogg
128,192,158700,1,0,0:0:0:0:s_039.ogg
230,192,158700,1,0,0:0:0:0:s_027.ogg
281,192,158700,1,0,0:0:0:0:s_053.ogg
332,192,158700,1,0,0:0:0:0:s_057.ogg
384,192,158700,1,0,0:0:0:0:s_065.ogg
76,192,158866,1,0,0:0:0:0:s_026.ogg
179,192,158866,1,0,0:0:0:0:s_038.ogg
332,192,158866,1,0,0:0:0:0:s_066.ogg
384,192,158866,1,0,0:0:0:0:s_058.ogg
435,192,158866,1,0,0:0:0:0:s_054.ogg
25,192,159033,1,0,0:0:0:0:s_025.ogg
128,192,159033,1,0,0:0:0:0:s_037.ogg
384,192,159033,1,0,0:0:0:0:s_059.ogg
435,192,159033,1,0,0:0:0:0:s_055.ogg
486,192,159033,1,0,0:0:0:0:s_067.ogg
76,192,159200,1,0,0:0:0:0:s_036.ogg
230,192,159200,1,0,0:0:0:0:s_024.ogg
281,192,159200,1,0,0:0:0:0:s_060.ogg
435,192,159200,1,0,0:0:0:0:s_056.ogg
486,192,159200,1,0,0:0:0:0:s_068.ogg
25,192,159366,1,0,0:0:0:0:s_025.ogg
128,192,159366,1,0,0:0:0:0:s_037.ogg
384,192,159366,1,0,0:0:0:0:s_059.ogg
435,192,159366,1,0,0:0:0:0:s_055.ogg
486,192,159366,1,0,0:0:0:0:s_067.ogg
76,192,159533,1,0,0:0:0:0:s_026.ogg
179,192,159533,1,0,0:0:0:0:s_038.ogg
332,192,159533,1,0,0:0:0:0:s_066.ogg
384,192,159533,1,0,0:0:0:0:s_058.ogg
435,192,159533,1,0,0:0:0:0:s_054.ogg
128,192,159700,1,0,0:0:0:0:s_039.ogg
230,192,159700,1,0,0:0:0:0:s_027.ogg
281,192,159700,1,0,0:0:0:0:s_065.ogg
332,192,159700,1,0,0:0:0:0:s_057.ogg
384,192,159700,1,0,0:0:0:0:s_053.ogg
76,192,159866,1,0,0:0:0:0:s_026.ogg
179,192,159866,1,0,0:0:0:0:s_038.ogg
332,192,159866,1,0,0:0:0:0:s_054.ogg
384,192,159866,1,0,0:0:0:0:s_058.ogg
435,192,159866,1,0,0:0:0:0:s_066.ogg
25,192,160033,1,0,0:0:0:0:s_025.ogg
128,192,160033,1,0,0:0:0:0:s_037.ogg
384,192,160033,1,0,0:0:0:0:s_055.ogg
435,192,160033,1,0,0:0:0:0:s_059.ogg
486,192,160033,1,0,0:0:0:0:s_067.ogg
76,192,160200,1,0,0:0:0:0:s_024.ogg
230,192,160200,1,0,0:0:0:0:s_036.ogg
281,192,160200,1,0,0:0:0:0:s_060.ogg
435,192,160200,1,0,0:0:0:0:s_056.ogg
486,192,160200,1,0,0:0:0:0:s_068.ogg
25,192,160366,1,0,0:0:0:0:s_023.ogg
179,192,160366,1,0,0:0:0:0:s_035.ogg
281,192,160366,1,0,0:0:0:0:s_069.ogg
332,192,160366,1,0,0:0:0:0:s_057.ogg
486,192,160366,1,0,0:0:0:0:s_061.ogg
128,192,160533,1,0,0:0:0:0:s_034.ogg
230,192,160533,1,0,0:0:0:0:s_022.ogg
281,192,160533,1,0,0:0:0:0:s_070.ogg
332,192,160533,1,0,0:0:0:0:s_058.ogg
384,192,160533,1,0,0:0:0:0:s_062.ogg
25,192,160700,1,0,0:0:0:0:s_023.ogg
179,192,160700,1,0,0:0:0:0:s_035.ogg
281,192,160700,1,0,0:0:0:0:s_069.ogg
332,192,160700,1,0,0:0:0:0:s_061.ogg
486,192,160700,1,0,0:0:0:0:s_057.ogg
76,192,160866,1,0,0:0:0:0:s_036.ogg
230,192,160866,1,0,0:0:0:0:s_024.ogg
281,192,160866,1,0,0:0:0:0:s_060.ogg
435,192,160866,1,0,0:0:0:0:s_056.ogg
486,192,160866,1,0,0:0:0:0:s_068.ogg
25,192,161033,1,0,0:0:0:0:s_037.ogg
128,192,161033,1,0,0:0:0:0:s_025.ogg
384,192,161033,1,0,0:0:0:0:s_055.ogg
435,192,161033,1,0,0:0:0:0:s_059.ogg
486,192,161033,1,0,0:0:0:0:s_067.ogg
76,192,161200,1,0,0:0:0:0:s_024.ogg
230,192,161200,1,0,0:0:0:0:s_036.ogg
281,192,161200,1,0,0:0:0:0:s_060.ogg
435,192,161200,1,0,0:0:0:0:s_056.ogg
486,192,161200,1,0,0:0:0:0:s_068.ogg
25,192,161366,1,0,0:0:0:0:s_035.ogg
179,192,161366,1,0,0:0:0:0:s_023.ogg
281,192,161366,1,0,0:0:0:0:s_057.ogg
332,192,161366,1,0,0:0:0:0:s_069.ogg
486,192,161366,1,0,0:0:0:0:s_061.ogg
128,192,161533,1,0,0:0:0:0:s_022.ogg
230,192,161533,1,0,0:0:0:0:s_034.ogg
281,192,161533,1,0,0:0:0:0:s_062.ogg
332,192,161533,1,0,0:0:0:0:s_058.ogg
384,192,161533,1,0,0:0:0:0:s_070.ogg
76,192,161700,1,0,0:0:0:0:s_033.ogg
179,192,161700,1,0,0:0:0:0:s_021.ogg
332,192,161700,1,0,0:0:0:0:s_071.ogg
384,192,161700,1,0,0:0:0:0:s_059.ogg
435,192,161700,1,0,0:0:0:0:s_063.ogg
25,192,161866,1,0,0:0:0:0:s_020.ogg
128,192,161866,1,0,0:0:0:0:s_032.ogg
384,192,161866,1,0,0:0:0:0:s_072.ogg
435,192,161866,1,0,0:0:0:0:s_064.ogg
486,192,161866,1,0,0:0:0:0:s_060.ogg
76,192,162033,1,0,0:0:0:0:s_033.ogg
179,192,162033,1,0,0:0:0:0:s_021.ogg
332,192,162033,1,0,0:0:0:0:s_071.ogg
384,192,162033,1,0,0:0:0:0:s_063.ogg
435,192,162033,1,0,0:0:0:0:s_059.ogg
128,192,162200,1,0,0:0:0:0:s_034.ogg
230,192,162200,1,0,0:0:0:0:s_022.ogg
281,192,162200,1,0,0:0:0:0:s_070.ogg
332,192,162200,1,0,0:0:0:0:s_058.ogg
384,192,162200,1,0,0:0:0:0:s_062.ogg
25,192,162366,1,0,0:0:0:0:s_035.ogg
179,192,162366,1,0,0:0:0:0:s_023.ogg
281,192,162366,1,0,0:0:0:0:s_069.ogg
332,192,162366,1,0,0:0:0:0:s_061.ogg
486,192,162366,1,0,0:0:0:0:s_057.ogg
76,192,162533,1,0,0:0:0:0:s_022.ogg
230,192,162533,1,0,0:0:0:0:s_034.ogg
281,192,162533,1,0,0:0:0:0:s_062.ogg
435,192,162533,1,0,0:0:0:0:s_058.ogg
486,192,162533,1,0,0:0:0:0:s_070.ogg
25,192,162700,1,0,0:0:0:0:s_021.ogg
179,192,162700,1,0,0:0:0:0:s_033.ogg
281,192,162700,1,0,0:0:0:0:s_063.ogg
332,192,162700,1,0,0:0:0:0:s_059.ogg
486,192,162700,1,0,0:0:0:0:s_071.ogg
128,192,162866,1,0,0:0:0:0:s_020.ogg
230,192,162866,1,0,0:0:0:0:s_032.ogg
281,192,162866,1,0,0:0:0:0:s_060.ogg
332,192,162866,1,0,0:0:0:0:s_064.ogg
384,192,162866,1,0,0:0:0:0:s_072.ogg
76,192,163033,1,0,0:0:0:0:s_019.ogg
179,192,163033,1,0,0:0:0:0:s_031.ogg
332,192,163033,1,0,0:0:0:0:s_073.ogg
384,192,163033,1,0,0:0:0:0:s_061.ogg
435,192,163033,1,0,0:0:0:0:s_065.ogg
25,192,163200,1,0,0:0:0:0:s_018.ogg
128,192,163200,1,0,0:0:0:0:s_030.ogg
384,192,163200,1,0,0:0:0:0:s_066.ogg
435,192,163200,1,0,0:0:0:0:s_074.ogg
486,192,163200,1,0,0:0:0:0:s_062.ogg
76,192,163366,1,0,0:0:0:0:s_029.ogg
230,192,163366,1,0,0:0:0:0:s_017.ogg
281,192,163366,1,0,0:0:0:0:s_067.ogg
435,192,163366,1,0,0:0:0:0:s_063.ogg
486,192,163366,1,0,0:0:0:0:s_075.ogg
25,192,163533,1,0,0:0:0:0:s_028.ogg
179,192,163533,1,0,0:0:0:0:s_016.ogg
281,192,163533,1,0,0:0:0:0:s_068.ogg
332,192,163533,1,0,0:0:0:0:s_064.ogg
486,192,163533,1,0,0:0:0:0:s_076.ogg
128,192,163700,1,0,0:0:0:0:s_027.ogg
230,192,163700,1,0,0:0:0:0:s_015.ogg
281,192,163700,1,0,0:0:0:0:s_065.ogg
332,192,163700,1,0,0:0:0:0:s_069.ogg
384,192,163700,1,0,0:0:0:0:s_077.ogg
76,192,163866,1,0,0:0:0:0:s_026.ogg
179,192,163866,1,0,0:0:0:0:s_014.ogg
332,192,163866,1,0,0:0:0:0:s_066.ogg
384,192,163866,1,0,0:0:0:0:s_078.ogg
435,192,163866,1,0,0:0:0:0:s_070.ogg
25,192,164033,1,0,0:0:0:0:s_013.ogg
128,192,164033,1,0,0:0:0:0:s_025.ogg
384,192,164033,1,0,0:0:0:0:s_079.ogg
435,192,164033,1,0,0:0:0:0:s_067.ogg
486,192,164033,1,0,0:0:0:0:s_071.ogg
76,192,164200,1,0,0:0:0:0:s_012.ogg
230,192,164200,1,0,0:0:0:0:s_024.ogg
281,192,164200,1,0,0:0:0:0:s_072.ogg
435,192,164200,1,0,0:0:0:0:s_068.ogg
486,192,164200,1,0,0:0:0:0:s_080.ogg
25,192,164366,1,0,0:0:0:0:s_013.ogg
128,192,164366,1,0,0:0:0:0:s_025.ogg
384,192,164366,1,0,0:0:0:0:s_067.ogg
435,192,164366,1,0,0:0:0:0:s_071.ogg
486,192,164366,1,0,0:0:0:0:s_079.ogg
76,192,164533,1,0,0:0:0:0:s_014.ogg
179,192,164533,1,0,0:0:0:0:s_026.ogg
332,192,164533,1,0,0:0:0:0:s_070.ogg
384,192,164533,1,0,0:0:0:0:s_078.ogg
435,192,164533,1,0,0:0:0:0:s_066.ogg
128,192,164700,1,0,0:0:0:0:s_015.ogg
230,192,164700,1,0,0:0:0:0:s_027.ogg
281,192,164700,1,0,0:0:0:0:s_065.ogg
332,192,164700,1,0,0:0:0:0:s_069.ogg
384,192,164700,1,0,0:0:0:0:s_077.ogg
25,192,164866,1,0,0:0:0:0:s_028.ogg
179,192,164866,1,0,0:0:0:0:s_016.ogg
281,192,164866,1,0,0:0:0:0:s_068.ogg
332,192,164866,1,0,0:0:0:0:s_076.ogg
486,192,164866,1,0,0:0:0:0:s_064.ogg
76,192,165033,1,0,0:0:0:0:s_017.ogg
230,192,165033,1,0,0:0:0:0:s_029.ogg
281,192,165033,1,0,0:0:0:0:s_067.ogg
435,192,165033,1,0,0:0:0:0:s_063.ogg
486,192,165033,1,0,0:0:0:0:s_075.ogg
25,192,165200,1,0,0:0:0:0:s_018.ogg
128,192,165200,1,0,0:0:0:0:s_030.ogg
384,192,165200,1,0,0:0:0:0:s_066.ogg
435,192,165200,1,0,0:0:0:0:s_074.ogg
486,192,165200,1,0,0:0:0:0:s_062.ogg
76,192,165366,1,0,0:0:0:0:s_031.ogg
179,192,165366,1,0,0:0:0:0:s_019.ogg
332,192,165366,1,0,0:0:0:0:s_073.ogg
384,192,165366,1,0,0:0:0:0:s_065.ogg
435,192,165366,1,0,0:0:0:0:s_061.ogg
128,192,165533,1,0,0:0:0:0:s_032.ogg
230,192,165533,1,0,0:0:0:0:s_020.ogg
281,192,165533,1,0,0:0:0:0:s_072.ogg
332,192,165533,1,0,0:0:0:0:s_064.ogg
384,192,165533,1,0,0:0:0:0:s_060.ogg
76,192,165700,1,0,0:0:0:0:s_019.ogg
179,192,165700,1,0,0:0:0:0:s_031.ogg
332,192,165700,1,0,0:0:0:0:s_073.ogg
384,192,165700,1,0,0:0:0:0:s_065.ogg
435,192,165700,1,0,0:0:0:0:s_061.ogg
25,192,165866,1,0,0:0:0:0:s_030.ogg
128,192,165866,1,0,0:0:0:0:s_018.ogg
384,192,165866,1,0,0:0:0:0:s_066.ogg
435,192,165866,1,0,0:0:0:0:s_062.ogg
486,192,165866,1,0,0:0:0:0:s_074.ogg
76,192,166033,1,0,0:0:0:0:s_017.ogg
230,192,166033,1,0,0:0:0:0:s_029.ogg
281,192,166033,1,0,0:0:0:0:s_067.ogg
435,192,166033,1,0,0:0:0:0:s_063.ogg
486,192,166033,1,0,0:0:0:0:s_075.ogg
25,192,166200,1,0,0:0:0:0:s_028.ogg
179,192,166200,1,0,0:0:0:0:s_016.ogg
281,192,166200,1,0,0:0:0:0:s_068.ogg
332,192,166200,1,0,0:0:0:0:s_064.ogg
486,192,166200,1,0,0:0:0:0:s_076.ogg
128,192,166366,1,0,0:0:0:0:s_015.ogg
230,192,166366,1,0,0:0:0:0:s_027.ogg
281,192,166366,1,0,0:0:0:0:s_065.ogg
332,192,166366,1,0,0:0:0:0:s_069.ogg
384,192,166366,1,0,0:0:0:0:s_077.ogg
76,192,166533,1,0,0:0:0:0:s_026.ogg
179,192,166533,1,0,0:0:0:0:s_014.ogg
332,192,166533,1,0,0:0:0:0:s_078.ogg
384,192,166533,1,0,0:0:0:0:s_066.ogg
435,192,166533,1,0,0:0:0:0:s_070.ogg
25,192,166700,1,0,0:0:0:0:s_013.ogg
128,192,166700,1,0,0:0:0:0:s_025.ogg
384,192,166700,1,0,0:0:0:0:s_071.ogg
435,192,166700,1,0,0:0:0:0:s_067.ogg
486,192,166700,1,0,0:0:0:0:s_079.ogg
76,192,166866,1,0,0:0:0:0:s_012.ogg
230,192,166866,1,0,0:0:0:0:s_024.ogg
281,192,166866,1,0,0:0:0:0:s_080.ogg
435,192,166866,1,0,0:0:0:0:s_068.ogg
486,192,166866,1,0,0:0:0:0:s_072.ogg
25,192,167033,1,0,0:0:0:0:s_013.ogg
128,192,167033,1,0,0:0:0:0:s_025.ogg
384,192,167033,1,0,0:0:0:0:s_067.ogg
435,192,167033,1,0,0:0:0:0:s_071.ogg
486,192,167033,1,0,0:0:0:0:s_079.ogg
76,192,167200,1,0,0:0:0:0:s_026.ogg
179,192,167200,1,0,0:0:0:0:s_014.ogg
332,192,167200,1,0,0:0:0:0:s_066.ogg
384,192,167200,1,0,0:0:0:0:s_078.ogg
435,192,167200,1,0,0:0:0:0:s_070.ogg
128,192,167366,1,0,0:0:0:0:s_027.ogg
230,192,167366,1,0,0:0:0:0:s_015.ogg
281,192,167366,1,0,0:0:0:0:s_077.ogg
332,192,167366,1,0,0:0:0:0:s_069.ogg
384,192,167366,1,0,0:0:0:0:s_065.ogg
25,192,167533,1,0,0:0:0:0:s_023.ogg
179,192,167533,1,0,0:0:0:0:s_028.ogg
230,192,167533,1,0,0:0:0:0:s_016.ogg
281,192,167533,1,0,0:0:0:0:s_068.ogg
332,192,167533,1,0,0:0:0:0:s_064.ogg
486,192,167533,1,0,0:0:0:0:s_076.ogg
25,192,167700,1,0,0:0:0:0:s_029.ogg
76,192,167700,1,0,0:0:0:0:s_017.ogg
281,192,167700,1,0,0:0:0:0:s_075.ogg
435,192,167700,1,0,0:0:0:0:s_063.ogg
486,192,167700,1,0,0:0:0:0:s_069.ogg
25,192,167866,1,0,0:0:0:0:s_028.ogg
76,192,167866,1,0,0:0:0:0:s_023.ogg
128,192,167866,1,0,0:0:0:0:s_016.ogg
384,192,167866,1,0,0:0:0:0:s_076.ogg
435,192,167866,1,0,0:0:0:0:s_068.ogg
486,192,167866,1,0,0:0:0:0:s_064.ogg
179,192,168033,1,0,0:0:0:0:s_017.ogg
230,192,168033,1,0,0:0:0:0:s_029.ogg
281,192,168033,1,0,0:0:0:0:s_063.ogg
332,192,168033,1,0,0:0:0:0:s_075.ogg
384,192,168033,1,0,0:0:0:0:s_069.ogg
25,192,168200,1,0,0:0:0:0:s_016.ogg
76,192,168200,1,0,0:0:0:0:s_028.ogg
128,192,168200,1,0,0:0:0:0:s_023.ogg
384,192,168200,1,0,0:0:0:0:s_068.ogg
435,192,168200,1,0,0:0:0:0:s_076.ogg
486,192,168200,1,0,0:0:0:0:s_064.ogg
179,192,168366,1,0,0:0:0:0:s_017.ogg
230,192,168366,1,0,0:0:0:0:s_029.ogg
281,192,168366,1,0,0:0:0:0:s_075.ogg
332,192,168366,1,0,0:0:0:0:s_069.ogg
384,192,168366,1,0,0:0:0:0:s_063.ogg
25,192,168533,1,0,0:0:0:0:s_016.ogg
76,192,168533,1,0,0:0:0:0:s_023.ogg
128,192,168533,1,0,0:0:0:0:s_028.ogg
384,192,168533,1,0,0:0:0:0:s_064.ogg
435,192,168533,1,0,0:0:0:0:s_068.ogg
486,192,168533,1,0,0:0:0:0:s_076.ogg
76,192,168700,1,0,0:0:0:0:s_039.ogg
128,192,168700,1,0,0:0:0:0:s_027.ogg
332,192,168700,1,0,0:0:0:0:s_051.ogg
384,192,168700,1,0,0:0:0:0:s_063.ogg
179,192,168866,1,0,0:0:0:0:s_040.ogg
230,192,168866,1,0,0:0:0:0:s_028.ogg
435,192,168866,1,0,0:0:0:0:s_052.ogg
486,192,168866,1,0,0:0:0:0:s_064.ogg
76,192,169033,1,0,0:0:0:0:s_027.ogg
128,192,169033,1,0,0:0:0:0:s_039.ogg
332,192,169033,1,0,0:0:0:0:s_051.ogg
384,192,169033,1,0,0:0:0:0:s_063.ogg
179,192,169200,1,0,0:0:0:0:s_028.ogg
230,192,169200,1,0,0:0:0:0:s_040.ogg
435,192,169200,1,0,0:0:0:0:s_052.ogg
486,192,169200,1,0,0:0:0:0:s_064.ogg
25,192,169366,1,0,0:0:0:0:s_016.ogg
128,192,169366,1,0,0:0:0:0:s_028.ogg
281,192,169366,1,0,0:0:0:0:s_040.ogg
384,192,169366,1,0,0:0:0:0:s_052.ogg
76,192,169533,1,0,0:0:0:0:s_017.ogg
179,192,169533,1,0,0:0:0:0:s_029.ogg
332,192,169533,1,0,0:0:0:0:s_053.ogg
435,192,169533,1,0,0:0:0:0:s_041.ogg
486,192,169700,1,0,0:0:0:0:s_042.ogg
384,192,169700,1,0,0:0:0:0:s_054.ogg
230,192,169700,1,0,0:0:0:0:s_018.ogg
128,192,169700,1,0,0:0:0:0:s_030.ogg
435,192,169866,128,0,170116:0:0:0:0:m_055.ogg
384,192,169866,128,0,170116:0:0:0:0:m_043.ogg
179,192,169866,128,0,170116:0:0:0:0:m_031.ogg
128,192,169866,128,0,170116:0:0:0:0:m_019.ogg
25,192,170033,1,0,0:0:0:0:s_035.ogg
76,192,170033,1,0,0:0:0:0:s_038.ogg
281,192,170033,1,0,0:0:0:0:s_047.ogg
332,192,170033,1,0,0:0:0:0:s_050.ogg
230,192,170200,128,0,170450:0:0:0:0:m_035.ogg
128,192,170200,128,0,170450:0:0:0:0:m_023.ogg
384,192,170200,128,0,170450:0:0:0:0:m_047.ogg
486,192,170200,128,0,170450:0:0:0:0:m_059.ogg
25,192,170366,1,0,0:0:0:0:s_043.ogg
76,192,170366,1,0,0:0:0:0:s_038.ogg
281,192,170366,1,0,0:0:0:0:s_055.ogg
332,192,170366,1,0,0:0:0:0:s_050.ogg
486,192,170533,128,0,170950:0:0:0:0:m_064.ogg
435,192,170533,128,0,170950:0:0:0:0:m_052.ogg
230,192,170533,128,0,170950:0:0:0:0:m_040.ogg
179,192,170533,128,0,170950:0:0:0:0:m_028.ogg
25,192,170700,1,0,0:0:0:0:s_047.ogg
76,192,170700,1,0,0:0:0:0:s_043.ogg
281,192,170700,1,0,0:0:0:0:s_055.ogg
332,192,170700,1,0,0:0:0:0:s_059.ogg
25,192,170866,1,0,0:0:0:0:s_043.ogg
76,192,170866,1,0,0:0:0:0:s_047.ogg
281,192,170866,1,0,0:0:0:0:s_055.ogg
332,192,170866,1,0,0:0:0:0:s_059.ogg
128,192,171033,1,0,0:0:0:0:s_038.ogg
230,192,171033,1,0,0:0:0:0:s_026.ogg
384,192,171033,1,0,0:0:0:0:s_050.ogg
486,192,171033,1,0,0:0:0:0:s_062.ogg
25,192,171200,1,0,0:0:0:0:s_024.ogg
76,192,171200,1,0,0:0:0:0:s_036.ogg
179,192,171200,1,0,0:0:0:0:s_031.ogg
230,192,171200,1,0,0:0:0:0:s_028.ogg
281,192,171200,1,0,0:0:0:0:s_060.ogg
332,192,171200,1,0,0:0:0:0:s_052.ogg
435,192,171200,1,0,0:0:0:0:s_048.ogg
486,192,171200,1,0,0:0:0:0:s_055.ogg
25,192,171366,1,0,0:0:0:0:s_023.ogg
128,192,171366,1,0,0:0:0:0:s_035.ogg
281,192,171366,1,0,0:0:0:0:s_047.ogg
384,192,171366,1,0,0:0:0:0:s_059.ogg
76,192,171533,1,0,0:0:0:0:s_034.ogg
230,192,171533,1,0,0:0:0:0:s_022.ogg
332,192,171533,1,0,0:0:0:0:s_058.ogg
486,192,171533,1,0,0:0:0:0:s_046.ogg
25,192,171700,1,0,0:0:0:0:s_021.ogg
281,192,171700,1,0,0:0:0:0:s_045.ogg
76,192,171720,1,0,0:0:0:0:s_024.ogg
332,192,171720,1,0,0:0:0:0:s_048.ogg
384,192,171741,1,0,0:0:0:0:s_052.ogg
128,192,171741,1,0,0:0:0:0:s_028.ogg
435,192,171762,1,0,0:0:0:0:s_057.ogg
179,192,171762,1,0,0:0:0:0:s_033.ogg
128,192,171866,1,0,0:0:0:0:s_032.ogg
230,192,171866,1,0,0:0:0:0:s_020.ogg
384,192,171866,1,0,0:0:0:0:s_044.ogg
486,192,171866,1,0,0:0:0:0:s_056.ogg
25,192,172033,1,0,0:0:0:0:s_019.ogg
281,192,172033,1,0,0:0:0:0:s_043.ogg
332,192,172054,1,0,0:0:0:0:s_048.ogg
76,192,172054,1,0,0:0:0:0:s_024.ogg
435,192,172075,1,0,0:0:0:0:s_052.ogg
179,192,172075,1,0,0:0:0:0:s_028.ogg
486,192,172095,1,0,0:0:0:0:s_055.ogg
230,192,172095,1,0,0:0:0:0:s_031.ogg
25,192,172200,1,0,0:0:0:0:s_018.ogg
128,192,172200,1,0,0:0:0:0:s_030.ogg
281,192,172200,1,0,0:0:0:0:s_042.ogg
384,192,172200,1,0,0:0:0:0:s_054.ogg
76,192,172366,1,0,0:0:0:0:s_019.ogg
332,192,172366,1,0,0:0:0:0:s_043.ogg
384,192,172387,1,0,0:0:0:0:s_048.ogg
128,192,172387,1,0,0:0:0:0:s_024.ogg
435,192,172408,1,0,0:0:0:0:s_052.ogg
179,192,172408,1,0,0:0:0:0:s_028.ogg
486,192,172429,1,0,0:0:0:0:s_055.ogg
230,192,172429,1,0,0:0:0:0:s_031.ogg
230,192,172533,128,0,172783:0:0:0:0:m_031.ogg
128,192,172533,128,0,172783:0:0:0:0:m_019.ogg
384,192,172533,128,0,172783:0:0:0:0:m_043.ogg
486,192,172533,128,0,172783:0:0:0:0:m_055.ogg
25,192,172700,1,0,0:0:0:0:s_035.ogg
76,192,172700,1,0,0:0:0:0:s_038.ogg
281,192,172700,1,0,0:0:0:0:s_047.ogg
332,192,172700,1,0,0:0:0:0:s_050.ogg
435,192,172866,128,0,173116:0:0:0:0:m_047.ogg
384,192,172866,128,0,173116:0:0:0:0:m_059.ogg
179,192,172866,128,0,173116:0:0:0:0:m_035.ogg
128,192,172866,128,0,173116:0:0:0:0:m_023.ogg
25,192,173033,1,0,0:0:0:0:s_038.ogg
76,192,173033,1,0,0:0:0:0:s_043.ogg
281,192,173033,1,0,0:0:0:0:s_055.ogg
332,192,173033,1,0,0:0:0:0:s_050.ogg
230,192,173200,128,0,173616:0:0:0:0:m_040.ogg
179,192,173200,128,0,173616:0:0:0:0:m_028.ogg
435,192,173200,128,0,173616:0:0:0:0:m_064.ogg
486,192,173200,128,0,173616:0:0:0:0:m_052.ogg
25,192,173366,1,0,0:0:0:0:s_043.ogg
76,192,173366,1,0,0:0:0:0:s_047.ogg
281,192,173366,1,0,0:0:0:0:s_055.ogg
332,192,173366,1,0,0:0:0:0:s_059.ogg
25,192,173533,1,0,0:0:0:0:s_043.ogg
76,192,173533,1,0,0:0:0:0:s_047.ogg
281,192,173533,1,0,0:0:0:0:s_059.ogg
332,192,173533,1,0,0:0:0:0:s_055.ogg
128,192,173700,1,0,0:0:0:0:s_026.ogg
230,192,173700,1,0,0:0:0:0:s_038.ogg
384,192,173700,1,0,0:0:0:0:s_050.ogg
486,192,173700,1,0,0:0:0:0:s_062.ogg
25,192,173866,1,0,0:0:0:0:s_028.ogg
76,192,173866,1,0,0:0:0:0:s_036.ogg
179,192,173866,1,0,0:0:0:0:s_031.ogg
230,192,173866,1,0,0:0:0:0:s_024.ogg
281,192,173866,1,0,0:0:0:0:s_048.ogg
332,192,173866,1,0,0:0:0:0:s_052.ogg
435,192,173866,1,0,0:0:0:0:s_055.ogg
486,192,173866,1,0,0:0:0:0:s_060.ogg
25,192,174033,1,0,0:0:0:0:s_023.ogg
128,192,174033,1,0,0:0:0:0:s_035.ogg
281,192,174033,1,0,0:0:0:0:s_047.ogg
384,192,174033,1,0,0:0:0:0:s_059.ogg
76,192,174200,1,0,0:0:0:0:s_021.ogg
230,192,174200,1,0,0:0:0:0:s_033.ogg
332,192,174200,1,0,0:0:0:0:s_057.ogg
486,192,174200,1,0,0:0:0:0:s_045.ogg
25,192,174366,1,0,0:0:0:0:s_031.ogg
76,192,174366,1,0,0:0:0:0:s_019.ogg
128,192,174366,1,0,0:0:0:0:s_024.ogg
179,192,174366,1,0,0:0:0:0:s_028.ogg
281,192,174366,1,0,0:0:0:0:s_052.ogg
332,192,174366,1,0,0:0:0:0:s_048.ogg
384,192,174366,1,0,0:0:0:0:s_043.ogg
435,192,174366,1,0,0:0:0:0:s_055.ogg
25,192,174533,1,0,0:0:0:0:m_024.ogg
128,192,174533,1,0,0:0:0:0:m_028.ogg
179,192,174533,1,0,0:0:0:0:m_036.ogg
230,192,174533,1,0,0:0:0:0:m_031.ogg
281,192,174533,1,0,0:0:0:0:m_055.ogg
384,192,174533,1,0,0:0:0:0:m_048.ogg
435,192,174533,1,0,0:0:0:0:m_052.ogg
486,192,174533,1,0,0:0:0:0:m_060.ogg
76,192,174866,1,0,0:0:0:0:m_028.ogg
128,192,174866,1,0,0:0:0:0:m_031.ogg
179,192,174866,1,0,0:0:0:0:m_040.ogg
230,192,174866,1,0,0:0:0:0:m_036.ogg
332,192,174866,1,0,0:0:0:0:m_064.ogg
384,192,174866,1,0,0:0:0:0:m_052.ogg
435,192,174866,1,0,0:0:0:0:m_055.ogg
486,192,174866,1,0,0:0:0:0:m_060.ogg
25,192,175200,1,0,0:0:0:0:s_019.ogg
179,192,175200,1,0,0:0:0:0:s_031.ogg
281,192,175200,1,0,0:0:0:0:s_065.ogg
384,192,175200,1,0,0:0:0:0:s_071.ogg
486,192,175283,1,0,0:0:0:0:s_079.ogg
128,192,175366,1,0,0:0:0:0:s_043.ogg
230,192,175366,1,0,0:0:0:0:s_031.ogg
332,192,175366,1,0,0:0:0:0:s_074.ogg
435,192,175366,1,0,0:0:0:0:s_067.ogg
486,192,175450,1,0,0:0:0:0:s_079.ogg
76,192,175533,1,0,0:0:0:0:s_038.ogg
179,192,175533,1,0,0:0:0:0:s_026.ogg
281,192,175533,1,0,0:0:0:0:s_071.ogg
384,192,175533,1,0,0:0:0:0:s_065.ogg
486,192,175616,1,0,0:0:0:0:s_079.ogg
128,192,175700,1,0,0:0:0:0:s_035.ogg
230,192,175700,1,0,0:0:0:0:s_047.ogg
332,192,175700,1,0,0:0:0:0:s_074.ogg
435,192,175700,1,0,0:0:0:0:s_067.ogg
486,192,175783,1,0,0:0:0:0:s_079.ogg
25,192,175866,1,0,0:0:0:0:s_043.ogg
76,192,175866,1,0,0:0:0:0:s_031.ogg
281,192,175866,1,0,0:0:0:0:s_071.ogg
384,192,175866,1,0,0:0:0:0:s_065.ogg
486,192,175950,1,0,0:0:0:0:s_079.ogg
332,192,176033,1,0,0:0:0:0:s_067.ogg
435,192,176033,1,0,0:0:0:0:s_074.ogg
230,192,176033,128,0,176283:0:0:0:0:m_040.ogg
179,192,176033,128,0,176283:0:0:0:0:m_052.ogg
486,192,176116,1,0,0:0:0:0:s_079.ogg
281,192,176200,1,0,0:0:0:0:s_071.ogg
384,192,176200,1,0,0:0:0:0:s_065.ogg
486,192,176283,1,0,0:0:0:0:s_079.ogg
128,192,176366,1,0,0:0:0:0:s_050.ogg
230,192,176366,1,0,0:0:0:0:s_038.ogg
332,192,176366,1,0,0:0:0:0:s_067.ogg
435,192,176366,1,0,0:0:0:0:s_074.ogg
486,192,176450,1,0,0:0:0:0:s_079.ogg
76,192,176533,1,0,0:0:0:0:s_036.ogg
179,192,176533,1,0,0:0:0:0:s_048.ogg
281,192,176533,1,0,0:0:0:0:s_064.ogg
332,192,176533,1,0,0:0:0:0:s_072.ogg
486,192,176616,1,0,0:0:0:0:s_079.ogg
25,192,176700,1,0,0:0:0:0:s_047.ogg
128,192,176700,1,0,0:0:0:0:s_035.ogg
384,192,176700,1,0,0:0:0:0:s_076.ogg
435,192,176700,1,0,0:0:0:0:s_067.ogg
486,192,176783,1,0,0:0:0:0:s_079.ogg
76,192,176866,1,0,0:0:0:0:s_034.ogg
230,192,176866,1,0,0:0:0:0:s_046.ogg
281,192,176866,1,0,0:0:0:0:s_072.ogg
332,192,176866,1,0,0:0:0:0:s_064.ogg
486,192,176950,1,0,0:0:0:0:s_079.ogg
25,192,177033,1,0,0:0:0:0:s_045.ogg
179,192,177033,1,0,0:0:0:0:s_033.ogg
384,192,177033,1,0,0:0:0:0:s_067.ogg
435,192,177033,1,0,0:0:0:0:s_076.ogg
486,192,177116,1,0,0:0:0:0:s_079.ogg
128,192,177200,1,0,0:0:0:0:s_032.ogg
230,192,177200,1,0,0:0:0:0:s_044.ogg
281,192,177200,1,0,0:0:0:0:s_064.ogg
332,192,177200,1,0,0:0:0:0:s_072.ogg
486,192,177283,1,0,0:0:0:0:s_079.ogg
76,192,177366,1,0,0:0:0:0:s_031.ogg
179,192,177366,1,0,0:0:0:0:s_043.ogg
384,192,177366,1,0,0:0:0:0:s_067.ogg
435,192,177366,1,0,0:0:0:0:s_076.ogg
486,192,177450,1,0,0:0:0:0:s_079.ogg
25,192,177533,1,0,0:0:0:0:s_040.ogg
128,192,177533,1,0,0:0:0:0:s_028.ogg
281,192,177533,1,0,0:0:0:0:s_072.ogg
332,192,177533,1,0,0:0:0:0:s_064.ogg
486,192,177616,1,0,0:0:0:0:s_079.ogg
76,192,177700,1,0,0:0:0:0:s_036.ogg
230,192,177700,1,0,0:0:0:0:s_024.ogg
384,192,177700,1,0,0:0:0:0:s_067.ogg
435,192,177700,1,0,0:0:0:0:s_076.ogg
486,192,177783,1,0,0:0:0:0:s_079.ogg
25,192,177866,1,0,0:0:0:0:s_031.ogg
179,192,177866,1,0,0:0:0:0:s_019.ogg
281,192,177866,1,0,0:0:0:0:s_071.ogg
384,192,177866,1,0,0:0:0:0:s_065.ogg
486,192,177950,1,0,0:0:0:0:s_079.ogg
128,192,178033,1,0,0:0:0:0:s_043.ogg
230,192,178033,1,0,0:0:0:0:s_031.ogg
332,192,178033,1,0,0:0:0:0:s_067.ogg
435,192,178033,1,0,0:0:0:0:s_074.ogg
486,192,178116,1,0,0:0:0:0:s_079.ogg
76,192,178200,1,0,0:0:0:0:s_026.ogg
179,192,178200,1,0,0:0:0:0:s_038.ogg
281,192,178200,1,0,0:0:0:0:s_071.ogg
384,192,178200,1,0,0:0:0:0:s_065.ogg
486,192,178283,1,0,0:0:0:0:s_079.ogg
128,192,178366,1,0,0:0:0:0:s_047.ogg
230,192,178366,1,0,0:0:0:0:s_035.ogg
332,192,178366,1,0,0:0:0:0:s_074.ogg
435,192,178366,1,0,0:0:0:0:s_067.ogg
486,192,178450,1,0,0:0:0:0:s_079.ogg
25,192,178533,1,0,0:0:0:0:s_043.ogg
76,192,178533,1,0,0:0:0:0:s_031.ogg
281,192,178533,1,0,0:0:0:0:s_065.ogg
384,192,178533,1,0,0:0:0:0:s_071.ogg
486,192,178616,1,0,0:0:0:0:s_079.ogg
332,192,178700,1,0,0:0:0:0:s_067.ogg
435,192,178700,1,0,0:0:0:0:s_074.ogg
230,192,178700,128,0,178950:0:0:0:0:m_040.ogg
179,192,178700,128,0,178950:0:0:0:0:m_052.ogg
486,192,178783,1,0,0:0:0:0:s_079.ogg
281,192,178866,1,0,0:0:0:0:s_065.ogg
384,192,178866,1,0,0:0:0:0:s_071.ogg
486,192,178950,1,0,0:0:0:0:s_079.ogg
128,192,179033,1,0,0:0:0:0:s_050.ogg
230,192,179033,1,0,0:0:0:0:s_038.ogg
332,192,179033,1,0,0:0:0:0:s_067.ogg
435,192,179033,1,0,0:0:0:0:s_074.ogg
486,192,179116,1,0,0:0:0:0:s_079.ogg
76,192,179200,1,0,0:0:0:0:s_048.ogg
179,192,179200,1,0,0:0:0:0:s_036.ogg
281,192,179200,1,0,0:0:0:0:s_064.ogg
332,192,179200,1,0,0:0:0:0:s_072.ogg
486,192,179283,1,0,0:0:0:0:s_079.ogg
25,192,179366,1,0,0:0:0:0:s_035.ogg
128,192,179366,1,0,0:0:0:0:s_047.ogg
384,192,179366,1,0,0:0:0:0:s_076.ogg
435,192,179366,1,0,0:0:0:0:s_067.ogg
486,192,179450,1,0,0:0:0:0:s_079.ogg
76,192,179533,1,0,0:0:0:0:s_034.ogg
230,192,179533,1,0,0:0:0:0:s_046.ogg
281,192,179533,1,0,0:0:0:0:s_072.ogg
332,192,179533,1,0,0:0:0:0:s_064.ogg
486,192,179616,1,0,0:0:0:0:s_079.ogg
25,192,179700,1,0,0:0:0:0:s_045.ogg
179,192,179700,1,0,0:0:0:0:s_033.ogg
384,192,179700,1,0,0:0:0:0:s_067.ogg
435,192,179700,1,0,0:0:0:0:s_076.ogg
486,192,179783,1,0,0:0:0:0:s_079.ogg
128,192,179866,1,0,0:0:0:0:s_044.ogg
230,192,179866,1,0,0:0:0:0:s_032.ogg
281,192,179866,1,0,0:0:0:0:s_072.ogg
332,192,179866,1,0,0:0:0:0:s_064.ogg
486,192,179950,1,0,0:0:0:0:s_079.ogg
76,192,180033,1,0,0:0:0:0:s_043.ogg
179,192,180033,1,0,0:0:0:0:s_031.ogg
384,192,180033,1,0,0:0:0:0:s_067.ogg
435,192,180033,1,0,0:0:0:0:s_076.ogg
486,192,180116,1,0,0:0:0:0:s_079.ogg
25,192,180200,1,0,0:0:0:0:s_030.ogg
128,192,180200,1,0,0:0:0:0:s_042.ogg
281,192,180200,1,0,0:0:0:0:s_064.ogg
332,192,180200,1,0,0:0:0:0:s_072.ogg
486,192,180283,1,0,0:0:0:0:s_079.ogg
76,192,180366,1,0,0:0:0:0:s_043.ogg
179,192,180366,1,0,0:0:0:0:s_031.ogg
384,192,180366,1,0,0:0:0:0:s_067.ogg
435,192,180366,1,0,0:0:0:0:s_076.ogg
486,192,180450,1,0,0:0:0:0:s_079.ogg
128,192,180533,1,0,0:0:0:0:s_043.ogg
179,192,180533,1,0,0:0:0:0:s_041.ogg
230,192,180533,1,0,0:0:0:0:s_035.ogg
281,192,180533,1,0,0:0:0:0:s_077.ogg
332,192,180533,1,0,0:0:0:0:s_069.ogg
384,192,180575,1,0,0:0:0:0:s_079.ogg
435,192,180616,1,0,0:0:0:0:s_081.ogg
25,192,180700,1,0,0:0:0:0:s_031.ogg
128,192,180866,1,0,0:0:0:0:s_043.ogg
179,192,180866,1,0,0:0:0:0:s_041.ogg
230,192,180866,1,0,0:0:0:0:s_035.ogg
281,192,180866,1,0,0:0:0:0:s_074.ogg
486,192,180866,1,0,0:0:0:0:s_065.ogg
332,192,180908,1,0,0:0:0:0:s_076.ogg
384,192,180950,1,0,0:0:0:0:s_077.ogg
25,192,181033,1,0,0:0:0:0:s_026.ogg
128,192,181200,1,0,0:0:0:0:s_043.ogg
179,192,181200,1,0,0:0:0:0:s_035.ogg
230,192,181200,1,0,0:0:0:0:s_041.ogg
281,192,181200,1,0,0:0:0:0:s_062.ogg
384,192,181200,1,0,0:0:0:0:s_071.ogg
435,192,181241,1,0,0:0:0:0:s_072.ogg
486,192,181283,1,0,0:0:0:0:s_074.ogg
25,192,181366,1,0,0:0:0:0:s_019.ogg
128,192,181533,1,0,0:0:0:0:s_041.ogg
179,192,181533,1,0,0:0:0:0:s_043.ogg
230,192,181533,1,0,0:0:0:0:s_035.ogg
332,192,181533,1,0,0:0:0:0:s_067.ogg
486,192,181533,1,0,0:0:0:0:s_059.ogg
384,192,181575,1,0,0:0:0:0:s_069.ogg
435,192,181616,1,0,0:0:0:0:s_071.ogg
25,192,181700,1,0,0:0:0:0:s_026.ogg
76,192,181866,1,0,0:0:0:0:s_040.ogg
128,192,181866,1,0,0:0:0:0:s_043.ogg
179,192,181866,1,0,0:0:0:0:s_036.ogg
486,192,181866,1,0,0:0:0:0:s_048.ogg
281,192,181908,1,0,0:0:0:0:s_050.ogg
332,192,181956,1,0,0:0:0:0:s_052.ogg
384,192,182005,1,0,0:0:0:0:s_053.ogg
25,192,182033,1,0,0:0:0:0:s_031.ogg
435,192,182054,1,0,0:0:0:0:s_055.ogg
486,192,182102,1,0,0:0:0:0:s_057.ogg
281,192,182151,1,0,0:0:0:0:s_059.ogg
76,192,182200,1,0,0:0:0:0:s_036.ogg
128,192,182200,1,0,0:0:0:0:s_040.ogg
179,192,182200,1,0,0:0:0:0:s_043.ogg
332,192,182200,1,0,0:0:0:0:s_060.ogg
384,192,182241,1,0,0:0:0:0:s_062.ogg
435,192,182290,1,0,0:0:0:0:s_064.ogg
486,192,182338,1,0,0:0:0:0:s_065.ogg
25,192,182366,1,0,0:0:0:0:s_028.ogg
281,192,182387,1,0,0:0:0:0:s_067.ogg
332,192,182436,1,0,0:0:0:0:s_069.ogg
384,192,182484,1,0,0:0:0:0:s_071.ogg
76,192,182533,1,0,0:0:0:0:s_043.ogg
128,192,182533,1,0,0:0:0:0:s_040.ogg
179,192,182533,1,0,0:0:0:0:s_036.ogg
435,192,182533,1,0,0:0:0:0:s_072.ogg
486,192,182575,1,0,0:0:0:0:s_074.ogg
281,192,182623,1,0,0:0:0:0:s_076.ogg
332,192,182672,1,0,0:0:0:0:s_077.ogg
25,192,182700,1,0,0:0:0:0:s_019.ogg
384,192,182720,1,0,0:0:0:0:s_079.ogg
435,192,182769,1,0,0:0:0:0:s_081.ogg
486,192,182818,1,0,0:0:0:0:s_083.ogg
76,192,182866,1,0,0:0:0:0:s_036.ogg
128,192,182866,1,0,0:0:0:0:s_043.ogg
179,192,182866,1,0,0:0:0:0:s_040.ogg
281,192,182866,1,0,0:0:0:0:s_084.ogg
25,192,183033,1,0,0:0:0:0:s_028.ogg
332,192,183033,1,0,0:0:0:0:s_076.ogg
435,192,183033,1,0,0:0:0:0:s_072.ogg
128,192,183200,1,0,0:0:0:0:s_043.ogg
179,192,183200,1,0,0:0:0:0:s_041.ogg
230,192,183200,1,0,0:0:0:0:s_035.ogg
281,192,183200,1,0,0:0:0:0:s_077.ogg
384,192,183200,1,0,0:0:0:0:s_069.ogg
435,192,183241,1,0,0:0:0:0:s_079.ogg
486,192,183283,1,0,0:0:0:0:s_081.ogg
25,192,183366,1,0,0:0:0:0:s_031.ogg
128,192,183533,1,0,0:0:0:0:s_043.ogg
179,192,183533,1,0,0:0:0:0:s_041.ogg
230,192,183533,1,0,0:0:0:0:s_035.ogg
332,192,183533,1,0,0:0:0:0:s_074.ogg
486,192,183533,1,0,0:0:0:0:s_065.ogg
384,192,183575,1,0,0:0:0:0:s_076.ogg
435,192,183616,1,0,0:0:0:0:s_077.ogg
25,192,183700,1,0,0:0:0:0:s_026.ogg
128,192,183866,1,0,0:0:0:0:s_043.ogg
179,192,183866,1,0,0:0:0:0:s_041.ogg
230,192,183866,1,0,0:0:0:0:s_035.ogg
281,192,183866,1,0,0:0:0:0:s_062.ogg
486,192,183866,1,0,0:0:0:0:s_071.ogg
332,192,183908,1,0,0:0:0:0:s_072.ogg
384,192,183950,1,0,0:0:0:0:s_074.ogg
25,192,184033,1,0,0:0:0:0:s_019.ogg
128,192,184200,1,0,0:0:0:0:s_041.ogg
179,192,184200,1,0,0:0:0:0:s_035.ogg
230,192,184200,1,0,0:0:0:0:s_043.ogg
281,192,184200,1,0,0:0:0:0:s_067.ogg
332,192,184200,1,0,0:0:0:0:s_059.ogg
384,192,184241,1,0,0:0:0:0:s_069.ogg
435,192,184283,1,0,0:0:0:0:s_071.ogg
25,192,184366,1,0,0:0:0:0:s_026.ogg
76,192,184533,1,0,0:0:0:0:s_036.ogg
128,192,184533,1,0,0:0:0:0:s_043.ogg
179,192,184533,1,0,0:0:0:0:s_040.ogg
486,192,184533,1,0,0:0:0:0:s_048.ogg
281,192,184575,1,0,0:0:0:0:s_050.ogg
332,192,184623,1,0,0:0:0:0:s_052.ogg
384,192,184672,1,0,0:0:0:0:s_053.ogg
25,192,184700,1,0,0:0:0:0:s_031.ogg
435,192,184720,1,0,0:0:0:0:s_055.ogg
486,192,184769,1,0,0:0:0:0:s_057.ogg
281,192,184818,1,0,0:0:0:0:s_059.ogg
76,192,184866,1,0,0:0:0:0:s_043.ogg
128,192,184866,1,0,0:0:0:0:s_040.ogg
179,192,184866,1,0,0:0:0:0:s_036.ogg
332,192,184866,1,0,0:0:0:0:s_060.ogg
384,192,184908,1,0,0:0:0:0:s_062.ogg
435,192,184956,1,0,0:0:0:0:s_064.ogg
486,192,185005,1,0,0:0:0:0:s_065.ogg
25,192,185033,1,0,0:0:0:0:s_028.ogg
281,192,185054,1,0,0:0:0:0:s_067.ogg
332,192,185102,1,0,0:0:0:0:s_069.ogg
384,192,185151,1,0,0:0:0:0:s_071.ogg
76,192,185200,1,0,0:0:0:0:s_043.ogg
128,192,185200,1,0,0:0:0:0:s_036.ogg
179,192,185200,1,0,0:0:0:0:s_040.ogg
435,192,185200,1,0,0:0:0:0:s_072.ogg
486,192,185241,1,0,0:0:0:0:s_074.ogg
281,192,185290,1,0,0:0:0:0:s_076.ogg
332,192,185338,1,0,0:0:0:0:s_077.ogg
25,192,185366,1,0,0:0:0:0:s_019.ogg
384,192,185387,1,0,0:0:0:0:s_079.ogg
435,192,185436,1,0,0:0:0:0:s_081.ogg
486,192,185484,1,0,0:0:0:0:s_083.ogg
76,192,185533,1,0,0:0:0:0:s_043.ogg
128,192,185533,1,0,0:0:0:0:s_040.ogg
179,192,185533,1,0,0:0:0:0:s_036.ogg
281,192,185533,1,0,0:0:0:0:s_084.ogg
25,192,185700,1,0,0:0:0:0:s_028.ogg
128,192,185866,1,0,0:0:0:0:s_044.ogg
179,192,185866,1,0,0:0:0:0:s_040.ogg
230,192,185866,1,0,0:0:0:0:s_035.ogg
281,192,185866,1,0,0:0:0:0:s_066.ogg
332,192,185866,1,0,0:0:0:0:s_074.ogg
384,192,185908,1,0,0:0:0:0:s_076.ogg
435,192,185950,1,0,0:0:0:0:s_078.ogg
25,192,186033,1,0,0:0:0:0:s_028.ogg
128,192,186200,1,0,0:0:0:0:s_040.ogg
179,192,186200,1,0,0:0:0:0:s_035.ogg
230,192,186200,1,0,0:0:0:0:s_044.ogg
281,192,186200,1,0,0:0:0:0:s_071.ogg
486,192,186200,1,0,0:0:0:0:s_062.ogg
332,192,186241,1,0,0:0:0:0:s_073.ogg
384,192,186283,1,0,0:0:0:0:s_074.ogg
25,192,186366,1,0,0:0:0:0:s_023.ogg
128,192,186533,1,0,0:0:0:0:s_040.ogg
179,192,186533,1,0,0:0:0:0:s_035.ogg
230,192,186533,1,0,0:0:0:0:s_044.ogg
281,192,186533,1,0,0:0:0:0:s_059.ogg
384,192,186533,1,0,0:0:0:0:s_068.ogg
435,192,186575,1,0,0:0:0:0:s_069.ogg
486,192,186616,1,0,0:0:0:0:s_071.ogg
25,192,186700,1,0,0:0:0:0:s_016.ogg
128,192,186866,1,0,0:0:0:0:s_044.ogg
179,192,186866,1,0,0:0:0:0:s_035.ogg
230,192,186866,1,0,0:0:0:0:s_040.ogg
332,192,186866,1,0,0:0:0:0:s_064.ogg
486,192,186866,1,0,0:0:0:0:s_056.ogg
384,192,186908,1,0,0:0:0:0:s_066.ogg
435,192,186950,1,0,0:0:0:0:s_068.ogg
25,192,187033,1,0,0:0:0:0:s_028.ogg
128,192,187200,1,0,0:0:0:0:s_040.ogg
179,192,187200,1,0,0:0:0:0:s_037.ogg
486,192,187200,1,0,0:0:0:0:s_045.ogg
281,192,187241,1,0,0:0:0:0:s_047.ogg
332,192,187290,1,0,0:0:0:0:s_049.ogg
384,192,187338,1,0,0:0:0:0:s_050.ogg
25,192,187366,1,0,0:0:0:0:s_028.ogg
435,192,187387,1,0,0:0:0:0:s_052.ogg
486,192,187436,1,0,0:0:0:0:s_054.ogg
281,192,187484,1,0,0:0:0:0:s_056.ogg
76,192,187533,1,0,0:0:0:0:s_045.ogg
128,192,187533,1,0,0:0:0:0:s_040.ogg
179,192,187533,1,0,0:0:0:0:s_037.ogg
332,192,187533,1,0,0:0:0:0:s_057.ogg
384,192,187575,1,0,0:0:0:0:s_059.ogg
435,192,187623,1,0,0:0:0:0:s_061.ogg
486,192,187672,1,0,0:0:0:0:s_062.ogg
25,192,187700,1,0,0:0:0:0:s_025.ogg
281,192,187720,1,0,0:0:0:0:s_064.ogg
332,192,187769,1,0,0:0:0:0:s_066.ogg
384,192,187818,1,0,0:0:0:0:s_068.ogg
76,192,187866,1,0,0:0:0:0:s_045.ogg
128,192,187866,1,0,0:0:0:0:s_040.ogg
179,192,187866,1,0,0:0:0:0:s_037.ogg
435,192,187866,1,0,0:0:0:0:s_069.ogg
486,192,187908,1,0,0:0:0:0:s_071.ogg
281,192,187956,1,0,0:0:0:0:s_073.ogg
332,192,188005,1,0,0:0:0:0:s_074.ogg
25,192,188033,1,0,0:0:0:0:s_016.ogg
384,192,188054,1,0,0:0:0:0:s_076.ogg
435,192,188102,1,0,0:0:0:0:s_078.ogg
486,192,188151,1,0,0:0:0:0:s_080.ogg
76,192,188200,1,0,0:0:0:0:s_045.ogg
128,192,188200,1,0,0:0:0:0:s_037.ogg
179,192,188200,1,0,0:0:0:0:s_040.ogg
281,192,188200,1,0,0:0:0:0:s_081.ogg
25,192,188366,1,0,0:0:0:0:s_028.ogg
332,192,188366,1,0,0:0:0:0:s_073.ogg
435,192,188366,1,0,0:0:0:0:s_069.ogg
128,192,188533,1,0,0:0:0:0:s_035.ogg
179,192,188533,1,0,0:0:0:0:s_044.ogg
230,192,188533,1,0,0:0:0:0:s_040.ogg
281,192,188533,1,0,0:0:0:0:s_066.ogg
384,192,188533,1,0,0:0:0:0:s_074.ogg
435,192,188575,1,0,0:0:0:0:s_076.ogg
486,192,188616,1,0,0:0:0:0:s_078.ogg
25,192,188700,1,0,0:0:0:0:s_028.ogg
128,192,188866,1,0,0:0:0:0:s_035.ogg
179,192,188866,1,0,0:0:0:0:s_040.ogg
230,192,188866,1,0,0:0:0:0:s_044.ogg
281,192,188866,1,0,0:0:0:0:s_071.ogg
332,192,188866,1,0,0:0:0:0:s_062.ogg
384,192,188908,1,0,0:0:0:0:s_073.ogg
435,192,188950,1,0,0:0:0:0:s_074.ogg
25,192,189033,1,0,0:0:0:0:s_023.ogg
128,192,189200,1,0,0:0:0:0:s_035.ogg
179,192,189200,1,0,0:0:0:0:s_040.ogg
230,192,189200,1,0,0:0:0:0:s_044.ogg
281,192,189200,1,0,0:0:0:0:s_068.ogg
486,192,189200,1,0,0:0:0:0:s_059.ogg
332,192,189241,1,0,0:0:0:0:s_069.ogg
384,192,189283,1,0,0:0:0:0:s_071.ogg
25,192,189366,1,0,0:0:0:0:s_016.ogg
128,192,189533,1,0,0:0:0:0:s_035.ogg
179,192,189533,1,0,0:0:0:0:s_040.ogg
230,192,189533,1,0,0:0:0:0:s_044.ogg
332,192,189533,1,0,0:0:0:0:s_056.ogg
486,192,189533,1,0,0:0:0:0:s_064.ogg
384,192,189575,1,0,0:0:0:0:s_066.ogg
435,192,189616,1,0,0:0:0:0:s_068.ogg
25,192,189700,1,0,0:0:0:0:s_028.ogg
128,192,189866,1,0,0:0:0:0:s_037.ogg
179,192,189866,1,0,0:0:0:0:s_040.ogg
486,192,189866,1,0,0:0:0:0:s_045.ogg
281,192,189908,1,0,0:0:0:0:s_047.ogg
332,192,189956,1,0,0:0:0:0:s_049.ogg
384,192,190005,1,0,0:0:0:0:s_050.ogg
25,192,190033,1,0,0:0:0:0:s_028.ogg
435,192,190054,1,0,0:0:0:0:s_052.ogg
486,192,190102,1,0,0:0:0:0:s_054.ogg
281,192,190151,1,0,0:0:0:0:s_056.ogg
76,192,190200,1,0,0:0:0:0:s_045.ogg
128,192,190200,1,0,0:0:0:0:s_040.ogg
179,192,190200,1,0,0:0:0:0:s_037.ogg
332,192,190200,1,0,0:0:0:0:s_057.ogg
384,192,190241,1,0,0:0:0:0:s_059.ogg
435,192,190290,1,0,0:0:0:0:s_061.ogg
486,192,190338,1,0,0:0:0:0:s_062.ogg
25,192,190366,1,0,0:0:0:0:s_025.ogg
281,192,190387,1,0,0:0:0:0:s_064.ogg
332,192,190436,1,0,0:0:0:0:s_066.ogg
384,192,190484,1,0,0:0:0:0:s_068.ogg
76,192,190533,1,0,0:0:0:0:s_045.ogg
128,192,190533,1,0,0:0:0:0:s_040.ogg
179,192,190533,1,0,0:0:0:0:s_037.ogg
435,192,190533,1,0,0:0:0:0:s_069.ogg
486,192,190595,1,0,0:0:0:0:s_071.ogg
281,192,190665,1,0,0:0:0:0:s_073.ogg
25,192,190700,1,0,0:0:0:0:s_016.ogg
332,192,190727,1,0,0:0:0:0:s_074.ogg
384,192,190797,1,0,0:0:0:0:s_076.ogg
76,192,190866,1,0,0:0:0:0:s_037.ogg
128,192,190866,1,0,0:0:0:0:s_040.ogg
179,192,190866,1,0,0:0:0:0:s_045.ogg
435,192,190866,1,0,0:0:0:0:s_078.ogg
384,192,190929,1,0,0:0:0:0:s_076.ogg
332,192,190998,1,0,0:0:0:0:s_075.ogg
25,192,191033,1,0,0:0:0:0:s_028.ogg
384,192,191061,1,0,0:0:0:0:s_076.ogg
435,192,191130,1,0,0:0:0:0:s_078.ogg
25,192,191200,1,0,0:0:0:0:s_035.ogg
486,192,191200,1,0,0:0:0:0:s_080.ogg
332,192,191283,1,0,0:0:0:0:s_076.ogg
128,192,191366,1,0,0:0:0:0:s_040.ogg
179,192,191366,1,0,0:0:0:0:s_044.ogg
230,192,191366,1,0,0:0:0:0:s_047.ogg
435,192,191366,1,0,0:0:0:0:s_076.ogg
332,192,191450,1,0,0:0:0:0:s_076.ogg
25,192,191533,1,0,0:0:0:0:s_028.ogg
281,192,191533,1,0,0:0:0:0:s_068.ogg
332,192,191616,1,0,0:0:0:0:s_076.ogg
128,192,191700,1,0,0:0:0:0:s_040.ogg
179,192,191700,1,0,0:0:0:0:s_044.ogg
230,192,191700,1,0,0:0:0:0:s_047.ogg
435,192,191700,1,0,0:0:0:0:s_076.ogg
332,192,191783,1,0,0:0:0:0:s_076.ogg
25,192,191866,1,0,0:0:0:0:s_051.ogg
76,192,191866,1,0,0:0:0:0:s_047.ogg
486,192,191866,1,0,0:0:0:0:s_080.ogg
332,192,191950,1,0,0:0:0:0:s_076.ogg
179,192,192033,1,0,0:0:0:0:s_044.ogg
230,192,192033,1,0,0:0:0:0:s_052.ogg
435,192,192033,1,0,0:0:0:0:s_076.ogg
332,192,192116,1,0,0:0:0:0:s_076.ogg
25,192,192200,1,0,0:0:0:0:m_047.ogg
128,192,192200,1,0,0:0:0:0:m_050.ogg
281,192,192200,1,0,0:0:0:0:s_068.ogg
332,192,192283,1,0,0:0:0:0:s_076.ogg
435,192,192366,1,0,0:0:0:0:s_076.ogg
76,192,192450,1,0,0:0:0:0:s_052.ogg
179,192,192450,1,0,0:0:0:0:s_044.ogg
332,192,192450,1,0,0:0:0:0:s_076.ogg
25,192,192533,1,0,0:0:0:0:s_033.ogg
384,192,192533,1,0,0:0:0:0:s_081.ogg
332,192,192616,1,0,0:0:0:0:s_076.ogg
128,192,192700,1,0,0:0:0:0:s_049.ogg
179,192,192700,1,0,0:0:0:0:s_045.ogg
230,192,192700,1,0,0:0:0:0:s_040.ogg
435,192,192700,1,0,0:0:0:0:s_076.ogg
332,192,192783,1,0,0:0:0:0:s_076.ogg
25,192,192866,1,0,0:0:0:0:s_028.ogg
281,192,192866,1,0,0:0:0:0:s_069.ogg
332,192,192950,1,0,0:0:0:0:s_076.ogg
128,192,193033,1,0,0:0:0:0:s_040.ogg
179,192,193033,1,0,0:0:0:0:s_045.ogg
230,192,193033,1,0,0:0:0:0:s_049.ogg
435,192,193033,1,0,0:0:0:0:s_076.ogg
332,192,193116,1,0,0:0:0:0:s_076.ogg
25,192,193200,1,0,0:0:0:0:s_051.ogg
76,192,193200,1,0,0:0:0:0:s_048.ogg
384,192,193200,1,0,0:0:0:0:s_081.ogg
332,192,193283,1,0,0:0:0:0:s_076.ogg
179,192,193366,1,0,0:0:0:0:s_052.ogg
230,192,193366,1,0,0:0:0:0:s_049.ogg
435,192,193366,1,0,0:0:0:0:s_076.ogg
332,192,193450,1,0,0:0:0:0:s_076.ogg
25,192,193533,1,0,0:0:0:0:m_049.ogg
128,192,193533,1,0,0:0:0:0:m_045.ogg
281,192,193533,1,0,0:0:0:0:s_069.ogg
332,192,193616,1,0,0:0:0:0:s_076.ogg
435,192,193700,1,0,0:0:0:0:s_076.ogg
76,192,193783,1,0,0:0:0:0:s_052.ogg
332,192,193783,1,0,0:0:0:0:s_076.ogg
25,192,193866,1,0,0:0:0:0:s_035.ogg
486,192,193866,1,0,0:0:0:0:s_080.ogg
332,192,193950,1,0,0:0:0:0:s_076.ogg
128,192,194033,1,0,0:0:0:0:s_044.ogg
179,192,194033,1,0,0:0:0:0:s_047.ogg
230,192,194033,1,0,0:0:0:0:s_040.ogg
435,192,194033,1,0,0:0:0:0:s_076.ogg
332,192,194116,1,0,0:0:0:0:s_076.ogg
25,192,194200,1,0,0:0:0:0:s_028.ogg
281,192,194200,1,0,0:0:0:0:s_068.ogg
332,192,194283,1,0,0:0:0:0:s_076.ogg
128,192,194366,1,0,0:0:0:0:s_047.ogg
179,192,194366,1,0,0:0:0:0:s_044.ogg
230,192,194366,1,0,0:0:0:0:s_040.ogg
435,192,194366,1,0,0:0:0:0:s_076.ogg
332,192,194450,1,0,0:0:0:0:s_076.ogg
25,192,194533,1,0,0:0:0:0:s_047.ogg
76,192,194533,1,0,0:0:0:0:s_051.ogg
486,192,194533,1,0,0:0:0:0:s_080.ogg
332,192,194616,1,0,0:0:0:0:s_076.ogg
179,192,194700,1,0,0:0:0:0:s_044.ogg
230,192,194700,1,0,0:0:0:0:s_052.ogg
435,192,194700,1,0,0:0:0:0:s_076.ogg
332,192,194783,1,0,0:0:0:0:s_076.ogg
25,192,194866,1,0,0:0:0:0:m_047.ogg
128,192,194866,1,0,0:0:0:0:m_050.ogg
281,192,194866,1,0,0:0:0:0:s_068.ogg
332,192,194950,1,0,0:0:0:0:s_076.ogg
435,192,195033,1,0,0:0:0:0:s_076.ogg
76,192,195116,1,0,0:0:0:0:s_052.ogg
179,192,195116,1,0,0:0:0:0:s_044.ogg
332,192,195116,1,0,0:0:0:0:s_076.ogg
25,192,195200,1,0,0:0:0:0:s_033.ogg
384,192,195200,1,0,0:0:0:0:s_081.ogg
332,192,195283,1,0,0:0:0:0:s_076.ogg
128,192,195366,1,0,0:0:0:0:s_049.ogg
179,192,195366,1,0,0:0:0:0:s_045.ogg
230,192,195366,1,0,0:0:0:0:s_040.ogg
435,192,195366,1,0,0:0:0:0:s_076.ogg
332,192,195450,1,0,0:0:0:0:s_076.ogg
25,192,195533,1,0,0:0:0:0:s_028.ogg
281,192,195533,1,0,0:0:0:0:s_069.ogg
332,192,195616,1,0,0:0:0:0:s_076.ogg
128,192,195700,1,0,0:0:0:0:s_049.ogg
179,192,195700,1,0,0:0:0:0:s_045.ogg
230,192,195700,1,0,0:0:0:0:s_040.ogg
435,192,195700,1,0,0:0:0:0:s_076.ogg
332,192,195783,1,0,0:0:0:0:s_076.ogg
25,192,195866,1,0,0:0:0:0:s_051.ogg
76,192,195866,1,0,0:0:0:0:s_048.ogg
384,192,195866,1,0,0:0:0:0:s_081.ogg
332,192,195950,1,0,0:0:0:0:s_076.ogg
179,192,196033,1,0,0:0:0:0:s_052.ogg
230,192,196033,1,0,0:0:0:0:s_049.ogg
435,192,196033,1,0,0:0:0:0:s_076.ogg
332,192,196116,1,0,0:0:0:0:s_076.ogg
25,192,196200,1,0,0:0:0:0:m_049.ogg
128,192,196200,1,0,0:0:0:0:m_045.ogg
281,192,196200,1,0,0:0:0:0:s_069.ogg
332,192,196283,1,0,0:0:0:0:s_076.ogg
435,192,196366,1,0,0:0:0:0:s_076.ogg
76,192,196450,1,0,0:0:0:0:s_052.ogg
332,192,196450,1,0,0:0:0:0:s_076.ogg
25,192,196533,1,0,0:0:0:0:s_035.ogg
486,192,196533,1,0,0:0:0:0:s_080.ogg
332,192,196616,1,0,0:0:0:0:s_076.ogg
128,192,196700,1,0,0:0:0:0:s_044.ogg
179,192,196700,1,0,0:0:0:0:s_050.ogg
230,192,196700,1,0,0:0:0:0:s_040.ogg
435,192,196700,1,0,0:0:0:0:s_076.ogg
332,192,196783,1,0,0:0:0:0:s_076.ogg
25,192,196866,1,0,0:0:0:0:s_028.ogg
281,192,196866,1,0,0:0:0:0:s_068.ogg
332,192,196950,1,0,0:0:0:0:s_076.ogg
128,192,197033,1,0,0:0:0:0:s_044.ogg
179,192,197033,1,0,0:0:0:0:s_050.ogg
230,192,197033,1,0,0:0:0:0:s_040.ogg
435,192,197033,1,0,0:0:0:0:s_076.ogg
332,192,197116,1,0,0:0:0:0:s_076.ogg
25,192,197200,1,0,0:0:0:0:s_047.ogg
76,192,197200,1,0,0:0:0:0:s_051.ogg
486,192,197200,1,0,0:0:0:0:s_080.ogg
332,192,197283,1,0,0:0:0:0:s_076.ogg
179,192,197366,1,0,0:0:0:0:s_044.ogg
230,192,197366,1,0,0:0:0:0:s_052.ogg
435,192,197366,1,0,0:0:0:0:s_076.ogg
332,192,197450,1,0,0:0:0:0:s_076.ogg
25,192,197533,1,0,0:0:0:0:m_050.ogg
128,192,197533,1,0,0:0:0:0:m_047.ogg
281,192,197533,1,0,0:0:0:0:s_068.ogg
332,192,197616,1,0,0:0:0:0:s_076.ogg
435,192,197700,1,0,0:0:0:0:s_076.ogg
76,192,197783,1,0,0:0:0:0:s_052.ogg
332,192,197783,1,0,0:0:0:0:s_076.ogg
25,192,197866,1,0,0:0:0:0:s_059.ogg
128,192,197866,1,0,0:0:0:0:s_063.ogg
486,192,197866,1,0,0:0:0:0:s_080.ogg
332,192,197950,1,0,0:0:0:0:s_076.ogg
179,192,198033,1,0,0:0:0:0:s_056.ogg
230,192,198033,1,0,0:0:0:0:s_064.ogg
435,192,198033,1,0,0:0:0:0:s_076.ogg
332,192,198116,1,0,0:0:0:0:s_076.ogg
76,192,198200,1,0,0:0:0:0:m_062.ogg
128,192,198200,1,0,0:0:0:0:m_059.ogg
281,192,198200,1,0,0:0:0:0:s_068.ogg
332,192,198283,1,0,0:0:0:0:s_076.ogg
435,192,198366,1,0,0:0:0:0:s_076.ogg
76,192,198450,1,0,0:0:0:0:s_064.ogg
332,192,198450,1,0,0:0:0:0:s_076.ogg
25,192,198533,1,0,0:0:0:0:s_063.ogg
128,192,198533,1,0,0:0:0:0:s_059.ogg
486,192,198533,1,0,0:0:0:0:s_080.ogg
332,192,198616,1,0,0:0:0:0:s_076.ogg
76,192,198700,1,0,0:0:0:0:s_064.ogg
179,192,198700,1,0,0:0:0:0:s_056.ogg
435,192,198700,1,0,0:0:0:0:s_076.ogg
332,192,198783,1,0,0:0:0:0:s_076.ogg
128,192,198866,1,0,0:0:0:0:m_066.ogg
230,192,198866,1,0,0:0:0:0:m_062.ogg
281,192,198866,1,0,0:0:0:0:s_068.ogg
332,192,198950,1,0,0:0:0:0:s_076.ogg
435,192,199033,1,0,0:0:0:0:s_076.ogg
25,192,199116,1,0,0:0:0:0:s_059.ogg
76,192,199116,1,0,0:0:0:0:s_064.ogg
332,192,199116,1,0,0:0:0:0:s_076.ogg
486,192,199200,1,0,0:0:0:0:s_080.ogg
332,192,199283,1,0,0:0:0:0:s_076.ogg
435,192,199366,1,0,0:0:0:0:s_076.ogg
332,192,199450,1,0,0:0:0:0:s_076.ogg
281,192,199533,1,0,0:0:0:0:s_068.ogg
332,192,199616,1,0,0:0:0:0:s_076.ogg
435,192,199700,1,0,0:0:0:0:s_076.ogg
332,192,199783,1,0,0:0:0:0:s_076.ogg
486,192,199866,1,0,0:0:0:0:s_080.ogg
332,192,199950,1,0,0:0:0:0:s_076.ogg
435,192,200033,1,0,0:0:0:0:s_076.ogg
332,192,200116,1,0,0:0:0:0:s_076.ogg
281,192,200200,1,0,0:0:0:0:s_068.ogg
332,192,200283,1,0,0:0:0:0:s_076.ogg
435,192,200366,1,0,0:0:0:0:s_076.ogg
332,192,200450,1,0,0:0:0:0:s_076.ogg
486,192,200533,1,0,0:0:0:0:s_080.ogg
332,192,200616,1,0,0:0:0:0:s_076.ogg
435,192,200700,1,0,0:0:0:0:s_076.ogg
332,192,200783,1,0,0:0:0:0:s_076.ogg
281,192,200866,1,0,0:0:0:0:s_068.ogg
332,192,200950,1,0,0:0:0:0:s_076.ogg
435,192,201033,1,0,0:0:0:0:s_076.ogg
332,192,201116,1,0,0:0:0:0:s_076.ogg
486,192,201200,1,0,0:0:0:0:s_080.ogg
332,192,201283,1,0,0:0:0:0:s_076.ogg
435,192,201366,1,0,0:0:0:0:s_076.ogg
332,192,201450,1,0,0:0:0:0:s_076.ogg
281,192,201533,1,0,0:0:0:0:s_068.ogg
332,192,201616,1,0,0:0:0:0:s_076.ogg
435,192,201700,1,0,0:0:0:0:s_076.ogg
332,192,201783,1,0,0:0:0:0:s_076.ogg
76,192,201866,1,0,0:0:0:0:s_033.ogg
384,192,201866,1,0,0:0:0:0:s_081.ogg
128,192,202066,1,0,0:0:0:0:s_040.ogg
179,192,202066,1,0,0:0:0:0:s_045.ogg
230,192,202066,1,0,0:0:0:0:s_049.ogg
25,192,202266,1,0,0:0:0:0:s_028.ogg
435,192,202266,1,0,0:0:0:0:m_057.ogg
128,192,202466,1,0,0:0:0:0:s_040.ogg
179,192,202466,1,0,0:0:0:0:s_045.ogg
230,192,202466,1,0,0:0:0:0:s_049.ogg
76,192,202666,1,0,0:0:0:0:s_033.ogg
486,192,202666,128,0,203366:0:0:0:0:m_060.ogg
128,192,202866,1,0,0:0:0:0:s_040.ogg
179,192,202866,1,0,0:0:0:0:s_045.ogg
230,192,202866,1,0,0:0:0:0:s_048.ogg
25,192,203066,1,0,0:0:0:0:s_028.ogg
128,192,203266,1,0,0:0:0:0:s_048.ogg
179,192,203266,1,0,0:0:0:0:s_045.ogg
230,192,203266,1,0,0:0:0:0:s_040.ogg
76,192,203466,1,0,0:0:0:0:s_035.ogg
281,192,203466,1,0,0:0:0:0:s_059.ogg
128,192,203666,1,0,0:0:0:0:s_050.ogg
179,192,203666,1,0,0:0:0:0:s_044.ogg
230,192,203666,1,0,0:0:0:0:s_040.ogg
332,192,203766,1,0,0:0:0:0:s_060.ogg
25,192,203866,1,0,0:0:0:0:s_028.ogg
384,192,203866,1,0,0:0:0:0:s_062.ogg
128,192,204066,1,0,0:0:0:0:s_044.ogg
179,192,204066,1,0,0:0:0:0:s_050.ogg
230,192,204066,1,0,0:0:0:0:s_040.ogg
486,192,204166,1,0,0:0:0:0:s_065.ogg
76,192,204266,1,0,0:0:0:0:s_035.ogg
435,192,204266,1,0,0:0:0:0:s_064.ogg
128,192,204466,1,0,0:0:0:0:s_050.ogg
179,192,204466,1,0,0:0:0:0:s_040.ogg
230,192,204466,1,0,0:0:0:0:s_044.ogg
332,192,204566,1,0,0:0:0:0:s_052.ogg
25,192,204666,1,0,0:0:0:0:s_028.ogg
384,192,204666,1,0,0:0:0:0:s_054.ogg
128,192,204866,1,0,0:0:0:0:s_044.ogg
179,192,204866,1,0,0:0:0:0:s_050.ogg
230,192,204866,1,0,0:0:0:0:s_040.ogg
281,192,204966,1,0,0:0:0:0:s_056.ogg
76,192,205066,1,0,0:0:0:0:s_033.ogg
384,192,205066,1,0,0:0:0:0:s_057.ogg
486,192,205116,1,0,0:0:0:0:s_059.ogg
384,192,205166,1,0,0:0:0:0:s_057.ogg
128,192,205266,1,0,0:0:0:0:s_049.ogg
179,192,205266,1,0,0:0:0:0:s_045.ogg
230,192,205266,1,0,0:0:0:0:s_040.ogg
332,192,205366,1,0,0:0:0:0:s_056.ogg
25,192,205466,1,0,0:0:0:0:s_028.ogg
384,192,205466,1,0,0:0:0:0:s_057.ogg
128,192,205666,1,0,0:0:0:0:s_049.ogg
179,192,205666,1,0,0:0:0:0:s_045.ogg
230,192,205666,1,0,0:0:0:0:s_040.ogg
435,192,205766,1,0,0:0:0:0:s_059.ogg
25,192,205866,1,0,0:0:0:0:s_028.ogg
486,192,205866,128,0,206566:0:0:0:0:m_060.ogg
128,192,206066,1,0,0:0:0:0:s_048.ogg
179,192,206066,1,0,0:0:0:0:s_045.ogg
230,192,206066,1,0,0:0:0:0:s_040.ogg
25,192,206266,1,0,0:0:0:0:s_028.ogg
128,192,206466,1,0,0:0:0:0:s_045.ogg
179,192,206466,1,0,0:0:0:0:s_040.ogg
230,192,206466,1,0,0:0:0:0:s_048.ogg
76,192,206666,1,0,0:0:0:0:s_035.ogg
281,192,206666,1,0,0:0:0:0:s_059.ogg
128,192,206866,1,0,0:0:0:0:s_050.ogg
179,192,206866,1,0,0:0:0:0:s_044.ogg
230,192,206866,1,0,0:0:0:0:s_040.ogg
332,192,206966,1,0,0:0:0:0:s_060.ogg
25,192,207066,1,0,0:0:0:0:s_028.ogg
384,192,207066,1,0,0:0:0:0:s_062.ogg
128,192,207266,1,0,0:0:0:0:s_044.ogg
179,192,207266,1,0,0:0:0:0:s_050.ogg
230,192,207266,1,0,0:0:0:0:s_040.ogg
486,192,207366,1,0,0:0:0:0:s_065.ogg
76,192,207466,1,0,0:0:0:0:s_035.ogg
435,192,207466,1,0,0:0:0:0:s_064.ogg
128,192,207666,1,0,0:0:0:0:s_050.ogg
179,192,207666,1,0,0:0:0:0:s_040.ogg
230,192,207666,1,0,0:0:0:0:s_044.ogg
332,192,207766,1,0,0:0:0:0:s_052.ogg
25,192,207866,1,0,0:0:0:0:s_028.ogg
384,192,207866,1,0,0:0:0:0:s_054.ogg
128,192,208066,1,0,0:0:0:0:s_050.ogg
179,192,208066,1,0,0:0:0:0:s_044.ogg
230,192,208066,1,0,0:0:0:0:s_040.ogg
281,192,208166,1,0,0:0:0:0:s_056.ogg
76,192,208266,1,0,0:0:0:0:s_033.ogg
384,192,208266,1,0,0:0:0:0:s_057.ogg
486,192,208316,1,0,0:0:0:0:s_059.ogg
384,192,208366,1,0,0:0:0:0:s_057.ogg
128,192,208466,1,0,0:0:0:0:s_049.ogg
179,192,208466,1,0,0:0:0:0:s_045.ogg
230,192,208466,1,0,0:0:0:0:s_040.ogg
281,192,208566,1,0,0:0:0:0:s_056.ogg
25,192,208666,1,0,0:0:0:0:s_028.ogg
332,192,208666,1,0,0:0:0:0:s_057.ogg
128,192,208866,1,0,0:0:0:0:s_040.ogg
179,192,208866,1,0,0:0:0:0:s_045.ogg
230,192,208866,1,0,0:0:0:0:s_049.ogg
384,192,208966,1,0,0:0:0:0:s_059.ogg
25,192,209066,1,0,0:0:0:0:s_028.ogg
332,192,209066,1,0,0:0:0:0:s_057.ogg
384,192,209116,1,0,0:0:0:0:s_059.ogg
435,192,209166,1,0,0:0:0:0:s_060.ogg
128,192,209266,1,0,0:0:0:0:s_045.ogg
179,192,209266,1,0,0:0:0:0:s_048.ogg
230,192,209266,1,0,0:0:0:0:s_040.ogg
25,192,209466,1,0,0:0:0:0:s_028.ogg
435,192,209466,1,0,0:0:0:0:m_060.ogg
128,192,209666,1,0,0:0:0:0:s_045.ogg
179,192,209666,1,0,0:0:0:0:s_048.ogg
230,192,209666,1,0,0:0:0:0:s_040.ogg
76,192,209866,1,0,0:0:0:0:s_035.ogg
281,192,209866,1,0,0:0:0:0:s_059.ogg
128,192,210066,1,0,0:0:0:0:s_050.ogg
179,192,210066,1,0,0:0:0:0:s_040.ogg
230,192,210066,1,0,0:0:0:0:s_044.ogg
332,192,210166,1,0,0:0:0:0:s_060.ogg
25,192,210266,1,0,0:0:0:0:s_028.ogg
384,192,210266,1,0,0:0:0:0:s_062.ogg
128,192,210466,1,0,0:0:0:0:s_040.ogg
179,192,210466,1,0,0:0:0:0:s_050.ogg
230,192,210466,1,0,0:0:0:0:s_044.ogg
486,192,210566,1,0,0:0:0:0:s_065.ogg
435,192,210666,1,0,0:0:0:0:s_064.ogg
25,192,211466,1,0,0:0:0:0:s_016.ogg
281,192,211541,1,0,0:0:0:0:s_040.ogg
384,192,211541,1,0,0:0:0:0:s_028.ogg
76,192,211616,1,0,0:0:0:0:s_018.ogg
332,192,211691,1,0,0:0:0:0:s_042.ogg
435,192,211691,1,0,0:0:0:0:s_030.ogg
128,192,211766,1,0,0:0:0:0:s_020.ogg
384,192,211841,1,0,0:0:0:0:s_044.ogg
486,192,211841,1,0,0:0:0:0:s_032.ogg
179,192,211916,1,0,0:0:0:0:s_021.ogg
281,192,211991,1,0,0:0:0:0:s_033.ogg
435,192,211991,1,0,0:0:0:0:s_045.ogg
76,192,212066,1,0,0:0:0:0:s_023.ogg
230,192,212066,1,0,0:0:0:0:s_028.ogg
332,192,212141,1,0,0:0:0:0:s_035.ogg
384,192,212141,1,0,0:0:0:0:s_040.ogg
486,192,212141,1,0,0:0:0:0:s_047.ogg
179,192,212216,1,0,0:0:0:0:s_022.ogg
281,192,212291,1,0,0:0:0:0:s_034.ogg
435,192,212291,1,0,0:0:0:0:s_046.ogg
230,192,212366,1,0,0:0:0:0:s_023.ogg
332,192,212441,1,0,0:0:0:0:s_047.ogg
486,192,212441,1,0,0:0:0:0:s_035.ogg
128,192,212516,1,0,0:0:0:0:s_020.ogg
281,192,212591,1,0,0:0:0:0:s_032.ogg
435,192,212591,1,0,0:0:0:0:s_044.ogg
25,192,212666,1,0,0:0:0:0:s_021.ogg
332,192,212741,1,0,0:0:0:0:s_045.ogg
486,192,212741,1,0,0:0:0:0:s_033.ogg
76,192,212816,1,0,0:0:0:0:s_023.ogg
281,192,212891,1,0,0:0:0:0:s_035.ogg
384,192,212891,1,0,0:0:0:0:s_047.ogg
128,192,212966,1,0,0:0:0:0:s_025.ogg
332,192,213041,1,0,0:0:0:0:s_049.ogg
435,192,213041,1,0,0:0:0:0:s_037.ogg
179,192,213116,1,0,0:0:0:0:s_026.ogg
384,192,213191,1,0,0:0:0:0:s_038.ogg
486,192,213191,1,0,0:0:0:0:s_050.ogg
76,192,213266,1,0,0:0:0:0:s_033.ogg
230,192,213266,1,0,0:0:0:0:s_028.ogg
281,192,213341,1,0,0:0:0:0:s_052.ogg
332,192,213341,1,0,0:0:0:0:s_040.ogg
435,192,213341,1,0,0:0:0:0:s_045.ogg
179,192,213416,1,0,0:0:0:0:s_027.ogg
384,192,213491,1,0,0:0:0:0:s_051.ogg
486,192,213491,1,0,0:0:0:0:s_039.ogg
230,192,213566,1,0,0:0:0:0:s_028.ogg
281,192,213641,1,0,0:0:0:0:s_040.ogg
435,192,213641,1,0,0:0:0:0:s_052.ogg
128,192,213716,1,0,0:0:0:0:s_025.ogg
384,192,213791,1,0,0:0:0:0:s_037.ogg
486,192,213791,1,0,0:0:0:0:s_049.ogg
76,192,213866,1,0,0:0:0:0:s_026.ogg
281,192,213941,1,0,0:0:0:0:s_038.ogg
435,192,213941,1,0,0:0:0:0:s_050.ogg
179,192,214016,1,0,0:0:0:0:s_030.ogg
332,192,214091,1,0,0:0:0:0:s_054.ogg
486,192,214091,1,0,0:0:0:0:s_042.ogg
25,192,214166,1,0,0:0:0:0:s_023.ogg
384,192,214241,1,0,0:0:0:0:s_035.ogg
486,192,214241,1,0,0:0:0:0:s_047.ogg
128,192,214316,1,0,0:0:0:0:s_026.ogg
281,192,214391,1,0,0:0:0:0:s_038.ogg
435,192,214391,1,0,0:0:0:0:s_050.ogg
76,192,214466,1,0,0:0:0:0:s_020.ogg
332,192,214541,1,0,0:0:0:0:s_044.ogg
435,192,214541,1,0,0:0:0:0:s_032.ogg
230,192,214616,1,0,0:0:0:0:s_023.ogg
384,192,214691,1,0,0:0:0:0:s_047.ogg
486,192,214691,1,0,0:0:0:0:s_035.ogg
25,192,214766,1,0,0:0:0:0:s_016.ogg
281,192,214841,1,0,0:0:0:0:s_040.ogg
384,192,214841,1,0,0:0:0:0:s_028.ogg
179,192,214916,1,0,0:0:0:0:s_020.ogg
332,192,214991,1,0,0:0:0:0:s_044.ogg
435,192,214991,1,0,0:0:0:0:s_032.ogg
128,192,215066,1,0,0:0:0:0:s_021.ogg
384,192,215141,1,0,0:0:0:0:s_033.ogg
486,192,215141,1,0,0:0:0:0:s_045.ogg
230,192,215216,1,0,0:0:0:0:s_025.ogg
281,192,215291,1,0,0:0:0:0:s_049.ogg
435,192,215291,1,0,0:0:0:0:s_037.ogg
76,192,215366,1,0,0:0:0:0:s_016.ogg
332,192,215441,1,0,0:0:0:0:s_040.ogg
435,192,215441,1,0,0:0:0:0:s_028.ogg
179,192,215516,1,0,0:0:0:0:s_021.ogg
384,192,215591,1,0,0:0:0:0:s_045.ogg
486,192,215591,1,0,0:0:0:0:s_033.ogg
25,192,215666,1,0,0:0:0:0:s_013.ogg
281,192,215741,1,0,0:0:0:0:s_037.ogg
384,192,215741,1,0,0:0:0:0:s_025.ogg
128,192,215816,1,0,0:0:0:0:s_016.ogg
332,192,215891,1,0,0:0:0:0:s_040.ogg
435,192,215891,1,0,0:0:0:0:s_028.ogg
76,192,215966,1,0,0:0:0:0:s_009.ogg
230,192,215966,1,0,0:0:0:0:s_021.ogg
332,192,216041,1,0,0:0:0:0:s_045.ogg
486,192,216041,1,0,0:0:0:0:s_033.ogg
25,192,216116,1,0,0:0:0:0:s_025.ogg
128,192,216116,1,0,0:0:0:0:s_013.ogg
281,192,216191,1,0,0:0:0:0:s_049.ogg
384,192,216191,1,0,0:0:0:0:s_037.ogg
25,192,216266,1,0,0:0:0:0:s_023.ogg
76,192,216266,1,0,0:0:0:0:s_028.ogg
179,192,216266,1,0,0:0:0:0:s_016.ogg
230,192,216266,1,0,0:0:0:0:s_020.ogg
281,192,216341,1,0,0:0:0:0:s_052.ogg
332,192,216341,1,0,0:0:0:0:s_040.ogg
435,192,216341,1,0,0:0:0:0:s_044.ogg
486,192,216341,1,0,0:0:0:0:s_047.ogg
128,192,216416,1,0,0:0:0:0:s_030.ogg
230,192,216416,1,0,0:0:0:0:s_018.ogg
384,192,216491,1,0,0:0:0:0:s_042.ogg
486,192,216491,1,0,0:0:0:0:s_054.ogg
25,192,216566,1,0,0:0:0:0:s_020.ogg
179,192,216566,1,0,0:0:0:0:s_032.ogg
281,192,216641,1,0,0:0:0:0:s_044.ogg
435,192,216641,1,0,0:0:0:0:s_056.ogg
76,192,216716,1,0,0:0:0:0:s_033.ogg
230,192,216716,1,0,0:0:0:0:s_021.ogg
332,192,216791,1,0,0:0:0:0:s_057.ogg
486,192,216791,1,0,0:0:0:0:s_045.ogg
25,192,216866,1,0,0:0:0:0:s_023.ogg
128,192,216866,1,0,0:0:0:0:s_035.ogg
179,192,216866,1,0,0:0:0:0:s_028.ogg
281,192,216941,1,0,0:0:0:0:s_059.ogg
384,192,216941,1,0,0:0:0:0:s_052.ogg
435,192,216941,1,0,0:0:0:0:s_047.ogg
76,192,217016,1,0,0:0:0:0:s_034.ogg
230,192,217016,1,0,0:0:0:0:s_022.ogg
332,192,217091,1,0,0:0:0:0:s_046.ogg
486,192,217091,1,0,0:0:0:0:s_058.ogg
25,192,217166,1,0,0:0:0:0:s_023.ogg
128,192,217166,1,0,0:0:0:0:s_035.ogg
281,192,217241,1,0,0:0:0:0:s_059.ogg
384,192,217241,1,0,0:0:0:0:s_052.ogg
435,192,217241,1,0,0:0:0:0:s_047.ogg
76,192,217316,1,0,0:0:0:0:s_032.ogg
230,192,217316,1,0,0:0:0:0:s_020.ogg
332,192,217391,1,0,0:0:0:0:s_044.ogg
486,192,217391,1,0,0:0:0:0:s_056.ogg
25,192,217466,1,0,0:0:0:0:s_033.ogg
128,192,217466,1,0,0:0:0:0:s_021.ogg
179,192,217466,1,0,0:0:0:0:s_025.ogg
230,192,217466,1,0,0:0:0:0:s_028.ogg
281,192,217541,1,0,0:0:0:0:s_052.ogg
384,192,217541,1,0,0:0:0:0:s_045.ogg
435,192,217541,1,0,0:0:0:0:s_057.ogg
486,192,217541,1,0,0:0:0:0:s_049.ogg
76,192,217616,1,0,0:0:0:0:s_023.ogg
179,192,217616,1,0,0:0:0:0:s_035.ogg
332,192,217691,1,0,0:0:0:0:s_059.ogg
435,192,217691,1,0,0:0:0:0:s_047.ogg
128,192,217766,1,0,0:0:0:0:s_025.ogg
230,192,217766,1,0,0:0:0:0:s_037.ogg
384,192,217841,1,0,0:0:0:0:s_061.ogg
486,192,217841,1,0,0:0:0:0:s_049.ogg
25,192,217916,1,0,0:0:0:0:s_038.ogg
179,192,217916,1,0,0:0:0:0:s_026.ogg
281,192,217991,1,0,0:0:0:0:s_062.ogg
435,192,217991,1,0,0:0:0:0:s_050.ogg
76,192,218066,1,0,0:0:0:0:s_040.ogg
128,192,218066,1,0,0:0:0:0:s_028.ogg
230,192,218066,1,0,0:0:0:0:s_033.ogg
332,192,218141,1,0,0:0:0:0:s_057.ogg
384,192,218141,1,0,0:0:0:0:s_052.ogg
486,192,218141,1,0,0:0:0:0:s_064.ogg
25,192,218216,1,0,0:0:0:0:s_027.ogg
179,192,218216,1,0,0:0:0:0:s_039.ogg
281,192,218291,1,0,0:0:0:0:s_051.ogg
435,192,218291,1,0,0:0:0:0:s_063.ogg
76,192,218366,1,0,0:0:0:0:s_028.ogg
128,192,218366,1,0,0:0:0:0:s_040.ogg
230,192,218366,1,0,0:0:0:0:s_033.ogg
332,192,218441,1,0,0:0:0:0:s_064.ogg
384,192,218441,1,0,0:0:0:0:s_057.ogg
486,192,218441,1,0,0:0:0:0:s_052.ogg
25,192,218516,1,0,0:0:0:0:s_025.ogg
179,192,218516,1,0,0:0:0:0:s_037.ogg
281,192,218591,1,0,0:0:0:0:s_061.ogg
435,192,218591,1,0,0:0:0:0:s_049.ogg
76,192,218666,1,0,0:0:0:0:s_040.ogg
128,192,218666,1,0,0:0:0:0:s_028.ogg
179,192,218666,1,0,0:0:0:0:s_035.ogg
230,192,218666,1,0,0:0:0:0:s_032.ogg
332,192,218741,1,0,0:0:0:0:s_052.ogg
384,192,218741,1,0,0:0:0:0:s_064.ogg
435,192,218741,1,0,0:0:0:0:s_056.ogg
486,192,218741,1,0,0:0:0:0:s_059.ogg
25,192,218816,1,0,0:0:0:0:s_042.ogg
128,192,218816,1,0,0:0:0:0:s_030.ogg
281,192,218891,1,0,0:0:0:0:s_054.ogg
384,192,218891,1,0,0:0:0:0:s_066.ogg
76,192,218966,1,0,0:0:0:0:s_044.ogg
179,192,218966,1,0,0:0:0:0:s_032.ogg
332,192,219041,1,0,0:0:0:0:s_056.ogg
435,192,219041,1,0,0:0:0:0:s_068.ogg
128,192,219116,1,0,0:0:0:0:s_045.ogg
230,192,219116,1,0,0:0:0:0:s_033.ogg
384,192,219191,1,0,0:0:0:0:s_057.ogg
486,192,219191,1,0,0:0:0:0:s_069.ogg
25,192,219266,1,0,0:0:0:0:s_035.ogg
76,192,219266,1,0,0:0:0:0:s_047.ogg
179,192,219266,1,0,0:0:0:0:s_040.ogg
281,192,219341,1,0,0:0:0:0:s_071.ogg
332,192,219341,1,0,0:0:0:0:s_064.ogg
435,192,219341,1,0,0:0:0:0:s_059.ogg
128,192,219416,1,0,0:0:0:0:s_034.ogg
230,192,219416,1,0,0:0:0:0:s_046.ogg
384,192,219491,1,0,0:0:0:0:s_058.ogg
486,192,219491,1,0,0:0:0:0:s_070.ogg
25,192,219566,1,0,0:0:0:0:s_047.ogg
76,192,219566,1,0,0:0:0:0:s_035.ogg
179,192,219566,1,0,0:0:0:0:s_040.ogg
281,192,219641,1,0,0:0:0:0:s_059.ogg
332,192,219641,1,0,0:0:0:0:s_071.ogg
435,192,219641,1,0,0:0:0:0:s_064.ogg
128,192,219716,1,0,0:0:0:0:s_032.ogg
230,192,219716,1,0,0:0:0:0:s_044.ogg
384,192,219791,1,0,0:0:0:0:s_056.ogg
486,192,219791,1,0,0:0:0:0:s_068.ogg
25,192,219866,1,0,0:0:0:0:s_033.ogg
76,192,219866,1,0,0:0:0:0:s_045.ogg
128,192,219866,1,0,0:0:0:0:s_040.ogg
179,192,219866,1,0,0:0:0:0:s_037.ogg
281,192,219941,1,0,0:0:0:0:s_069.ogg
332,192,219941,1,0,0:0:0:0:s_064.ogg
384,192,219941,1,0,0:0:0:0:s_061.ogg
435,192,219941,1,0,0:0:0:0:s_057.ogg
76,192,220016,1,0,0:0:0:0:s_047.ogg
230,192,220016,1,0,0:0:0:0:s_035.ogg
332,192,220091,1,0,0:0:0:0:s_059.ogg
486,192,220091,1,0,0:0:0:0:s_071.ogg
25,192,220166,1,0,0:0:0:0:s_049.ogg
128,192,220166,1,0,0:0:0:0:s_037.ogg
281,192,220241,1,0,0:0:0:0:s_061.ogg
384,192,220241,1,0,0:0:0:0:s_073.ogg
76,192,220316,1,0,0:0:0:0:s_038.ogg
179,192,220316,1,0,0:0:0:0:s_050.ogg
332,192,220391,1,0,0:0:0:0:s_062.ogg
435,192,220391,1,0,0:0:0:0:s_074.ogg
25,192,220466,1,0,0:0:0:0:s_040.ogg
128,192,220466,1,0,0:0:0:0:s_052.ogg
230,192,220466,1,0,0:0:0:0:s_045.ogg
281,192,220541,1,0,0:0:0:0:s_069.ogg
384,192,220541,1,0,0:0:0:0:s_076.ogg
486,192,220541,1,0,0:0:0:0:s_064.ogg
76,192,220616,1,0,0:0:0:0:s_039.ogg
179,192,220616,1,0,0:0:0:0:s_051.ogg
332,192,220691,1,0,0:0:0:0:s_063.ogg
435,192,220691,1,0,0:0:0:0:s_075.ogg
25,192,220766,1,0,0:0:0:0:s_052.ogg
128,192,220766,1,0,0:0:0:0:s_040.ogg
230,192,220766,1,0,0:0:0:0:s_045.ogg
281,192,220841,1,0,0:0:0:0:s_064.ogg
384,192,220841,1,0,0:0:0:0:s_069.ogg
486,192,220841,1,0,0:0:0:0:s_076.ogg
76,192,220916,1,0,0:0:0:0:s_049.ogg
179,192,220916,1,0,0:0:0:0:s_037.ogg
332,192,220991,1,0,0:0:0:0:s_073.ogg
435,192,220991,1,0,0:0:0:0:s_061.ogg
128,192,221066,1,0,0:0:0:0:s_050.ogg
230,192,221066,1,0,0:0:0:0:s_038.ogg
384,192,221141,1,0,0:0:0:0:s_074.ogg
486,192,221141,1,0,0:0:0:0:s_062.ogg
25,192,221216,1,0,0:0:0:0:s_054.ogg
179,192,221216,1,0,0:0:0:0:s_042.ogg
281,192,221291,1,0,0:0:0:0:s_078.ogg
435,192,221291,1,0,0:0:0:0:s_066.ogg
76,192,221366,1,0,0:0:0:0:s_047.ogg
179,192,221366,1,0,0:0:0:0:s_035.ogg
332,192,221441,1,0,0:0:0:0:s_071.ogg
435,192,221441,1,0,0:0:0:0:s_059.ogg
128,192,221516,1,0,0:0:0:0:s_038.ogg
230,192,221516,1,0,0:0:0:0:s_050.ogg
384,192,221591,1,0,0:0:0:0:s_074.ogg
486,192,221591,1,0,0:0:0:0:s_062.ogg
25,192,221666,1,0,0:0:0:0:s_032.ogg
128,192,221666,1,0,0:0:0:0:s_044.ogg
281,192,221741,1,0,0:0:0:0:s_056.ogg
384,192,221741,1,0,0:0:0:0:s_068.ogg
76,192,221816,1,0,0:0:0:0:s_035.ogg
179,192,221816,1,0,0:0:0:0:s_047.ogg
332,192,221891,1,0,0:0:0:0:s_059.ogg
435,192,221891,1,0,0:0:0:0:s_071.ogg
76,192,221966,1,0,0:0:0:0:s_040.ogg
230,192,221966,1,0,0:0:0:0:s_028.ogg
332,192,222041,1,0,0:0:0:0:s_064.ogg
486,192,222041,1,0,0:0:0:0:s_052.ogg
25,192,222116,1,0,0:0:0:0:s_032.ogg
128,192,222116,1,0,0:0:0:0:s_044.ogg
281,192,222191,1,0,0:0:0:0:s_056.ogg
384,192,222191,1,0,0:0:0:0:s_068.ogg
25,192,222266,1,0,0:0:0:0:s_037.ogg
179,192,222266,1,0,0:0:0:0:s_025.ogg
281,192,222341,1,0,0:0:0:0:s_061.ogg
435,192,222341,1,0,0:0:0:0:s_049.ogg
76,192,222416,1,0,0:0:0:0:s_028.ogg
230,192,222416,1,0,0:0:0:0:s_040.ogg
332,192,222491,1,0,0:0:0:0:s_064.ogg
486,192,222491,1,0,0:0:0:0:s_052.ogg
128,192,222566,1,0,0:0:0:0:s_021.ogg
230,192,222566,1,0,0:0:0:0:s_033.ogg
384,192,222641,1,0,0:0:0:0:s_057.ogg
486,192,222641,1,0,0:0:0:0:s_045.ogg
25,192,222716,1,0,0:0:0:0:s_025.ogg
179,192,222716,1,0,0:0:0:0:s_037.ogg
281,192,222791,1,0,0:0:0:0:s_061.ogg
435,192,222791,1,0,0:0:0:0:s_049.ogg
76,192,222866,1,0,0:0:0:0:s_018.ogg
179,192,222866,1,0,0:0:0:0:s_030.ogg
332,192,222941,1,0,0:0:0:0:s_054.ogg
435,192,222941,1,0,0:0:0:0:s_042.ogg
128,192,223016,1,0,0:0:0:0:s_033.ogg
230,192,223016,1,0,0:0:0:0:s_021.ogg
384,192,223091,1,0,0:0:0:0:s_045.ogg
486,192,223091,1,0,0:0:0:0:s_057.ogg
25,192,223166,1,0,0:0:0:0:s_014.ogg
128,192,223166,1,0,0:0:0:0:s_026.ogg
281,192,223241,1,0,0:0:0:0:s_038.ogg
384,192,223241,1,0,0:0:0:0:s_050.ogg
76,192,223316,1,0,0:0:0:0:s_018.ogg
179,192,223316,1,0,0:0:0:0:s_030.ogg
332,192,223391,1,0,0:0:0:0:s_042.ogg
435,192,223391,1,0,0:0:0:0:s_054.ogg
76,192,223466,1,0,0:0:0:0:s_023.ogg
230,192,223466,1,0,0:0:0:0:s_011.ogg
332,192,223541,1,0,0:0:0:0:s_047.ogg
486,192,223541,1,0,0:0:0:0:s_035.ogg
25,192,223616,1,0,0:0:0:0:s_014.ogg
128,192,223616,1,0,0:0:0:0:s_026.ogg
281,192,223691,1,0,0:0:0:0:s_050.ogg
384,192,223691,1,0,0:0:0:0:s_038.ogg
25,192,223766,1,0,0:0:0:0:s_008.ogg
179,192,223766,1,0,0:0:0:0:s_020.ogg
281,192,223841,1,0,0:0:0:0:s_044.ogg
435,192,223841,1,0,0:0:0:0:s_032.ogg
76,192,223916,1,0,0:0:0:0:s_023.ogg
230,192,223916,1,0,0:0:0:0:s_011.ogg
332,192,223991,1,0,0:0:0:0:s_047.ogg
486,192,223991,1,0,0:0:0:0:s_035.ogg
179,192,224066,1,0,0:0:0:0:s_016.ogg
281,192,224141,1,0,0:0:0:0:s_028.ogg
384,192,224141,1,0,0:0:0:0:s_040.ogg
230,192,224216,1,0,0:0:0:0:s_020.ogg
435,192,224291,1,0,0:0:0:0:s_044.ogg
486,192,224291,1,0,0:0:0:0:s_032.ogg
128,192,224366,1,0,0:0:0:0:s_013.ogg
281,192,224441,1,0,0:0:0:0:s_025.ogg
332,192,224441,1,0,0:0:0:0:s_037.ogg
179,192,224516,1,0,0:0:0:0:s_016.ogg
384,192,224591,1,0,0:0:0:0:s_040.ogg
486,192,224591,1,0,0:0:0:0:s_028.ogg
76,192,224666,1,0,0:0:0:0:s_021.ogg
128,192,224666,1,0,0:0:0:0:s_009.ogg
332,192,224741,1,0,0:0:0:0:s_033.ogg
179,192,224816,1,0,0:0:0:0:s_025.ogg
230,192,224816,1,0,0:0:0:0:s_013.ogg
435,192,224891,1,0,0:0:0:0:s_037.ogg
25,192,224966,1,0,0:0:0:0:s_018.ogg
76,192,224966,1,0,0:0:0:0:s_006.ogg
281,192,225041,1,0,0:0:0:0:s_030.ogg
128,192,225116,1,0,0:0:0:0:s_021.ogg
179,192,225116,1,0,0:0:0:0:s_009.ogg
384,192,225191,1,0,0:0:0:0:s_033.ogg
25,192,225266,1,0,0:0:0:0:s_002.ogg
76,192,225266,1,0,0:0:0:0:s_014.ogg
332,192,225266,1,0,0:0:0:0:s_026.ogg
25,192,225866,1,0,0:0:0:0:s_014.ogg
76,192,225866,1,0,0:0:0:0:s_026.ogg
281,192,225866,1,0,0:0:0:0:s_054.ogg
332,192,225866,1,0,0:0:0:0:s_050.ogg
384,192,225866,1,0,0:0:0:0:s_042.ogg
128,192,226016,1,0,0:0:0:0:m_030.ogg
179,192,226016,1,0,0:0:0:0:m_033.ogg
230,192,226016,1,0,0:0:0:0:m_038.ogg
281,192,226016,1,0,0:0:0:0:m_054.ogg
332,192,226016,1,0,0:0:0:0:m_050.ogg
384,192,226016,1,0,0:0:0:0:m_042.ogg
25,192,226466,1,0,0:0:0:0:s_028.ogg
76,192,226466,1,0,0:0:0:0:s_016.ogg
281,192,226466,1,0,0:0:0:0:s_056.ogg
332,192,226466,1,0,0:0:0:0:s_047.ogg
435,192,226466,1,0,0:0:0:0:s_044.ogg
486,192,226466,1,0,0:0:0:0:s_050.ogg
76,192,226616,1,0,0:0:0:0:m_040.ogg
128,192,226616,1,0,0:0:0:0:m_028.ogg
179,192,226616,1,0,0:0:0:0:m_032.ogg
230,192,226616,1,0,0:0:0:0:m_035.ogg
281,192,226616,1,0,0:0:0:0:m_050.ogg
332,192,226616,1,0,0:0:0:0:m_047.ogg
435,192,226616,1,0,0:0:0:0:m_044.ogg
486,192,226616,1,0,0:0:0:0:m_056.ogg
25,192,227066,1,0,0:0:0:0:s_021.ogg
76,192,227066,1,0,0:0:0:0:s_009.ogg
332,192,227066,1,0,0:0:0:0:s_057.ogg
384,192,227066,1,0,0:0:0:0:s_045.ogg
435,192,227066,1,0,0:0:0:0:s_049.ogg
486,192,227066,1,0,0:0:0:0:s_052.ogg
76,192,227216,1,0,0:0:0:0:m_040.ogg
128,192,227216,1,0,0:0:0:0:m_028.ogg
179,192,227216,1,0,0:0:0:0:m_033.ogg
230,192,227216,1,0,0:0:0:0:m_037.ogg
332,192,227216,1,0,0:0:0:0:m_057.ogg
384,192,227216,1,0,0:0:0:0:m_045.ogg
435,192,227216,1,0,0:0:0:0:m_052.ogg
486,192,227216,1,0,0:0:0:0:m_049.ogg
25,192,228266,1,0,0:0:0:0:s_040.ogg
76,192,228266,1,0,0:0:0:0:s_045.ogg
128,192,228266,1,0,0:0:0:0:s_049.ogg
179,192,228266,1,0,0:0:0:0:s_052.ogg
281,192,228266,1,0,0:0:0:0:s_069.ogg
332,192,228266,1,0,0:0:0:0:s_057.ogg
384,192,228266,1,0,0:0:0:0:s_061.ogg
435,192,228266,1,0,0:0:0:0:s_064.ogg
76,192,228566,1,0,0:0:0:0:s_057.ogg
128,192,228566,1,0,0:0:0:0:s_061.ogg
179,192,228566,1,0,0:0:0:0:s_064.ogg
230,192,228566,1,0,0:0:0:0:s_052.ogg
332,192,228566,1,0,0:0:0:0:s_081.ogg
384,192,228566,1,0,0:0:0:0:s_069.ogg
435,192,228566,1,0,0:0:0:0:s_073.ogg
486,192,228566,1,0,0:0:0:0:s_076.ogg
25,192,228866,1,0,0:0:0:0:s_021.ogg
76,192,228866,1,0,0:0:0:0:s_009.ogg
281,192,228866,1,0,0:0:0:0:s_045.ogg
332,192,228866,1,0,0:0:0:0:s_033.ogg
