osu file format v14

[General]
AudioFilename: virtual
AudioLeadIn: 0
PreviewTime: 0
Countdown: 0
SampleSet: Soft
StackLeniency: 0.7
Mode: 3
LetterboxInBreaks: 0
SpecialStyle: 0
WidescreenStoryboard: 1

[Editor]
DistanceSpacing: 0.8
BeatDivisor: 4
GridSize: 32
TimelineZoom: 2.500006

[Metadata]
Title:Piano Beatmap Set
TitleUnicode:Piano Beatmap Set
Artist:Collection
ArtistUnicode:Collection
Creator:CircusGalop
Version:Hungarian Rhapsody - 10K EZ
Source:BMS
Tags:
BeatmapID:823117
BeatmapSetID:332673

[Difficulty]
HPDrainRate:0
CircleSize:10
OverallDifficulty:5
ApproachRate:5
SliderMultiplier:1.4
SliderTickRate:1

[Events]
//Background and Video events
0,0,"CircusGalop.jpg",0,0
//Break Periods
//Storyboard Layer 0 (Background)
//Storyboard Layer 1 (Fail)
//Storyboard Layer 2 (Pass)
//Storyboard Layer 3 (Foreground)
//Storyboard Sound Samples
Sample,1333,0,"s_064.ogg",100
Sample,1416,0,"s_052.ogg",100
Sample,1500,0,"s_052.ogg",100
Sample,1583,0,"s_052.ogg",100
Sample,1666,0,"m_050.ogg",100
Sample,1666,0,"m_044.ogg",100
Sample,1666,0,"s_064.ogg",100
Sample,1750,0,"s_052.ogg",100
Sample,1833,0,"s_052.ogg",100
Sample,1916,0,"s_052.ogg",100
Sample,2000,0,"s_064.ogg",100
Sample,2083,0,"s_052.ogg",100
Sample,2166,0,"s_048.ogg",100
Sample,2166,0,"s_052.ogg",100
Sample,2166,0,"s_040.ogg",100
Sample,2250,0,"s_052.ogg",100
Sample,2333,0,"s_064.ogg",100
Sample,2416,0,"s_052.ogg",100
Sample,2500,0,"s_047.ogg",100
Sample,2500,0,"s_044.ogg",100
Sample,2500,0,"s_052.ogg",100
Sample,2583,0,"s_052.ogg",100
Sample,2666,0,"s_064.ogg",100
Sample,2750,0,"s_052.ogg",100
Sample,2833,0,"s_052.ogg",100
Sample,2916,0,"s_052.ogg",100
Sample,3000,0,"m_045.ogg",100
Sample,3000,0,"m_048.ogg",100
Sample,3000,0,"s_064.ogg",100
Sample,3083,0,"s_052.ogg",100
Sample,3166,0,"s_052.ogg",100
Sample,3250,0,"s_052.ogg",100
Sample,3333,0,"s_064.ogg",100
Sample,3416,0,"s_052.ogg",100
Sample,3500,0,"s_040.ogg",100
Sample,3500,0,"s_052.ogg",100
Sample,3500,0,"s_047.ogg",100
Sample,3583,0,"s_052.ogg",100
Sample,3666,0,"s_064.ogg",100
Sample,3750,0,"s_052.ogg",100
Sample,3833,0,"s_036.ogg",100
Sample,3833,0,"s_052.ogg",100
Sample,3833,0,"s_040.ogg",100
Sample,3916,0,"s_052.ogg",100
Sample,4000,0,"s_064.ogg",100
Sample,4083,0,"s_052.ogg",100
Sample,4166,0,"s_052.ogg",100
Sample,4250,0,"s_052.ogg",100
Sample,4333,0,"m_044.ogg",100
Sample,4333,0,"m_050.ogg",100
Sample,4333,0,"s_064.ogg",100
Sample,4416,0,"s_052.ogg",100
Sample,4500,0,"s_052.ogg",100
Sample,4583,0,"s_052.ogg",100
Sample,4666,0,"s_064.ogg",100
Sample,4750,0,"s_052.ogg",100
Sample,4833,0,"s_040.ogg",100
Sample,4833,0,"s_052.ogg",100
Sample,4833,0,"s_048.ogg",100
Sample,4916,0,"s_052.ogg",100
Sample,5000,0,"s_064.ogg",100
Sample,5083,0,"s_052.ogg",100
Sample,5166,0,"s_044.ogg",100
Sample,5166,0,"s_052.ogg",100
Sample,5166,0,"s_047.ogg",100
Sample,5250,0,"s_052.ogg",100
Sample,5333,0,"s_064.ogg",100
Sample,5416,0,"s_052.ogg",100
Sample,5500,0,"s_052.ogg",100
Sample,5583,0,"s_052.ogg",100
Sample,5666,0,"m_040.ogg",100
Sample,5666,0,"m_045.ogg",100
Sample,5666,0,"s_064.ogg",100
Sample,5750,0,"s_052.ogg",100
Sample,5833,0,"s_052.ogg",100
Sample,5916,0,"s_052.ogg",100
Sample,6000,0,"s_064.ogg",100
Sample,6083,0,"s_052.ogg",100
Sample,6166,0,"s_036.ogg",100
Sample,6166,0,"s_052.ogg",100
Sample,6166,0,"s_040.ogg",100
Sample,6250,0,"s_052.ogg",100
Sample,6333,0,"s_064.ogg",100
Sample,6416,0,"s_052.ogg",100
Sample,6500,0,"s_045.ogg",100
Sample,6500,0,"s_052.ogg",100
Sample,6500,0,"s_040.ogg",100
Sample,6583,0,"s_052.ogg",100
Sample,6666,0,"s_064.ogg",100
Sample,6750,0,"s_052.ogg",100
Sample,6833,0,"s_064.ogg",100
Sample,6916,0,"s_064.ogg",100
Sample,7000,0,"m_044.ogg",100
Sample,7000,0,"m_040.ogg",100
Sample,7000,0,"s_076.ogg",100
Sample,7083,0,"s_064.ogg",100
Sample,7166,0,"s_064.ogg",100
Sample,7250,0,"s_052.ogg",100
Sample,7333,0,"s_064.ogg",100
Sample,7416,0,"s_052.ogg",100
Sample,7500,0,"s_052.ogg",100
Sample,7583,0,"s_052.ogg",100
Sample,7666,0,"m_040.ogg",100
Sample,7666,0,"s_064.ogg",100
Sample,7666,0,"m_044.ogg",100
Sample,7750,0,"s_052.ogg",100
Sample,7833,0,"s_052.ogg",100
Sample,7916,0,"s_052.ogg",100
Sample,8000,0,"s_064.ogg",100
Sample,8083,0,"s_052.ogg",100
Sample,8166,0,"s_064.ogg",100
Sample,8250,0,"s_064.ogg",100
Sample,8333,0,"m_040.ogg",100
Sample,8333,0,"m_049.ogg",100
Sample,8333,0,"s_076.ogg",100
Sample,8416,0,"s_064.ogg",100
Sample,8500,0,"s_064.ogg",100
Sample,8583,0,"s_052.ogg",100
Sample,8666,0,"s_064.ogg",100
Sample,8750,0,"s_052.ogg",100
Sample,8833,0,"s_052.ogg",100
Sample,8916,0,"s_052.ogg",100
Sample,9000,0,"m_040.ogg",100
Sample,9000,0,"s_064.ogg",100
Sample,9000,0,"m_049.ogg",100
Sample,9083,0,"s_052.ogg",100
Sample,9166,0,"s_052.ogg",100
Sample,9250,0,"s_052.ogg",100
Sample,9333,0,"s_064.ogg",100
Sample,9416,0,"s_052.ogg",100
Sample,9500,0,"s_050.ogg",100
Sample,9500,0,"s_040.ogg",100
Sample,9500,0,"s_064.ogg",100
Sample,9583,0,"s_064.ogg",100
Sample,9666,0,"s_076.ogg",100
Sample,9750,0,"s_064.ogg",100
Sample,9833,0,"s_050.ogg",100
Sample,9833,0,"s_044.ogg",100
Sample,9833,0,"s_064.ogg",100
Sample,9916,0,"s_052.ogg",100
Sample,10000,0,"s_064.ogg",100
Sample,10083,0,"s_052.ogg",100
Sample,10166,0,"s_052.ogg",100
Sample,10166,0,"s_044.ogg",100
Sample,10166,0,"s_050.ogg",100
Sample,10250,0,"s_052.ogg",100
Sample,10333,0,"s_064.ogg",100
Sample,10416,0,"s_052.ogg",100
Sample,10500,0,"s_052.ogg",100
Sample,10500,0,"s_044.ogg",100
Sample,10500,0,"s_050.ogg",100
Sample,10583,0,"s_052.ogg",100
Sample,10666,0,"s_064.ogg",100
Sample,10750,0,"s_052.ogg",100
Sample,10833,0,"s_045.ogg",100
Sample,10833,0,"s_049.ogg",100
Sample,10833,0,"s_064.ogg",100
Sample,10916,0,"s_064.ogg",100
Sample,11000,0,"s_076.ogg",100
Sample,11083,0,"s_064.ogg",100
Sample,11166,0,"s_040.ogg",100
Sample,11166,0,"s_045.ogg",100
Sample,11166,0,"s_064.ogg",100
Sample,11250,0,"s_052.ogg",100
Sample,11333,0,"s_064.ogg",100
Sample,11416,0,"s_052.ogg",100
Sample,11500,0,"s_052.ogg",100
Sample,11500,0,"s_045.ogg",100
Sample,11500,0,"s_040.ogg",100
Sample,11583,0,"s_052.ogg",100
Sample,11666,0,"s_064.ogg",100
Sample,11750,0,"s_052.ogg",100
Sample,11833,0,"s_045.ogg",100
Sample,11833,0,"s_052.ogg",100
Sample,11833,0,"s_040.ogg",100
Sample,11916,0,"s_052.ogg",100
Sample,12000,0,"s_064.ogg",100
Sample,12083,0,"s_052.ogg",100
Sample,12166,0,"s_064.ogg",100
Sample,12166,0,"s_040.ogg",100
Sample,12166,0,"s_044.ogg",100
Sample,12250,0,"s_064.ogg",100
Sample,12333,0,"s_076.ogg",100
Sample,12416,0,"s_064.ogg",100
Sample,12500,0,"s_044.ogg",100
Sample,12500,0,"s_064.ogg",100
Sample,12500,0,"s_040.ogg",100
Sample,12583,0,"s_052.ogg",100
Sample,12666,0,"s_064.ogg",100
Sample,12750,0,"s_052.ogg",100
Sample,12833,0,"s_050.ogg",100
Sample,12833,0,"s_064.ogg",100
Sample,12833,0,"s_044.ogg",100
Sample,12916,0,"s_064.ogg",100
Sample,13000,0,"s_076.ogg",100
Sample,13083,0,"s_064.ogg",100
Sample,13166,0,"s_044.ogg",100
Sample,13166,0,"s_064.ogg",100
Sample,13166,0,"s_050.ogg",100
Sample,13250,0,"s_052.ogg",100
Sample,13333,0,"s_064.ogg",100
Sample,13416,0,"s_052.ogg",100
Sample,13500,0,"s_064.ogg",100
Sample,13500,0,"s_049.ogg",100
Sample,13500,0,"s_040.ogg",100
Sample,13583,0,"s_064.ogg",100
Sample,13666,0,"s_076.ogg",100
Sample,13750,0,"s_064.ogg",100
Sample,13833,0,"s_045.ogg",100
Sample,13833,0,"s_064.ogg",100
Sample,13833,0,"s_040.ogg",100
Sample,13916,0,"s_052.ogg",100
Sample,14000,0,"s_064.ogg",100
Sample,14083,0,"s_052.ogg",100
Sample,14166,0,"s_040.ogg",100
Sample,14166,0,"s_045.ogg",100
Sample,14166,0,"s_064.ogg",100
Sample,14250,0,"s_064.ogg",100
Sample,14333,0,"s_076.ogg",100
Sample,14416,0,"s_064.ogg",100
Sample,14500,0,"s_049.ogg",100
Sample,14500,0,"s_064.ogg",100
Sample,14500,0,"s_045.ogg",100
Sample,14583,0,"s_052.ogg",100
Sample,14666,0,"s_023.ogg",100
Sample,14666,0,"s_035.ogg",100
Sample,14666,0,"s_056.ogg",100
Sample,14666,0,"s_051.ogg",100
Sample,14916,0,"s_035.ogg",100
Sample,14916,0,"s_044.ogg",100
Sample,14916,0,"s_040.ogg",100
Sample,14916,0,"s_059.ogg",100
Sample,14916,0,"s_064.ogg",100
Sample,15166,0,"s_028.ogg",100
Sample,15166,0,"s_016.ogg",100
Sample,15166,0,"m_050.ogg",100
Sample,15166,0,"m_062.ogg",100
Sample,15416,0,"s_035.ogg",100
Sample,15416,0,"s_040.ogg",100
Sample,15416,0,"s_044.ogg",100
Sample,15541,0,"s_064.ogg",100
Sample,15666,0,"s_035.ogg",100
Sample,15666,0,"s_023.ogg",100
Sample,15666,0,"s_051.ogg",100
Sample,15666,0,"s_063.ogg",100
Sample,15916,0,"s_052.ogg",100
Sample,15916,0,"s_044.ogg",100
Sample,15916,0,"s_040.ogg",100
Sample,15916,0,"s_059.ogg",100
Sample,15916,0,"s_035.ogg",100
Sample,16166,0,"m_050.ogg",100
Sample,16166,0,"s_028.ogg",100
Sample,16166,0,"s_016.ogg",100
Sample,16166,0,"m_062.ogg",100
Sample,16416,0,"s_040.ogg",100
Sample,16416,0,"s_035.ogg",100
Sample,16416,0,"s_044.ogg",100
Sample,16541,0,"s_064.ogg",100
Sample,16666,0,"s_021.ogg",100
Sample,16666,0,"s_060.ogg",100
Sample,16666,0,"s_063.ogg",100
Sample,16666,0,"s_033.ogg",100
Sample,16866,0,"s_040.ogg",100
Sample,16866,0,"s_064.ogg",100
Sample,16866,0,"s_045.ogg",100
Sample,16866,0,"s_037.ogg",100
Sample,16866,0,"s_052.ogg",100
Sample,17066,0,"s_016.ogg",100
Sample,17066,0,"m_057.ogg",100
Sample,17066,0,"s_028.ogg",100
Sample,17066,0,"m_061.ogg",100
Sample,17266,0,"s_045.ogg",100
Sample,17266,0,"s_037.ogg",100
Sample,17266,0,"s_040.ogg",100
Sample,17366,0,"s_064.ogg",100
Sample,17366,0,"s_061.ogg",100
Sample,17466,0,"s_063.ogg",100
Sample,17466,0,"s_051.ogg",100
Sample,17466,0,"s_033.ogg",100
Sample,17466,0,"s_021.ogg",100
Sample,17666,0,"s_037.ogg",100
Sample,17666,0,"s_040.ogg",100
Sample,17666,0,"s_045.ogg",100
Sample,17666,0,"s_061.ogg",100
Sample,17666,0,"s_064.ogg",100
Sample,17866,0,"s_016.ogg",100
Sample,17866,0,"m_061.ogg",100
Sample,17866,0,"m_049.ogg",100
Sample,17866,0,"s_028.ogg",100
Sample,18066,0,"s_037.ogg",100
Sample,18066,0,"s_045.ogg",100
Sample,18066,0,"s_040.ogg",100
Sample,18166,0,"s_052.ogg",100
Sample,18166,0,"s_061.ogg",100
Sample,18266,0,"s_051.ogg",100
Sample,18266,0,"s_035.ogg",100
Sample,18266,0,"s_023.ogg",100
Sample,18433,0,"s_052.ogg",100
Sample,18433,0,"s_059.ogg",100
Sample,18433,0,"s_044.ogg",100
Sample,18433,0,"s_040.ogg",100
Sample,18600,0,"m_062.ogg",100
Sample,18600,0,"s_016.ogg",100
Sample,18600,0,"s_028.ogg",100
Sample,18600,0,"m_054.ogg",100
Sample,18766,0,"s_040.ogg",100
Sample,18766,0,"s_044.ogg",100
Sample,18766,0,"s_038.ogg",100
Sample,18850,0,"s_052.ogg",100
Sample,18850,0,"s_064.ogg",100
Sample,18933,0,"s_051.ogg",100
Sample,18933,0,"s_035.ogg",100
Sample,18933,0,"s_023.ogg",100
Sample,19100,0,"s_052.ogg",100
Sample,19100,0,"s_044.ogg",100
Sample,19100,0,"s_040.ogg",100
Sample,19100,0,"s_059.ogg",100
Sample,19100,0,"s_038.ogg",100
Sample,19266,0,"m_066.ogg",100
Sample,19266,0,"m_062.ogg",100
Sample,19266,0,"s_028.ogg",100
Sample,19266,0,"s_016.ogg",100
Sample,19433,0,"s_038.ogg",100
Sample,19433,0,"s_040.ogg",100
Sample,19433,0,"s_044.ogg",100
Sample,19516,0,"s_064.ogg",100
Sample,19516,0,"s_052.ogg",100
Sample,19600,0,"s_051.ogg",100
Sample,19600,0,"s_063.ogg",100
Sample,19600,0,"s_033.ogg",100
Sample,19600,0,"s_021.ogg",100
Sample,19766,0,"s_045.ogg",100
Sample,19766,0,"s_052.ogg",100
Sample,19766,0,"s_061.ogg",100
Sample,19766,0,"s_037.ogg",100
Sample,19766,0,"s_040.ogg",100
Sample,19933,0,"s_028.ogg",100
Sample,19933,0,"m_057.ogg",100
Sample,19933,0,"s_016.ogg",100
Sample,19933,0,"m_061.ogg",100
Sample,20100,0,"s_040.ogg",100
Sample,20100,0,"s_037.ogg",100
Sample,20100,0,"s_045.ogg",100
Sample,20183,0,"s_064.ogg",100
Sample,20266,0,"s_021.ogg",100
Sample,20266,0,"s_060.ogg",100
Sample,20266,0,"s_063.ogg",100
Sample,20266,0,"s_033.ogg",100
Sample,20433,0,"s_045.ogg",100
Sample,20433,0,"s_052.ogg",100
Sample,20433,0,"s_040.ogg",100
Sample,20433,0,"s_061.ogg",100
Sample,20433,0,"s_037.ogg",100
Sample,20600,0,"m_057.ogg",100
Sample,20600,0,"s_028.ogg",100
Sample,20600,0,"m_061.ogg",100
Sample,20600,0,"s_016.ogg",100
Sample,20766,0,"s_040.ogg",100
Sample,20766,0,"s_045.ogg",100
Sample,20766,0,"s_037.ogg",100
Sample,20850,0,"s_052.ogg",100
Sample,20933,0,"s_035.ogg",100
Sample,20933,0,"s_056.ogg",100
Sample,20933,0,"s_051.ogg",100
Sample,21100,0,"s_040.ogg",100
Sample,21100,0,"s_044.ogg",100
Sample,21100,0,"s_064.ogg",100
Sample,21266,0,"m_056.ogg",100
Sample,21266,0,"s_028.ogg",100
Sample,21266,0,"m_050.ogg",100
Sample,21433,0,"s_044.ogg",100
Sample,21433,0,"s_040.ogg",100
Sample,21433,0,"s_035.ogg",100
Sample,21516,0,"s_052.ogg",100
Sample,21600,0,"s_051.ogg",100
Sample,21600,0,"s_063.ogg",100
Sample,21600,0,"s_023.ogg",100
Sample,21766,0,"s_044.ogg",100
Sample,21766,0,"s_040.ogg",100
Sample,21766,0,"s_052.ogg",100
Sample,21766,0,"s_035.ogg",100
Sample,21933,0,"m_062.ogg",100
Sample,21933,0,"s_016.ogg",100
Sample,21933,0,"m_050.ogg",100
Sample,22100,0,"s_044.ogg",100
Sample,22100,0,"s_040.ogg",100
Sample,22100,0,"s_035.ogg",100
Sample,22183,0,"s_052.ogg",100
Sample,22266,0,"s_051.ogg",100
Sample,22266,0,"s_033.ogg",100
Sample,22266,0,"s_060.ogg",100
Sample,22433,0,"s_045.ogg",100
Sample,22433,0,"s_052.ogg",100
Sample,22433,0,"s_037.ogg",100
Sample,22433,0,"s_064.ogg",100
Sample,22433,0,"s_040.ogg",100
Sample,22600,0,"m_057.ogg",100
Sample,22600,0,"s_028.ogg",100
Sample,22600,0,"m_049.ogg",100
Sample,22766,0,"s_037.ogg",100
Sample,22766,0,"s_040.ogg",100
Sample,22766,0,"s_045.ogg",100
Sample,22850,0,"s_052.ogg",100
Sample,22850,0,"s_064.ogg",100
Sample,22933,0,"s_060.ogg",100
Sample,22933,0,"s_051.ogg",100
Sample,22933,0,"s_021.ogg",100
Sample,23100,0,"s_037.ogg",100
Sample,23100,0,"s_045.ogg",100
Sample,23100,0,"s_052.ogg",100
Sample,23100,0,"s_061.ogg",100
Sample,23100,0,"s_040.ogg",100
Sample,23266,0,"m_057.ogg",100
Sample,23266,0,"m_049.ogg",100
Sample,23266,0,"s_016.ogg",100
Sample,23433,0,"s_045.ogg",100
Sample,23433,0,"s_037.ogg",100
Sample,23433,0,"s_040.ogg",100
Sample,23516,0,"s_052.ogg",100
Sample,23516,0,"s_061.ogg",100
Sample,23600,0,"s_063.ogg",100
Sample,23600,0,"s_035.ogg",100
Sample,23766,0,"s_064.ogg",100
Sample,23766,0,"s_052.ogg",100
Sample,23766,0,"s_044.ogg",100
Sample,23766,0,"s_040.ogg",100
Sample,23933,0,"m_062.ogg",100
Sample,23933,0,"m_054.ogg",100
Sample,23933,0,"s_028.ogg",100
Sample,24100,0,"s_040.ogg",100
Sample,24100,0,"s_044.ogg",100
Sample,24100,0,"s_035.ogg",100
Sample,24183,0,"s_064.ogg",100
Sample,24183,0,"s_059.ogg",100
Sample,24266,0,"s_051.ogg",100
Sample,24266,0,"s_023.ogg",100
Sample,24433,0,"s_059.ogg",100
Sample,24433,0,"s_064.ogg",100
Sample,24433,0,"s_040.ogg",100
Sample,24433,0,"s_044.ogg",100
Sample,24433,0,"s_035.ogg",100
Sample,24600,0,"m_054.ogg",100
Sample,24600,0,"s_016.ogg",100
Sample,24600,0,"m_066.ogg",100
Sample,24766,0,"s_040.ogg",100
Sample,24766,0,"s_044.ogg",100
Sample,24766,0,"s_035.ogg",100
Sample,24850,0,"s_052.ogg",100
Sample,24850,0,"s_064.ogg",100
Sample,24933,0,"s_033.ogg",100
Sample,24933,0,"s_051.ogg",100
Sample,24933,0,"s_060.ogg",100
Sample,25100,0,"s_061.ogg",100
Sample,25100,0,"s_045.ogg",100
Sample,25100,0,"s_037.ogg",100
Sample,25100,0,"s_040.ogg",100
Sample,25100,0,"s_052.ogg",100
Sample,25266,0,"s_028.ogg",100
Sample,25266,0,"m_069.ogg",100
Sample,25266,0,"m_057.ogg",100
Sample,25433,0,"s_040.ogg",100
Sample,25433,0,"s_037.ogg",100
Sample,25433,0,"s_045.ogg",100
Sample,25516,0,"s_052.ogg",100
Sample,25600,0,"s_051.ogg",100
Sample,25600,0,"s_021.ogg",100
Sample,25600,0,"s_060.ogg",100
Sample,25766,0,"s_045.ogg",100
Sample,25766,0,"s_061.ogg",100
Sample,25766,0,"s_040.ogg",100
Sample,25766,0,"s_052.ogg",100
Sample,25766,0,"s_037.ogg",100
Sample,25933,0,"m_057.ogg",100
Sample,25933,0,"m_061.ogg",100
Sample,25933,0,"s_016.ogg",100
Sample,26100,0,"s_037.ogg",100
Sample,26100,0,"s_045.ogg",100
Sample,26100,0,"s_040.ogg",100
Sample,26183,0,"s_064.ogg",100
Sample,26266,0,"s_033.ogg",100
Sample,26266,0,"s_062.ogg",100
Sample,26266,0,"s_066.ogg",100
Sample,26433,0,"s_038.ogg",100
Sample,26433,0,"s_042.ogg",100
Sample,26433,0,"s_062.ogg",100
Sample,26600,0,"s_054.ogg",100
Sample,26600,0,"s_028.ogg",100
Sample,26766,0,"s_045.ogg",100
Sample,26766,0,"s_050.ogg",100
Sample,26766,0,"s_042.ogg",100
Sample,26933,0,"s_054.ogg",100
Sample,26933,0,"s_033.ogg",100
Sample,27100,0,"s_062.ogg",100
Sample,27100,0,"s_042.ogg",100
Sample,27100,0,"s_038.ogg",100
Sample,27266,0,"s_062.ogg",100
Sample,27266,0,"s_028.ogg",100
Sample,27433,0,"s_042.ogg",100
Sample,27433,0,"s_066.ogg",100
Sample,27433,0,"s_045.ogg",100
Sample,27600,0,"s_033.ogg",100
Sample,27600,0,"s_064.ogg",100
Sample,27600,0,"s_052.ogg",100
Sample,27766,0,"s_037.ogg",100
Sample,27766,0,"s_040.ogg",100
Sample,27766,0,"s_061.ogg",100
Sample,27933,0,"s_057.ogg",100
Sample,27933,0,"s_028.ogg",100
Sample,28100,0,"s_040.ogg",100
Sample,28100,0,"s_052.ogg",100
Sample,28100,0,"s_045.ogg",100
Sample,28266,0,"s_052.ogg",100
Sample,28266,0,"s_033.ogg",100
Sample,28433,0,"s_040.ogg",100
Sample,28433,0,"s_037.ogg",100
Sample,28433,0,"s_061.ogg",100
Sample,28600,0,"m_057.ogg",100
Sample,28600,0,"m_061.ogg",100
Sample,28600,0,"s_028.ogg",100
Sample,28600,0,"m_052.ogg",100
Sample,28766,0,"s_040.ogg",100
Sample,28766,0,"s_045.ogg",100
Sample,28933,0,"s_033.ogg",100
Sample,28954,0,"s_057.ogg",100
Sample,28975,0,"s_062.ogg",100
Sample,28995,0,"s_066.ogg",100
Sample,29100,0,"s_062.ogg",100
Sample,29100,0,"s_057.ogg",100
Sample,29100,0,"s_042.ogg",100
Sample,29100,0,"s_038.ogg",100
Sample,29266,0,"s_057.ogg",100
Sample,29266,0,"s_028.ogg",100
Sample,29433,0,"s_045.ogg",100
Sample,29433,0,"s_054.ogg",100
Sample,29433,0,"s_042.ogg",100
Sample,29600,0,"s_054.ogg",100
Sample,29600,0,"s_033.ogg",100
Sample,29766,0,"s_038.ogg",100
Sample,29766,0,"s_057.ogg",100
Sample,29766,0,"s_042.ogg",100
Sample,29933,0,"s_066.ogg",100
Sample,29933,0,"s_028.ogg",100
Sample,30100,0,"s_045.ogg",100
Sample,30100,0,"s_066.ogg",100
Sample,30100,0,"s_042.ogg",100
Sample,30266,0,"s_061.ogg",100
Sample,30266,0,"s_064.ogg",100
Sample,30266,0,"s_033.ogg",100
Sample,30433,0,"s_061.ogg",100
Sample,30433,0,"s_040.ogg",100
Sample,30433,0,"s_037.ogg",100
Sample,30600,0,"s_057.ogg",100
Sample,30600,0,"s_028.ogg",100
Sample,30766,0,"s_040.ogg",100
Sample,30766,0,"s_049.ogg",100
Sample,30766,0,"s_045.ogg",100
Sample,30933,0,"s_052.ogg",100
Sample,30933,0,"s_033.ogg",100
Sample,31100,0,"s_057.ogg",100
Sample,31100,0,"s_040.ogg",100
Sample,31100,0,"s_037.ogg",100
Sample,31266,0,"m_052.ogg",100
Sample,31266,0,"s_028.ogg",100
Sample,31266,0,"m_064.ogg",100
Sample,31266,0,"m_057.ogg",100
Sample,31433,0,"s_045.ogg",100
Sample,31433,0,"s_040.ogg",100
Sample,31600,0,"s_035.ogg",100
Sample,31683,0,"s_076.ogg",100
Sample,31766,0,"s_044.ogg",100
Sample,31766,0,"s_040.ogg",100
Sample,31850,0,"s_076.ogg",100
Sample,31933,0,"s_028.ogg",100
Sample,32016,0,"s_076.ogg",100
Sample,32100,0,"s_044.ogg",100
Sample,32100,0,"s_040.ogg",100
Sample,32183,0,"s_076.ogg",100
Sample,32266,0,"s_047.ogg",100
Sample,32350,0,"s_076.ogg",100
Sample,32433,0,"s_052.ogg",100
Sample,32433,0,"s_056.ogg",100
Sample,32516,0,"s_076.ogg",100
Sample,32600,0,"s_040.ogg",100
Sample,32683,0,"s_076.ogg",100
Sample,32766,0,"s_052.ogg",100
Sample,32766,0,"s_056.ogg",100
Sample,32850,0,"s_076.ogg",100
Sample,32933,0,"s_033.ogg",100
Sample,33016,0,"s_076.ogg",100
Sample,33100,0,"s_045.ogg",100
Sample,33100,0,"s_040.ogg",100
Sample,33100,0,"s_037.ogg",100
Sample,33183,0,"s_076.ogg",100
Sample,33266,0,"s_028.ogg",100
Sample,33350,0,"s_076.ogg",100
Sample,33433,0,"s_037.ogg",100
Sample,33433,0,"s_040.ogg",100
Sample,33433,0,"s_045.ogg",100
Sample,33516,0,"s_076.ogg",100
Sample,33600,0,"s_049.ogg",100
Sample,33683,0,"s_076.ogg",100
Sample,33766,0,"s_057.ogg",100
Sample,33766,0,"s_052.ogg",100
Sample,33850,0,"s_076.ogg",100
Sample,33933,0,"s_045.ogg",100
Sample,34016,0,"s_076.ogg",100
Sample,34100,0,"s_052.ogg",100
Sample,34100,0,"s_057.ogg",100
Sample,34183,0,"s_076.ogg",100
Sample,34266,0,"s_035.ogg",100
Sample,34350,0,"s_076.ogg",100
Sample,34433,0,"s_040.ogg",100
Sample,34433,0,"s_044.ogg",100
Sample,34516,0,"s_076.ogg",100
Sample,34600,0,"s_028.ogg",100
Sample,34600,0,"s_068.ogg",100
Sample,34683,0,"s_076.ogg",100
Sample,34766,0,"s_040.ogg",100
Sample,34766,0,"s_044.ogg",100
Sample,34850,0,"s_076.ogg",100
Sample,34933,0,"s_047.ogg",100
Sample,35016,0,"s_076.ogg",100
Sample,35100,0,"s_056.ogg",100
Sample,35100,0,"s_052.ogg",100
Sample,35183,0,"s_076.ogg",100
Sample,35266,0,"s_040.ogg",100
Sample,35266,0,"s_068.ogg",100
Sample,35350,0,"s_076.ogg",100
Sample,35433,0,"s_056.ogg",100
Sample,35433,0,"s_052.ogg",100
Sample,35516,0,"s_076.ogg",100
Sample,35600,0,"s_033.ogg",100
Sample,35683,0,"s_076.ogg",100
Sample,35766,0,"s_037.ogg",100
Sample,35766,0,"s_045.ogg",100
Sample,35766,0,"s_040.ogg",100
Sample,35850,0,"s_076.ogg",100
Sample,35933,0,"s_061.ogg",100
Sample,35933,0,"s_028.ogg",100
Sample,36016,0,"s_076.ogg",100
Sample,36100,0,"s_040.ogg",100
Sample,36100,0,"s_045.ogg",100
Sample,36100,0,"s_037.ogg",100
Sample,36183,0,"s_076.ogg",100
Sample,36266,0,"s_049.ogg",100
Sample,36350,0,"s_076.ogg",100
Sample,36433,0,"s_057.ogg",100
Sample,36433,0,"s_052.ogg",100
Sample,36516,0,"s_076.ogg",100
Sample,36600,0,"s_045.ogg",100
Sample,36600,0,"s_061.ogg",100
Sample,36683,0,"s_076.ogg",100
Sample,36766,0,"s_057.ogg",100
Sample,36766,0,"s_052.ogg",100
Sample,36850,0,"s_076.ogg",100
Sample,36933,0,"s_045.ogg",100
Sample,37016,0,"s_076.ogg",100
Sample,37100,0,"s_054.ogg",100
Sample,37100,0,"s_050.ogg",100
Sample,37183,0,"s_076.ogg",100
Sample,37266,0,"s_040.ogg",100
Sample,37350,0,"s_076.ogg",100
Sample,37433,0,"s_054.ogg",100
Sample,37433,0,"s_057.ogg",100
Sample,37516,0,"s_076.ogg",100
Sample,37600,0,"s_045.ogg",100
Sample,37683,0,"s_076.ogg",100
Sample,37766,0,"s_057.ogg",100
Sample,37766,0,"s_054.ogg",100
Sample,37850,0,"s_076.ogg",100
Sample,37933,0,"s_050.ogg",100
Sample,38016,0,"s_076.ogg",100
Sample,38100,0,"s_057.ogg",100
Sample,38100,0,"s_054.ogg",100
Sample,38183,0,"s_076.ogg",100
Sample,38266,0,"s_045.ogg",100
Sample,38350,0,"s_076.ogg",100
Sample,38433,0,"s_049.ogg",100
Sample,38433,0,"s_052.ogg",100
Sample,38516,0,"s_076.ogg",100
Sample,38600,0,"s_040.ogg",100
Sample,38683,0,"s_076.ogg",100
Sample,38766,0,"s_057.ogg",100
Sample,38766,0,"s_052.ogg",100
Sample,38850,0,"s_076.ogg",100
Sample,38933,0,"s_045.ogg",100
Sample,39016,0,"s_076.ogg",100
Sample,39100,0,"s_052.ogg",100
Sample,39100,0,"s_057.ogg",100
Sample,39183,0,"s_076.ogg",100
Sample,39266,0,"s_049.ogg",100
Sample,39350,0,"s_076.ogg",100
Sample,39433,0,"s_052.ogg",100
Sample,39433,0,"s_057.ogg",100
Sample,39516,0,"s_076.ogg",100
Sample,39600,0,"s_045.ogg",100
Sample,39683,0,"s_076.ogg",100
Sample,39766,0,"s_050.ogg",100
Sample,39766,0,"s_054.ogg",100
Sample,39850,0,"s_076.ogg",100
Sample,39933,0,"s_040.ogg",100
Sample,40016,0,"s_076.ogg",100
Sample,40100,0,"s_054.ogg",100
Sample,40100,0,"s_057.ogg",100
Sample,40183,0,"s_076.ogg",100
Sample,40266,0,"s_045.ogg",100
Sample,40350,0,"s_076.ogg",100
Sample,40433,0,"s_054.ogg",100
Sample,40433,0,"s_057.ogg",100
Sample,40516,0,"s_076.ogg",100
Sample,40600,0,"s_050.ogg",100
Sample,40683,0,"s_076.ogg",100
Sample,40766,0,"s_054.ogg",100
Sample,40766,0,"s_057.ogg",100
Sample,40850,0,"s_076.ogg",100
Sample,40933,0,"s_045.ogg",100
Sample,41016,0,"s_076.ogg",100
Sample,41100,0,"s_049.ogg",100
Sample,41100,0,"s_052.ogg",100
Sample,41183,0,"s_076.ogg",100
Sample,41266,0,"s_040.ogg",100
Sample,41350,0,"s_076.ogg",100
Sample,41433,0,"s_052.ogg",100
Sample,41433,0,"s_057.ogg",100
Sample,41516,0,"s_076.ogg",100
Sample,41600,0,"s_045.ogg",100
Sample,41683,0,"s_076.ogg",100
Sample,41766,0,"s_057.ogg",100
Sample,41766,0,"s_052.ogg",100
Sample,41850,0,"s_076.ogg",100
Sample,41933,0,"s_049.ogg",100
Sample,42016,0,"s_076.ogg",100
Sample,42100,0,"s_057.ogg",100
Sample,42100,0,"s_052.ogg",100
Sample,42183,0,"s_076.ogg",100
Sample,42266,0,"s_062.ogg",100
Sample,42266,0,"s_068.ogg",100
Sample,42350,0,"s_076.ogg",100
Sample,42433,0,"s_071.ogg",100
Sample,42433,0,"s_064.ogg",100
Sample,42475,0,"s_040.ogg",100
Sample,42516,0,"s_076.ogg",100
Sample,42600,0,"s_062.ogg",100
Sample,42600,0,"s_068.ogg",100
Sample,42683,0,"s_076.ogg",100
Sample,42766,0,"s_071.ogg",100
Sample,42766,0,"s_064.ogg",100
Sample,42808,0,"s_044.ogg",100
Sample,42850,0,"s_076.ogg",100
Sample,42933,0,"s_062.ogg",100
Sample,42933,0,"s_068.ogg",100
Sample,43016,0,"s_076.ogg",100
Sample,43100,0,"s_064.ogg",100
Sample,43100,0,"s_071.ogg",100
Sample,43141,0,"s_049.ogg",100
Sample,43183,0,"s_076.ogg",100
Sample,43266,0,"s_068.ogg",100
Sample,43266,0,"s_062.ogg",100
Sample,43350,0,"s_076.ogg",100
Sample,43433,0,"s_071.ogg",100
Sample,43433,0,"s_064.ogg",100
Sample,43475,0,"s_047.ogg",100
Sample,43516,0,"s_076.ogg",100
Sample,43600,0,"s_061.ogg",100
Sample,43600,0,"s_069.ogg",100
Sample,43683,0,"s_076.ogg",100
Sample,43766,0,"s_073.ogg",100
Sample,43766,0,"s_064.ogg",100
Sample,43808,0,"s_045.ogg",100
Sample,43850,0,"s_076.ogg",100
Sample,43933,0,"s_061.ogg",100
Sample,43933,0,"s_069.ogg",100
Sample,43975,0,"s_044.ogg",100
Sample,44016,0,"s_076.ogg",100
Sample,44100,0,"s_064.ogg",100
Sample,44100,0,"s_073.ogg",100
Sample,44141,0,"s_043.ogg",100
Sample,44183,0,"s_076.ogg",100
Sample,44266,0,"s_069.ogg",100
Sample,44266,0,"s_061.ogg",100
Sample,44350,0,"s_076.ogg",100
Sample,44433,0,"s_073.ogg",100
Sample,44433,0,"s_064.ogg",100
Sample,44475,0,"s_042.ogg",100
Sample,44516,0,"s_076.ogg",100
Sample,44600,0,"s_069.ogg",100
Sample,44600,0,"s_061.ogg",100
Sample,44641,0,"s_041.ogg",100
Sample,44683,0,"s_076.ogg",100
Sample,44766,0,"s_064.ogg",100
Sample,44766,0,"s_073.ogg",100
Sample,44808,0,"s_040.ogg",100
Sample,44850,0,"s_076.ogg",100
Sample,44933,0,"s_068.ogg",100
Sample,44933,0,"s_062.ogg",100
Sample,45016,0,"s_076.ogg",100
Sample,45100,0,"s_064.ogg",100
Sample,45100,0,"s_071.ogg",100
Sample,45141,0,"s_040.ogg",100
Sample,45183,0,"s_076.ogg",100
Sample,45266,0,"s_068.ogg",100
Sample,45266,0,"s_062.ogg",100
Sample,45350,0,"s_076.ogg",100
Sample,45433,0,"s_071.ogg",100
Sample,45433,0,"s_064.ogg",100
Sample,45475,0,"s_044.ogg",100
Sample,45516,0,"s_076.ogg",100
Sample,45600,0,"s_062.ogg",100
Sample,45600,0,"s_068.ogg",100
Sample,45683,0,"s_076.ogg",100
Sample,45766,0,"s_064.ogg",100
Sample,45766,0,"s_071.ogg",100
Sample,45808,0,"s_049.ogg",100
Sample,45850,0,"s_076.ogg",100
Sample,45933,0,"s_068.ogg",100
Sample,45933,0,"s_062.ogg",100
Sample,46016,0,"s_076.ogg",100
Sample,46100,0,"s_064.ogg",100
Sample,46100,0,"s_071.ogg",100
Sample,46141,0,"s_047.ogg",100
Sample,46183,0,"s_076.ogg",100
Sample,46266,0,"s_069.ogg",100
Sample,46266,0,"s_061.ogg",100
Sample,46350,0,"s_076.ogg",100
Sample,46433,0,"s_064.ogg",100
Sample,46433,0,"s_073.ogg",100
Sample,46475,0,"s_045.ogg",100
Sample,46516,0,"s_076.ogg",100
Sample,46600,0,"s_069.ogg",100
Sample,46600,0,"s_061.ogg",100
Sample,46641,0,"s_044.ogg",100
Sample,46683,0,"s_076.ogg",100
Sample,46766,0,"s_073.ogg",100
Sample,46766,0,"s_064.ogg",100
Sample,46808,0,"s_043.ogg",100
Sample,46850,0,"s_076.ogg",100
Sample,46933,0,"s_061.ogg",100
Sample,46933,0,"s_069.ogg",100
Sample,47016,0,"s_076.ogg",100
Sample,47100,0,"s_064.ogg",100
Sample,47100,0,"s_073.ogg",100
Sample,47141,0,"s_042.ogg",100
Sample,47183,0,"s_076.ogg",100
Sample,47266,0,"s_061.ogg",100
Sample,47266,0,"s_069.ogg",100
Sample,47308,0,"s_041.ogg",100
Sample,47350,0,"s_076.ogg",100
Sample,47433,0,"s_073.ogg",100
Sample,47433,0,"s_064.ogg",100
Sample,47475,0,"s_040.ogg",100
Sample,47516,0,"s_076.ogg",100
Sample,47600,0,"s_068.ogg",100
Sample,47600,0,"s_035.ogg",100
Sample,47683,0,"s_076.ogg",100
Sample,47766,0,"s_040.ogg",100
Sample,47766,0,"s_071.ogg",100
Sample,47766,0,"s_044.ogg",100
Sample,47850,0,"s_076.ogg",100
Sample,47933,0,"s_068.ogg",100
Sample,47933,0,"s_028.ogg",100
Sample,48016,0,"s_076.ogg",100
Sample,48100,0,"s_040.ogg",100
Sample,48100,0,"s_071.ogg",100
Sample,48100,0,"s_064.ogg",100
Sample,48183,0,"s_076.ogg",100
Sample,48266,0,"s_062.ogg",100
Sample,48266,0,"s_047.ogg",100
Sample,48266,0,"s_051.ogg",100
Sample,48350,0,"s_076.ogg",100
Sample,48433,0,"s_064.ogg",100
Sample,48433,0,"s_052.ogg",100
Sample,48433,0,"s_071.ogg",100
Sample,48516,0,"s_076.ogg",100
Sample,48600,0,"m_056.ogg",100
Sample,48600,0,"m_064.ogg",100
Sample,48600,0,"m_050.ogg",100
Sample,48600,0,"m_068.ogg",100
Sample,48850,0,"s_044.ogg",100
Sample,48850,0,"s_052.ogg",100
Sample,48933,0,"s_061.ogg",100
Sample,48933,0,"s_069.ogg",100
Sample,49016,0,"s_076.ogg",100
Sample,49100,0,"s_040.ogg",100
Sample,49100,0,"s_073.ogg",100
Sample,49100,0,"s_064.ogg",100
Sample,49183,0,"s_076.ogg",100
Sample,49266,0,"s_069.ogg",100
Sample,49266,0,"s_061.ogg",100
Sample,49350,0,"s_076.ogg",100
Sample,49433,0,"s_064.ogg",100
Sample,49433,0,"s_045.ogg",100
Sample,49433,0,"s_073.ogg",100
Sample,49516,0,"s_076.ogg",100
Sample,49600,0,"s_069.ogg",100
Sample,49600,0,"s_051.ogg",100
Sample,49600,0,"s_061.ogg",100
Sample,49683,0,"s_076.ogg",100
Sample,49766,0,"s_049.ogg",100
Sample,49766,0,"s_073.ogg",100
Sample,49766,0,"s_064.ogg",100
Sample,49850,0,"s_076.ogg",100
Sample,49933,0,"m_064.ogg",100
Sample,49933,0,"m_057.ogg",100
Sample,49933,0,"m_069.ogg",100
Sample,49933,0,"m_045.ogg",100
Sample,50183,0,"s_052.ogg",100
Sample,50266,0,"s_062.ogg",100
Sample,50266,0,"s_035.ogg",100
Sample,50350,0,"s_076.ogg",100
Sample,50433,0,"s_071.ogg",100
Sample,50433,0,"s_044.ogg",100
Sample,50433,0,"s_064.ogg",100
Sample,50516,0,"s_076.ogg",100
Sample,50600,0,"s_028.ogg",100
Sample,50600,0,"s_068.ogg",100
Sample,50683,0,"s_076.ogg",100
Sample,50766,0,"s_040.ogg",100
Sample,50766,0,"s_071.ogg",100
Sample,50766,0,"s_064.ogg",100
Sample,50850,0,"s_076.ogg",100
Sample,50933,0,"s_047.ogg",100
Sample,50933,0,"s_068.ogg",100
Sample,50933,0,"s_051.ogg",100
Sample,51016,0,"s_076.ogg",100
Sample,51100,0,"s_064.ogg",100
Sample,51100,0,"s_052.ogg",100
Sample,51100,0,"s_071.ogg",100
Sample,51183,0,"s_076.ogg",100
Sample,51266,0,"m_056.ogg",100
Sample,51266,0,"m_068.ogg",100
Sample,51266,0,"m_050.ogg",100
Sample,51266,0,"m_064.ogg",100
Sample,51516,0,"s_052.ogg",100
Sample,51516,0,"s_044.ogg",100
Sample,51600,0,"s_069.ogg",100
Sample,51600,0,"s_061.ogg",100
Sample,51683,0,"s_076.ogg",100
Sample,51766,0,"s_040.ogg",100
Sample,51766,0,"s_064.ogg",100
Sample,51766,0,"s_073.ogg",100
Sample,51850,0,"s_076.ogg",100
Sample,51933,0,"s_061.ogg",100
Sample,51933,0,"s_069.ogg",100
Sample,52016,0,"s_076.ogg",100
Sample,52100,0,"s_040.ogg",100
Sample,52100,0,"s_073.ogg",100
Sample,52100,0,"s_064.ogg",100
Sample,52183,0,"s_076.ogg",100
Sample,52266,0,"s_051.ogg",100
Sample,52266,0,"s_069.ogg",100
Sample,52266,0,"s_061.ogg",100
Sample,52350,0,"s_076.ogg",100
Sample,52433,0,"s_049.ogg",100
Sample,52433,0,"s_064.ogg",100
Sample,52433,0,"s_073.ogg",100
Sample,52516,0,"s_076.ogg",100
Sample,52600,0,"m_057.ogg",100
Sample,52600,0,"m_045.ogg",100
Sample,52600,0,"m_069.ogg",100
Sample,52600,0,"m_064.ogg",100
Sample,52850,0,"s_052.ogg",100
Sample,52933,0,"s_035.ogg",100
Sample,52975,0,"s_078.ogg",100
Sample,53100,0,"s_040.ogg",100
Sample,53100,0,"s_044.ogg",100
Sample,53100,0,"s_050.ogg",100
Sample,53266,0,"s_028.ogg",100
Sample,53433,0,"s_044.ogg",100
Sample,53433,0,"s_050.ogg",100
Sample,53433,0,"s_040.ogg",100
Sample,53600,0,"s_035.ogg",100
Sample,53766,0,"s_044.ogg",100
Sample,53766,0,"s_040.ogg",100
Sample,53766,0,"s_050.ogg",100
Sample,53933,0,"s_028.ogg",100
Sample,54100,0,"s_040.ogg",100
Sample,54100,0,"s_050.ogg",100
Sample,54100,0,"s_044.ogg",100
Sample,54266,0,"s_033.ogg",100
Sample,54308,0,"s_076.ogg",100
Sample,54433,0,"s_049.ogg",100
Sample,54433,0,"s_040.ogg",100
Sample,54433,0,"s_045.ogg",100
Sample,54600,0,"s_028.ogg",100
Sample,54766,0,"s_049.ogg",100
Sample,54766,0,"s_045.ogg",100
Sample,54766,0,"s_040.ogg",100
Sample,54933,0,"s_033.ogg",100
Sample,55100,0,"s_049.ogg",100
Sample,55100,0,"s_045.ogg",100
Sample,55100,0,"s_040.ogg",100
Sample,55266,0,"s_028.ogg",100
Sample,55433,0,"s_040.ogg",100
Sample,55433,0,"s_045.ogg",100
Sample,55433,0,"s_049.ogg",100
Sample,55600,0,"s_035.ogg",100
Sample,55766,0,"s_040.ogg",100
Sample,55766,0,"s_050.ogg",100
Sample,55766,0,"s_044.ogg",100
Sample,55933,0,"s_028.ogg",100
Sample,56100,0,"s_040.ogg",100
Sample,56100,0,"s_044.ogg",100
Sample,56100,0,"s_050.ogg",100
Sample,56266,0,"s_035.ogg",100
Sample,56433,0,"s_050.ogg",100
Sample,56433,0,"s_040.ogg",100
Sample,56433,0,"s_044.ogg",100
Sample,56600,0,"s_028.ogg",100
Sample,56766,0,"s_040.ogg",100
Sample,56766,0,"s_050.ogg",100
Sample,56766,0,"s_044.ogg",100
Sample,56933,0,"s_033.ogg",100
Sample,56975,0,"s_071.ogg",100
Sample,57100,0,"s_045.ogg",100
Sample,57100,0,"s_049.ogg",100
Sample,57100,0,"s_040.ogg",100
Sample,57266,0,"s_028.ogg",100
Sample,57433,0,"s_049.ogg",100
Sample,57433,0,"s_040.ogg",100
Sample,57433,0,"s_045.ogg",100
Sample,57600,0,"s_033.ogg",100
Sample,57766,0,"s_045.ogg",100
Sample,57766,0,"s_040.ogg",100
Sample,57766,0,"s_049.ogg",100
Sample,57933,0,"s_028.ogg",100
Sample,58100,0,"s_040.ogg",100
Sample,58100,0,"s_045.ogg",100
Sample,58100,0,"s_049.ogg",100
Sample,58266,0,"s_035.ogg",100
Sample,58308,0,"s_068.ogg",100
Sample,58350,0,"s_071.ogg",100
Sample,58391,0,"s_078.ogg",100
Sample,58433,0,"s_040.ogg",100
Sample,58433,0,"s_050.ogg",100
Sample,58433,0,"s_044.ogg",100
Sample,58600,0,"m_056.ogg",100
Sample,58600,0,"s_028.ogg",100
Sample,58766,0,"s_044.ogg",100
Sample,58766,0,"s_040.ogg",100
Sample,58766,0,"s_050.ogg",100
Sample,58933,0,"s_035.ogg",100
Sample,59100,0,"s_044.ogg",100
Sample,59100,0,"s_050.ogg",100
Sample,59100,0,"s_057.ogg",100
Sample,59100,0,"s_040.ogg",100
Sample,59266,0,"s_059.ogg",100
Sample,59266,0,"s_028.ogg",100
Sample,59433,0,"s_044.ogg",100
Sample,59433,0,"s_050.ogg",100
Sample,59433,0,"s_040.ogg",100
Sample,59433,0,"s_056.ogg",100
Sample,59600,0,"s_033.ogg",100
Sample,59641,0,"s_064.ogg",100
Sample,59683,0,"s_069.ogg",100
Sample,59725,0,"s_076.ogg",100
Sample,59766,0,"s_040.ogg",100
Sample,59766,0,"s_049.ogg",100
Sample,59766,0,"s_045.ogg",100
Sample,59933,0,"s_028.ogg",100
Sample,59933,0,"m_057.ogg",100
Sample,60100,0,"s_040.ogg",100
Sample,60100,0,"s_045.ogg",100
Sample,60266,0,"s_033.ogg",100
Sample,60433,0,"s_045.ogg",100
Sample,60433,0,"s_059.ogg",100
Sample,60433,0,"s_040.ogg",100
Sample,60600,0,"s_052.ogg",100
Sample,60600,0,"s_028.ogg",100
Sample,60766,0,"s_040.ogg",100
Sample,60766,0,"s_049.ogg",100
Sample,60766,0,"s_045.ogg",100
Sample,60933,0,"s_047.ogg",100
Sample,60933,0,"s_035.ogg",100
Sample,61100,0,"s_049.ogg",100
Sample,61100,0,"s_044.ogg",100
Sample,61100,0,"s_040.ogg",100
Sample,61100,0,"s_038.ogg",100
Sample,61266,0,"s_028.ogg",100
Sample,61266,0,"s_059.ogg",100
Sample,61433,0,"s_061.ogg",100
Sample,61433,0,"s_038.ogg",100
Sample,61433,0,"s_040.ogg",100
Sample,61433,0,"s_044.ogg",100
Sample,61600,0,"s_062.ogg",100
Sample,61600,0,"s_035.ogg",100
Sample,61766,0,"s_064.ogg",100
Sample,61766,0,"s_044.ogg",100
Sample,61766,0,"s_040.ogg",100
Sample,61766,0,"s_038.ogg",100
Sample,61933,0,"s_057.ogg",100
Sample,61933,0,"s_028.ogg",100
Sample,62100,0,"s_044.ogg",100
Sample,62100,0,"s_038.ogg",100
Sample,62100,0,"s_040.ogg",100
Sample,62100,0,"s_068.ogg",100
Sample,62266,0,"s_061.ogg",100
Sample,62266,0,"s_033.ogg",100
Sample,62433,0,"s_037.ogg",100
Sample,62433,0,"s_068.ogg",100
Sample,62433,0,"s_045.ogg",100
Sample,62433,0,"s_040.ogg",100
Sample,62600,0,"s_028.ogg",100
Sample,62600,0,"s_061.ogg",100
Sample,62766,0,"s_037.ogg",100
Sample,62766,0,"s_040.ogg",100
Sample,62766,0,"s_045.ogg",100
Sample,62766,0,"s_071.ogg",100
Sample,62933,0,"s_064.ogg",100
Sample,62933,0,"s_033.ogg",100
Sample,63100,0,"s_071.ogg",100
Sample,63100,0,"s_037.ogg",100
Sample,63100,0,"s_040.ogg",100
Sample,63100,0,"s_045.ogg",100
Sample,63266,0,"s_073.ogg",100
Sample,63266,0,"s_028.ogg",100
Sample,63433,0,"s_037.ogg",100
Sample,63433,0,"s_040.ogg",100
Sample,63433,0,"s_045.ogg",100
Sample,63433,0,"s_061.ogg",100
Sample,63600,0,"s_030.ogg",100
Sample,63641,0,"s_073.ogg",100
Sample,63683,0,"s_081.ogg",100
Sample,63766,0,"s_039.ogg",100
Sample,63766,0,"s_045.ogg",100
Sample,63766,0,"s_035.ogg",100
Sample,63933,0,"s_023.ogg",100
Sample,63933,0,"m_054.ogg",100
Sample,64100,0,"s_035.ogg",100
Sample,64100,0,"s_039.ogg",100
Sample,64266,0,"s_030.ogg",100
Sample,64433,0,"s_039.ogg",100
Sample,64433,0,"s_035.ogg",100
Sample,64433,0,"s_047.ogg",100
Sample,64600,0,"s_023.ogg",100
Sample,64600,0,"s_049.ogg",100
Sample,64766,0,"s_039.ogg",100
Sample,64766,0,"s_054.ogg",100
Sample,64766,0,"s_035.ogg",100
Sample,64933,0,"s_028.ogg",100
Sample,64975,0,"s_071.ogg",100
Sample,65016,0,"s_080.ogg",100
Sample,65100,0,"s_044.ogg",100
Sample,65100,0,"s_040.ogg",100
Sample,65100,0,"s_035.ogg",100
Sample,65266,0,"m_044.ogg",100
Sample,65266,0,"s_023.ogg",100
Sample,65433,0,"s_040.ogg",100
Sample,65433,0,"s_035.ogg",100
Sample,65600,0,"s_028.ogg",100
Sample,65766,0,"s_045.ogg",100
Sample,65766,0,"s_040.ogg",100
Sample,65766,0,"s_035.ogg",100
Sample,65933,0,"s_056.ogg",100
Sample,65933,0,"s_023.ogg",100
Sample,66100,0,"s_035.ogg",100
Sample,66100,0,"s_052.ogg",100
Sample,66100,0,"s_040.ogg",100
Sample,66266,0,"s_030.ogg",100
Sample,66266,0,"s_042.ogg",100
Sample,66433,0,"s_033.ogg",100
Sample,66433,0,"s_035.ogg",100
Sample,66433,0,"s_039.ogg",100
Sample,66433,0,"s_052.ogg",100
Sample,66600,0,"s_054.ogg",100
Sample,66600,0,"s_023.ogg",100
Sample,66766,0,"s_035.ogg",100
Sample,66766,0,"s_039.ogg",100
Sample,66766,0,"s_047.ogg",100
Sample,66766,0,"s_033.ogg",100
Sample,66933,0,"s_057.ogg",100
Sample,66933,0,"s_030.ogg",100
Sample,67100,0,"s_051.ogg",100
Sample,67100,0,"s_039.ogg",100
Sample,67100,0,"s_035.ogg",100
Sample,67100,0,"s_045.ogg",100
Sample,67266,0,"s_023.ogg",100
Sample,67266,0,"s_052.ogg",100
Sample,67433,0,"s_035.ogg",100
Sample,67433,0,"s_054.ogg",100
Sample,67433,0,"s_039.ogg",100
Sample,67600,0,"s_028.ogg",100
Sample,67600,0,"s_064.ogg",100
Sample,67766,0,"s_040.ogg",100
Sample,67766,0,"s_044.ogg",100
Sample,67766,0,"s_063.ogg",100
Sample,67766,0,"s_035.ogg",100
Sample,67933,0,"s_056.ogg",100
Sample,67933,0,"s_023.ogg",100
Sample,68100,0,"s_040.ogg",100
Sample,68100,0,"s_035.ogg",100
Sample,68100,0,"s_066.ogg",100
Sample,68266,0,"s_059.ogg",100
Sample,68266,0,"s_028.ogg",100
Sample,68433,0,"s_057.ogg",100
Sample,68433,0,"s_044.ogg",100
Sample,68433,0,"s_040.ogg",100
Sample,68433,0,"s_035.ogg",100
Sample,68600,0,"s_059.ogg",100
Sample,68600,0,"s_023.ogg",100
Sample,68766,0,"s_040.ogg",100
Sample,68766,0,"s_056.ogg",100
Sample,68766,0,"s_035.ogg",100
Sample,68933,0,"s_030.ogg",100
Sample,68975,0,"s_073.ogg",100
Sample,69016,0,"s_081.ogg",100
Sample,69100,0,"s_039.ogg",100
Sample,69100,0,"s_045.ogg",100
Sample,69100,0,"s_035.ogg",100
Sample,69266,0,"s_023.ogg",100
Sample,69266,0,"m_045.ogg",100
Sample,69433,0,"s_035.ogg",100
Sample,69433,0,"s_039.ogg",100
Sample,69600,0,"s_030.ogg",100
Sample,69766,0,"s_056.ogg",100
Sample,69766,0,"s_039.ogg",100
Sample,69766,0,"s_035.ogg",100
Sample,69933,0,"s_023.ogg",100
Sample,69933,0,"s_049.ogg",100
Sample,70100,0,"s_039.ogg",100
Sample,70100,0,"s_054.ogg",100
Sample,70100,0,"s_035.ogg",100
Sample,70266,0,"s_028.ogg",100
Sample,70308,0,"s_071.ogg",100
Sample,70350,0,"s_080.ogg",100
Sample,70433,0,"s_040.ogg",100
Sample,70433,0,"s_044.ogg",100
Sample,70433,0,"s_035.ogg",100
Sample,70600,0,"s_023.ogg",100
Sample,70600,0,"m_052.ogg",100
Sample,70766,0,"s_035.ogg",100
Sample,70766,0,"s_040.ogg",100
Sample,70933,0,"s_028.ogg",100
Sample,71100,0,"s_035.ogg",100
Sample,71100,0,"s_040.ogg",100
Sample,71100,0,"s_045.ogg",100
Sample,71266,0,"s_023.ogg",100
Sample,71266,0,"s_047.ogg",100
Sample,71433,0,"s_040.ogg",100
Sample,71433,0,"s_044.ogg",100
Sample,71433,0,"s_035.ogg",100
Sample,71600,0,"s_051.ogg",100
Sample,71600,0,"s_030.ogg",100
Sample,71766,0,"s_039.ogg",100
Sample,71766,0,"s_033.ogg",100
Sample,71766,0,"s_035.ogg",100
Sample,71766,0,"s_052.ogg",100
Sample,71933,0,"s_054.ogg",100
Sample,71933,0,"s_023.ogg",100
Sample,72100,0,"s_035.ogg",100
Sample,72100,0,"s_039.ogg",100
Sample,72100,0,"s_047.ogg",100
Sample,72100,0,"s_033.ogg",100
Sample,72266,0,"s_049.ogg",100
Sample,72266,0,"s_030.ogg",100
Sample,72433,0,"s_051.ogg",100
Sample,72433,0,"s_035.ogg",100
Sample,72433,0,"s_039.ogg",100
Sample,72433,0,"s_045.ogg",100
Sample,72600,0,"s_052.ogg",100
Sample,72600,0,"s_023.ogg",100
Sample,72766,0,"s_035.ogg",100
Sample,72766,0,"s_039.ogg",100
Sample,72766,0,"s_054.ogg",100
Sample,72933,0,"s_035.ogg",100
Sample,72933,0,"s_040.ogg",100
Sample,72933,0,"s_056.ogg",100
Sample,72933,0,"s_028.ogg",100
Sample,72933,0,"s_052.ogg",100
Sample,73100,0,"s_041.ogg",100
Sample,73100,0,"s_029.ogg",100
Sample,73100,0,"s_063.ogg",100
Sample,73266,0,"s_039.ogg",100
Sample,73266,0,"s_027.ogg",100
Sample,73266,0,"s_053.ogg",100
Sample,73433,0,"s_064.ogg",100
Sample,73433,0,"s_040.ogg",100
Sample,73433,0,"s_028.ogg",100
Sample,73600,0,"s_038.ogg",100
Sample,73600,0,"s_026.ogg",100
Sample,73600,0,"s_054.ogg",100
Sample,73766,0,"s_039.ogg",100
Sample,73766,0,"s_027.ogg",100
Sample,73766,0,"s_065.ogg",100
Sample,73933,0,"s_055.ogg",100
Sample,73933,0,"s_025.ogg",100
Sample,73933,0,"s_037.ogg",100
Sample,74100,0,"s_054.ogg",100
Sample,74100,0,"s_038.ogg",100
Sample,74100,0,"s_026.ogg",100
Sample,74266,0,"s_036.ogg",100
Sample,74266,0,"s_024.ogg",100
Sample,74266,0,"s_068.ogg",100
Sample,74433,0,"s_025.ogg",100
Sample,74433,0,"s_037.ogg",100
Sample,74433,0,"s_055.ogg",100
Sample,74600,0,"s_023.ogg",100
Sample,74600,0,"s_035.ogg",100
Sample,74600,0,"s_069.ogg",100
Sample,74766,0,"s_068.ogg",100
Sample,74766,0,"s_036.ogg",100
Sample,74766,0,"s_024.ogg",100
Sample,74933,0,"s_034.ogg",100
Sample,74933,0,"s_022.ogg",100
Sample,74933,0,"s_058.ogg",100
Sample,75100,0,"s_023.ogg",100
Sample,75100,0,"s_035.ogg",100
Sample,75100,0,"s_069.ogg",100
Sample,75266,0,"s_021.ogg",100
Sample,75266,0,"s_033.ogg",100
Sample,75266,0,"s_059.ogg",100
Sample,75433,0,"s_070.ogg",100
Sample,75433,0,"s_022.ogg",100
Sample,75433,0,"s_034.ogg",100
Sample,75600,0,"s_020.ogg",100
Sample,75600,0,"s_032.ogg",100
Sample,75600,0,"s_060.ogg",100
Sample,75766,0,"s_033.ogg",100
Sample,75766,0,"s_021.ogg",100
Sample,75766,0,"s_071.ogg",100
Sample,75933,0,"s_031.ogg",100
Sample,75933,0,"s_019.ogg",100
Sample,75933,0,"s_061.ogg",100
Sample,76100,0,"s_072.ogg",100
Sample,76100,0,"s_032.ogg",100
Sample,76100,0,"s_020.ogg",100
Sample,76266,0,"s_062.ogg",100
Sample,76266,0,"s_030.ogg",100
Sample,76266,0,"s_018.ogg",100
Sample,76433,0,"s_019.ogg",100
Sample,76433,0,"s_031.ogg",100
Sample,76433,0,"s_073.ogg",100
Sample,76600,0,"s_062.ogg",100
Sample,76600,0,"s_017.ogg",100
Sample,76600,0,"s_029.ogg",100
Sample,76766,0,"s_075.ogg",100
Sample,76766,0,"s_030.ogg",100
Sample,76766,0,"s_018.ogg",100
Sample,76933,0,"s_076.ogg",100
Sample,76933,0,"s_016.ogg",100
Sample,76933,0,"s_028.ogg",100
Sample,77100,0,"s_075.ogg",100
Sample,77100,0,"s_029.ogg",100
Sample,77100,0,"s_017.ogg",100
Sample,77266,0,"s_023.ogg",100
Sample,77266,0,"s_016.ogg",100
Sample,77266,0,"s_068.ogg",100
Sample,77266,0,"s_064.ogg",100
Sample,77266,0,"s_028.ogg",100
Sample,77433,0,"s_029.ogg",100
Sample,77433,0,"s_017.ogg",100
Sample,77433,0,"s_075.ogg",100
Sample,77433,0,"s_069.ogg",100
Sample,77600,0,"s_076.ogg",100
Sample,77600,0,"s_023.ogg",100
Sample,77600,0,"s_016.ogg",100
Sample,77600,0,"s_028.ogg",100
Sample,77600,0,"s_068.ogg",100
Sample,77766,0,"s_029.ogg",100
Sample,77766,0,"s_075.ogg",100
Sample,77766,0,"s_017.ogg",100
Sample,77766,0,"s_063.ogg",100
Sample,77933,0,"s_064.ogg",100
Sample,77933,0,"s_021.ogg",100
Sample,77933,0,"s_016.ogg",100
Sample,77933,0,"s_076.ogg",100
Sample,77933,0,"s_028.ogg",100
Sample,78100,0,"s_017.ogg",100
Sample,78100,0,"s_029.ogg",100
Sample,78100,0,"s_069.ogg",100
Sample,78100,0,"s_075.ogg",100
Sample,78266,0,"s_064.ogg",100
Sample,78266,0,"s_023.ogg",100
Sample,78266,0,"s_016.ogg",100
Sample,78266,0,"s_028.ogg",100
Sample,78266,0,"s_076.ogg",100
Sample,78433,0,"s_063.ogg",100
Sample,78433,0,"s_039.ogg",100
Sample,78433,0,"s_027.ogg",100
Sample,78600,0,"s_064.ogg",100
Sample,78600,0,"s_028.ogg",100
Sample,78600,0,"s_040.ogg",100
Sample,78766,0,"s_039.ogg",100
Sample,78766,0,"s_027.ogg",100
Sample,78766,0,"s_063.ogg",100
Sample,78933,0,"s_064.ogg",100
Sample,78933,0,"s_040.ogg",100
Sample,78933,0,"s_028.ogg",100
Sample,79100,0,"s_052.ogg",100
Sample,79100,0,"s_028.ogg",100
Sample,79100,0,"s_016.ogg",100
Sample,79266,0,"s_017.ogg",100
Sample,79266,0,"s_041.ogg",100
Sample,79266,0,"s_029.ogg",100
Sample,79433,0,"s_042.ogg",100
Sample,79433,0,"s_030.ogg",100
Sample,79433,0,"s_018.ogg",100
Sample,79600,0,"m_019.ogg",100
Sample,79600,0,"m_055.ogg",100
Sample,79600,0,"m_031.ogg",100
Sample,79766,0,"s_038.ogg",100
Sample,79766,0,"s_035.ogg",100
Sample,79766,0,"s_050.ogg",100
Sample,79933,0,"m_023.ogg",100
Sample,79933,0,"m_059.ogg",100
Sample,79933,0,"m_035.ogg",100
Sample,80100,0,"s_043.ogg",100
Sample,80100,0,"s_050.ogg",100
Sample,80100,0,"s_038.ogg",100
Sample,80266,0,"m_040.ogg",100
Sample,80266,0,"m_028.ogg",100
Sample,80266,0,"m_064.ogg",100
Sample,80433,0,"s_047.ogg",100
Sample,80433,0,"s_059.ogg",100
Sample,80433,0,"s_043.ogg",100
Sample,80600,0,"s_047.ogg",100
Sample,80600,0,"s_059.ogg",100
Sample,80600,0,"s_043.ogg",100
Sample,80766,0,"s_038.ogg",100
Sample,80766,0,"s_062.ogg",100
Sample,80766,0,"s_026.ogg",100
Sample,80933,0,"s_028.ogg",100
Sample,80933,0,"s_024.ogg",100
Sample,80933,0,"s_055.ogg",100
Sample,80933,0,"s_048.ogg",100
Sample,80933,0,"s_060.ogg",100
Sample,80933,0,"s_036.ogg",100
Sample,80933,0,"s_031.ogg",100
Sample,81100,0,"s_059.ogg",100
Sample,81100,0,"s_035.ogg",100
Sample,81100,0,"s_023.ogg",100
Sample,81266,0,"s_022.ogg",100
Sample,81266,0,"s_034.ogg",100
Sample,81266,0,"s_058.ogg",100
Sample,81433,0,"s_021.ogg",100
Sample,81454,0,"s_024.ogg",100
Sample,81454,0,"s_048.ogg",100
Sample,81475,0,"s_028.ogg",100
Sample,81475,0,"s_052.ogg",100
Sample,81495,0,"s_057.ogg",100
Sample,81495,0,"s_033.ogg",100
Sample,81600,0,"s_032.ogg",100
Sample,81600,0,"s_056.ogg",100
Sample,81600,0,"s_020.ogg",100
Sample,81766,0,"s_019.ogg",100
Sample,81787,0,"s_024.ogg",100
Sample,81787,0,"s_048.ogg",100
Sample,81808,0,"s_028.ogg",100
Sample,81808,0,"s_052.ogg",100
Sample,81829,0,"s_031.ogg",100
Sample,81829,0,"s_055.ogg",100
Sample,81933,0,"s_030.ogg",100
Sample,81933,0,"s_054.ogg",100
Sample,81933,0,"s_018.ogg",100
Sample,82100,0,"s_019.ogg",100
Sample,82120,0,"s_024.ogg",100
Sample,82120,0,"s_048.ogg",100
Sample,82141,0,"s_052.ogg",100
Sample,82141,0,"s_028.ogg",100
Sample,82162,0,"s_055.ogg",100
Sample,82162,0,"s_031.ogg",100
Sample,82266,0,"m_019.ogg",100
Sample,82266,0,"m_043.ogg",100
Sample,82266,0,"m_031.ogg",100
Sample,82433,0,"s_038.ogg",100
Sample,82433,0,"s_035.ogg",100
Sample,82433,0,"s_050.ogg",100
Sample,82600,0,"m_023.ogg",100
Sample,82600,0,"m_035.ogg",100
Sample,82600,0,"m_059.ogg",100
Sample,82766,0,"s_050.ogg",100
Sample,82766,0,"s_043.ogg",100
Sample,82766,0,"s_038.ogg",100
Sample,82933,0,"m_040.ogg",100
Sample,82933,0,"m_064.ogg",100
Sample,82933,0,"m_028.ogg",100
Sample,83100,0,"s_047.ogg",100
Sample,83100,0,"s_055.ogg",100
Sample,83100,0,"s_043.ogg",100
Sample,83266,0,"s_047.ogg",100
Sample,83266,0,"s_059.ogg",100
Sample,83266,0,"s_043.ogg",100
Sample,83433,0,"s_026.ogg",100
Sample,83433,0,"s_062.ogg",100
Sample,83433,0,"s_038.ogg",100
Sample,83600,0,"s_060.ogg",100
Sample,83600,0,"s_024.ogg",100
Sample,83600,0,"s_048.ogg",100
Sample,83600,0,"s_028.ogg",100
Sample,83600,0,"s_055.ogg",100
Sample,83600,0,"s_036.ogg",100
Sample,83600,0,"s_031.ogg",100
Sample,83766,0,"s_035.ogg",100
Sample,83766,0,"s_023.ogg",100
Sample,83766,0,"s_059.ogg",100
Sample,83933,0,"s_021.ogg",100
Sample,83933,0,"s_057.ogg",100
Sample,83933,0,"s_033.ogg",100
Sample,84100,0,"s_052.ogg",100
Sample,84100,0,"s_048.ogg",100
Sample,84100,0,"s_024.ogg",100
Sample,84100,0,"s_031.ogg",100
Sample,84100,0,"s_043.ogg",100
Sample,84100,0,"s_019.ogg",100
Sample,84100,0,"s_028.ogg",100
Sample,84266,0,"m_052.ogg",100
Sample,84266,0,"m_031.ogg",100
Sample,84266,0,"m_028.ogg",100
Sample,84266,0,"m_048.ogg",100
Sample,84266,0,"m_024.ogg",100
Sample,84266,0,"m_036.ogg",100
Sample,84600,0,"m_028.ogg",100
Sample,84600,0,"m_060.ogg",100
Sample,84600,0,"m_040.ogg",100
Sample,84600,0,"m_036.ogg",100
Sample,84600,0,"m_031.ogg",100
Sample,84600,0,"m_052.ogg",100
Sample,84933,0,"s_031.ogg",100
Sample,84933,0,"s_065.ogg",100
Sample,84933,0,"s_071.ogg",100
Sample,85016,0,"s_079.ogg",100
Sample,85100,0,"s_067.ogg",100
Sample,85100,0,"s_074.ogg",100
Sample,85100,0,"s_031.ogg",100
Sample,85183,0,"s_079.ogg",100
Sample,85266,0,"s_026.ogg",100
Sample,85266,0,"s_065.ogg",100
Sample,85266,0,"s_071.ogg",100
Sample,85350,0,"s_079.ogg",100
Sample,85433,0,"s_067.ogg",100
Sample,85433,0,"s_047.ogg",100
Sample,85433,0,"s_074.ogg",100
Sample,85516,0,"s_079.ogg",100
Sample,85600,0,"s_071.ogg",100
Sample,85600,0,"s_065.ogg",100
Sample,85600,0,"s_043.ogg",100
Sample,85683,0,"s_079.ogg",100
Sample,85766,0,"m_052.ogg",100
Sample,85766,0,"s_067.ogg",100
Sample,85766,0,"s_074.ogg",100
Sample,85850,0,"s_079.ogg",100
Sample,85933,0,"s_071.ogg",100
Sample,85933,0,"s_065.ogg",100
Sample,86016,0,"s_079.ogg",100
Sample,86100,0,"s_067.ogg",100
Sample,86100,0,"s_038.ogg",100
Sample,86100,0,"s_074.ogg",100
Sample,86183,0,"s_079.ogg",100
Sample,86266,0,"s_048.ogg",100
Sample,86266,0,"s_072.ogg",100
Sample,86266,0,"s_064.ogg",100
Sample,86350,0,"s_079.ogg",100
Sample,86433,0,"s_067.ogg",100
Sample,86433,0,"s_035.ogg",100
Sample,86433,0,"s_076.ogg",100
Sample,86516,0,"s_079.ogg",100
Sample,86600,0,"s_064.ogg",100
Sample,86600,0,"s_072.ogg",100
Sample,86600,0,"s_046.ogg",100
Sample,86683,0,"s_079.ogg",100
Sample,86766,0,"s_067.ogg",100
Sample,86766,0,"s_033.ogg",100
Sample,86766,0,"s_076.ogg",100
Sample,86850,0,"s_079.ogg",100
Sample,86933,0,"s_044.ogg",100
Sample,86933,0,"s_072.ogg",100
Sample,86933,0,"s_064.ogg",100
Sample,87016,0,"s_079.ogg",100
Sample,87100,0,"s_076.ogg",100
Sample,87100,0,"s_043.ogg",100
Sample,87100,0,"s_067.ogg",100
Sample,87183,0,"s_079.ogg",100
Sample,87266,0,"s_028.ogg",100
Sample,87266,0,"s_064.ogg",100
Sample,87266,0,"s_072.ogg",100
Sample,87350,0,"s_079.ogg",100
Sample,87433,0,"s_024.ogg",100
Sample,87433,0,"s_076.ogg",100
Sample,87433,0,"s_067.ogg",100
Sample,87516,0,"s_079.ogg",100
Sample,87600,0,"s_065.ogg",100
Sample,87600,0,"s_019.ogg",100
Sample,87600,0,"s_071.ogg",100
Sample,87683,0,"s_079.ogg",100
Sample,87766,0,"s_031.ogg",100
Sample,87766,0,"s_067.ogg",100
Sample,87766,0,"s_074.ogg",100
Sample,87850,0,"s_079.ogg",100
Sample,87933,0,"s_071.ogg",100
Sample,87933,0,"s_038.ogg",100
Sample,87933,0,"s_065.ogg",100
Sample,88016,0,"s_079.ogg",100
Sample,88100,0,"s_074.ogg",100
Sample,88100,0,"s_067.ogg",100
Sample,88100,0,"s_035.ogg",100
Sample,88183,0,"s_079.ogg",100
Sample,88266,0,"s_065.ogg",100
Sample,88266,0,"s_071.ogg",100
Sample,88266,0,"s_043.ogg",100
Sample,88350,0,"s_079.ogg",100
Sample,88433,0,"s_067.ogg",100
Sample,88433,0,"m_052.ogg",100
Sample,88433,0,"s_074.ogg",100
Sample,88516,0,"s_079.ogg",100
Sample,88600,0,"s_065.ogg",100
Sample,88600,0,"s_071.ogg",100
Sample,88683,0,"s_079.ogg",100
Sample,88766,0,"s_067.ogg",100
Sample,88766,0,"s_038.ogg",100
Sample,88766,0,"s_074.ogg",100
Sample,88850,0,"s_079.ogg",100
Sample,88933,0,"s_072.ogg",100
Sample,88933,0,"s_064.ogg",100
Sample,88933,0,"s_036.ogg",100
Sample,89016,0,"s_079.ogg",100
Sample,89100,0,"s_047.ogg",100
Sample,89100,0,"s_067.ogg",100
Sample,89100,0,"s_076.ogg",100
Sample,89183,0,"s_079.ogg",100
Sample,89266,0,"s_046.ogg",100
Sample,89266,0,"s_064.ogg",100
Sample,89266,0,"s_072.ogg",100
Sample,89350,0,"s_079.ogg",100
Sample,89433,0,"s_033.ogg",100
Sample,89433,0,"s_076.ogg",100
Sample,89433,0,"s_067.ogg",100
Sample,89516,0,"s_079.ogg",100
Sample,89600,0,"s_072.ogg",100
Sample,89600,0,"s_032.ogg",100
Sample,89600,0,"s_064.ogg",100
Sample,89683,0,"s_079.ogg",100
Sample,89766,0,"s_031.ogg",100
Sample,89766,0,"s_076.ogg",100
Sample,89766,0,"s_067.ogg",100
Sample,89850,0,"s_079.ogg",100
Sample,89933,0,"s_064.ogg",100
Sample,89933,0,"s_072.ogg",100
Sample,89933,0,"s_042.ogg",100
Sample,90016,0,"s_079.ogg",100
Sample,90100,0,"s_031.ogg",100
Sample,90100,0,"s_076.ogg",100
Sample,90100,0,"s_067.ogg",100
Sample,90183,0,"s_079.ogg",100
Sample,90266,0,"s_041.ogg",100
Sample,90266,0,"s_035.ogg",100
Sample,90266,0,"s_043.ogg",100
Sample,90266,0,"s_069.ogg",100
Sample,90308,0,"s_079.ogg",100
Sample,90350,0,"s_081.ogg",100
Sample,90433,0,"s_031.ogg",100
Sample,90600,0,"s_065.ogg",100
Sample,90600,0,"s_035.ogg",100
Sample,90600,0,"s_041.ogg",100
Sample,90600,0,"s_043.ogg",100
Sample,90641,0,"s_076.ogg",100
Sample,90683,0,"s_077.ogg",100
Sample,90766,0,"s_026.ogg",100
Sample,90933,0,"s_062.ogg",100
Sample,90933,0,"s_043.ogg",100
Sample,90933,0,"s_035.ogg",100
Sample,90933,0,"s_041.ogg",100
Sample,90975,0,"s_072.ogg",100
Sample,91016,0,"s_074.ogg",100
Sample,91100,0,"s_019.ogg",100
Sample,91266,0,"s_059.ogg",100
Sample,91266,0,"s_041.ogg",100
Sample,91266,0,"s_035.ogg",100
Sample,91266,0,"s_043.ogg",100
Sample,91308,0,"s_069.ogg",100
Sample,91350,0,"s_071.ogg",100
Sample,91433,0,"s_026.ogg",100
Sample,91600,0,"s_043.ogg",100
Sample,91600,0,"s_040.ogg",100
Sample,91600,0,"s_036.ogg",100
Sample,91641,0,"s_050.ogg",100
Sample,91690,0,"s_052.ogg",100
Sample,91738,0,"s_053.ogg",100
Sample,91766,0,"s_031.ogg",100
Sample,91787,0,"s_055.ogg",100
Sample,91836,0,"s_057.ogg",100
Sample,91884,0,"s_059.ogg",100
Sample,91933,0,"s_043.ogg",100
Sample,91933,0,"s_060.ogg",100
Sample,91933,0,"s_040.ogg",100
Sample,91933,0,"s_036.ogg",100
Sample,91975,0,"s_062.ogg",100
Sample,92023,0,"s_064.ogg",100
Sample,92072,0,"s_065.ogg",100
Sample,92100,0,"s_028.ogg",100
Sample,92120,0,"s_067.ogg",100
Sample,92169,0,"s_069.ogg",100
Sample,92218,0,"s_071.ogg",100
Sample,92266,0,"s_040.ogg",100
Sample,92266,0,"s_036.ogg",100
Sample,92266,0,"s_043.ogg",100
Sample,92266,0,"s_072.ogg",100
Sample,92308,0,"s_074.ogg",100
Sample,92356,0,"s_076.ogg",100
Sample,92405,0,"s_077.ogg",100
Sample,92433,0,"s_019.ogg",100
Sample,92454,0,"s_079.ogg",100
Sample,92502,0,"s_081.ogg",100
Sample,92551,0,"s_083.ogg",100
Sample,92600,0,"s_043.ogg",100
Sample,92600,0,"s_040.ogg",100
Sample,92600,0,"s_036.ogg",100
Sample,92600,0,"s_084.ogg",100
Sample,92766,0,"s_072.ogg",100
Sample,92766,0,"s_076.ogg",100
Sample,92766,0,"s_028.ogg",100
Sample,92933,0,"s_043.ogg",100
Sample,92933,0,"s_041.ogg",100
Sample,92933,0,"s_077.ogg",100
Sample,92933,0,"s_035.ogg",100
Sample,92975,0,"s_079.ogg",100
Sample,93016,0,"s_081.ogg",100
Sample,93100,0,"s_031.ogg",100
Sample,93266,0,"s_065.ogg",100
Sample,93266,0,"s_041.ogg",100
Sample,93266,0,"s_035.ogg",100
Sample,93266,0,"s_043.ogg",100
Sample,93308,0,"s_076.ogg",100
Sample,93350,0,"s_077.ogg",100
Sample,93433,0,"s_026.ogg",100
Sample,93600,0,"s_071.ogg",100
Sample,93600,0,"s_035.ogg",100
Sample,93600,0,"s_043.ogg",100
Sample,93600,0,"s_041.ogg",100
Sample,93641,0,"s_072.ogg",100
Sample,93683,0,"s_074.ogg",100
Sample,93766,0,"s_019.ogg",100
Sample,93933,0,"s_035.ogg",100
Sample,93933,0,"s_041.ogg",100
Sample,93933,0,"s_067.ogg",100
Sample,93933,0,"s_043.ogg",100
Sample,93975,0,"s_069.ogg",100
Sample,94016,0,"s_071.ogg",100
Sample,94100,0,"s_026.ogg",100
Sample,94266,0,"s_036.ogg",100
Sample,94266,0,"s_040.ogg",100
Sample,94266,0,"s_043.ogg",100
Sample,94308,0,"s_050.ogg",100
Sample,94356,0,"s_052.ogg",100
Sample,94405,0,"s_053.ogg",100
Sample,94433,0,"s_031.ogg",100
Sample,94454,0,"s_055.ogg",100
Sample,94502,0,"s_057.ogg",100
Sample,94551,0,"s_059.ogg",100
Sample,94600,0,"s_060.ogg",100
Sample,94600,0,"s_040.ogg",100
Sample,94600,0,"s_043.ogg",100
Sample,94600,0,"s_036.ogg",100
Sample,94641,0,"s_062.ogg",100
Sample,94690,0,"s_064.ogg",100
Sample,94738,0,"s_065.ogg",100
Sample,94766,0,"s_028.ogg",100
Sample,94787,0,"s_067.ogg",100
Sample,94836,0,"s_069.ogg",100
Sample,94884,0,"s_071.ogg",100
Sample,94933,0,"s_040.ogg",100
Sample,94933,0,"s_043.ogg",100
Sample,94933,0,"s_072.ogg",100
Sample,94933,0,"s_036.ogg",100
Sample,94975,0,"s_074.ogg",100
Sample,95023,0,"s_076.ogg",100
Sample,95072,0,"s_077.ogg",100
Sample,95100,0,"s_019.ogg",100
Sample,95120,0,"s_079.ogg",100
Sample,95169,0,"s_081.ogg",100
Sample,95218,0,"s_083.ogg",100
Sample,95266,0,"s_043.ogg",100
Sample,95266,0,"s_040.ogg",100
Sample,95266,0,"s_084.ogg",100
Sample,95266,0,"s_036.ogg",100
Sample,95433,0,"s_028.ogg",100
Sample,95600,0,"s_066.ogg",100
Sample,95600,0,"s_044.ogg",100
Sample,95600,0,"s_040.ogg",100
Sample,95600,0,"s_035.ogg",100
Sample,95641,0,"s_076.ogg",100
Sample,95683,0,"s_078.ogg",100
Sample,95766,0,"s_028.ogg",100
Sample,95933,0,"s_035.ogg",100
Sample,95933,0,"s_044.ogg",100
Sample,95933,0,"s_062.ogg",100
Sample,95933,0,"s_040.ogg",100
Sample,95975,0,"s_073.ogg",100
Sample,96016,0,"s_074.ogg",100
Sample,96100,0,"s_023.ogg",100
Sample,96266,0,"s_059.ogg",100
Sample,96266,0,"s_040.ogg",100
Sample,96266,0,"s_035.ogg",100
Sample,96266,0,"s_044.ogg",100
Sample,96308,0,"s_069.ogg",100
Sample,96350,0,"s_071.ogg",100
Sample,96433,0,"s_016.ogg",100
Sample,96600,0,"s_044.ogg",100
Sample,96600,0,"s_040.ogg",100
Sample,96600,0,"s_035.ogg",100
Sample,96600,0,"s_056.ogg",100
Sample,96641,0,"s_066.ogg",100
Sample,96683,0,"s_068.ogg",100
Sample,96766,0,"s_028.ogg",100
Sample,96933,0,"s_037.ogg",100
Sample,96933,0,"s_040.ogg",100
Sample,96975,0,"s_047.ogg",100
Sample,97023,0,"s_049.ogg",100
Sample,97072,0,"s_050.ogg",100
Sample,97100,0,"s_028.ogg",100
Sample,97120,0,"s_052.ogg",100
Sample,97169,0,"s_054.ogg",100
Sample,97218,0,"s_056.ogg",100
Sample,97266,0,"s_057.ogg",100
Sample,97266,0,"s_037.ogg",100
Sample,97266,0,"s_040.ogg",100
Sample,97266,0,"s_045.ogg",100
Sample,97308,0,"s_059.ogg",100
Sample,97356,0,"s_061.ogg",100
Sample,97405,0,"s_062.ogg",100
Sample,97433,0,"s_025.ogg",100
Sample,97454,0,"s_064.ogg",100
Sample,97502,0,"s_066.ogg",100
Sample,97551,0,"s_068.ogg",100
Sample,97600,0,"s_037.ogg",100
Sample,97600,0,"s_045.ogg",100
Sample,97600,0,"s_040.ogg",100
Sample,97600,0,"s_069.ogg",100
Sample,97641,0,"s_071.ogg",100
Sample,97690,0,"s_073.ogg",100
Sample,97738,0,"s_074.ogg",100
Sample,97766,0,"s_016.ogg",100
Sample,97787,0,"s_076.ogg",100
Sample,97836,0,"s_078.ogg",100
Sample,97884,0,"s_080.ogg",100
Sample,97933,0,"s_037.ogg",100
Sample,97933,0,"s_040.ogg",100
Sample,97933,0,"s_045.ogg",100
Sample,97933,0,"s_081.ogg",100
Sample,98100,0,"s_073.ogg",100
Sample,98100,0,"s_069.ogg",100
Sample,98100,0,"s_028.ogg",100
Sample,98266,0,"s_066.ogg",100
Sample,98266,0,"s_035.ogg",100
Sample,98266,0,"s_044.ogg",100
Sample,98266,0,"s_040.ogg",100
Sample,98308,0,"s_076.ogg",100
Sample,98350,0,"s_078.ogg",100
Sample,98433,0,"s_028.ogg",100
Sample,98600,0,"s_071.ogg",100
Sample,98600,0,"s_044.ogg",100
Sample,98600,0,"s_035.ogg",100
Sample,98600,0,"s_040.ogg",100
Sample,98641,0,"s_073.ogg",100
Sample,98683,0,"s_074.ogg",100
Sample,98766,0,"s_023.ogg",100
Sample,98933,0,"s_040.ogg",100
Sample,98933,0,"s_059.ogg",100
Sample,98933,0,"s_044.ogg",100
Sample,98933,0,"s_035.ogg",100
Sample,98975,0,"s_069.ogg",100
Sample,99016,0,"s_071.ogg",100
Sample,99100,0,"s_016.ogg",100
Sample,99266,0,"s_040.ogg",100
Sample,99266,0,"s_064.ogg",100
Sample,99266,0,"s_035.ogg",100
Sample,99266,0,"s_044.ogg",100
Sample,99308,0,"s_066.ogg",100
Sample,99350,0,"s_068.ogg",100
Sample,99433,0,"s_028.ogg",100
Sample,99600,0,"s_040.ogg",100
Sample,99600,0,"s_037.ogg",100
Sample,99641,0,"s_047.ogg",100
Sample,99690,0,"s_049.ogg",100
Sample,99738,0,"s_050.ogg",100
Sample,99766,0,"s_028.ogg",100
Sample,99787,0,"s_052.ogg",100
Sample,99836,0,"s_054.ogg",100
Sample,99884,0,"s_056.ogg",100
Sample,99933,0,"s_045.ogg",100
Sample,99933,0,"s_037.ogg",100
Sample,99933,0,"s_040.ogg",100
Sample,99933,0,"s_057.ogg",100
Sample,99975,0,"s_059.ogg",100
Sample,100023,0,"s_061.ogg",100
Sample,100072,0,"s_062.ogg",100
Sample,100100,0,"s_025.ogg",100
Sample,100120,0,"s_064.ogg",100
Sample,100169,0,"s_066.ogg",100
Sample,100218,0,"s_068.ogg",100
Sample,100266,0,"s_037.ogg",100
Sample,100266,0,"s_069.ogg",100
Sample,100266,0,"s_040.ogg",100
Sample,100266,0,"s_045.ogg",100
Sample,100329,0,"s_071.ogg",100
Sample,100398,0,"s_073.ogg",100
Sample,100433,0,"s_016.ogg",100
Sample,100461,0,"s_074.ogg",100
Sample,100530,0,"s_076.ogg",100
Sample,100600,0,"s_037.ogg",100
Sample,100600,0,"s_045.ogg",100
Sample,100600,0,"s_040.ogg",100
Sample,100600,0,"s_078.ogg",100
Sample,100662,0,"s_076.ogg",100
Sample,100731,0,"s_075.ogg",100
Sample,100766,0,"s_028.ogg",100
Sample,100794,0,"s_076.ogg",100
Sample,100863,0,"s_078.ogg",100
Sample,100933,0,"s_080.ogg",100
Sample,101016,0,"s_076.ogg",100
Sample,101100,0,"s_044.ogg",100
Sample,101100,0,"s_076.ogg",100
Sample,101100,0,"s_047.ogg",100
Sample,101183,0,"s_076.ogg",100
Sample,101266,0,"s_068.ogg",100
Sample,101350,0,"s_076.ogg",100
Sample,101433,0,"s_044.ogg",100
Sample,101433,0,"s_047.ogg",100
Sample,101433,0,"s_076.ogg",100
Sample,101516,0,"s_076.ogg",100
Sample,101600,0,"s_080.ogg",100
Sample,101600,0,"s_047.ogg",100
Sample,101683,0,"s_076.ogg",100
Sample,101766,0,"s_052.ogg",100
Sample,101766,0,"s_076.ogg",100
Sample,101850,0,"s_076.ogg",100
Sample,101933,0,"s_068.ogg",100
Sample,101933,0,"m_050.ogg",100
Sample,102016,0,"s_076.ogg",100
Sample,102100,0,"s_076.ogg",100
Sample,102183,0,"s_044.ogg",100
Sample,102183,0,"s_076.ogg",100
Sample,102183,0,"s_052.ogg",100
Sample,102266,0,"s_081.ogg",100
Sample,102350,0,"s_076.ogg",100
Sample,102433,0,"s_076.ogg",100
Sample,102433,0,"s_045.ogg",100
Sample,102433,0,"s_040.ogg",100
Sample,102516,0,"s_076.ogg",100
Sample,102600,0,"s_069.ogg",100
Sample,102683,0,"s_076.ogg",100
Sample,102766,0,"s_049.ogg",100
Sample,102766,0,"s_045.ogg",100
Sample,102766,0,"s_076.ogg",100
Sample,102850,0,"s_076.ogg",100
Sample,102933,0,"s_081.ogg",100
Sample,102933,0,"s_051.ogg",100
Sample,103016,0,"s_076.ogg",100
Sample,103100,0,"s_049.ogg",100
Sample,103100,0,"s_076.ogg",100
Sample,103183,0,"s_076.ogg",100
Sample,103266,0,"m_045.ogg",100
Sample,103266,0,"s_069.ogg",100
Sample,103350,0,"s_076.ogg",100
Sample,103433,0,"s_076.ogg",100
Sample,103516,0,"s_052.ogg",100
Sample,103516,0,"s_076.ogg",100
Sample,103600,0,"s_080.ogg",100
Sample,103683,0,"s_076.ogg",100
Sample,103766,0,"s_076.ogg",100
Sample,103766,0,"s_040.ogg",100
Sample,103766,0,"s_047.ogg",100
Sample,103850,0,"s_076.ogg",100
Sample,103933,0,"s_068.ogg",100
Sample,104016,0,"s_076.ogg",100
Sample,104100,0,"s_076.ogg",100
Sample,104100,0,"s_040.ogg",100
Sample,104100,0,"s_044.ogg",100
Sample,104183,0,"s_076.ogg",100
Sample,104266,0,"s_047.ogg",100
Sample,104266,0,"s_080.ogg",100
Sample,104350,0,"s_076.ogg",100
Sample,104433,0,"s_052.ogg",100
Sample,104433,0,"s_076.ogg",100
Sample,104516,0,"s_076.ogg",100
Sample,104600,0,"m_050.ogg",100
Sample,104600,0,"s_068.ogg",100
Sample,104683,0,"s_076.ogg",100
Sample,104766,0,"s_076.ogg",100
Sample,104850,0,"s_044.ogg",100
Sample,104850,0,"s_076.ogg",100
Sample,104850,0,"s_052.ogg",100
Sample,104933,0,"s_081.ogg",100
Sample,105016,0,"s_076.ogg",100
Sample,105100,0,"s_045.ogg",100
Sample,105100,0,"s_076.ogg",100
Sample,105100,0,"s_040.ogg",100
Sample,105183,0,"s_076.ogg",100
Sample,105266,0,"s_069.ogg",100
Sample,105350,0,"s_076.ogg",100
Sample,105433,0,"s_076.ogg",100
Sample,105433,0,"s_045.ogg",100
Sample,105433,0,"s_040.ogg",100
Sample,105516,0,"s_076.ogg",100
Sample,105600,0,"s_081.ogg",100
Sample,105600,0,"s_051.ogg",100
Sample,105683,0,"s_076.ogg",100
Sample,105766,0,"s_076.ogg",100
Sample,105766,0,"s_049.ogg",100
Sample,105850,0,"s_076.ogg",100
Sample,105933,0,"s_069.ogg",100
Sample,105933,0,"m_045.ogg",100
Sample,106016,0,"s_076.ogg",100
Sample,106100,0,"s_076.ogg",100
Sample,106183,0,"s_052.ogg",100
Sample,106183,0,"s_076.ogg",100
Sample,106266,0,"s_080.ogg",100
Sample,106350,0,"s_076.ogg",100
Sample,106433,0,"s_040.ogg",100
Sample,106433,0,"s_050.ogg",100
Sample,106433,0,"s_076.ogg",100
Sample,106516,0,"s_076.ogg",100
Sample,106600,0,"s_068.ogg",100
Sample,106683,0,"s_076.ogg",100
Sample,106766,0,"s_050.ogg",100
Sample,106766,0,"s_076.ogg",100
Sample,106766,0,"s_040.ogg",100
Sample,106850,0,"s_076.ogg",100
Sample,106933,0,"s_080.ogg",100
Sample,106933,0,"s_047.ogg",100
Sample,107016,0,"s_076.ogg",100
Sample,107100,0,"s_052.ogg",100
Sample,107100,0,"s_076.ogg",100
Sample,107183,0,"s_076.ogg",100
Sample,107266,0,"m_047.ogg",100
Sample,107266,0,"s_068.ogg",100
Sample,107350,0,"s_076.ogg",100
Sample,107433,0,"s_076.ogg",100
Sample,107516,0,"s_052.ogg",100
Sample,107516,0,"s_076.ogg",100
Sample,107600,0,"s_080.ogg",100
Sample,107600,0,"s_063.ogg",100
Sample,107683,0,"s_076.ogg",100
Sample,107766,0,"s_064.ogg",100
Sample,107766,0,"s_076.ogg",100
Sample,107850,0,"s_076.ogg",100
Sample,107933,0,"s_068.ogg",100
Sample,107933,0,"m_059.ogg",100
Sample,108016,0,"s_076.ogg",100
Sample,108100,0,"s_076.ogg",100
Sample,108183,0,"s_064.ogg",100
Sample,108183,0,"s_076.ogg",100
Sample,108266,0,"s_080.ogg",100
Sample,108266,0,"s_059.ogg",100
Sample,108350,0,"s_076.ogg",100
Sample,108433,0,"s_056.ogg",100
Sample,108433,0,"s_076.ogg",100
Sample,108516,0,"s_076.ogg",100
Sample,108600,0,"s_068.ogg",100
Sample,108600,0,"m_062.ogg",100
Sample,108683,0,"s_076.ogg",100
Sample,108766,0,"s_076.ogg",100
Sample,108850,0,"s_076.ogg",100
Sample,108850,0,"s_064.ogg",100
Sample,108933,0,"s_080.ogg",100
Sample,109016,0,"s_076.ogg",100
Sample,109100,0,"s_076.ogg",100
Sample,109183,0,"s_076.ogg",100
Sample,109266,0,"s_068.ogg",100
Sample,109350,0,"s_076.ogg",100
Sample,109433,0,"s_076.ogg",100
Sample,109516,0,"s_076.ogg",100
Sample,109600,0,"s_080.ogg",100
Sample,109683,0,"s_076.ogg",100
Sample,109766,0,"s_076.ogg",100
Sample,109850,0,"s_076.ogg",100
Sample,109933,0,"s_068.ogg",100
Sample,110016,0,"s_076.ogg",100
Sample,110100,0,"s_076.ogg",100
Sample,110183,0,"s_076.ogg",100
Sample,110266,0,"s_080.ogg",100
Sample,110350,0,"s_076.ogg",100
Sample,110433,0,"s_076.ogg",100
Sample,110516,0,"s_076.ogg",100
Sample,110600,0,"s_068.ogg",100
Sample,110683,0,"s_076.ogg",100
Sample,110766,0,"s_076.ogg",100
Sample,110850,0,"s_076.ogg",100
Sample,110933,0,"s_080.ogg",100
Sample,111016,0,"s_076.ogg",100
Sample,111100,0,"s_076.ogg",100
Sample,111183,0,"s_076.ogg",100
Sample,111266,0,"s_068.ogg",100
Sample,111350,0,"s_076.ogg",100
Sample,111433,0,"s_076.ogg",100
Sample,111516,0,"s_076.ogg",100
Sample,111600,0,"s_081.ogg",100
Sample,111800,0,"s_045.ogg",100
Sample,111800,0,"s_040.ogg",100
Sample,112000,0,"m_057.ogg",100
Sample,112200,0,"s_040.ogg",100
Sample,112200,0,"s_045.ogg",100
Sample,112400,0,"m_060.ogg",100
Sample,112600,0,"s_040.ogg",100
Sample,112600,0,"s_048.ogg",100
Sample,113000,0,"s_048.ogg",100
Sample,113000,0,"s_040.ogg",100
Sample,113200,0,"s_059.ogg",100
Sample,113400,0,"s_050.ogg",100
Sample,113400,0,"s_044.ogg",100
Sample,113500,0,"s_060.ogg",100
Sample,113600,0,"s_062.ogg",100
Sample,113800,0,"s_044.ogg",100
Sample,113800,0,"s_050.ogg",100
Sample,113900,0,"s_065.ogg",100
Sample,114000,0,"s_064.ogg",100
Sample,114200,0,"s_040.ogg",100
Sample,114200,0,"s_050.ogg",100
Sample,114300,0,"s_052.ogg",100
Sample,114400,0,"s_054.ogg",100
Sample,114600,0,"s_044.ogg",100
Sample,114600,0,"s_050.ogg",100
Sample,114700,0,"s_056.ogg",100
Sample,114800,0,"s_057.ogg",100
Sample,114850,0,"s_059.ogg",100
Sample,114900,0,"s_057.ogg",100
Sample,115000,0,"s_045.ogg",100
Sample,115000,0,"s_040.ogg",100
Sample,115100,0,"s_056.ogg",100
Sample,115200,0,"s_057.ogg",100
Sample,115400,0,"s_045.ogg",100
Sample,115400,0,"s_040.ogg",100
Sample,115500,0,"s_059.ogg",100
Sample,115600,0,"m_060.ogg",100
Sample,115800,0,"s_040.ogg",100
Sample,115800,0,"s_045.ogg",100
Sample,116200,0,"s_040.ogg",100
Sample,116200,0,"s_048.ogg",100
Sample,116400,0,"s_059.ogg",100
Sample,116600,0,"s_040.ogg",100
Sample,116600,0,"s_050.ogg",100
Sample,116700,0,"s_060.ogg",100
Sample,116800,0,"s_062.ogg",100
Sample,117000,0,"s_040.ogg",100
Sample,117000,0,"s_044.ogg",100
Sample,117100,0,"s_065.ogg",100
Sample,117200,0,"s_064.ogg",100
Sample,117400,0,"s_050.ogg",100
Sample,117400,0,"s_044.ogg",100
Sample,117500,0,"s_052.ogg",100
Sample,117600,0,"s_054.ogg",100
Sample,117800,0,"s_040.ogg",100
Sample,117800,0,"s_050.ogg",100
Sample,117900,0,"s_056.ogg",100
Sample,118000,0,"s_057.ogg",100
Sample,118050,0,"s_059.ogg",100
Sample,118100,0,"s_057.ogg",100
Sample,118200,0,"s_040.ogg",100
Sample,118200,0,"s_045.ogg",100
Sample,118300,0,"s_056.ogg",100
Sample,118400,0,"s_057.ogg",100
Sample,118600,0,"s_045.ogg",100
Sample,118600,0,"s_049.ogg",100
Sample,118700,0,"s_059.ogg",100
Sample,118800,0,"s_057.ogg",100
Sample,118850,0,"s_059.ogg",100
Sample,118900,0,"s_060.ogg",100
Sample,119000,0,"s_040.ogg",100
Sample,119000,0,"s_048.ogg",100
Sample,119200,0,"m_060.ogg",100
Sample,119400,0,"s_048.ogg",100
Sample,119400,0,"s_040.ogg",100
Sample,119600,0,"s_059.ogg",100
Sample,119800,0,"s_044.ogg",100
Sample,119800,0,"s_050.ogg",100
Sample,119900,0,"s_060.ogg",100
Sample,120000,0,"s_062.ogg",100
Sample,120200,0,"s_040.ogg",100
Sample,120200,0,"s_044.ogg",100
Sample,120300,0,"s_065.ogg",100
Sample,120400,0,"s_064.ogg",100
Sample,121283,0,"s_028.ogg",100
Sample,121283,0,"s_040.ogg",100
Sample,121450,0,"s_042.ogg",100
Sample,121450,0,"s_030.ogg",100
Sample,121616,0,"s_032.ogg",100
Sample,121616,0,"s_044.ogg",100
Sample,121783,0,"s_033.ogg",100
Sample,121783,0,"s_045.ogg",100
Sample,121866,0,"s_023.ogg",100
Sample,121950,0,"s_047.ogg",100
Sample,121950,0,"s_040.ogg",100
Sample,121950,0,"s_035.ogg",100
Sample,122116,0,"s_046.ogg",100
Sample,122116,0,"s_034.ogg",100
Sample,122283,0,"s_035.ogg",100
Sample,122283,0,"s_047.ogg",100
Sample,122450,0,"s_044.ogg",100
Sample,122450,0,"s_032.ogg",100
Sample,122616,0,"s_033.ogg",100
Sample,122616,0,"s_045.ogg",100
Sample,122783,0,"s_047.ogg",100
Sample,122783,0,"s_035.ogg",100
Sample,122950,0,"s_049.ogg",100
Sample,122950,0,"s_037.ogg",100
Sample,123116,0,"s_038.ogg",100
Sample,123116,0,"s_050.ogg",100
Sample,123200,0,"s_033.ogg",100
Sample,123283,0,"s_052.ogg",100
Sample,123283,0,"s_045.ogg",100
Sample,123283,0,"s_040.ogg",100
Sample,123450,0,"s_039.ogg",100
Sample,123450,0,"s_051.ogg",100
Sample,123616,0,"s_052.ogg",100
Sample,123616,0,"s_040.ogg",100
Sample,123783,0,"s_037.ogg",100
Sample,123783,0,"s_049.ogg",100
Sample,123950,0,"s_038.ogg",100
Sample,123950,0,"s_050.ogg",100
Sample,124116,0,"s_042.ogg",100
Sample,124116,0,"s_054.ogg",100
Sample,124283,0,"s_035.ogg",100
Sample,124283,0,"s_047.ogg",100
Sample,124450,0,"s_050.ogg",100
Sample,124450,0,"s_038.ogg",100
Sample,124616,0,"s_032.ogg",100
Sample,124616,0,"s_044.ogg",100
Sample,124783,0,"s_035.ogg",100
Sample,124783,0,"s_047.ogg",100
Sample,124950,0,"s_028.ogg",100
Sample,124950,0,"s_040.ogg",100
Sample,125116,0,"s_044.ogg",100
Sample,125116,0,"s_032.ogg",100
Sample,125283,0,"s_045.ogg",100
Sample,125283,0,"s_033.ogg",100
Sample,125450,0,"s_037.ogg",100
Sample,125450,0,"s_049.ogg",100
Sample,125616,0,"s_040.ogg",100
Sample,125616,0,"s_028.ogg",100
Sample,125783,0,"s_033.ogg",100
Sample,125783,0,"s_045.ogg",100
Sample,125950,0,"s_037.ogg",100
Sample,125950,0,"s_025.ogg",100
Sample,126116,0,"s_040.ogg",100
Sample,126116,0,"s_028.ogg",100
Sample,126200,0,"s_021.ogg",100
Sample,126283,0,"s_033.ogg",100
Sample,126283,0,"s_045.ogg",100
Sample,126366,0,"s_025.ogg",100
Sample,126450,0,"s_037.ogg",100
Sample,126450,0,"s_049.ogg",100
Sample,126533,0,"s_020.ogg",100
Sample,126533,0,"s_016.ogg",100
Sample,126533,0,"s_023.ogg",100
Sample,126616,0,"s_047.ogg",100
Sample,126616,0,"s_044.ogg",100
Sample,126616,0,"s_052.ogg",100
Sample,126616,0,"s_040.ogg",100
Sample,126700,0,"s_018.ogg",100
Sample,126783,0,"s_054.ogg",100
Sample,126783,0,"s_042.ogg",100
Sample,126866,0,"s_020.ogg",100
Sample,126950,0,"s_044.ogg",100
Sample,126950,0,"s_056.ogg",100
Sample,127033,0,"s_033.ogg",100
Sample,127116,0,"s_057.ogg",100
Sample,127116,0,"s_045.ogg",100
Sample,127200,0,"s_035.ogg",100
Sample,127200,0,"s_028.ogg",100
Sample,127283,0,"s_052.ogg",100
Sample,127283,0,"s_047.ogg",100
Sample,127283,0,"s_059.ogg",100
Sample,127366,0,"s_022.ogg",100
Sample,127450,0,"s_058.ogg",100
Sample,127450,0,"s_046.ogg",100
Sample,127533,0,"s_035.ogg",100
Sample,127616,0,"s_052.ogg",100
Sample,127616,0,"s_047.ogg",100
Sample,127616,0,"s_059.ogg",100
Sample,127700,0,"s_020.ogg",100
Sample,127783,0,"s_056.ogg",100
Sample,127783,0,"s_044.ogg",100
Sample,127866,0,"s_033.ogg",100
Sample,127866,0,"s_028.ogg",100
Sample,127866,0,"s_025.ogg",100
Sample,127950,0,"s_052.ogg",100
Sample,127950,0,"s_049.ogg",100
Sample,127950,0,"s_045.ogg",100
Sample,127950,0,"s_057.ogg",100
Sample,128033,0,"s_023.ogg",100
Sample,128116,0,"s_047.ogg",100
Sample,128116,0,"s_059.ogg",100
Sample,128200,0,"s_025.ogg",100
Sample,128283,0,"s_061.ogg",100
Sample,128283,0,"s_049.ogg",100
Sample,128366,0,"s_038.ogg",100
Sample,128450,0,"s_062.ogg",100
Sample,128450,0,"s_050.ogg",100
Sample,128533,0,"s_028.ogg",100
Sample,128533,0,"s_040.ogg",100
Sample,128616,0,"s_052.ogg",100
Sample,128616,0,"s_057.ogg",100
Sample,128616,0,"s_064.ogg",100
Sample,128700,0,"s_027.ogg",100
Sample,128783,0,"s_063.ogg",100
Sample,128783,0,"s_051.ogg",100
Sample,128866,0,"s_028.ogg",100
Sample,128866,0,"s_040.ogg",100
Sample,128950,0,"s_064.ogg",100
Sample,128950,0,"s_057.ogg",100
Sample,128950,0,"s_052.ogg",100
Sample,129033,0,"s_025.ogg",100
Sample,129116,0,"s_061.ogg",100
Sample,129116,0,"s_049.ogg",100
Sample,129200,0,"s_040.ogg",100
Sample,129200,0,"s_035.ogg",100
Sample,129200,0,"s_028.ogg",100
Sample,129283,0,"s_064.ogg",100
Sample,129283,0,"s_052.ogg",100
Sample,129283,0,"s_056.ogg",100
Sample,129283,0,"s_059.ogg",100
Sample,129366,0,"s_042.ogg",100
Sample,129450,0,"s_066.ogg",100
Sample,129450,0,"s_054.ogg",100
Sample,129533,0,"s_044.ogg",100
Sample,129616,0,"s_056.ogg",100
Sample,129616,0,"s_068.ogg",100
Sample,129700,0,"s_045.ogg",100
Sample,129783,0,"s_069.ogg",100
Sample,129783,0,"s_057.ogg",100
Sample,129866,0,"s_035.ogg",100
Sample,129866,0,"s_047.ogg",100
Sample,129950,0,"s_059.ogg",100
Sample,129950,0,"s_064.ogg",100
Sample,129950,0,"s_071.ogg",100
Sample,130033,0,"s_034.ogg",100
Sample,130116,0,"s_070.ogg",100
Sample,130116,0,"s_058.ogg",100
Sample,130200,0,"s_047.ogg",100
Sample,130200,0,"s_035.ogg",100
Sample,130283,0,"s_064.ogg",100
Sample,130283,0,"s_071.ogg",100
Sample,130283,0,"s_059.ogg",100
Sample,130366,0,"s_032.ogg",100
Sample,130450,0,"s_068.ogg",100
Sample,130450,0,"s_056.ogg",100
Sample,130533,0,"s_033.ogg",100
Sample,130533,0,"s_040.ogg",100
Sample,130533,0,"s_045.ogg",100
Sample,130616,0,"s_064.ogg",100
Sample,130616,0,"s_069.ogg",100
Sample,130616,0,"s_061.ogg",100
Sample,130616,0,"s_057.ogg",100
Sample,130700,0,"s_047.ogg",100
Sample,130783,0,"s_071.ogg",100
Sample,130783,0,"s_059.ogg",100
Sample,130866,0,"s_049.ogg",100
Sample,130950,0,"s_061.ogg",100
Sample,130950,0,"s_073.ogg",100
Sample,131033,0,"s_038.ogg",100
Sample,131116,0,"s_062.ogg",100
Sample,131116,0,"s_074.ogg",100
Sample,131200,0,"s_052.ogg",100
Sample,131200,0,"s_040.ogg",100
Sample,131283,0,"s_064.ogg",100
Sample,131283,0,"s_076.ogg",100
Sample,131283,0,"s_069.ogg",100
Sample,131366,0,"s_039.ogg",100
Sample,131450,0,"s_063.ogg",100
Sample,131450,0,"s_075.ogg",100
Sample,131533,0,"s_052.ogg",100
Sample,131533,0,"s_040.ogg",100
Sample,131616,0,"s_076.ogg",100
Sample,131616,0,"s_069.ogg",100
Sample,131616,0,"s_064.ogg",100
Sample,131700,0,"s_049.ogg",100
Sample,131783,0,"s_073.ogg",100
Sample,131783,0,"s_061.ogg",100
Sample,131866,0,"s_050.ogg",100
Sample,131950,0,"s_062.ogg",100
Sample,131950,0,"s_074.ogg",100
Sample,132033,0,"s_054.ogg",100
Sample,132116,0,"s_066.ogg",100
Sample,132116,0,"s_078.ogg",100
Sample,132200,0,"s_047.ogg",100
Sample,132283,0,"s_059.ogg",100
Sample,132283,0,"s_071.ogg",100
Sample,132366,0,"s_038.ogg",100
Sample,132450,0,"s_074.ogg",100
Sample,132450,0,"s_062.ogg",100
Sample,132533,0,"s_032.ogg",100
Sample,132616,0,"s_056.ogg",100
Sample,132616,0,"s_068.ogg",100
Sample,132700,0,"s_035.ogg",100
Sample,132783,0,"s_071.ogg",100
Sample,132783,0,"s_059.ogg",100
Sample,132866,0,"s_040.ogg",100
Sample,132950,0,"s_052.ogg",100
Sample,132950,0,"s_064.ogg",100
Sample,133033,0,"s_032.ogg",100
Sample,133116,0,"s_068.ogg",100
Sample,133116,0,"s_056.ogg",100
Sample,133200,0,"s_037.ogg",100
Sample,133283,0,"s_061.ogg",100
Sample,133283,0,"s_049.ogg",100
Sample,133366,0,"s_028.ogg",100
Sample,133450,0,"s_064.ogg",100
Sample,133450,0,"s_052.ogg",100
Sample,133533,0,"s_021.ogg",100
Sample,133616,0,"s_045.ogg",100
Sample,133616,0,"s_057.ogg",100
Sample,133700,0,"s_025.ogg",100
Sample,133783,0,"s_049.ogg",100
Sample,133783,0,"s_061.ogg",100
Sample,133866,0,"s_018.ogg",100
Sample,133950,0,"s_054.ogg",100
Sample,133950,0,"s_042.ogg",100
Sample,134033,0,"s_033.ogg",100
Sample,134116,0,"s_057.ogg",100
Sample,134116,0,"s_045.ogg",100
Sample,134200,0,"s_014.ogg",100
Sample,134283,0,"s_038.ogg",100
Sample,134283,0,"s_050.ogg",100
Sample,134366,0,"s_018.ogg",100
Sample,134450,0,"s_054.ogg",100
Sample,134450,0,"s_042.ogg",100
Sample,134533,0,"s_023.ogg",100
Sample,134616,0,"s_047.ogg",100
Sample,134616,0,"s_035.ogg",100
Sample,134700,0,"s_014.ogg",100
Sample,134783,0,"s_050.ogg",100
Sample,134783,0,"s_038.ogg",100
Sample,134866,0,"s_008.ogg",100
Sample,134950,0,"s_044.ogg",100
Sample,134950,0,"s_032.ogg",100
Sample,135033,0,"s_023.ogg",100
Sample,135116,0,"s_047.ogg",100
Sample,135116,0,"s_035.ogg",100
Sample,135283,0,"s_040.ogg",100
Sample,135283,0,"s_028.ogg",100
Sample,135450,0,"s_032.ogg",100
Sample,135450,0,"s_044.ogg",100
Sample,135616,0,"s_037.ogg",100
Sample,135616,0,"s_025.ogg",100
Sample,135783,0,"s_028.ogg",100
Sample,135783,0,"s_040.ogg",100
Sample,135866,0,"s_021.ogg",100
Sample,135950,0,"s_033.ogg",100
Sample,136033,0,"s_025.ogg",100
Sample,136116,0,"s_037.ogg",100
Sample,136200,0,"s_018.ogg",100
Sample,136283,0,"s_030.ogg",100
Sample,136366,0,"s_021.ogg",100
Sample,136450,0,"s_033.ogg",100
Sample,136533,0,"s_002.ogg",100
Sample,136533,0,"s_026.ogg",100
Sample,137133,0,"s_050.ogg",100
Sample,137133,0,"s_054.ogg",100
Sample,137133,0,"s_042.ogg",100
Sample,137283,0,"m_030.ogg",100
Sample,137283,0,"m_042.ogg",100
Sample,137283,0,"m_050.ogg",100
Sample,137283,0,"m_054.ogg",100
Sample,137733,0,"s_047.ogg",100
Sample,137733,0,"s_044.ogg",100
Sample,137733,0,"s_056.ogg",100
Sample,137733,0,"s_050.ogg",100
Sample,137883,0,"m_047.ogg",100
Sample,137883,0,"m_044.ogg",100
Sample,137883,0,"m_056.ogg",100
Sample,137883,0,"m_050.ogg",100
Sample,137883,0,"m_035.ogg",100
Sample,137883,0,"m_040.ogg",100
Sample,138333,0,"s_045.ogg",100
Sample,138333,0,"s_057.ogg",100
Sample,138333,0,"s_049.ogg",100
Sample,138333,0,"s_052.ogg",100
Sample,138483,0,"m_049.ogg",100
Sample,138483,0,"m_040.ogg",100
Sample,138483,0,"m_028.ogg",100
Sample,138483,0,"m_057.ogg",100
Sample,138483,0,"m_052.ogg",100
Sample,138483,0,"m_045.ogg",100
Sample,139533,0,"s_052.ogg",100
Sample,139533,0,"s_064.ogg",100
Sample,139533,0,"s_069.ogg",100
Sample,139533,0,"s_057.ogg",100
Sample,139533,0,"s_061.ogg",100
Sample,139533,0,"s_049.ogg",100
Sample,139833,0,"s_069.ogg",100
Sample,139833,0,"s_061.ogg",100
Sample,139833,0,"s_052.ogg",100
Sample,139833,0,"s_081.ogg",100
Sample,139833,0,"s_057.ogg",100
Sample,139833,0,"s_064.ogg",100
Sample,140133,0,"s_033.ogg",100
Sample,140133,0,"s_045.ogg",100

[TimingPoints]
0,333.333333333335,4,2,0,100,1,0
14666,500,4,2,0,100,1,0
14666,-66.6666666666667,4,2,0,100,0,0
16666,400,4,2,0,100,1,0
16666,-83.3333333333333,4,2,0,100,0,0
18266.667,333.333333333334,4,2,0,100,1,0
111600,400,4,2,0,100,1,0
111600,-83.3333333333333,4,2,0,100,0,0
121200,333.333333333334,4,2,0,100,1,0
136533,300,4,2,0,100,1,0
136533,-111.111111111111,4,2,0,100,0,0

[HitObjects]
230,192,1333,5,0,0:0:0:0:m_035.ogg
486,192,1666,1,0,0:0:0:0:m_040.ogg
128,192,2000,1,0,0:0:0:0:s_028.ogg
384,192,2166,1,0,0:0:0:0:s_044.ogg
76,192,2333,1,0,0:0:0:0:s_038.ogg
332,192,2500,1,0,0:0:0:0:s_040.ogg
179,192,2666,1,0,0:0:0:0:m_033.ogg
435,192,3000,1,0,0:0:0:0:m_040.ogg
76,192,3333,1,0,0:0:0:0:s_028.ogg
332,192,3500,1,0,0:0:0:0:s_036.ogg
25,192,3666,1,0,0:0:0:0:s_033.ogg
281,192,3833,1,0,0:0:0:0:s_045.ogg
230,192,4000,1,0,0:0:0:0:m_035.ogg
486,192,4333,1,0,0:0:0:0:m_040.ogg
128,192,4666,1,0,0:0:0:0:s_028.ogg
384,192,4833,1,0,0:0:0:0:s_044.ogg
76,192,5000,1,0,0:0:0:0:s_038.ogg
332,192,5166,1,0,0:0:0:0:s_040.ogg
179,192,5333,1,0,0:0:0:0:m_033.ogg
435,192,5666,1,0,0:0:0:0:m_048.ogg
76,192,6000,1,0,0:0:0:0:s_028.ogg
332,192,6166,1,0,0:0:0:0:s_047.ogg
25,192,6333,1,0,0:0:0:0:s_033.ogg
281,192,6500,1,0,0:0:0:0:s_036.ogg
230,192,6666,1,0,0:0:0:0:m_035.ogg
486,192,7000,1,0,0:0:0:0:m_050.ogg
230,192,7333,1,0,0:0:0:0:m_028.ogg
486,192,7666,1,0,0:0:0:0:m_050.ogg
25,192,8000,1,0,0:0:0:0:m_033.ogg
281,192,8333,1,0,0:0:0:0:m_045.ogg
25,192,8666,1,0,0:0:0:0:m_028.ogg
281,192,9000,1,0,0:0:0:0:m_045.ogg
179,192,9333,1,0,0:0:0:0:s_035.ogg
435,192,9500,1,0,0:0:0:0:s_044.ogg
179,192,9666,1,0,0:0:0:0:s_028.ogg
435,192,9833,1,0,0:0:0:0:s_040.ogg
179,192,10000,1,0,0:0:0:0:s_035.ogg
435,192,10166,1,0,0:0:0:0:s_040.ogg
179,192,10333,1,0,0:0:0:0:s_028.ogg
435,192,10500,1,0,0:0:0:0:s_040.ogg
76,192,10666,1,0,0:0:0:0:s_033.ogg
332,192,10833,1,0,0:0:0:0:s_040.ogg
76,192,11000,1,0,0:0:0:0:s_028.ogg
332,192,11166,1,0,0:0:0:0:s_049.ogg
76,192,11333,1,0,0:0:0:0:s_033.ogg
332,192,11500,1,0,0:0:0:0:s_049.ogg
76,192,11666,1,0,0:0:0:0:s_028.ogg
332,192,11833,1,0,0:0:0:0:s_049.ogg
435,192,12000,1,0,0:0:0:0:s_035.ogg
179,192,12166,1,0,0:0:0:0:s_050.ogg
435,192,12333,1,0,0:0:0:0:s_028.ogg
179,192,12500,1,0,0:0:0:0:s_050.ogg
435,192,12666,1,0,0:0:0:0:s_035.ogg
179,192,12833,1,0,0:0:0:0:s_040.ogg
435,192,13000,1,0,0:0:0:0:s_028.ogg
179,192,13166,1,0,0:0:0:0:s_040.ogg
332,192,13333,1,0,0:0:0:0:s_033.ogg
76,192,13500,1,0,0:0:0:0:s_045.ogg
332,192,13666,1,0,0:0:0:0:s_028.ogg
76,192,13833,1,0,0:0:0:0:s_049.ogg
332,192,14000,1,0,0:0:0:0:s_033.ogg
76,192,14166,1,0,0:0:0:0:s_049.ogg
332,192,14333,1,0,0:0:0:0:s_028.ogg
76,192,14500,1,0,0:0:0:0:s_040.ogg
128,192,14666,1,0,0:0:0:0:s_063.ogg
384,192,14916,1,0,0:0:0:0:s_052.ogg
128,192,15166,1,0,0:0:0:0:m_056.ogg
486,192,15541,1,0,0:0:0:0:s_052.ogg
128,192,15666,1,0,0:0:0:0:s_056.ogg
384,192,15916,1,0,0:0:0:0:s_064.ogg
128,192,16166,1,0,0:0:0:0:m_056.ogg
486,192,16541,1,0,0:0:0:0:s_052.ogg
76,192,16666,1,0,0:0:0:0:s_051.ogg
332,192,16866,1,0,0:0:0:0:s_061.ogg
76,192,17066,1,0,0:0:0:0:m_049.ogg
435,192,17366,1,0,0:0:0:0:s_052.ogg
76,192,17466,1,0,0:0:0:0:s_060.ogg
332,192,17666,1,0,0:0:0:0:s_052.ogg
76,192,17866,1,0,0:0:0:0:m_057.ogg
435,192,18166,1,0,0:0:0:0:s_064.ogg
128,192,18266,1,0,0:0:0:0:s_063.ogg
179,192,18433,1,0,0:0:0:0:s_064.ogg
230,192,18600,1,0,0:0:0:0:m_066.ogg
25,192,18850,1,0,0:0:0:0:s_059.ogg
384,192,18933,1,0,0:0:0:0:s_063.ogg
435,192,19100,1,0,0:0:0:0:s_064.ogg
486,192,19266,1,0,0:0:0:0:m_054.ogg
281,192,19516,1,0,0:0:0:0:s_059.ogg
76,192,19600,1,0,0:0:0:0:s_060.ogg
128,192,19766,1,0,0:0:0:0:s_064.ogg
179,192,19933,1,0,0:0:0:0:m_069.ogg
25,192,20183,1,0,0:0:0:0:s_052.ogg
332,192,20266,1,0,0:0:0:0:s_051.ogg
384,192,20433,1,0,0:0:0:0:s_064.ogg
435,192,20600,1,0,0:0:0:0:m_069.ogg
281,192,20850,1,0,0:0:0:0:s_064.ogg
128,192,20933,1,0,0:0:0:0:s_063.ogg
384,192,21100,1,0,0:0:0:0:s_052.ogg
128,192,21266,1,0,0:0:0:0:m_062.ogg
486,192,21516,1,0,0:0:0:0:s_064.ogg
128,192,21600,1,0,0:0:0:0:s_056.ogg
384,192,21766,1,0,0:0:0:0:s_064.ogg
128,192,21933,1,0,0:0:0:0:m_056.ogg
486,192,22183,1,0,0:0:0:0:s_064.ogg
76,192,22266,1,0,0:0:0:0:s_063.ogg
332,192,22433,1,0,0:0:0:0:s_061.ogg
76,192,22600,1,0,0:0:0:0:m_061.ogg
435,192,22850,1,0,0:0:0:0:s_061.ogg
76,192,22933,1,0,0:0:0:0:s_063.ogg
332,192,23100,1,0,0:0:0:0:s_064.ogg
76,192,23266,1,0,0:0:0:0:m_061.ogg
435,192,23516,1,0,0:0:0:0:s_064.ogg
128,192,23600,1,0,0:0:0:0:s_051.ogg
179,192,23766,1,0,0:0:0:0:s_059.ogg
230,192,23933,1,0,0:0:0:0:m_066.ogg
25,192,24183,1,0,0:0:0:0:s_052.ogg
384,192,24266,1,0,0:0:0:0:s_063.ogg
435,192,24433,1,0,0:0:0:0:s_052.ogg
486,192,24600,1,0,0:0:0:0:m_062.ogg
281,192,24850,1,0,0:0:0:0:s_059.ogg
76,192,24933,1,0,0:0:0:0:s_063.ogg
128,192,25100,1,0,0:0:0:0:s_064.ogg
179,192,25266,1,0,0:0:0:0:m_061.ogg
25,192,25516,1,0,0:0:0:0:s_064.ogg
332,192,25600,1,0,0:0:0:0:s_063.ogg
384,192,25766,1,0,0:0:0:0:s_064.ogg
435,192,25933,1,0,0:0:0:0:m_069.ogg
281,192,26183,1,0,0:0:0:0:s_052.ogg
230,192,26266,1,0,0:0:0:0:s_054.ogg
179,192,26433,1,0,0:0:0:0:s_057.ogg
128,192,26600,1,0,0:0:0:0:s_057.ogg
76,192,26766,1,0,0:0:0:0:s_054.ogg
332,192,26933,1,0,0:0:0:0:s_057.ogg
384,192,27100,1,0,0:0:0:0:s_057.ogg
435,192,27266,1,0,0:0:0:0:s_066.ogg
486,192,27433,1,0,0:0:0:0:s_069.ogg
179,192,27600,1,0,0:0:0:0:s_061.ogg
128,192,27766,1,0,0:0:0:0:s_057.ogg
76,192,27933,1,0,0:0:0:0:s_052.ogg
25,192,28100,1,0,0:0:0:0:s_049.ogg
281,192,28266,1,0,0:0:0:0:s_057.ogg
332,192,28433,1,0,0:0:0:0:s_057.ogg
384,192,28600,1,0,0:0:0:0:m_064.ogg
230,192,28933,128,0,29100:0:0:0:0:s_054.ogg
179,192,29266,1,0,0:0:0:0:s_054.ogg
128,192,29433,1,0,0:0:0:0:s_050.ogg
332,192,29600,1,0,0:0:0:0:s_057.ogg
384,192,29766,1,0,0:0:0:0:s_062.ogg
435,192,29933,1,0,0:0:0:0:s_062.ogg
486,192,30100,1,0,0:0:0:0:s_069.ogg
179,192,30266,1,0,0:0:0:0:s_052.ogg
128,192,30433,1,0,0:0:0:0:s_057.ogg
76,192,30600,1,0,0:0:0:0:s_052.ogg
25,192,30766,1,0,0:0:0:0:s_052.ogg
281,192,30933,1,0,0:0:0:0:s_057.ogg
332,192,31100,1,0,0:0:0:0:s_061.ogg
384,192,31266,1,0,0:0:0:0:m_061.ogg
128,192,31600,1,0,0:0:0:0:s_063.ogg
435,192,31766,1,0,0:0:0:0:s_064.ogg
76,192,31933,1,0,0:0:0:0:s_062.ogg
435,192,32100,1,0,0:0:0:0:s_064.ogg
128,192,32266,1,0,0:0:0:0:s_063.ogg
435,192,32433,1,0,0:0:0:0:s_064.ogg
76,192,32600,1,0,0:0:0:0:s_062.ogg
435,192,32766,1,0,0:0:0:0:s_064.ogg
128,192,32933,1,0,0:0:0:0:s_063.ogg
435,192,33100,1,0,0:0:0:0:s_064.ogg
25,192,33266,1,0,0:0:0:0:s_061.ogg
435,192,33433,1,0,0:0:0:0:s_064.ogg
128,192,33600,1,0,0:0:0:0:s_063.ogg
435,192,33766,1,0,0:0:0:0:s_064.ogg
25,192,33933,1,0,0:0:0:0:s_061.ogg
435,192,34100,1,0,0:0:0:0:s_064.ogg
128,192,34266,1,0,0:0:0:0:s_063.ogg
435,192,34433,1,0,0:0:0:0:s_064.ogg
179,192,34600,1,0,0:0:0:0:s_062.ogg
435,192,34766,1,0,0:0:0:0:s_064.ogg
128,192,34933,1,0,0:0:0:0:s_063.ogg
435,192,35100,1,0,0:0:0:0:s_064.ogg
179,192,35266,1,0,0:0:0:0:s_062.ogg
435,192,35433,1,0,0:0:0:0:s_064.ogg
128,192,35600,1,0,0:0:0:0:s_061.ogg
435,192,35766,1,0,0:0:0:0:s_064.ogg
230,192,35933,1,0,0:0:0:0:s_069.ogg
435,192,36100,1,0,0:0:0:0:s_064.ogg
128,192,36266,1,0,0:0:0:0:s_061.ogg
435,192,36433,1,0,0:0:0:0:s_064.ogg
230,192,36600,1,0,0:0:0:0:s_069.ogg
435,192,36766,1,0,0:0:0:0:s_064.ogg
384,192,36933,1,0,0:0:0:0:s_066.ogg
281,192,37100,1,0,0:0:0:0:s_062.ogg
25,192,37266,1,0,0:0:0:0:s_061.ogg
128,192,37433,1,0,0:0:0:0:s_062.ogg
332,192,37600,1,0,0:0:0:0:s_066.ogg
76,192,37766,1,0,0:0:0:0:s_062.ogg
435,192,37933,1,0,0:0:0:0:s_069.ogg
179,192,38100,1,0,0:0:0:0:s_066.ogg
384,192,38266,1,0,0:0:0:0:s_064.ogg
281,192,38433,1,0,0:0:0:0:s_061.ogg
25,192,38600,1,0,0:0:0:0:s_060.ogg
128,192,38766,1,0,0:0:0:0:s_061.ogg
332,192,38933,1,0,0:0:0:0:s_064.ogg
76,192,39100,1,0,0:0:0:0:s_061.ogg
435,192,39266,1,0,0:0:0:0:s_069.ogg
179,192,39433,1,0,0:0:0:0:s_064.ogg
384,192,39600,1,0,0:0:0:0:s_066.ogg
281,192,39766,1,0,0:0:0:0:s_062.ogg
25,192,39933,1,0,0:0:0:0:s_061.ogg
128,192,40100,1,0,0:0:0:0:s_062.ogg
332,192,40266,1,0,0:0:0:0:s_066.ogg
76,192,40433,1,0,0:0:0:0:s_062.ogg
435,192,40600,1,0,0:0:0:0:s_069.ogg
179,192,40766,1,0,0:0:0:0:s_066.ogg
384,192,40933,1,0,0:0:0:0:s_064.ogg
281,192,41100,1,0,0:0:0:0:s_061.ogg
25,192,41266,1,0,0:0:0:0:s_060.ogg
128,192,41433,1,0,0:0:0:0:s_061.ogg
332,192,41600,1,0,0:0:0:0:s_064.ogg
76,192,41766,1,0,0:0:0:0:s_061.ogg
435,192,41933,1,0,0:0:0:0:s_069.ogg
179,192,42100,1,0,0:0:0:0:s_064.ogg
25,192,42433,128,0,42516:0:0:0:0:s_039.ogg
76,192,42766,128,0,42850:0:0:0:0:s_043.ogg
486,192,43100,128,0,43183:0:0:0:0:s_048.ogg
435,192,43433,128,0,43516:0:0:0:0:s_046.ogg
384,192,43766,128,0,43850:0:0:0:0:s_044.ogg
332,192,43933,128,0,44016:0:0:0:0:s_043.ogg
281,192,44100,128,0,44183:0:0:0:0:s_042.ogg
230,192,44433,128,0,44516:0:0:0:0:s_041.ogg
179,192,44600,128,0,44683:0:0:0:0:s_040.ogg
128,192,44766,128,0,44850:0:0:0:0:s_039.ogg
25,192,45100,128,0,45183:0:0:0:0:s_039.ogg
76,192,45433,128,0,45516:0:0:0:0:s_043.ogg
486,192,45766,128,0,45850:0:0:0:0:s_048.ogg
435,192,46100,128,0,46183:0:0:0:0:s_046.ogg
384,192,46433,128,0,46516:0:0:0:0:s_044.ogg
332,192,46600,128,0,46683:0:0:0:0:s_043.ogg
281,192,46766,128,0,46850:0:0:0:0:s_042.ogg
230,192,47100,128,0,47183:0:0:0:0:s_041.ogg
179,192,47266,128,0,47350:0:0:0:0:s_040.ogg
128,192,47433,128,0,47516:0:0:0:0:s_039.ogg
332,192,47600,1,0,0:0:0:0:s_062.ogg
435,192,47766,1,0,0:0:0:0:s_064.ogg
332,192,47933,1,0,0:0:0:0:s_062.ogg
435,192,48100,1,0,0:0:0:0:s_044.ogg
332,192,48266,1,0,0:0:0:0:s_068.ogg
435,192,48433,1,0,0:0:0:0:s_044.ogg
332,192,48600,1,0,0:0:0:0:m_047.ogg
76,192,48933,1,0,0:0:0:0:s_033.ogg
179,192,49100,1,0,0:0:0:0:s_045.ogg
76,192,49266,1,0,0:0:0:0:s_028.ogg
179,192,49433,1,0,0:0:0:0:s_040.ogg
76,192,49600,1,0,0:0:0:0:s_048.ogg
179,192,49766,1,0,0:0:0:0:s_052.ogg
76,192,49933,1,0,0:0:0:0:m_049.ogg
332,192,50266,1,0,0:0:0:0:s_068.ogg
435,192,50433,1,0,0:0:0:0:s_040.ogg
332,192,50600,1,0,0:0:0:0:s_062.ogg
435,192,50766,1,0,0:0:0:0:s_044.ogg
332,192,50933,1,0,0:0:0:0:s_062.ogg
435,192,51100,1,0,0:0:0:0:s_044.ogg
332,192,51266,1,0,0:0:0:0:m_047.ogg
76,192,51600,1,0,0:0:0:0:s_033.ogg
179,192,51766,1,0,0:0:0:0:s_045.ogg
76,192,51933,1,0,0:0:0:0:s_028.ogg
179,192,52100,1,0,0:0:0:0:s_045.ogg
76,192,52266,1,0,0:0:0:0:s_048.ogg
179,192,52433,1,0,0:0:0:0:s_052.ogg
76,192,52600,1,0,0:0:0:0:m_049.ogg
486,192,52933,128,0,53016:0:0:0:0:s_062.ogg
25,192,53266,1,0,0:0:0:0:m_059.ogg
332,192,53766,1,0,0:0:0:0:s_061.ogg
435,192,53933,1,0,0:0:0:0:s_062.ogg
332,192,54100,1,0,0:0:0:0:s_059.ogg
486,192,54266,128,0,54350:0:0:0:0:s_061.ogg
25,192,54600,1,0,0:0:0:0:m_057.ogg
76,192,55100,1,0,0:0:0:0:s_059.ogg
179,192,55266,1,0,0:0:0:0:s_061.ogg
76,192,55433,1,0,0:0:0:0:s_057.ogg
332,192,55600,1,0,0:0:0:0:s_056.ogg
384,192,55766,1,0,0:0:0:0:s_057.ogg
435,192,55933,1,0,0:0:0:0:s_059.ogg
486,192,56100,1,0,0:0:0:0:s_061.ogg
25,192,56266,1,0,0:0:0:0:s_062.ogg
76,192,56433,1,0,0:0:0:0:s_064.ogg
128,192,56600,1,0,0:0:0:0:s_066.ogg
179,192,56766,1,0,0:0:0:0:s_068.ogg
332,192,56933,1,0,0:0:0:0:s_069.ogg
281,192,57100,1,0,0:0:0:0:s_068.ogg
384,192,57266,1,0,0:0:0:0:s_069.ogg
435,192,57433,1,0,0:0:0:0:s_071.ogg
230,192,57600,1,0,0:0:0:0:s_073.ogg
179,192,57766,1,0,0:0:0:0:s_071.ogg
230,192,57933,1,0,0:0:0:0:s_073.ogg
128,192,58100,1,0,0:0:0:0:s_069.ogg
486,192,58266,128,0,58433:0:0:0:0:s_062.ogg
25,192,58600,1,0,0:0:0:0:m_059.ogg
281,192,59100,1,0,0:0:0:0:s_061.ogg
384,192,59266,1,0,0:0:0:0:s_062.ogg
281,192,59433,1,0,0:0:0:0:s_059.ogg
486,192,59600,128,0,59766:0:0:0:0:s_061.ogg
25,192,59933,1,0,0:0:0:0:m_049.ogg
128,192,60433,1,0,0:0:0:0:s_050.ogg
230,192,60600,1,0,0:0:0:0:s_061.ogg
128,192,60766,1,0,0:0:0:0:s_057.ogg
332,192,60933,1,0,0:0:0:0:s_056.ogg
384,192,61100,1,0,0:0:0:0:s_057.ogg
435,192,61266,1,0,0:0:0:0:s_050.ogg
486,192,61433,1,0,0:0:0:0:s_052.ogg
25,192,61600,1,0,0:0:0:0:s_054.ogg
76,192,61766,1,0,0:0:0:0:s_056.ogg
128,192,61933,1,0,0:0:0:0:s_066.ogg
179,192,62100,1,0,0:0:0:0:s_059.ogg
332,192,62266,1,0,0:0:0:0:s_069.ogg
281,192,62433,1,0,0:0:0:0:s_059.ogg
384,192,62600,1,0,0:0:0:0:s_069.ogg
435,192,62766,1,0,0:0:0:0:s_062.ogg
230,192,62933,1,0,0:0:0:0:s_073.ogg
179,192,63100,1,0,0:0:0:0:s_062.ogg
230,192,63266,1,0,0:0:0:0:s_064.ogg
128,192,63433,1,0,0:0:0:0:s_069.ogg
486,192,63600,128,0,63766:0:0:0:0:s_066.ogg
25,192,63933,1,0,0:0:0:0:m_045.ogg
332,192,64433,1,0,0:0:0:0:s_056.ogg
435,192,64600,1,0,0:0:0:0:s_057.ogg
332,192,64766,1,0,0:0:0:0:s_045.ogg
486,192,64933,128,0,65100:0:0:0:0:s_064.ogg
25,192,65266,1,0,0:0:0:0:m_052.ogg
76,192,65766,1,0,0:0:0:0:s_054.ogg
179,192,65933,1,0,0:0:0:0:s_047.ogg
76,192,66100,1,0,0:0:0:0:s_044.ogg
332,192,66266,1,0,0:0:0:0:s_051.ogg
384,192,66433,1,0,0:0:0:0:s_044.ogg
435,192,66600,1,0,0:0:0:0:s_045.ogg
486,192,66766,1,0,0:0:0:0:s_056.ogg
25,192,66933,1,0,0:0:0:0:s_049.ogg
76,192,67100,1,0,0:0:0:0:s_059.ogg
128,192,67266,1,0,0:0:0:0:s_061.ogg
179,192,67433,1,0,0:0:0:0:s_063.ogg
332,192,67600,1,0,0:0:0:0:s_056.ogg
281,192,67766,1,0,0:0:0:0:s_054.ogg
384,192,67933,1,0,0:0:0:0:s_064.ogg
435,192,68100,1,0,0:0:0:0:s_057.ogg
230,192,68266,1,0,0:0:0:0:s_068.ogg
179,192,68433,1,0,0:0:0:0:s_066.ogg
230,192,68600,1,0,0:0:0:0:s_068.ogg
128,192,68766,1,0,0:0:0:0:s_064.ogg
486,192,68933,128,0,69100:0:0:0:0:s_066.ogg
25,192,69266,1,0,0:0:0:0:m_054.ogg
281,192,69766,1,0,0:0:0:0:s_047.ogg
384,192,69933,1,0,0:0:0:0:s_057.ogg
281,192,70100,1,0,0:0:0:0:s_045.ogg
486,192,70266,128,0,70433:0:0:0:0:s_064.ogg
25,192,70600,1,0,0:0:0:0:m_044.ogg
128,192,71100,1,0,0:0:0:0:s_054.ogg
230,192,71266,1,0,0:0:0:0:s_056.ogg
128,192,71433,1,0,0:0:0:0:s_052.ogg
332,192,71600,1,0,0:0:0:0:s_042.ogg
384,192,71766,1,0,0:0:0:0:s_044.ogg
435,192,71933,1,0,0:0:0:0:s_045.ogg
486,192,72100,1,0,0:0:0:0:s_056.ogg
25,192,72266,1,0,0:0:0:0:s_057.ogg
76,192,72433,1,0,0:0:0:0:s_059.ogg
128,192,72600,1,0,0:0:0:0:s_061.ogg
179,192,72766,1,0,0:0:0:0:s_063.ogg
281,192,72933,1,0,0:0:0:0:s_064.ogg
25,192,73100,1,0,0:0:0:0:s_051.ogg
332,192,73266,1,0,0:0:0:0:s_065.ogg
76,192,73433,1,0,0:0:0:0:s_052.ogg
384,192,73600,1,0,0:0:0:0:s_066.ogg
128,192,73766,1,0,0:0:0:0:s_053.ogg
435,192,73933,1,0,0:0:0:0:s_067.ogg
179,192,74100,1,0,0:0:0:0:s_066.ogg
486,192,74266,1,0,0:0:0:0:s_056.ogg
230,192,74433,1,0,0:0:0:0:s_067.ogg
281,192,74600,1,0,0:0:0:0:s_057.ogg
25,192,74766,1,0,0:0:0:0:s_056.ogg
332,192,74933,1,0,0:0:0:0:s_070.ogg
76,192,75100,1,0,0:0:0:0:s_057.ogg
384,192,75266,1,0,0:0:0:0:s_071.ogg
128,192,75433,1,0,0:0:0:0:s_058.ogg
435,192,75600,1,0,0:0:0:0:s_072.ogg
179,192,75766,1,0,0:0:0:0:s_059.ogg
486,192,75933,1,0,0:0:0:0:s_073.ogg
230,192,76100,1,0,0:0:0:0:s_060.ogg
281,192,76266,1,0,0:0:0:0:s_074.ogg
25,192,76433,1,0,0:0:0:0:s_061.ogg
332,192,76600,1,0,0:0:0:0:s_074.ogg
76,192,76766,1,0,0:0:0:0:s_063.ogg
384,192,76933,1,0,0:0:0:0:s_064.ogg
128,192,77100,1,0,0:0:0:0:s_063.ogg
384,192,77266,1,0,0:0:0:0:s_076.ogg
128,192,77433,1,0,0:0:0:0:s_063.ogg
384,192,77600,1,0,0:0:0:0:s_064.ogg
128,192,77766,1,0,0:0:0:0:s_069.ogg
384,192,77933,1,0,0:0:0:0:s_068.ogg
128,192,78100,1,0,0:0:0:0:s_063.ogg
384,192,78266,1,0,0:0:0:0:s_068.ogg
76,192,78433,1,0,0:0:0:0:s_051.ogg
179,192,78600,1,0,0:0:0:0:s_052.ogg
76,192,78766,1,0,0:0:0:0:s_051.ogg
179,192,78933,1,0,0:0:0:0:s_052.ogg
230,192,79100,1,0,0:0:0:0:s_040.ogg
281,192,79266,1,0,0:0:0:0:s_053.ogg
332,192,79433,1,0,0:0:0:0:s_054.ogg
384,192,79600,1,0,0:0:0:0:m_043.ogg
25,192,79766,1,0,0:0:0:0:s_047.ogg
435,192,79933,1,0,0:0:0:0:m_047.ogg
76,192,80100,1,0,0:0:0:0:s_055.ogg
486,192,80266,1,0,0:0:0:0:m_052.ogg
128,192,80433,1,0,0:0:0:0:s_055.ogg
128,192,80600,1,0,0:0:0:0:s_055.ogg
435,192,80766,1,0,0:0:0:0:s_050.ogg
384,192,80933,1,0,0:0:0:0:s_052.ogg
332,192,81100,1,0,0:0:0:0:s_047.ogg
281,192,81266,1,0,0:0:0:0:s_046.ogg
230,192,81433,1,0,0:0:0:0:s_045.ogg
179,192,81600,1,0,0:0:0:0:s_044.ogg
128,192,81766,1,0,0:0:0:0:s_043.ogg
25,192,81933,1,0,0:0:0:0:s_042.ogg
76,192,82100,1,0,0:0:0:0:s_043.ogg
128,192,82266,1,0,0:0:0:0:m_055.ogg
384,192,82433,1,0,0:0:0:0:s_047.ogg
179,192,82600,1,0,0:0:0:0:m_047.ogg
435,192,82766,1,0,0:0:0:0:s_055.ogg
230,192,82933,1,0,0:0:0:0:m_052.ogg
486,192,83100,1,0,0:0:0:0:s_059.ogg
486,192,83266,1,0,0:0:0:0:s_055.ogg
230,192,83433,1,0,0:0:0:0:s_050.ogg
179,192,83600,1,0,0:0:0:0:s_052.ogg
128,192,83766,1,0,0:0:0:0:s_047.ogg
76,192,83933,1,0,0:0:0:0:s_045.ogg
25,192,84100,1,0,0:0:0:0:s_055.ogg
179,192,84266,1,0,0:0:0:0:m_060.ogg
435,192,84266,1,0,0:0:0:0:m_055.ogg
230,192,84600,1,0,0:0:0:0:m_055.ogg
486,192,84600,1,0,0:0:0:0:m_064.ogg
25,192,84933,1,0,0:0:0:0:s_019.ogg
281,192,85100,1,0,0:0:0:0:s_043.ogg
76,192,85266,1,0,0:0:0:0:s_038.ogg
332,192,85433,1,0,0:0:0:0:s_035.ogg
128,192,85600,1,0,0:0:0:0:s_031.ogg
384,192,85766,1,0,0:0:0:0:m_040.ogg
486,192,86100,1,0,0:0:0:0:s_050.ogg
435,192,86266,1,0,0:0:0:0:s_036.ogg
384,192,86433,1,0,0:0:0:0:s_047.ogg
332,192,86600,1,0,0:0:0:0:s_034.ogg
281,192,86766,1,0,0:0:0:0:s_045.ogg
230,192,86933,1,0,0:0:0:0:s_032.ogg
179,192,87100,1,0,0:0:0:0:s_031.ogg
128,192,87266,1,0,0:0:0:0:s_040.ogg
76,192,87433,1,0,0:0:0:0:s_036.ogg
25,192,87600,1,0,0:0:0:0:s_031.ogg
281,192,87766,1,0,0:0:0:0:s_043.ogg
76,192,87933,1,0,0:0:0:0:s_026.ogg
332,192,88100,1,0,0:0:0:0:s_047.ogg
128,192,88266,1,0,0:0:0:0:s_031.ogg
384,192,88433,1,0,0:0:0:0:m_040.ogg
435,192,88766,1,0,0:0:0:0:s_050.ogg
384,192,88933,1,0,0:0:0:0:s_048.ogg
332,192,89100,1,0,0:0:0:0:s_035.ogg
281,192,89266,1,0,0:0:0:0:s_034.ogg
230,192,89433,1,0,0:0:0:0:s_045.ogg
179,192,89600,1,0,0:0:0:0:s_044.ogg
128,192,89766,1,0,0:0:0:0:s_043.ogg
25,192,89933,1,0,0:0:0:0:s_030.ogg
76,192,90100,1,0,0:0:0:0:s_043.ogg
230,192,90266,128,0,90433:0:0:0:0:s_077.ogg
486,192,90600,128,0,90766:0:0:0:0:s_074.ogg
179,192,90933,128,0,91100:0:0:0:0:s_071.ogg
435,192,91266,128,0,91433:0:0:0:0:s_067.ogg
128,192,91600,128,0,92683:0:0:0:0:s_048.ogg
486,192,92933,128,0,93100:0:0:0:0:s_069.ogg
230,192,93266,128,0,93433:0:0:0:0:s_074.ogg
435,192,93600,128,0,93766:0:0:0:0:s_062.ogg
179,192,93933,128,0,94100:0:0:0:0:s_059.ogg
384,192,94266,128,0,95350:0:0:0:0:s_048.ogg
128,192,95600,128,0,95766:0:0:0:0:s_074.ogg
384,192,95933,128,0,96100:0:0:0:0:s_071.ogg
76,192,96266,128,0,96433:0:0:0:0:s_068.ogg
332,192,96600,128,0,96766:0:0:0:0:s_064.ogg
25,192,96933,128,0,98016:0:0:0:0:s_045.ogg
384,192,98266,128,0,98433:0:0:0:0:s_074.ogg
128,192,98600,128,0,98766:0:0:0:0:s_062.ogg
332,192,98933,128,0,99100:0:0:0:0:s_068.ogg
76,192,99266,128,0,99433:0:0:0:0:s_056.ogg
281,192,99600,128,0,100933:0:0:0:0:s_045.ogg
76,192,100933,1,0,0:0:0:0:s_035.ogg
332,192,101100,1,0,0:0:0:0:s_040.ogg
76,192,101266,1,0,0:0:0:0:s_028.ogg
332,192,101433,1,0,0:0:0:0:s_040.ogg
179,192,101600,1,0,0:0:0:0:s_051.ogg
435,192,101766,1,0,0:0:0:0:s_044.ogg
179,192,101933,1,0,0:0:0:0:m_047.ogg
128,192,102266,1,0,0:0:0:0:s_033.ogg
384,192,102433,1,0,0:0:0:0:s_049.ogg
128,192,102600,1,0,0:0:0:0:s_028.ogg
384,192,102766,1,0,0:0:0:0:s_040.ogg
230,192,102933,1,0,0:0:0:0:s_048.ogg
486,192,103100,1,0,0:0:0:0:s_052.ogg
230,192,103266,1,0,0:0:0:0:m_049.ogg
76,192,103600,1,0,0:0:0:0:s_035.ogg
332,192,103766,1,0,0:0:0:0:s_044.ogg
76,192,103933,1,0,0:0:0:0:s_028.ogg
332,192,104100,1,0,0:0:0:0:s_047.ogg
179,192,104266,1,0,0:0:0:0:s_051.ogg
435,192,104433,1,0,0:0:0:0:s_044.ogg
179,192,104600,1,0,0:0:0:0:m_047.ogg
25,192,104933,1,0,0:0:0:0:s_033.ogg
281,192,105100,1,0,0:0:0:0:s_049.ogg
25,192,105266,1,0,0:0:0:0:s_028.ogg
281,192,105433,1,0,0:0:0:0:s_049.ogg
128,192,105600,1,0,0:0:0:0:s_048.ogg
384,192,105766,1,0,0:0:0:0:s_052.ogg
128,192,105933,1,0,0:0:0:0:m_049.ogg
76,192,106266,1,0,0:0:0:0:s_035.ogg
332,192,106433,1,0,0:0:0:0:s_044.ogg
76,192,106600,1,0,0:0:0:0:s_028.ogg
332,192,106766,1,0,0:0:0:0:s_044.ogg
179,192,106933,1,0,0:0:0:0:s_051.ogg
435,192,107100,1,0,0:0:0:0:s_044.ogg
179,192,107266,1,0,0:0:0:0:m_050.ogg
230,192,107600,1,0,0:0:0:0:s_059.ogg
486,192,107766,1,0,0:0:0:0:s_056.ogg
230,192,107933,1,0,0:0:0:0:m_062.ogg
281,192,108266,1,0,0:0:0:0:s_063.ogg
332,192,108433,1,0,0:0:0:0:s_064.ogg
384,192,108600,1,0,0:0:0:0:m_066.ogg
25,192,108850,1,0,0:0:0:0:s_059.ogg
179,192,111600,1,0,0:0:0:0:s_033.ogg
435,192,111800,1,0,0:0:0:0:s_049.ogg
76,192,112000,1,0,0:0:0:0:s_028.ogg
435,192,112200,1,0,0:0:0:0:s_049.ogg
179,192,112400,1,0,0:0:0:0:s_033.ogg
384,192,112600,1,0,0:0:0:0:s_045.ogg
76,192,112800,1,0,0:0:0:0:s_028.ogg
384,192,113000,1,0,0:0:0:0:s_045.ogg
230,192,113200,1,0,0:0:0:0:s_035.ogg
486,192,113400,1,0,0:0:0:0:s_040.ogg
128,192,113600,1,0,0:0:0:0:s_028.ogg
486,192,113800,1,0,0:0:0:0:s_040.ogg
230,192,114000,1,0,0:0:0:0:s_035.ogg
486,192,114200,1,0,0:0:0:0:s_044.ogg
128,192,114400,1,0,0:0:0:0:s_028.ogg
486,192,114600,1,0,0:0:0:0:s_040.ogg
179,192,114800,1,0,0:0:0:0:s_033.ogg
384,192,115000,1,0,0:0:0:0:s_049.ogg
76,192,115200,1,0,0:0:0:0:s_028.ogg
384,192,115400,1,0,0:0:0:0:s_049.ogg
76,192,115600,1,0,0:0:0:0:s_028.ogg
332,192,115800,1,0,0:0:0:0:s_048.ogg
76,192,116000,1,0,0:0:0:0:s_028.ogg
332,192,116200,1,0,0:0:0:0:s_045.ogg
128,192,116400,1,0,0:0:0:0:s_035.ogg
435,192,116600,1,0,0:0:0:0:s_044.ogg
25,192,116800,1,0,0:0:0:0:s_028.ogg
435,192,117000,1,0,0:0:0:0:s_050.ogg
128,192,117200,1,0,0:0:0:0:s_035.ogg
435,192,117400,1,0,0:0:0:0:s_040.ogg
25,192,117600,1,0,0:0:0:0:s_028.ogg
435,192,117800,1,0,0:0:0:0:s_044.ogg
179,192,118000,1,0,0:0:0:0:s_033.ogg
332,192,118200,1,0,0:0:0:0:s_049.ogg
76,192,118400,1,0,0:0:0:0:s_028.ogg
332,192,118600,1,0,0:0:0:0:s_040.ogg
76,192,118800,1,0,0:0:0:0:s_028.ogg
281,192,119000,1,0,0:0:0:0:s_045.ogg
76,192,119200,1,0,0:0:0:0:s_028.ogg
281,192,119400,1,0,0:0:0:0:s_045.ogg
230,192,119600,1,0,0:0:0:0:s_035.ogg
486,192,119800,1,0,0:0:0:0:s_040.ogg
128,192,120000,1,0,0:0:0:0:s_028.ogg
486,192,120200,1,0,0:0:0:0:s_050.ogg
25,192,121200,1,0,0:0:0:0:s_016.ogg
76,192,121366,1,0,0:0:0:0:s_018.ogg
128,192,121533,1,0,0:0:0:0:s_020.ogg
179,192,121700,1,0,0:0:0:0:s_021.ogg
435,192,121866,1,0,0:0:0:0:s_028.ogg
332,192,122033,1,0,0:0:0:0:s_022.ogg
384,192,122200,1,0,0:0:0:0:s_023.ogg
281,192,122366,1,0,0:0:0:0:s_020.ogg
76,192,122533,1,0,0:0:0:0:s_021.ogg
128,192,122700,1,0,0:0:0:0:s_023.ogg
179,192,122866,1,0,0:0:0:0:s_025.ogg
230,192,123033,1,0,0:0:0:0:s_026.ogg
486,192,123200,1,0,0:0:0:0:s_028.ogg
384,192,123366,1,0,0:0:0:0:s_027.ogg
435,192,123533,1,0,0:0:0:0:s_028.ogg
332,192,123700,1,0,0:0:0:0:s_025.ogg
179,192,123866,1,0,0:0:0:0:s_026.ogg
486,192,124033,1,0,0:0:0:0:s_030.ogg
128,192,124200,1,0,0:0:0:0:s_023.ogg
435,192,124366,1,0,0:0:0:0:s_026.ogg
76,192,124533,1,0,0:0:0:0:s_020.ogg
384,192,124700,1,0,0:0:0:0:s_023.ogg
25,192,124866,1,0,0:0:0:0:s_016.ogg
332,192,125033,1,0,0:0:0:0:s_020.ogg
230,192,125200,1,0,0:0:0:0:s_021.ogg
435,192,125366,1,0,0:0:0:0:s_025.ogg
179,192,125533,1,0,0:0:0:0:s_016.ogg
384,192,125700,1,0,0:0:0:0:s_021.ogg
128,192,125866,1,0,0:0:0:0:s_013.ogg
332,192,126033,1,0,0:0:0:0:s_016.ogg
76,192,126200,1,0,0:0:0:0:s_009.ogg
281,192,126366,1,0,0:0:0:0:s_013.ogg
25,192,126533,1,0,0:0:0:0:s_028.ogg
76,192,126700,1,0,0:0:0:0:s_030.ogg
128,192,126866,1,0,0:0:0:0:s_032.ogg
179,192,127033,1,0,0:0:0:0:s_021.ogg
435,192,127200,1,0,0:0:0:0:s_023.ogg
332,192,127366,1,0,0:0:0:0:s_034.ogg
384,192,127533,1,0,0:0:0:0:s_023.ogg
281,192,127700,1,0,0:0:0:0:s_032.ogg
76,192,127866,1,0,0:0:0:0:s_021.ogg
128,192,128033,1,0,0:0:0:0:s_035.ogg
179,192,128200,1,0,0:0:0:0:s_037.ogg
230,192,128366,1,0,0:0:0:0:s_026.ogg
486,192,128533,1,0,0:0:0:0:s_033.ogg
384,192,128700,1,0,0:0:0:0:s_039.ogg
435,192,128866,1,0,0:0:0:0:s_033.ogg
332,192,129033,1,0,0:0:0:0:s_037.ogg
25,192,129200,1,0,0:0:0:0:s_032.ogg
76,192,129366,1,0,0:0:0:0:s_030.ogg
128,192,129533,1,0,0:0:0:0:s_032.ogg
179,192,129700,1,0,0:0:0:0:s_033.ogg
435,192,129866,1,0,0:0:0:0:s_040.ogg
332,192,130033,1,0,0:0:0:0:s_046.ogg
384,192,130200,1,0,0:0:0:0:s_040.ogg
281,192,130366,1,0,0:0:0:0:s_044.ogg
76,192,130533,1,0,0:0:0:0:s_037.ogg
128,192,130700,1,0,0:0:0:0:s_035.ogg
179,192,130866,1,0,0:0:0:0:s_037.ogg
230,192,131033,1,0,0:0:0:0:s_050.ogg
486,192,131200,1,0,0:0:0:0:s_045.ogg
384,192,131366,1,0,0:0:0:0:s_051.ogg
435,192,131533,1,0,0:0:0:0:s_045.ogg
332,192,131700,1,0,0:0:0:0:s_037.ogg
230,192,131866,1,0,0:0:0:0:s_038.ogg
486,192,132033,1,0,0:0:0:0:s_042.ogg
179,192,132200,1,0,0:0:0:0:s_035.ogg
435,192,132366,1,0,0:0:0:0:s_050.ogg
128,192,132533,1,0,0:0:0:0:s_044.ogg
384,192,132700,1,0,0:0:0:0:s_047.ogg
76,192,132866,1,0,0:0:0:0:s_028.ogg
332,192,133033,1,0,0:0:0:0:s_044.ogg
25,192,133200,1,0,0:0:0:0:s_025.ogg
281,192,133366,1,0,0:0:0:0:s_040.ogg
230,192,133533,1,0,0:0:0:0:s_033.ogg
486,192,133700,1,0,0:0:0:0:s_037.ogg
179,192,133866,1,0,0:0:0:0:s_030.ogg
435,192,134033,1,0,0:0:0:0:s_021.ogg
128,192,134200,1,0,0:0:0:0:s_026.ogg
384,192,134366,1,0,0:0:0:0:s_030.ogg
76,192,134533,1,0,0:0:0:0:s_011.ogg
332,192,134700,1,0,0:0:0:0:s_026.ogg
25,192,134866,1,0,0:0:0:0:s_020.ogg
281,192,135033,1,0,0:0:0:0:s_011.ogg
230,192,135200,1,0,0:0:0:0:s_016.ogg
486,192,135366,1,0,0:0:0:0:s_020.ogg
179,192,135533,1,0,0:0:0:0:s_013.ogg
435,192,135700,1,0,0:0:0:0:s_016.ogg
128,192,135866,1,0,0:0:0:0:s_009.ogg
384,192,136033,1,0,0:0:0:0:s_013.ogg
76,192,136200,1,0,0:0:0:0:s_006.ogg
332,192,136366,1,0,0:0:0:0:s_009.ogg
25,192,136533,1,0,0:0:0:0:s_014.ogg
128,192,137133,1,0,0:0:0:0:s_014.ogg
281,192,137133,1,0,0:0:0:0:s_026.ogg
128,192,137283,1,0,0:0:0:0:m_033.ogg
281,192,137283,1,0,0:0:0:0:m_038.ogg
179,192,137733,1,0,0:0:0:0:s_028.ogg
332,192,137733,1,0,0:0:0:0:s_016.ogg
179,192,137883,1,0,0:0:0:0:m_028.ogg
332,192,137883,1,0,0:0:0:0:m_032.ogg
230,192,138333,1,0,0:0:0:0:s_021.ogg
384,192,138333,1,0,0:0:0:0:s_009.ogg
230,192,138483,1,0,0:0:0:0:m_033.ogg
384,192,138483,1,0,0:0:0:0:m_037.ogg
25,192,139533,1,0,0:0:0:0:s_040.ogg
76,192,139533,1,0,0:0:0:0:s_045.ogg
435,192,139833,1,0,0:0:0:0:s_073.ogg
486,192,139833,1,0,0:0:0:0:s_076.ogg
230,192,140133,1,0,0:0:0:0:s_021.ogg
281,192,140133,1,0,0:0:0:0:s_009.ogg
