osu file format v14

[General]
AudioFilename: virtual
AudioLeadIn: 0
PreviewTime: 0
Countdown: 0
SampleSet: Soft
StackLeniency: 0.7
Mode: 3
LetterboxInBreaks: 0
SpecialStyle: 0
WidescreenStoryboard: 1

[Editor]
DistanceSpacing: 0.8
BeatDivisor: 4
GridSize: 32
TimelineZoom: 1.500006

[Metadata]
Title:Piano Beatmap Set
TitleUnicode:Piano Beatmap Set
Artist:Collection
ArtistUnicode:Collection
Creator:CircusGalop
Version:Fantaisie Impromptu - 10K NM
Source:BMS
Tags:
BeatmapID:882923
BeatmapSetID:332673

[Difficulty]
HPDrainRate:5
CircleSize:10
OverallDifficulty:5
ApproachRate:5
SliderMultiplier:1.4
SliderTickRate:1

[Events]
//Background and Video events
0,0,"CircusGalop.jpg",0,0
//Break Periods
//Storyboard Layer 0 (Background)
//Storyboard Layer 1 (Fail)
//Storyboard Layer 2 (Pass)
//Storyboard Layer 3 (Foreground)
//Storyboard Sound Samples
Sample,4363,0,"m_028.ogg",100
Sample,4484,0,"m_035.ogg",100
Sample,4606,0,"m_040.ogg",100
Sample,4848,0,"m_040.ogg",100
Sample,4969,0,"m_035.ogg",100
Sample,5212,0,"m_035.ogg",100
Sample,5333,0,"m_040.ogg",100
Sample,5575,0,"m_040.ogg",100
Sample,5696,0,"m_035.ogg",100
Sample,5939,0,"m_035.ogg",100
Sample,6060,0,"m_040.ogg",100
Sample,6303,0,"m_040.ogg",100
Sample,6424,0,"m_035.ogg",100
Sample,6666,0,"m_035.ogg",100
Sample,6787,0,"m_040.ogg",100
Sample,7030,0,"s_040.ogg",100
Sample,7151,0,"s_035.ogg",100
Sample,7363,0,"s_047.ogg",100
Sample,7393,0,"m_035.ogg",100
Sample,7454,0,"m_048.ogg",100
Sample,7515,0,"m_040.ogg",100
Sample,7545,0,"s_047.ogg",100
Sample,7636,0,"m_046.ogg",100
Sample,7727,0,"s_047.ogg",100
Sample,7757,0,"s_040.ogg",100
Sample,7818,0,"s_052.ogg",100
Sample,7878,0,"s_035.ogg",100
Sample,7909,0,"s_055.ogg",100
Sample,8000,0,"s_054.ogg",100
Sample,8090,0,"s_052.ogg",100
Sample,8121,0,"m_035.ogg",100
Sample,8181,0,"m_054.ogg",100
Sample,8242,0,"m_040.ogg",100
Sample,8272,0,"s_052.ogg",100
Sample,8363,0,"m_051.ogg",100
Sample,8454,0,"s_052.ogg",100
Sample,8484,0,"s_040.ogg",100
Sample,8545,0,"s_055.ogg",100
Sample,8606,0,"s_035.ogg",100
Sample,8636,0,"s_059.ogg",100
Sample,8818,0,"s_047.ogg",100
Sample,8848,0,"m_035.ogg",100
Sample,8909,0,"m_048.ogg",100
Sample,8969,0,"m_040.ogg",100
Sample,9000,0,"s_047.ogg",100
Sample,9090,0,"m_046.ogg",100
Sample,9181,0,"s_047.ogg",100
Sample,9212,0,"s_040.ogg",100
Sample,9272,0,"s_052.ogg",100
Sample,9333,0,"s_035.ogg",100
Sample,9363,0,"s_055.ogg",100
Sample,9454,0,"s_054.ogg",100
Sample,9545,0,"s_052.ogg",100
Sample,9575,0,"m_035.ogg",100
Sample,9636,0,"m_054.ogg",100
Sample,9696,0,"m_040.ogg",100
Sample,9727,0,"s_052.ogg",100
Sample,9818,0,"m_051.ogg",100
Sample,9909,0,"s_052.ogg",100
Sample,9939,0,"s_040.ogg",100
Sample,10000,0,"s_055.ogg",100
Sample,10060,0,"s_035.ogg",100
Sample,10090,0,"s_059.ogg",100
Sample,10272,0,"m_048.ogg",100
Sample,10303,0,"m_036.ogg",100
Sample,10363,0,"m_052.ogg",100
Sample,10424,0,"m_040.ogg",100
Sample,10454,0,"m_054.ogg",100
Sample,10545,0,"m_057.ogg",100
Sample,10636,0,"s_060.ogg",100
Sample,10666,0,"s_040.ogg",100
Sample,10727,0,"s_064.ogg",100
Sample,10787,0,"s_036.ogg",100
Sample,10818,0,"s_066.ogg",100
Sample,10909,0,"m_074.ogg",100
Sample,11000,0,"m_072.ogg",100
Sample,11030,0,"m_040.ogg",100
Sample,11090,0,"m_071.ogg",100
Sample,11151,0,"m_042.ogg",100
Sample,11181,0,"m_069.ogg",100
Sample,11272,0,"m_067.ogg",100
Sample,11363,0,"s_066.ogg",100
Sample,11393,0,"s_042.ogg",100
Sample,11454,0,"s_069.ogg",100
Sample,11515,0,"s_040.ogg",100
Sample,11545,0,"s_064.ogg",100
Sample,11636,0,"m_063.ogg",100
Sample,11727,0,"m_066.ogg",100
Sample,11757,0,"m_030.ogg",100
Sample,11818,0,"m_060.ogg",100
Sample,11878,0,"m_033.ogg",100
Sample,11909,0,"m_059.ogg",100
Sample,12000,0,"m_057.ogg",100
Sample,12090,0,"m_060.ogg",100
Sample,12121,0,"m_033.ogg",100
Sample,12181,0,"m_055.ogg",100
Sample,12242,0,"m_030.ogg",100
Sample,12272,0,"m_054.ogg",100
Sample,12363,0,"m_057.ogg",100
Sample,12454,0,"m_052.ogg",100
Sample,12484,0,"m_030.ogg",100
Sample,12545,0,"m_051.ogg",100
Sample,12606,0,"m_033.ogg",100
Sample,12636,0,"m_054.ogg",100
Sample,12727,0,"m_048.ogg",100
Sample,12818,0,"s_047.ogg",100
Sample,12848,0,"s_033.ogg",100
Sample,12909,0,"s_050.ogg",100
Sample,12969,0,"s_030.ogg",100
Sample,13000,0,"m_048.ogg",100
Sample,13181,0,"s_047.ogg",100
Sample,13212,0,"m_035.ogg",100
Sample,13272,0,"m_048.ogg",100
Sample,13333,0,"m_040.ogg",100
Sample,13363,0,"s_047.ogg",100
Sample,13454,0,"m_046.ogg",100
Sample,13545,0,"s_047.ogg",100
Sample,13575,0,"s_040.ogg",100
Sample,13636,0,"s_052.ogg",100
Sample,13696,0,"s_035.ogg",100
Sample,13727,0,"s_055.ogg",100
Sample,13818,0,"s_054.ogg",100
Sample,13909,0,"s_052.ogg",100
Sample,13939,0,"m_035.ogg",100
Sample,14000,0,"m_054.ogg",100
Sample,14060,0,"m_040.ogg",100
Sample,14090,0,"s_052.ogg",100
Sample,14181,0,"m_051.ogg",100
Sample,14272,0,"s_052.ogg",100
Sample,14303,0,"s_040.ogg",100
Sample,14363,0,"s_055.ogg",100
Sample,14424,0,"s_035.ogg",100
Sample,14454,0,"s_059.ogg",100
Sample,14636,0,"s_047.ogg",100
Sample,14666,0,"m_035.ogg",100
Sample,14727,0,"m_049.ogg",100
Sample,14787,0,"m_037.ogg",100
Sample,14818,0,"s_047.ogg",100
Sample,14909,0,"m_046.ogg",100
Sample,15000,0,"s_047.ogg",100
Sample,15030,0,"s_037.ogg",100
Sample,15090,0,"s_052.ogg",100
Sample,15151,0,"s_035.ogg",100
Sample,15181,0,"s_055.ogg",100
Sample,15272,0,"s_054.ogg",100
Sample,15363,0,"s_052.ogg",100
Sample,15393,0,"m_035.ogg",100
Sample,15454,0,"m_054.ogg",100
Sample,15515,0,"m_037.ogg",100
Sample,15545,0,"s_052.ogg",100
Sample,15636,0,"m_051.ogg",100
Sample,15727,0,"s_052.ogg",100
Sample,15757,0,"s_037.ogg",100
Sample,15818,0,"s_055.ogg",100
Sample,15878,0,"s_035.ogg",100
Sample,15909,0,"s_059.ogg",100
Sample,16000,0,"s_054.ogg",100
Sample,16090,0,"m_055.ogg",100
Sample,16121,0,"m_035.ogg",100
Sample,16181,0,"s_054.ogg",100
Sample,16242,0,"m_038.ogg",100
Sample,16272,0,"m_053.ogg",100
Sample,16363,0,"m_054.ogg",100
Sample,16454,0,"s_062.ogg",100
Sample,16484,0,"s_038.ogg",100
Sample,16545,0,"s_061.ogg",100
Sample,16606,0,"s_035.ogg",100
Sample,16636,0,"s_059.ogg",100
Sample,16727,0,"m_058.ogg",100
Sample,16818,0,"m_067.ogg",100
Sample,16848,0,"m_037.ogg",100
Sample,16909,0,"m_066.ogg",100
Sample,16969,0,"m_040.ogg",100
Sample,17000,0,"m_064.ogg",100
Sample,17090,0,"m_062.ogg",100
Sample,17181,0,"s_061.ogg",100
Sample,17212,0,"s_040.ogg",100
Sample,17272,0,"s_059.ogg",100
Sample,17333,0,"s_037.ogg",100
Sample,17363,0,"s_058.ogg",100
Sample,17454,0,"m_061.ogg",100
Sample,17545,0,"m_059.ogg",100
Sample,17575,0,"m_030.ogg",100
Sample,17636,0,"m_062.ogg",100
Sample,17696,0,"m_035.ogg",100
Sample,17727,0,"m_053.ogg",100
Sample,17818,0,"m_055.ogg",100
Sample,17909,0,"m_054.ogg",100
Sample,17939,0,"m_035.ogg",100
Sample,18000,0,"m_059.ogg",100
Sample,18060,0,"m_030.ogg",100
Sample,18090,0,"m_049.ogg",100
Sample,18181,0,"m_052.ogg",100
Sample,18272,0,"m_050.ogg",100
Sample,18303,0,"m_030.ogg",100
Sample,18363,0,"m_054.ogg",100
Sample,18424,0,"m_035.ogg",100
Sample,18454,0,"m_046.ogg",100
Sample,18545,0,"m_049.ogg",100
Sample,18636,0,"s_047.ogg",100
Sample,18666,0,"s_035.ogg",100
Sample,18727,0,"s_046.ogg",100
Sample,18787,0,"s_030.ogg",100
Sample,18818,0,"s_047.ogg",100
Sample,19000,0,"m_059.ogg",100
Sample,19030,0,"m_028.ogg",100
Sample,19090,0,"m_051.ogg",100
Sample,19151,0,"m_033.ogg",100
Sample,19181,0,"m_052.ogg",100
Sample,19363,0,"s_057.ogg",100
Sample,19393,0,"s_033.ogg",100
Sample,19454,0,"s_051.ogg",100
Sample,19515,0,"s_028.ogg",100
Sample,19545,0,"s_052.ogg",100
Sample,19727,0,"m_056.ogg",100
Sample,19757,0,"m_028.ogg",100
Sample,19818,0,"m_051.ogg",100
Sample,19878,0,"m_033.ogg",100
Sample,19909,0,"m_052.ogg",100
Sample,20090,0,"s_057.ogg",100
Sample,20121,0,"s_033.ogg",100
Sample,20181,0,"s_051.ogg",100
Sample,20242,0,"s_028.ogg",100
Sample,20272,0,"s_052.ogg",100
Sample,20454,0,"m_052.ogg",100
Sample,20484,0,"m_033.ogg",100
Sample,20545,0,"m_045.ogg",100
Sample,20606,0,"m_036.ogg",100
Sample,20636,0,"m_048.ogg",100
Sample,20818,0,"s_054.ogg",100
Sample,20848,0,"s_036.ogg",100
Sample,20909,0,"s_045.ogg",100
Sample,20969,0,"s_033.ogg",100
Sample,21000,0,"s_048.ogg",100
Sample,21181,0,"m_055.ogg",100
Sample,21212,0,"m_026.ogg",100
Sample,21272,0,"s_047.ogg",100
Sample,21333,0,"m_031.ogg",100
Sample,21363,0,"m_050.ogg",100
Sample,21545,0,"s_059.ogg",100
Sample,21575,0,"s_031.ogg",100
Sample,21636,0,"s_050.ogg",100
Sample,21696,0,"s_026.ogg",100
Sample,21727,0,"s_055.ogg",100
Sample,21909,0,"m_059.ogg",100
Sample,21939,0,"m_028.ogg",100
Sample,22000,0,"m_051.ogg",100
Sample,22060,0,"m_033.ogg",100
Sample,22090,0,"m_052.ogg",100
Sample,22272,0,"s_057.ogg",100
Sample,22303,0,"s_033.ogg",100
Sample,22363,0,"s_051.ogg",100
Sample,22424,0,"s_028.ogg",100
Sample,22454,0,"s_052.ogg",100
Sample,22636,0,"m_056.ogg",100
Sample,22666,0,"m_028.ogg",100
Sample,22727,0,"m_051.ogg",100
Sample,22787,0,"m_033.ogg",100
Sample,22818,0,"m_052.ogg",100
Sample,23000,0,"s_057.ogg",100
Sample,23030,0,"s_033.ogg",100
Sample,23090,0,"s_051.ogg",100
Sample,23151,0,"s_028.ogg",100
Sample,23181,0,"s_052.ogg",100
Sample,23363,0,"m_056.ogg",100
Sample,23393,0,"m_033.ogg",100
Sample,23454,0,"m_050.ogg",100
Sample,23515,0,"m_036.ogg",100
Sample,23545,0,"m_054.ogg",100
Sample,23727,0,"s_057.ogg",100
Sample,23757,0,"s_036.ogg",100
Sample,23818,0,"s_050.ogg",100
Sample,23878,0,"s_033.ogg",100
Sample,23909,0,"s_054.ogg",100
Sample,24090,0,"m_060.ogg",100
Sample,24121,0,"m_026.ogg",100
Sample,24181,0,"m_050.ogg",100
Sample,24242,0,"m_031.ogg",100
Sample,24272,0,"m_055.ogg",100
Sample,24454,0,"s_059.ogg",100
Sample,24484,0,"s_031.ogg",100
Sample,24545,0,"s_050.ogg",100
Sample,24606,0,"s_026.ogg",100
Sample,24636,0,"s_055.ogg",100
Sample,24818,0,"m_059.ogg",100
Sample,24848,0,"m_028.ogg",100
Sample,24909,0,"m_051.ogg",100
Sample,24969,0,"m_033.ogg",100
Sample,25000,0,"m_052.ogg",100
Sample,25181,0,"m_057.ogg",100
Sample,25212,0,"s_033.ogg",100
Sample,25272,0,"s_051.ogg",100
Sample,25333,0,"s_028.ogg",100
Sample,25363,0,"s_052.ogg",100
Sample,25545,0,"m_056.ogg",100
Sample,25575,0,"m_028.ogg",100
Sample,25636,0,"m_051.ogg",100
Sample,25696,0,"m_033.ogg",100
Sample,25727,0,"m_052.ogg",100
Sample,25909,0,"m_057.ogg",100
Sample,25939,0,"s_033.ogg",100
Sample,26000,0,"s_051.ogg",100
Sample,26060,0,"s_028.ogg",100
Sample,26090,0,"s_052.ogg",100
Sample,26272,0,"m_052.ogg",100
Sample,26303,0,"m_033.ogg",100
Sample,26363,0,"m_045.ogg",100
Sample,26424,0,"m_036.ogg",100
Sample,26454,0,"m_048.ogg",100
Sample,26636,0,"m_054.ogg",100
Sample,26666,0,"s_036.ogg",100
Sample,26727,0,"s_045.ogg",100
Sample,26787,0,"s_033.ogg",100
Sample,26818,0,"s_048.ogg",100
Sample,27000,0,"m_055.ogg",100
Sample,27030,0,"m_026.ogg",100
Sample,27090,0,"s_047.ogg",100
Sample,27151,0,"m_031.ogg",100
Sample,27181,0,"m_050.ogg",100
Sample,27363,0,"m_059.ogg",100
Sample,27393,0,"s_031.ogg",100
Sample,27454,0,"s_050.ogg",100
Sample,27515,0,"s_026.ogg",100
Sample,27545,0,"s_055.ogg",100
Sample,27727,0,"m_059.ogg",100
Sample,27757,0,"m_028.ogg",100
Sample,27818,0,"m_051.ogg",100
Sample,27878,0,"m_033.ogg",100
Sample,27909,0,"m_052.ogg",100
Sample,28090,0,"m_057.ogg",100
Sample,28121,0,"s_033.ogg",100
Sample,28181,0,"s_051.ogg",100
Sample,28242,0,"s_028.ogg",100
Sample,28272,0,"s_052.ogg",100
Sample,28454,0,"m_066.ogg",100
Sample,28484,0,"m_028.ogg",100
Sample,28545,0,"m_057.ogg",100
Sample,28606,0,"m_033.ogg",100
Sample,28636,0,"m_060.ogg",100
Sample,28818,0,"m_064.ogg",100
Sample,28848,0,"s_033.ogg",100
Sample,28909,0,"s_057.ogg",100
Sample,28969,0,"s_028.ogg",100
Sample,29000,0,"s_060.ogg",100
Sample,29181,0,"m_064.ogg",100
Sample,29212,0,"m_030.ogg",100
Sample,29272,0,"m_054.ogg",100
Sample,29333,0,"m_033.ogg",100
Sample,29363,0,"m_057.ogg",100
Sample,29545,0,"m_063.ogg",100
Sample,29575,0,"m_033.ogg",100
Sample,29636,0,"m_054.ogg",100
Sample,29696,0,"m_030.ogg",100
Sample,29727,0,"m_057.ogg",100
Sample,29909,0,"m_063.ogg",100
Sample,29939,0,"m_030.ogg",100
Sample,30000,0,"m_054.ogg",100
Sample,30060,0,"m_033.ogg",100
Sample,30090,0,"m_057.ogg",100
Sample,30272,0,"m_063.ogg",100
Sample,30303,0,"s_033.ogg",100
Sample,30363,0,"s_054.ogg",100
Sample,30424,0,"s_030.ogg",100
Sample,30454,0,"s_057.ogg",100
Sample,30636,0,"m_063.ogg",100
Sample,30666,0,"m_030.ogg",100
Sample,30727,0,"m_054.ogg",100
Sample,30787,0,"m_033.ogg",100
Sample,30818,0,"m_057.ogg",100
Sample,31000,0,"m_062.ogg",100
Sample,31030,0,"s_033.ogg",100
Sample,31090,0,"s_054.ogg",100
Sample,31151,0,"s_030.ogg",100
Sample,31181,0,"s_057.ogg",100
Sample,31363,0,"m_062.ogg",100
Sample,31393,0,"m_030.ogg",100
Sample,31454,0,"m_054.ogg",100
Sample,31515,0,"m_033.ogg",100
Sample,31545,0,"m_057.ogg",100
Sample,31727,0,"m_061.ogg",100
Sample,31757,0,"s_033.ogg",100
Sample,31818,0,"s_054.ogg",100
Sample,31878,0,"s_030.ogg",100
Sample,31909,0,"s_057.ogg",100
Sample,32090,0,"m_061.ogg",100
Sample,32121,0,"m_030.ogg",100
Sample,32181,0,"m_054.ogg",100
Sample,32242,0,"m_033.ogg",100
Sample,32272,0,"m_057.ogg",100
Sample,32454,0,"m_060.ogg",100
Sample,32484,0,"m_033.ogg",100
Sample,32545,0,"m_054.ogg",100
Sample,32606,0,"m_030.ogg",100
Sample,32636,0,"m_057.ogg",100
Sample,32818,0,"m_060.ogg",100
Sample,32848,0,"m_030.ogg",100
Sample,32909,0,"m_054.ogg",100
Sample,32969,0,"m_033.ogg",100
Sample,33000,0,"m_057.ogg",100
Sample,33181,0,"m_060.ogg",100
Sample,33212,0,"s_033.ogg",100
Sample,33272,0,"s_054.ogg",100
Sample,33333,0,"s_030.ogg",100
Sample,33363,0,"s_057.ogg",100
Sample,33545,0,"m_063.ogg",100
Sample,33575,0,"m_030.ogg",100
Sample,33636,0,"m_054.ogg",100
Sample,33696,0,"m_033.ogg",100
Sample,33727,0,"m_057.ogg",100
Sample,33909,0,"s_062.ogg",100
Sample,33939,0,"s_033.ogg",100
Sample,34000,0,"s_054.ogg",100
Sample,34060,0,"s_030.ogg",100
Sample,34090,0,"s_057.ogg",100
Sample,34272,0,"m_062.ogg",100
Sample,34303,0,"m_030.ogg",100
Sample,34363,0,"m_054.ogg",100
Sample,34424,0,"m_033.ogg",100
Sample,34454,0,"m_057.ogg",100
Sample,34636,0,"s_061.ogg",100
Sample,34666,0,"s_033.ogg",100
Sample,34727,0,"s_054.ogg",100
Sample,34787,0,"s_030.ogg",100
Sample,34818,0,"s_057.ogg",100
Sample,35000,0,"m_061.ogg",100
Sample,35030,0,"m_030.ogg",100
Sample,35090,0,"m_054.ogg",100
Sample,35151,0,"m_033.ogg",100
Sample,35181,0,"m_057.ogg",100
Sample,35363,0,"m_060.ogg",100
Sample,35393,0,"m_033.ogg",100
Sample,35454,0,"m_054.ogg",100
Sample,35515,0,"m_030.ogg",100
Sample,35545,0,"m_057.ogg",100
Sample,35727,0,"m_060.ogg",100
Sample,35757,0,"m_030.ogg",100
Sample,35818,0,"m_054.ogg",100
Sample,35878,0,"m_033.ogg",100
Sample,35909,0,"m_057.ogg",100
Sample,36090,0,"s_059.ogg",100
Sample,36121,0,"s_033.ogg",100
Sample,36181,0,"s_054.ogg",100
Sample,36242,0,"s_030.ogg",100
Sample,36272,0,"s_057.ogg",100
Sample,36454,0,"s_047.ogg",100
Sample,36484,0,"m_035.ogg",100
Sample,36545,0,"m_048.ogg",100
Sample,36606,0,"m_040.ogg",100
Sample,36636,0,"s_047.ogg",100
Sample,36727,0,"m_046.ogg",100
Sample,36818,0,"s_047.ogg",100
Sample,36848,0,"s_040.ogg",100
Sample,36909,0,"s_052.ogg",100
Sample,36969,0,"s_035.ogg",100
Sample,37000,0,"s_055.ogg",100
Sample,37090,0,"s_054.ogg",100
Sample,37181,0,"s_052.ogg",100
Sample,37212,0,"m_035.ogg",100
Sample,37272,0,"m_054.ogg",100
Sample,37333,0,"m_040.ogg",100
Sample,37363,0,"s_052.ogg",100
Sample,37454,0,"m_051.ogg",100
Sample,37545,0,"s_052.ogg",100
Sample,37575,0,"s_040.ogg",100
Sample,37636,0,"s_055.ogg",100
Sample,37696,0,"s_035.ogg",100
Sample,37727,0,"s_059.ogg",100
Sample,37909,0,"s_047.ogg",100
Sample,37939,0,"m_035.ogg",100
Sample,38000,0,"m_048.ogg",100
Sample,38060,0,"m_040.ogg",100
Sample,38090,0,"s_047.ogg",100
Sample,38181,0,"m_046.ogg",100
Sample,38272,0,"s_047.ogg",100
Sample,38303,0,"s_040.ogg",100
Sample,38363,0,"s_052.ogg",100
Sample,38424,0,"s_035.ogg",100
Sample,38454,0,"s_055.ogg",100
Sample,38545,0,"s_054.ogg",100
Sample,38636,0,"s_052.ogg",100
Sample,38666,0,"m_035.ogg",100
Sample,38727,0,"m_054.ogg",100
Sample,38787,0,"m_040.ogg",100
Sample,38818,0,"s_052.ogg",100
Sample,38909,0,"m_051.ogg",100
Sample,39000,0,"s_052.ogg",100
Sample,39030,0,"s_040.ogg",100
Sample,39090,0,"s_055.ogg",100
Sample,39151,0,"s_035.ogg",100
Sample,39181,0,"s_059.ogg",100
Sample,39363,0,"m_048.ogg",100
Sample,39393,0,"m_036.ogg",100
Sample,39454,0,"m_052.ogg",100
Sample,39515,0,"m_040.ogg",100
Sample,39545,0,"m_054.ogg",100
Sample,39636,0,"m_057.ogg",100
Sample,39727,0,"s_060.ogg",100
Sample,39757,0,"s_040.ogg",100
Sample,39818,0,"s_064.ogg",100
Sample,39878,0,"s_036.ogg",100
Sample,39909,0,"s_066.ogg",100
Sample,40000,0,"m_074.ogg",100
Sample,40090,0,"m_072.ogg",100
Sample,40121,0,"m_040.ogg",100
Sample,40181,0,"m_071.ogg",100
Sample,40242,0,"m_042.ogg",100
Sample,40272,0,"m_069.ogg",100
Sample,40363,0,"m_067.ogg",100
Sample,40454,0,"s_066.ogg",100
Sample,40484,0,"s_042.ogg",100
Sample,40545,0,"s_069.ogg",100
Sample,40606,0,"s_040.ogg",100
Sample,40636,0,"s_064.ogg",100
Sample,40727,0,"m_063.ogg",100
Sample,40818,0,"m_066.ogg",100
Sample,40848,0,"m_030.ogg",100
Sample,40909,0,"m_060.ogg",100
Sample,40969,0,"m_033.ogg",100
Sample,41000,0,"m_059.ogg",100
Sample,41090,0,"m_057.ogg",100
Sample,41181,0,"m_060.ogg",100
Sample,41212,0,"m_033.ogg",100
Sample,41272,0,"m_055.ogg",100
Sample,41333,0,"m_030.ogg",100
Sample,41363,0,"m_054.ogg",100
Sample,41454,0,"m_057.ogg",100
Sample,41545,0,"m_052.ogg",100
Sample,41575,0,"m_030.ogg",100
Sample,41636,0,"m_051.ogg",100
Sample,41696,0,"m_033.ogg",100
Sample,41727,0,"m_054.ogg",100
Sample,41818,0,"m_048.ogg",100
Sample,41909,0,"s_047.ogg",100
Sample,41939,0,"s_033.ogg",100
Sample,42000,0,"s_050.ogg",100
Sample,42060,0,"s_030.ogg",100
Sample,42090,0,"m_048.ogg",100
Sample,42272,0,"s_047.ogg",100
Sample,42303,0,"m_035.ogg",100
Sample,42363,0,"m_048.ogg",100
Sample,42424,0,"m_040.ogg",100
Sample,42454,0,"s_047.ogg",100
Sample,42545,0,"m_046.ogg",100
Sample,42636,0,"s_047.ogg",100
Sample,42666,0,"s_040.ogg",100
Sample,42727,0,"s_052.ogg",100
Sample,42787,0,"s_035.ogg",100
Sample,42818,0,"s_055.ogg",100
Sample,42909,0,"s_054.ogg",100
Sample,43000,0,"s_052.ogg",100
Sample,43030,0,"m_035.ogg",100
Sample,43090,0,"m_054.ogg",100
Sample,43151,0,"m_040.ogg",100
Sample,43181,0,"s_052.ogg",100
Sample,43272,0,"m_051.ogg",100
Sample,43363,0,"s_052.ogg",100
Sample,43393,0,"s_040.ogg",100
Sample,43454,0,"s_055.ogg",100
Sample,43515,0,"s_035.ogg",100
Sample,43545,0,"s_059.ogg",100
Sample,43636,0,"s_055.ogg",100
Sample,43727,0,"s_054.ogg",100
Sample,43757,0,"m_040.ogg",100
Sample,43818,0,"m_055.ogg",100
Sample,43878,0,"m_042.ogg",100
Sample,43909,0,"s_054.ogg",100
Sample,44000,0,"m_053.ogg",100
Sample,44090,0,"s_054.ogg",100
Sample,44121,0,"s_042.ogg",100
Sample,44181,0,"s_057.ogg",100
Sample,44242,0,"s_040.ogg",100
Sample,44272,0,"s_060.ogg",100
Sample,44363,0,"s_057.ogg",100
Sample,44454,0,"s_056.ogg",100
Sample,44484,0,"m_040.ogg",100
Sample,44545,0,"m_057.ogg",100
Sample,44606,0,"m_044.ogg",100
Sample,44636,0,"s_056.ogg",100
Sample,44727,0,"m_055.ogg",100
Sample,44818,0,"s_056.ogg",100
Sample,44848,0,"s_044.ogg",100
Sample,44909,0,"s_059.ogg",100
Sample,44969,0,"s_040.ogg",100
Sample,45000,0,"s_064.ogg",100
Sample,45181,0,"s_052.ogg",100
Sample,45212,0,"m_040.ogg",100
Sample,45272,0,"m_053.ogg",100
Sample,45333,0,"m_045.ogg",100
Sample,45363,0,"s_052.ogg",100
Sample,45454,0,"m_051.ogg",100
Sample,45545,0,"s_052.ogg",100
Sample,45575,0,"s_045.ogg",100
Sample,45636,0,"s_057.ogg",100
Sample,45696,0,"s_040.ogg",100
Sample,45727,0,"s_060.ogg",100
Sample,45818,0,"s_057.ogg",100
Sample,45909,0,"s_056.ogg",100
Sample,45939,0,"m_040.ogg",100
Sample,46000,0,"m_057.ogg",100
Sample,46060,0,"m_044.ogg",100
Sample,46090,0,"s_056.ogg",100
Sample,46181,0,"m_055.ogg",100
Sample,46272,0,"s_056.ogg",100
Sample,46303,0,"s_044.ogg",100
Sample,46363,0,"s_059.ogg",100
Sample,46424,0,"s_040.ogg",100
Sample,46454,0,"s_064.ogg",100
Sample,46545,0,"s_059.ogg",100
Sample,46636,0,"s_057.ogg",100
Sample,46666,0,"m_040.ogg",100
Sample,46727,0,"m_059.ogg",100
Sample,46787,0,"m_045.ogg",100
Sample,46818,0,"s_057.ogg",100
Sample,46909,0,"m_056.ogg",100
Sample,47000,0,"s_057.ogg",100
Sample,47030,0,"s_045.ogg",100
Sample,47090,0,"s_060.ogg",100
Sample,47151,0,"s_040.ogg",100
Sample,47181,0,"s_064.ogg",100
Sample,47272,0,"s_060.ogg",100
Sample,47363,0,"s_059.ogg",100
Sample,47393,0,"m_033.ogg",100
Sample,47454,0,"m_060.ogg",100
Sample,47515,0,"m_035.ogg",100
Sample,47545,0,"s_059.ogg",100
Sample,47636,0,"m_058.ogg",100
Sample,47727,0,"s_059.ogg",100
Sample,47757,0,"s_035.ogg",100
Sample,47818,0,"s_063.ogg",100
Sample,47878,0,"s_033.ogg",100
Sample,47909,0,"s_066.ogg",100
Sample,48000,0,"s_059.ogg",100
Sample,48090,0,"m_060.ogg",100
Sample,48121,0,"m_035.ogg",100
Sample,48181,0,"s_059.ogg",100
Sample,48242,0,"m_040.ogg",100
Sample,48272,0,"m_058.ogg",100
Sample,48363,0,"m_059.ogg",100
Sample,48454,0,"s_067.ogg",100
Sample,48484,0,"s_040.ogg",100
Sample,48545,0,"s_066.ogg",100
Sample,48606,0,"s_035.ogg",100
Sample,48636,0,"s_065.ogg",100
Sample,48727,0,"m_064.ogg",100
Sample,48818,0,"m_063.ogg",100
Sample,48848,0,"m_035.ogg",100
Sample,48909,0,"m_062.ogg",100
Sample,48969,0,"m_039.ogg",100
Sample,49000,0,"m_061.ogg",100
Sample,49090,0,"m_060.ogg",100
Sample,49181,0,"s_059.ogg",100
Sample,49212,0,"s_039.ogg",100
Sample,49272,0,"s_058.ogg",100
Sample,49333,0,"s_035.ogg",100
Sample,49363,0,"s_057.ogg",100
Sample,49454,0,"s_055.ogg",100
Sample,49545,0,"m_057.ogg",100
Sample,49575,0,"m_035.ogg",100
Sample,49636,0,"s_055.ogg",100
Sample,49696,0,"m_040.ogg",100
Sample,49727,0,"m_054.ogg",100
Sample,49818,0,"m_055.ogg",100
Sample,49909,0,"s_067.ogg",100
Sample,49939,0,"s_040.ogg",100
Sample,50000,0,"s_066.ogg",100
Sample,50060,0,"s_035.ogg",100
Sample,50090,0,"s_065.ogg",100
Sample,50181,0,"m_064.ogg",100
Sample,50272,0,"m_063.ogg",100
Sample,50303,0,"m_040.ogg",100
Sample,50363,0,"m_062.ogg",100
Sample,50424,0,"m_042.ogg",100
Sample,50454,0,"m_061.ogg",100
Sample,50545,0,"m_060.ogg",100
Sample,50636,0,"s_059.ogg",100
Sample,50666,0,"s_042.ogg",100
Sample,50727,0,"s_058.ogg",100
Sample,50787,0,"s_040.ogg",100
Sample,50818,0,"s_057.ogg",100
Sample,50909,0,"m_047.ogg",100
Sample,51090,0,"s_071.ogg",100
Sample,51181,0,"s_070.ogg",100
Sample,51272,0,"s_069.ogg",100
Sample,51363,0,"s_068.ogg",100
Sample,51454,0,"s_067.ogg",100
Sample,51545,0,"s_066.ogg",100
Sample,51636,0,"m_065.ogg",100
Sample,51727,0,"m_064.ogg",100
Sample,51818,0,"m_063.ogg",100
Sample,51909,0,"m_062.ogg",100
Sample,52000,0,"m_061.ogg",100
Sample,52090,0,"m_060.ogg",100
Sample,52181,0,"m_059.ogg",100
Sample,52272,0,"m_058.ogg",100
Sample,52363,0,"m_057.ogg",100
Sample,52454,0,"m_056.ogg",100
Sample,52545,0,"m_055.ogg",100
Sample,52636,0,"s_054.ogg",100
Sample,52727,0,"s_053.ogg",100
Sample,52818,0,"s_052.ogg",100
Sample,52909,0,"s_051.ogg",100
Sample,53000,0,"s_050.ogg",100
Sample,53090,0,"s_049.ogg",100
Sample,53181,0,"s_048.ogg",100
Sample,53272,0,"s_047.ogg",100
Sample,53363,0,"s_046.ogg",100
Sample,53454,0,"s_045.ogg",100
Sample,53545,0,"s_043.ogg",100
Sample,53636,0,"s_042.ogg",100
Sample,53727,0,"s_040.ogg",100
Sample,53818,0,"l_011.ogg",100
Sample,54181,0,"l_072.ogg",100
Sample,54272,0,"m_071.ogg",100
Sample,54363,0,"l_079.ogg",100
Sample,54454,0,"s_067.ogg",100
Sample,54545,0,"l_069.ogg",100
Sample,54636,0,"m_067.ogg",100
Sample,54727,0,"l_076.ogg",100
Sample,54818,0,"s_064.ogg",100
Sample,54909,0,"l_066.ogg",100
Sample,55000,0,"m_064.ogg",100
Sample,55090,0,"l_071.ogg",100
Sample,55181,0,"s_059.ogg",100
Sample,55272,0,"l_060.ogg",100
Sample,55363,0,"m_059.ogg",100
Sample,55454,0,"m_067.ogg",100
Sample,55545,0,"s_055.ogg",100
Sample,55636,0,"m_057.ogg",100
Sample,55727,0,"m_055.ogg",100
Sample,55818,0,"m_064.ogg",100
Sample,55909,0,"s_052.ogg",100
Sample,56000,0,"m_054.ogg",100
Sample,56090,0,"m_052.ogg",100
Sample,56181,0,"m_059.ogg",100
Sample,56272,0,"s_047.ogg",100
Sample,56363,0,"m_048.ogg",100
Sample,56454,0,"m_047.ogg",100
Sample,56545,0,"s_055.ogg",100
Sample,56636,0,"s_043.ogg",100
Sample,56727,0,"s_045.ogg",100
Sample,56818,0,"s_043.ogg",100
Sample,56909,0,"s_052.ogg",100
Sample,57000,0,"s_040.ogg",100
Sample,57090,0,"m_042.ogg",100
Sample,57181,0,"m_040.ogg",100
Sample,57272,0,"m_047.ogg",100
Sample,57363,0,"m_035.ogg",100
Sample,57454,0,"m_042.ogg",100
Sample,57545,0,"s_040.ogg",100
Sample,57636,0,"s_047.ogg",100
Sample,57727,0,"s_035.ogg",100
Sample,57818,0,"m_042.ogg",100
Sample,57909,0,"s_040.ogg",100
Sample,58000,0,"s_048.ogg",100
Sample,58090,0,"s_036.ogg",100
Sample,58181,0,"m_042.ogg",100
Sample,58272,0,"s_040.ogg",100
Sample,58363,0,"s_047.ogg",100
Sample,58454,0,"s_035.ogg",100
Sample,58545,0,"m_042.ogg",100
Sample,58636,0,"s_040.ogg",100
Sample,58727,0,"s_046.ogg",100
Sample,58818,0,"s_034.ogg",100
Sample,58909,0,"m_042.ogg",100
Sample,59000,0,"m_040.ogg",100
Sample,59090,0,"s_047.ogg",100
Sample,59181,0,"s_035.ogg",100
Sample,59272,0,"s_042.ogg",100
Sample,59363,0,"s_039.ogg",100
Sample,59454,0,"s_047.ogg",100
Sample,59545,0,"s_035.ogg",100
Sample,59769,0,"m_023.ogg",100
Sample,59903,0,"m_028.ogg",100
Sample,60169,0,"m_035.ogg",100
Sample,60303,0,"m_040.ogg",100
Sample,60569,0,"m_040.ogg",100
Sample,60703,0,"m_035.ogg",100
Sample,60969,0,"m_028.ogg",100
Sample,61103,0,"m_023.ogg",100
Sample,61369,0,"m_023.ogg",100
Sample,61503,0,"m_028.ogg",100
Sample,61769,0,"m_035.ogg",100
Sample,61903,0,"m_040.ogg",100
Sample,62169,0,"m_040.ogg",100
Sample,62303,0,"m_035.ogg",100
Sample,62569,0,"s_028.ogg",100
Sample,62703,0,"s_023.ogg",100
Sample,62836,0,"m_016.ogg",100
Sample,62969,0,"m_035.ogg",100
Sample,63103,0,"m_039.ogg",100
Sample,63369,0,"m_039.ogg",100
Sample,63503,0,"m_035.ogg",100
Sample,63686,0,"m_051.ogg",100
Sample,63736,0,"m_049.ogg",100
Sample,63769,0,"m_035.ogg",100
Sample,63903,0,"s_039.ogg",100
Sample,64169,0,"s_039.ogg",100
Sample,64303,0,"s_035.ogg",100
Sample,64569,0,"m_035.ogg",100
Sample,64703,0,"m_040.ogg",100
Sample,64969,0,"m_040.ogg",100
Sample,65103,0,"m_035.ogg",100
Sample,65369,0,"m_035.ogg",100
Sample,65503,0,"m_044.ogg",100
Sample,65769,0,"s_044.ogg",100
Sample,65903,0,"s_035.ogg",100
Sample,66169,0,"s_042.ogg",100
Sample,66303,0,"s_035.ogg",100
Sample,66569,0,"s_040.ogg",100
Sample,66703,0,"s_035.ogg",100
Sample,66969,0,"s_039.ogg",100
Sample,67103,0,"s_035.ogg",100
Sample,67369,0,"s_035.ogg",100
Sample,67503,0,"s_032.ogg",100
Sample,67769,0,"m_030.ogg",100
Sample,67903,0,"m_035.ogg",100
Sample,68169,0,"s_035.ogg",100
Sample,68303,0,"s_030.ogg",100
Sample,68569,0,"m_033.ogg",100
Sample,68703,0,"m_037.ogg",100
Sample,68969,0,"s_037.ogg",100
Sample,69103,0,"s_033.ogg",100
Sample,69369,0,"m_032.ogg",100
Sample,69503,0,"m_037.ogg",100
Sample,69769,0,"s_037.ogg",100
Sample,69903,0,"s_032.ogg",100
Sample,70086,0,"m_052.ogg",100
Sample,70136,0,"m_050.ogg",100
Sample,70169,0,"m_037.ogg",100
Sample,70303,0,"m_041.ogg",100
Sample,70569,0,"s_041.ogg",100
Sample,70703,0,"s_037.ogg",100
Sample,70969,0,"s_045.ogg",100
Sample,71103,0,"s_037.ogg",100
Sample,71369,0,"s_044.ogg",100
Sample,71503,0,"s_036.ogg",100
Sample,71769,0,"s_042.ogg",100
Sample,71903,0,"s_037.ogg",100
Sample,72169,0,"s_045.ogg",100
Sample,72303,0,"s_039.ogg",100
Sample,72569,0,"m_035.ogg",100
Sample,72703,0,"m_040.ogg",100
Sample,72969,0,"s_040.ogg",100
Sample,73086,0,"s_052.ogg",100
Sample,73103,0,"s_035.ogg",100
Sample,73136,0,"s_054.ogg",100
Sample,73186,0,"s_052.ogg",100
Sample,73369,0,"m_034.ogg",100
Sample,73503,0,"m_040.ogg",100
Sample,73769,0,"s_040.ogg",100
Sample,73903,0,"s_034.ogg",100
Sample,74169,0,"m_030.ogg",100
Sample,74303,0,"m_035.ogg",100
Sample,74569,0,"s_035.ogg",100
Sample,74703,0,"s_030.ogg",100
Sample,74969,0,"m_030.ogg",100
Sample,75103,0,"m_033.ogg",100
Sample,75369,0,"s_033.ogg",100
Sample,75503,0,"s_030.ogg",100
Sample,75769,0,"m_035.ogg",100
Sample,75903,0,"m_039.ogg",100
Sample,76169,0,"m_039.ogg",100
Sample,76303,0,"m_035.ogg",100
Sample,76486,0,"m_051.ogg",100
Sample,76536,0,"m_049.ogg",100
Sample,76569,0,"m_035.ogg",100
Sample,76703,0,"s_039.ogg",100
Sample,76969,0,"s_039.ogg",100
Sample,77103,0,"s_035.ogg",100
Sample,77369,0,"m_035.ogg",100
Sample,77503,0,"m_040.ogg",100
Sample,77769,0,"m_040.ogg",100
Sample,77903,0,"m_035.ogg",100
Sample,78169,0,"m_035.ogg",100
Sample,78303,0,"m_044.ogg",100
Sample,78569,0,"s_044.ogg",100
Sample,78703,0,"s_035.ogg",100
Sample,78969,0,"s_042.ogg",100
Sample,79103,0,"s_035.ogg",100
Sample,79369,0,"s_040.ogg",100
Sample,79503,0,"s_035.ogg",100
Sample,79769,0,"s_039.ogg",100
Sample,79886,0,"s_054.ogg",100
Sample,79903,0,"s_035.ogg",100
Sample,79936,0,"s_052.ogg",100
Sample,79986,0,"s_054.ogg",100
Sample,80036,0,"m_056.ogg",100
Sample,80169,0,"s_035.ogg",100
Sample,80303,0,"s_032.ogg",100
Sample,80569,0,"m_030.ogg",100
Sample,80703,0,"m_035.ogg",100
Sample,80969,0,"s_035.ogg",100
Sample,81103,0,"s_030.ogg",100
Sample,81369,0,"m_033.ogg",100
Sample,81503,0,"m_037.ogg",100
Sample,81769,0,"s_037.ogg",100
Sample,81903,0,"s_033.ogg",100
Sample,82169,0,"m_032.ogg",100
Sample,82303,0,"m_037.ogg",100
Sample,82569,0,"s_037.ogg",100
Sample,82703,0,"s_032.ogg",100
Sample,82886,0,"m_052.ogg",100
Sample,82936,0,"m_050.ogg",100
Sample,82969,0,"m_037.ogg",100
Sample,83103,0,"m_041.ogg",100
Sample,83369,0,"s_041.ogg",100
Sample,83503,0,"s_037.ogg",100
Sample,83769,0,"s_045.ogg",100
Sample,83903,0,"s_037.ogg",100
Sample,84169,0,"s_044.ogg",100
Sample,84303,0,"s_036.ogg",100
Sample,84569,0,"s_042.ogg",100
Sample,84703,0,"s_037.ogg",100
Sample,84969,0,"s_045.ogg",100
Sample,85103,0,"s_039.ogg",100
Sample,85369,0,"m_035.ogg",100
Sample,85503,0,"m_040.ogg",100
Sample,85769,0,"s_040.ogg",100
Sample,85886,0,"s_047.ogg",100
Sample,85903,0,"s_035.ogg",100
Sample,85936,0,"s_049.ogg",100
Sample,85986,0,"s_047.ogg",100
Sample,86169,0,"m_035.ogg",100
Sample,86303,0,"m_039.ogg",100
Sample,86569,0,"s_039.ogg",100
Sample,86703,0,"s_035.ogg",100
Sample,86969,0,"m_035.ogg",100
Sample,87103,0,"m_039.ogg",100
Sample,87369,0,"s_039.ogg",100
Sample,87503,0,"s_035.ogg",100
Sample,87769,0,"m_035.ogg",100
Sample,87903,0,"m_040.ogg",100
Sample,88169,0,"s_040.ogg",100
Sample,88303,0,"s_035.ogg",100
Sample,88569,0,"m_030.ogg",100
Sample,88703,0,"m_035.ogg",100
Sample,88969,0,"s_035.ogg",100
Sample,89103,0,"s_030.ogg",100
Sample,89286,0,"m_051.ogg",100
Sample,89336,0,"m_049.ogg",100
Sample,89369,0,"m_030.ogg",100
Sample,89503,0,"m_034.ogg",100
Sample,89769,0,"s_034.ogg",100
Sample,89903,0,"s_030.ogg",100
Sample,90169,0,"m_030.ogg",100
Sample,90303,0,"m_035.ogg",100
Sample,90569,0,"s_035.ogg",100
Sample,90703,0,"s_030.ogg",100
Sample,90969,0,"m_035.ogg",100
Sample,91103,0,"m_040.ogg",100
Sample,91369,0,"s_040.ogg",100
Sample,91503,0,"s_035.ogg",100
Sample,91769,0,"m_030.ogg",100
Sample,91903,0,"m_035.ogg",100
Sample,92169,0,"s_035.ogg",100
Sample,92303,0,"s_030.ogg",100
Sample,92569,0,"m_030.ogg",100
Sample,92703,0,"m_034.ogg",100
Sample,92969,0,"s_034.ogg",100
Sample,93103,0,"s_030.ogg",100
Sample,93369,0,"m_030.ogg",100
Sample,93503,0,"m_035.ogg",100
Sample,93769,0,"s_035.ogg",100
Sample,93903,0,"s_030.ogg",100
Sample,94169,0,"m_033.ogg",100
Sample,94303,0,"m_037.ogg",100
Sample,94569,0,"s_037.ogg",100
Sample,94703,0,"s_033.ogg",100
Sample,94969,0,"m_032.ogg",100
Sample,95103,0,"m_037.ogg",100
Sample,95369,0,"s_037.ogg",100
Sample,95503,0,"s_032.ogg",100
Sample,95686,0,"m_052.ogg",100
Sample,95736,0,"m_050.ogg",100
Sample,95769,0,"m_037.ogg",100
Sample,95903,0,"m_041.ogg",100
Sample,96169,0,"s_041.ogg",100
Sample,96303,0,"s_037.ogg",100
Sample,96569,0,"s_045.ogg",100
Sample,96703,0,"s_037.ogg",100
Sample,96969,0,"s_044.ogg",100
Sample,97103,0,"s_036.ogg",100
Sample,97369,0,"s_042.ogg",100
Sample,97503,0,"s_037.ogg",100
Sample,97769,0,"s_045.ogg",100
Sample,97903,0,"s_039.ogg",100
Sample,98169,0,"m_035.ogg",100
Sample,98303,0,"m_040.ogg",100
Sample,98569,0,"s_040.ogg",100
Sample,98686,0,"s_047.ogg",100
Sample,98703,0,"s_035.ogg",100
Sample,98736,0,"s_049.ogg",100
Sample,98786,0,"s_047.ogg",100
Sample,98969,0,"m_035.ogg",100
Sample,99103,0,"m_039.ogg",100
Sample,99369,0,"s_039.ogg",100
Sample,99503,0,"s_035.ogg",100
Sample,99769,0,"m_035.ogg",100
Sample,99903,0,"m_039.ogg",100
Sample,100169,0,"s_039.ogg",100
Sample,100303,0,"s_035.ogg",100
Sample,100569,0,"m_035.ogg",100
Sample,100703,0,"m_039.ogg",100
Sample,100969,0,"s_039.ogg",100
Sample,101103,0,"s_035.ogg",100
Sample,101236,0,"m_042.ogg",100
Sample,101327,0,"m_040.ogg",100
Sample,101509,0,"m_035.ogg",100
Sample,101600,0,"m_028.ogg",100
Sample,101690,0,"s_047.ogg",100
Sample,101781,0,"s_023.ogg",100
Sample,101872,0,"s_043.ogg",100
Sample,101963,0,"m_048.ogg",100
Sample,102054,0,"m_047.ogg",100
Sample,102236,0,"m_043.ogg",100
Sample,102327,0,"m_048.ogg",100
Sample,102327,0,"m_027.ogg",100
Sample,102418,0,"s_047.ogg",100
Sample,102509,0,"s_023.ogg",100
Sample,102600,0,"s_042.ogg",100
Sample,102690,0,"m_048.ogg",100
Sample,102781,0,"m_047.ogg",100
Sample,102963,0,"m_042.ogg",100
Sample,103054,0,"m_048.ogg",100
Sample,103054,0,"m_028.ogg",100
Sample,103145,0,"s_047.ogg",100
Sample,103236,0,"s_023.ogg",100
Sample,103327,0,"s_040.ogg",100
Sample,103418,0,"m_042.ogg",100
Sample,103509,0,"m_040.ogg",100
Sample,103690,0,"m_035.ogg",100
Sample,103781,0,"m_042.ogg",100
Sample,103781,0,"m_027.ogg",100
Sample,103872,0,"s_040.ogg",100
Sample,103963,0,"s_023.ogg",100
Sample,104054,0,"s_035.ogg",100
Sample,104145,0,"m_042.ogg",100
Sample,104236,0,"m_040.ogg",100
Sample,104418,0,"m_035.ogg",100
Sample,104509,0,"m_028.ogg",100
Sample,104600,0,"s_047.ogg",100
Sample,104690,0,"s_023.ogg",100
Sample,104781,0,"s_043.ogg",100
Sample,104872,0,"m_048.ogg",100
Sample,104963,0,"m_047.ogg",100
Sample,105145,0,"m_043.ogg",100
Sample,105236,0,"m_048.ogg",100
Sample,105236,0,"m_027.ogg",100
Sample,105327,0,"s_047.ogg",100
Sample,105418,0,"s_023.ogg",100
Sample,105509,0,"s_042.ogg",100
Sample,105600,0,"m_048.ogg",100
Sample,105690,0,"m_047.ogg",100
Sample,105872,0,"m_042.ogg",100
Sample,105963,0,"m_048.ogg",100
Sample,105963,0,"m_028.ogg",100
Sample,106054,0,"s_047.ogg",100
Sample,106145,0,"s_023.ogg",100
Sample,106236,0,"s_040.ogg",100
Sample,106327,0,"m_042.ogg",100
Sample,106418,0,"m_040.ogg",100
Sample,106600,0,"m_035.ogg",100
Sample,106690,0,"m_042.ogg",100
Sample,106690,0,"m_027.ogg",100
Sample,106781,0,"s_040.ogg",100
Sample,106872,0,"s_023.ogg",100
Sample,106963,0,"s_035.ogg",100
Sample,107054,0,"m_042.ogg",100
Sample,107145,0,"m_040.ogg",100
Sample,107327,0,"m_035.ogg",100
Sample,107418,0,"m_028.ogg",100
Sample,107509,0,"m_047.ogg",100
Sample,107600,0,"m_023.ogg",100
Sample,107690,0,"s_043.ogg",100
Sample,107781,0,"m_045.ogg",100
Sample,107872,0,"m_043.ogg",100
Sample,108054,0,"m_040.ogg",100
Sample,108145,0,"m_048.ogg",100
Sample,108145,0,"m_028.ogg",100
Sample,108236,0,"s_047.ogg",100
Sample,108327,0,"s_023.ogg",100
Sample,108418,0,"s_043.ogg",100
Sample,108509,0,"m_042.ogg",100
Sample,108600,0,"m_040.ogg",100
Sample,108781,0,"m_035.ogg",100
Sample,108872,0,"m_028.ogg",100
Sample,108963,0,"m_047.ogg",100
Sample,109054,0,"m_023.ogg",100
Sample,109145,0,"s_043.ogg",100
Sample,109236,0,"m_045.ogg",100
Sample,109327,0,"m_043.ogg",100
Sample,109509,0,"m_040.ogg",100
Sample,109600,0,"m_048.ogg",100
Sample,109600,0,"m_028.ogg",100
Sample,109690,0,"s_047.ogg",100
Sample,109781,0,"s_023.ogg",100
Sample,109872,0,"s_043.ogg",100
Sample,109963,0,"m_045.ogg",100
Sample,110054,0,"m_043.ogg",100
Sample,110236,0,"m_040.ogg",100
Sample,110327,0,"m_028.ogg",100
Sample,110327,0,"m_048.ogg",100
Sample,110418,0,"s_047.ogg",100
Sample,110509,0,"s_023.ogg",100
Sample,110600,0,"s_040.ogg",100
Sample,110690,0,"m_045.ogg",100
Sample,110781,0,"m_043.ogg",100
Sample,110963,0,"m_040.ogg",100
Sample,111054,0,"m_048.ogg",100
Sample,111054,0,"m_028.ogg",100
Sample,111145,0,"s_047.ogg",100
Sample,111236,0,"s_023.ogg",100
Sample,111327,0,"s_040.ogg",100
Sample,111418,0,"m_045.ogg",100
Sample,111509,0,"m_043.ogg",100
Sample,111690,0,"m_040.ogg",100
Sample,111781,0,"m_028.ogg",100
Sample,111781,0,"m_048.ogg",100
Sample,111872,0,"m_047.ogg",100
Sample,111963,0,"m_023.ogg",100
Sample,112054,0,"m_040.ogg",100
Sample,112145,0,"m_045.ogg",100
Sample,112236,0,"m_043.ogg",100
Sample,112418,0,"m_040.ogg",100
Sample,112509,0,"m_048.ogg",100
Sample,112509,0,"m_028.ogg",100
Sample,112600,0,"s_047.ogg",100
Sample,112690,0,"s_023.ogg",100
Sample,112781,0,"s_040.ogg",100
Sample,112872,0,"m_042.ogg",100
Sample,112963,0,"m_040.ogg",100
Sample,113145,0,"m_035.ogg",100
Sample,113236,0,"m_042.ogg",100
Sample,113327,0,"m_040.ogg",100
Sample,113509,0,"m_035.ogg",100
Sample,113600,0,"m_042.ogg",100
Sample,113690,0,"m_040.ogg",100
Sample,113872,0,"m_035.ogg",100
Sample,113963,0,"m_042.ogg",100
Sample,114054,0,"m_040.ogg",100
Sample,114236,0,"m_035.ogg",100
Sample,114327,0,"m_042.ogg",100
Sample,114418,0,"m_040.ogg",100
Sample,114600,0,"m_035.ogg",100
Sample,114690,0,"m_042.ogg",100
Sample,114781,0,"m_040.ogg",100
Sample,114963,0,"m_035.ogg",100
Sample,115054,0,"m_042.ogg",100
Sample,115145,0,"m_040.ogg",100
Sample,115327,0,"m_035.ogg",100
Sample,115418,0,"m_042.ogg",100
Sample,115509,0,"s_040.ogg",100
Sample,115690,0,"s_035.ogg",100
Sample,115781,0,"l_016.ogg",100
Sample,115781,0,"m_042.ogg",100
Sample,115872,0,"m_040.ogg",100
Sample,116054,0,"m_035.ogg",100
Sample,116145,0,"m_042.ogg",100
Sample,116236,0,"m_040.ogg",100
Sample,116418,0,"m_035.ogg",100
Sample,116509,0,"m_042.ogg",100
Sample,116600,0,"m_040.ogg",100
Sample,116781,0,"m_035.ogg",100
Sample,116872,0,"m_042.ogg",100
Sample,116963,0,"s_040.ogg",100
Sample,117145,0,"m_035.ogg",100
Sample,117236,0,"m_042.ogg",100
Sample,117327,0,"m_040.ogg",100
Sample,117509,0,"m_035.ogg",100
Sample,117600,0,"m_042.ogg",100
Sample,117690,0,"m_040.ogg",100
Sample,117872,0,"m_035.ogg",100
Sample,117963,0,"m_042.ogg",100
Sample,118054,0,"m_040.ogg",100
Sample,118236,0,"m_035.ogg",100
Sample,118327,0,"m_042.ogg",100
Sample,118418,0,"s_040.ogg",100
Sample,118600,0,"s_035.ogg",100
Sample,118690,0,"m_042.ogg",100
Sample,118781,0,"m_040.ogg",100
Sample,118963,0,"m_035.ogg",100
Sample,119054,0,"m_042.ogg",100
Sample,119145,0,"m_040.ogg",100
Sample,119327,0,"m_035.ogg",100
Sample,119418,0,"m_042.ogg",100
Sample,119509,0,"m_040.ogg",100
Sample,119690,0,"m_035.ogg",100
Sample,119781,0,"m_042.ogg",100
Sample,119872,0,"s_040.ogg",100
Sample,120054,0,"s_035.ogg",100
Sample,120145,0,"m_042.ogg",100
Sample,120236,0,"m_040.ogg",100
Sample,120418,0,"m_035.ogg",100
Sample,120509,0,"m_042.ogg",100
Sample,120600,0,"m_040.ogg",100
Sample,120781,0,"m_035.ogg",100
Sample,120872,0,"m_042.ogg",100
Sample,120963,0,"m_040.ogg",100
Sample,121145,0,"m_035.ogg",100
Sample,121236,0,"m_042.ogg",100
Sample,121327,0,"s_040.ogg",100
Sample,121509,0,"s_035.ogg",100
Sample,121600,0,"m_042.ogg",100
Sample,121690,0,"m_040.ogg",100
Sample,121872,0,"m_035.ogg",100
Sample,121963,0,"m_042.ogg",100
Sample,122054,0,"m_040.ogg",100
Sample,122236,0,"m_035.ogg",100
Sample,122327,0,"m_042.ogg",100
Sample,122418,0,"m_040.ogg",100
Sample,122600,0,"m_035.ogg",100
Sample,122690,0,"m_042.ogg",100
Sample,122781,0,"m_040.ogg",100
Sample,122963,0,"m_035.ogg",100
Sample,123054,0,"m_042.ogg",100
Sample,123145,0,"m_040.ogg",100
Sample,123327,0,"m_035.ogg",100
Sample,123418,0,"m_042.ogg",100
Sample,123509,0,"m_040.ogg",100
Sample,123690,0,"m_035.ogg",100
Sample,123781,0,"m_042.ogg",100
Sample,123872,0,"m_040.ogg",100
Sample,124054,0,"m_035.ogg",100
Sample,124145,0,"m_042.ogg",100
Sample,124236,0,"s_040.ogg",100
Sample,124418,0,"s_035.ogg",100
Sample,124509,0,"m_042.ogg",100
Sample,124600,0,"m_040.ogg",100
Sample,124781,0,"m_032.ogg",100
Sample,124872,0,"m_042.ogg",100
Sample,124963,0,"m_040.ogg",100
Sample,125145,0,"m_032.ogg",100
Sample,125236,0,"m_042.ogg",100
Sample,125327,0,"m_040.ogg",100
Sample,125509,0,"m_032.ogg",100
Sample,125600,0,"m_042.ogg",100
Sample,125690,0,"s_040.ogg",100
Sample,125872,0,"s_032.ogg",100
Sample,125963,0,"m_044.ogg",100
Sample,126054,0,"m_042.ogg",100
Sample,126236,0,"m_035.ogg",100
Sample,126327,0,"m_044.ogg",100
Sample,126418,0,"m_042.ogg",100
Sample,126600,0,"m_035.ogg",100
Sample,126690,0,"m_044.ogg",100
Sample,126781,0,"m_042.ogg",100
Sample,126963,0,"m_035.ogg",100
Sample,127054,0,"m_044.ogg",100
Sample,127145,0,"s_042.ogg",100
Sample,127327,0,"s_035.ogg",100
Sample,127600,0,"l_039.ogg",100
Sample,127645,0,"l_042.ogg",100
Sample,129054,0,"l_035.ogg",100
Sample,129100,0,"l_040.ogg",100

[TimingPoints]
0,363.636363636366,4,2,0,100,1,0
59636.364,400,4,2,0,100,1,0
59636.364,-90.9090909090909,4,2,0,100,0,0
101236.364,363.636363636366,4,2,0,100,1,0

[HitObjects]
230,192,1454,5,0,0:0:0:0:l_023.ogg
281,192,1454,1,0,0:0:0:0:l_035.ogg
25,192,4363,1,0,0:0:0:0:l_016.ogg
486,192,4727,1,0,0:0:0:0:m_043.ogg
25,192,5090,1,0,0:0:0:0:m_028.ogg
486,192,5454,1,0,0:0:0:0:m_043.ogg
25,192,5818,1,0,0:0:0:0:m_028.ogg
486,192,6181,1,0,0:0:0:0:m_043.ogg
25,192,6545,1,0,0:0:0:0:m_028.ogg
486,192,6909,1,0,0:0:0:0:m_043.ogg
76,192,7272,1,0,0:0:0:0:m_028.ogg
435,192,7636,1,0,0:0:0:0:m_043.ogg
179,192,8000,1,0,0:0:0:0:m_031.ogg
435,192,8363,1,0,0:0:0:0:m_043.ogg
76,192,8727,1,0,0:0:0:0:m_028.ogg
435,192,9090,1,0,0:0:0:0:m_043.ogg
179,192,9454,1,0,0:0:0:0:m_031.ogg
435,192,9818,1,0,0:0:0:0:m_043.ogg
128,192,10181,1,0,0:0:0:0:m_030.ogg
384,192,10545,1,0,0:0:0:0:m_045.ogg
230,192,10909,1,0,0:0:0:0:m_033.ogg
486,192,11272,1,0,0:0:0:0:m_048.ogg
25,192,11636,1,0,0:0:0:0:m_023.ogg
281,192,12000,1,0,0:0:0:0:m_039.ogg
25,192,12363,1,0,0:0:0:0:m_023.ogg
281,192,12727,1,0,0:0:0:0:m_039.ogg
76,192,13090,1,0,0:0:0:0:m_028.ogg
435,192,13454,1,0,0:0:0:0:m_043.ogg
179,192,13818,1,0,0:0:0:0:m_031.ogg
435,192,14181,1,0,0:0:0:0:m_043.ogg
76,192,14545,1,0,0:0:0:0:m_028.ogg
435,192,14909,1,0,0:0:0:0:m_043.ogg
179,192,15272,1,0,0:0:0:0:m_031.ogg
332,192,15636,1,0,0:0:0:0:m_040.ogg
128,192,16000,1,0,0:0:0:0:m_030.ogg
384,192,16363,1,0,0:0:0:0:m_042.ogg
128,192,16727,1,0,0:0:0:0:m_030.ogg
486,192,17090,1,0,0:0:0:0:m_046.ogg
25,192,17454,1,0,0:0:0:0:m_023.ogg
281,192,17818,1,0,0:0:0:0:m_038.ogg
25,192,18181,1,0,0:0:0:0:m_023.ogg
281,192,18545,1,0,0:0:0:0:m_038.ogg
76,192,18909,1,0,0:0:0:0:m_024.ogg
486,192,18909,1,0,0:0:0:0:m_047.ogg
179,192,19272,1,0,0:0:0:0:m_036.ogg
435,192,19272,1,0,0:0:0:0:m_045.ogg
76,192,19636,1,0,0:0:0:0:m_024.ogg
332,192,19636,1,0,0:0:0:0:m_044.ogg
179,192,20000,1,0,0:0:0:0:m_036.ogg
384,192,20000,1,0,0:0:0:0:m_045.ogg
128,192,20363,1,0,0:0:0:0:m_026.ogg
281,192,20363,1,0,0:0:0:0:m_040.ogg
230,192,20727,1,0,0:0:0:0:m_038.ogg
332,192,20727,1,0,0:0:0:0:m_042.ogg
25,192,21090,1,0,0:0:0:0:m_019.ogg
384,192,21090,1,0,0:0:0:0:m_043.ogg
128,192,21454,1,0,0:0:0:0:m_035.ogg
435,192,21454,1,0,0:0:0:0:m_047.ogg
76,192,21818,1,0,0:0:0:0:m_024.ogg
486,192,21818,1,0,0:0:0:0:m_047.ogg
179,192,22181,1,0,0:0:0:0:m_036.ogg
435,192,22181,1,0,0:0:0:0:m_045.ogg
76,192,22545,1,0,0:0:0:0:m_024.ogg
332,192,22545,1,0,0:0:0:0:m_044.ogg
179,192,22909,1,0,0:0:0:0:m_036.ogg
384,192,22909,1,0,0:0:0:0:m_045.ogg
128,192,23272,1,0,0:0:0:0:m_026.ogg
281,192,23272,1,0,0:0:0:0:m_044.ogg
230,192,23636,1,0,0:0:0:0:m_038.ogg
332,192,23636,1,0,0:0:0:0:m_045.ogg
25,192,24000,1,0,0:0:0:0:m_019.ogg
435,192,24000,1,0,0:0:0:0:m_048.ogg
128,192,24363,1,0,0:0:0:0:m_035.ogg
384,192,24363,1,0,0:0:0:0:m_047.ogg
76,192,24727,1,0,0:0:0:0:m_024.ogg
486,192,24727,1,0,0:0:0:0:m_047.ogg
179,192,25090,1,0,0:0:0:0:m_036.ogg
435,192,25090,1,0,0:0:0:0:m_045.ogg
76,192,25454,1,0,0:0:0:0:m_024.ogg
332,192,25454,1,0,0:0:0:0:m_044.ogg
179,192,25818,1,0,0:0:0:0:m_036.ogg
384,192,25818,1,0,0:0:0:0:m_045.ogg
128,192,26181,1,0,0:0:0:0:m_026.ogg
281,192,26181,1,0,0:0:0:0:m_040.ogg
230,192,26545,1,0,0:0:0:0:m_038.ogg
332,192,26545,1,0,0:0:0:0:m_042.ogg
25,192,26909,1,0,0:0:0:0:m_019.ogg
384,192,26909,1,0,0:0:0:0:m_043.ogg
128,192,27272,1,0,0:0:0:0:m_035.ogg
435,192,27272,1,0,0:0:0:0:m_047.ogg
76,192,27636,1,0,0:0:0:0:m_024.ogg
384,192,27636,1,0,0:0:0:0:m_047.ogg
179,192,28000,1,0,0:0:0:0:m_036.ogg
332,192,28000,1,0,0:0:0:0:m_045.ogg
76,192,28363,1,0,0:0:0:0:m_024.ogg
486,192,28363,1,0,0:0:0:0:m_054.ogg
179,192,28727,1,0,0:0:0:0:m_036.ogg
435,192,28727,1,0,0:0:0:0:m_052.ogg
25,192,29090,1,0,0:0:0:0:m_023.ogg
384,192,29090,1,0,0:0:0:0:m_052.ogg
230,192,29454,1,0,0:0:0:0:m_039.ogg
332,192,29454,1,0,0:0:0:0:m_051.ogg
25,192,29818,1,0,0:0:0:0:m_023.ogg
332,192,29818,1,0,0:0:0:0:m_051.ogg
230,192,30181,1,0,0:0:0:0:m_039.ogg
332,192,30181,1,0,0:0:0:0:m_051.ogg
25,192,30545,1,0,0:0:0:0:m_024.ogg
435,192,30545,1,0,0:0:0:0:m_051.ogg
230,192,30909,1,0,0:0:0:0:m_038.ogg
384,192,30909,1,0,0:0:0:0:m_050.ogg
76,192,31272,1,0,0:0:0:0:m_025.ogg
384,192,31272,1,0,0:0:0:0:m_050.ogg
230,192,31636,1,0,0:0:0:0:m_037.ogg
332,192,31636,1,0,0:0:0:0:m_049.ogg
128,192,32000,1,0,0:0:0:0:m_027.ogg
332,192,32000,1,0,0:0:0:0:m_049.ogg
179,192,32363,1,0,0:0:0:0:m_036.ogg
281,192,32363,1,0,0:0:0:0:m_048.ogg
128,192,32727,1,0,0:0:0:0:m_027.ogg
281,192,32727,1,0,0:0:0:0:m_048.ogg
179,192,33090,1,0,0:0:0:0:m_036.ogg
281,192,33090,1,0,0:0:0:0:m_048.ogg
25,192,33454,1,0,0:0:0:0:m_024.ogg
486,192,33454,1,0,0:0:0:0:m_051.ogg
230,192,33818,1,0,0:0:0:0:m_038.ogg
435,192,33818,1,0,0:0:0:0:m_050.ogg
76,192,34181,1,0,0:0:0:0:m_025.ogg
435,192,34181,1,0,0:0:0:0:m_050.ogg
230,192,34545,1,0,0:0:0:0:m_037.ogg
384,192,34545,1,0,0:0:0:0:m_049.ogg
128,192,34909,1,0,0:0:0:0:m_027.ogg
384,192,34909,1,0,0:0:0:0:m_049.ogg
179,192,35272,1,0,0:0:0:0:m_036.ogg
332,192,35272,1,0,0:0:0:0:m_048.ogg
128,192,35636,1,0,0:0:0:0:m_027.ogg
332,192,35636,1,0,0:0:0:0:m_048.ogg
179,192,36000,1,0,0:0:0:0:m_035.ogg
281,192,36000,1,0,0:0:0:0:m_047.ogg
76,192,36363,1,0,0:0:0:0:m_028.ogg
435,192,36727,1,0,0:0:0:0:m_043.ogg
179,192,37090,1,0,0:0:0:0:m_031.ogg
435,192,37454,1,0,0:0:0:0:m_043.ogg
76,192,37818,1,0,0:0:0:0:m_028.ogg
435,192,38181,1,0,0:0:0:0:m_043.ogg
179,192,38545,1,0,0:0:0:0:m_031.ogg
435,192,38909,1,0,0:0:0:0:m_043.ogg
128,192,39272,1,0,0:0:0:0:m_030.ogg
384,192,39636,1,0,0:0:0:0:m_045.ogg
230,192,40000,1,0,0:0:0:0:m_033.ogg
486,192,40363,1,0,0:0:0:0:m_048.ogg
25,192,40727,1,0,0:0:0:0:m_023.ogg
281,192,41090,1,0,0:0:0:0:m_039.ogg
25,192,41454,1,0,0:0:0:0:m_023.ogg
281,192,41818,1,0,0:0:0:0:m_039.ogg
76,192,42181,1,0,0:0:0:0:m_028.ogg
332,192,42545,1,0,0:0:0:0:m_043.ogg
179,192,42909,1,0,0:0:0:0:m_031.ogg
332,192,43272,1,0,0:0:0:0:m_043.ogg
25,192,43636,1,0,0:0:0:0:m_033.ogg
384,192,44000,1,0,0:0:0:0:m_048.ogg
128,192,44363,1,0,0:0:0:0:m_035.ogg
486,192,44727,1,0,0:0:0:0:m_050.ogg
230,192,45090,1,0,0:0:0:0:m_036.ogg
384,192,45454,1,0,0:0:0:0:m_048.ogg
128,192,45818,1,0,0:0:0:0:m_035.ogg
486,192,46181,1,0,0:0:0:0:m_050.ogg
179,192,46545,1,0,0:0:0:0:m_036.ogg
435,192,46909,1,0,0:0:0:0:m_048.ogg
76,192,47272,1,0,0:0:0:0:m_027.ogg
332,192,47636,1,0,0:0:0:0:m_042.ogg
25,192,48000,1,0,0:0:0:0:m_028.ogg
281,192,48363,1,0,0:0:0:0:m_043.ogg
76,192,48727,1,0,0:0:0:0:m_030.ogg
332,192,49090,1,0,0:0:0:0:m_045.ogg
128,192,49454,1,0,0:0:0:0:m_031.ogg
384,192,49818,1,0,0:0:0:0:m_043.ogg
179,192,50181,1,0,0:0:0:0:m_033.ogg
435,192,50545,1,0,0:0:0:0:m_048.ogg
25,192,50909,1,0,0:0:0:0:s_059.ogg
230,192,50909,1,0,0:0:0:0:m_035.ogg
281,192,50909,1,0,0:0:0:0:m_040.ogg
486,192,50909,1,0,0:0:0:0:m_043.ogg
76,192,51636,1,0,0:0:0:0:l_034.ogg
179,192,51666,1,0,0:0:0:0:l_040.ogg
332,192,51696,1,0,0:0:0:0:l_043.ogg
435,192,51727,1,0,0:0:0:0:l_048.ogg
25,192,53818,1,0,0:0:0:0:m_035.ogg
128,192,53818,1,0,0:0:0:0:l_023.ogg
384,192,54181,1,0,0:0:0:0:m_055.ogg
486,192,54181,1,0,0:0:0:0:m_043.ogg
332,192,54545,1,0,0:0:0:0:m_040.ogg
435,192,54545,1,0,0:0:0:0:m_052.ogg
281,192,54909,1,0,0:0:0:0:m_047.ogg
384,192,54909,1,0,0:0:0:0:m_035.ogg
230,192,55272,1,0,0:0:0:0:m_043.ogg
332,192,55272,1,0,0:0:0:0:m_031.ogg
179,192,55636,1,0,0:0:0:0:m_028.ogg
281,192,55636,1,0,0:0:0:0:m_040.ogg
128,192,56000,1,0,0:0:0:0:m_035.ogg
230,192,56000,1,0,0:0:0:0:m_023.ogg
76,192,56363,1,0,0:0:0:0:m_019.ogg
179,192,56363,1,0,0:0:0:0:m_031.ogg
25,192,56727,1,0,0:0:0:0:m_016.ogg
128,192,56727,1,0,0:0:0:0:m_028.ogg
76,192,57090,1,0,0:0:0:0:m_011.ogg
332,192,57090,1,0,0:0:0:0:m_023.ogg
76,192,57454,1,0,0:0:0:0:m_011.ogg
332,192,57454,1,0,0:0:0:0:m_023.ogg
179,192,57818,1,0,0:0:0:0:m_012.ogg
435,192,57818,1,0,0:0:0:0:m_024.ogg
128,192,58181,1,0,0:0:0:0:m_011.ogg
384,192,58181,1,0,0:0:0:0:m_023.ogg
76,192,58545,1,0,0:0:0:0:m_010.ogg
332,192,58545,1,0,0:0:0:0:m_022.ogg
128,192,58909,1,0,0:0:0:0:m_011.ogg
384,192,58909,1,0,0:0:0:0:m_023.ogg
25,192,59636,1,0,0:0:0:0:l_016.ogg
230,192,60036,1,0,0:0:0:0:m_032.ogg
486,192,60436,1,0,0:0:0:0:l_044.ogg
281,192,60836,1,0,0:0:0:0:m_032.ogg
25,192,61236,1,0,0:0:0:0:m_016.ogg
230,192,61636,1,0,0:0:0:0:m_032.ogg
486,192,62036,1,0,0:0:0:0:m_044.ogg
281,192,62436,1,0,0:0:0:0:m_032.ogg
76,192,62836,1,0,0:0:0:0:m_023.ogg
332,192,62836,1,0,0:0:0:0:m_047.ogg
128,192,63236,1,0,0:0:0:0:m_042.ogg
25,192,63636,1,0,0:0:0:0:m_028.ogg
384,192,63636,128,0,63836:0:0:0:0:s_049.ogg
281,192,63836,1,0,0:0:0:0:s_047.ogg
179,192,64036,1,0,0:0:0:0:s_045.ogg
332,192,64036,1,0,0:0:0:0:s_052.ogg
384,192,64236,1,0,0:0:0:0:s_054.ogg
25,192,64436,1,0,0:0:0:0:m_028.ogg
435,192,64436,1,0,0:0:0:0:m_056.ogg
128,192,64836,1,0,0:0:0:0:m_044.ogg
25,192,65236,1,0,0:0:0:0:m_028.ogg
486,192,65236,1,0,0:0:0:0:m_059.ogg
230,192,65636,1,0,0:0:0:0:m_047.ogg
179,192,66036,1,0,0:0:0:0:m_045.ogg
435,192,66036,1,0,0:0:0:0:m_057.ogg
128,192,66436,1,0,0:0:0:0:m_044.ogg
384,192,66436,1,0,0:0:0:0:m_056.ogg
76,192,66836,1,0,0:0:0:0:m_042.ogg
332,192,66836,1,0,0:0:0:0:m_054.ogg
128,192,67236,1,0,0:0:0:0:m_040.ogg
384,192,67236,1,0,0:0:0:0:m_056.ogg
332,192,67536,1,0,0:0:0:0:s_052.ogg
25,192,67636,1,0,0:0:0:0:m_023.ogg
281,192,67636,1,0,0:0:0:0:m_047.ogg
179,192,68036,1,0,0:0:0:0:m_039.ogg
25,192,68436,1,0,0:0:0:0:m_021.ogg
332,192,68436,1,0,0:0:0:0:l_049.ogg
230,192,68836,1,0,0:0:0:0:m_040.ogg
76,192,69236,1,0,0:0:0:0:m_025.ogg
179,192,69636,1,0,0:0:0:0:m_041.ogg
76,192,70036,1,0,0:0:0:0:m_025.ogg
435,192,70036,128,0,70236:0:0:0:0:s_050.ogg
332,192,70236,1,0,0:0:0:0:m_049.ogg
230,192,70436,1,0,0:0:0:0:m_047.ogg
384,192,70436,1,0,0:0:0:0:m_054.ogg
435,192,70636,1,0,0:0:0:0:s_056.ogg
25,192,70836,1,0,0:0:0:0:m_030.ogg
486,192,70836,1,0,0:0:0:0:m_057.ogg
76,192,71236,1,0,0:0:0:0:m_032.ogg
435,192,71236,1,0,0:0:0:0:m_056.ogg
128,192,71636,1,0,0:0:0:0:m_033.ogg
384,192,71636,1,0,0:0:0:0:m_054.ogg
76,192,72036,1,0,0:0:0:0:m_035.ogg
435,192,72036,1,0,0:0:0:0:m_056.ogg
25,192,72436,1,0,0:0:0:0:m_028.ogg
332,192,72436,1,0,0:0:0:0:m_052.ogg
230,192,72836,1,0,0:0:0:0:m_044.ogg
281,192,73036,128,0,73236:0:0:0:0:s_051.ogg
76,192,73236,1,0,0:0:0:0:m_030.ogg
486,192,73236,1,0,0:0:0:0:m_056.ogg
179,192,73636,1,0,0:0:0:0:m_042.ogg
435,192,73836,1,0,0:0:0:0:s_054.ogg
25,192,74036,1,0,0:0:0:0:m_023.ogg
435,192,74036,1,0,0:0:0:0:l_054.ogg
230,192,74436,1,0,0:0:0:0:m_039.ogg
25,192,74836,1,0,0:0:0:0:m_023.ogg
128,192,75236,1,0,0:0:0:0:m_037.ogg
25,192,75636,1,0,0:0:0:0:m_023.ogg
384,192,75636,1,0,0:0:0:0:m_047.ogg
179,192,76036,1,0,0:0:0:0:m_042.ogg
25,192,76436,1,0,0:0:0:0:m_023.ogg
435,192,76436,128,0,76636:0:0:0:0:s_049.ogg
281,192,76636,1,0,0:0:0:0:s_047.ogg
230,192,76836,1,0,0:0:0:0:s_045.ogg
332,192,76836,1,0,0:0:0:0:s_052.ogg
384,192,77036,1,0,0:0:0:0:s_054.ogg
76,192,77236,1,0,0:0:0:0:m_028.ogg
435,192,77236,1,0,0:0:0:0:m_056.ogg
179,192,77636,1,0,0:0:0:0:m_044.ogg
76,192,78036,1,0,0:0:0:0:m_028.ogg
486,192,78036,1,0,0:0:0:0:m_059.ogg
230,192,78436,1,0,0:0:0:0:m_047.ogg
179,192,78836,1,0,0:0:0:0:m_045.ogg
435,192,78836,1,0,0:0:0:0:m_057.ogg
128,192,79236,1,0,0:0:0:0:m_044.ogg
384,192,79236,1,0,0:0:0:0:m_056.ogg
76,192,79636,1,0,0:0:0:0:m_042.ogg
332,192,79636,1,0,0:0:0:0:s_054.ogg
435,192,79836,128,0,80236:0:0:0:0:s_056.ogg
179,192,80036,1,0,0:0:0:0:m_040.ogg
332,192,80336,1,0,0:0:0:0:s_052.ogg
25,192,80436,1,0,0:0:0:0:m_023.ogg
281,192,80436,1,0,0:0:0:0:m_047.ogg
179,192,80836,1,0,0:0:0:0:m_039.ogg
25,192,81236,1,0,0:0:0:0:m_021.ogg
384,192,81236,1,0,0:0:0:0:l_049.ogg
230,192,81636,1,0,0:0:0:0:m_040.ogg
76,192,82036,1,0,0:0:0:0:m_025.ogg
179,192,82436,1,0,0:0:0:0:m_041.ogg
76,192,82836,1,0,0:0:0:0:m_025.ogg
435,192,82836,128,0,83036:0:0:0:0:s_050.ogg
332,192,83036,1,0,0:0:0:0:m_049.ogg
230,192,83236,1,0,0:0:0:0:m_047.ogg
384,192,83236,1,0,0:0:0:0:m_054.ogg
435,192,83436,1,0,0:0:0:0:s_056.ogg
76,192,83636,1,0,0:0:0:0:m_030.ogg
486,192,83636,1,0,0:0:0:0:m_057.ogg
128,192,84036,1,0,0:0:0:0:m_032.ogg
435,192,84036,1,0,0:0:0:0:m_056.ogg
179,192,84436,1,0,0:0:0:0:m_033.ogg
384,192,84436,1,0,0:0:0:0:m_054.ogg
230,192,84836,1,0,0:0:0:0:m_035.ogg
435,192,84836,1,0,0:0:0:0:m_056.ogg
76,192,85236,1,0,0:0:0:0:m_028.ogg
332,192,85236,1,0,0:0:0:0:m_052.ogg
179,192,85636,1,0,0:0:0:0:m_044.ogg
281,192,85836,128,0,86036:0:0:0:0:s_046.ogg
76,192,86036,1,0,0:0:0:0:m_028.ogg
486,192,86036,1,0,0:0:0:0:m_056.ogg
230,192,86436,1,0,0:0:0:0:m_045.ogg
435,192,86636,1,0,0:0:0:0:s_054.ogg
76,192,86836,1,0,0:0:0:0:m_028.ogg
435,192,86836,1,0,0:0:0:0:m_054.ogg
230,192,87236,1,0,0:0:0:0:m_045.ogg
76,192,87636,1,0,0:0:0:0:m_028.ogg
384,192,87636,1,0,0:0:0:0:m_052.ogg
179,192,88036,1,0,0:0:0:0:m_044.ogg
486,192,88236,1,0,0:0:0:0:s_059.ogg
25,192,88436,1,0,0:0:0:0:m_023.ogg
435,192,88436,1,0,0:0:0:0:m_047.ogg
128,192,88836,1,0,0:0:0:0:m_039.ogg
25,192,89236,1,0,0:0:0:0:m_023.ogg
486,192,89236,128,0,89436:0:0:0:0:s_049.ogg
332,192,89536,1,0,0:0:0:0:m_048.ogg
179,192,89636,1,0,0:0:0:0:m_040.ogg
384,192,89636,1,0,0:0:0:0:m_049.ogg
435,192,89936,1,0,0:0:0:0:s_051.ogg
25,192,90036,1,0,0:0:0:0:m_023.ogg
281,192,90036,1,0,0:0:0:0:m_047.ogg
128,192,90436,1,0,0:0:0:0:m_039.ogg
486,192,90436,1,0,0:0:0:0:m_063.ogg
76,192,90836,1,0,0:0:0:0:m_028.ogg
486,192,90936,1,0,0:0:0:0:m_061.ogg
435,192,91036,1,0,0:0:0:0:m_059.ogg
384,192,91136,1,0,0:0:0:0:m_055.ogg
230,192,91236,1,0,0:0:0:0:m_043.ogg
332,192,91236,1,0,0:0:0:0:m_052.ogg
281,192,91336,1,0,0:0:0:0:s_049.ogg
435,192,91536,1,0,0:0:0:0:s_059.ogg
25,192,91636,1,0,0:0:0:0:m_018.ogg
332,192,91636,1,0,0:0:0:0:m_042.ogg
179,192,92036,1,0,0:0:0:0:m_039.ogg
25,192,92436,1,0,0:0:0:0:m_018.ogg
435,192,92436,1,0,0:0:0:0:m_051.ogg
384,192,92486,1,0,0:0:0:0:m_049.ogg
332,192,92736,1,0,0:0:0:0:m_048.ogg
230,192,92836,1,0,0:0:0:0:m_040.ogg
384,192,92836,1,0,0:0:0:0:m_049.ogg
486,192,93136,1,0,0:0:0:0:s_054.ogg
76,192,93236,1,0,0:0:0:0:m_023.ogg
281,192,93236,1,0,0:0:0:0:m_047.ogg
179,192,93636,1,0,0:0:0:0:m_039.ogg
25,192,94036,1,0,0:0:0:0:m_021.ogg
384,192,94036,1,0,0:0:0:0:l_049.ogg
230,192,94436,1,0,0:0:0:0:m_040.ogg
76,192,94836,1,0,0:0:0:0:m_025.ogg
179,192,95236,1,0,0:0:0:0:m_041.ogg
76,192,95636,1,0,0:0:0:0:m_025.ogg
435,192,95636,128,0,95836:0:0:0:0:s_050.ogg
281,192,95836,1,0,0:0:0:0:m_049.ogg
230,192,96036,1,0,0:0:0:0:m_047.ogg
332,192,96036,1,0,0:0:0:0:m_054.ogg
384,192,96236,1,0,0:0:0:0:s_056.ogg
25,192,96436,1,0,0:0:0:0:m_030.ogg
486,192,96436,1,0,0:0:0:0:m_057.ogg
76,192,96836,1,0,0:0:0:0:m_032.ogg
435,192,96836,1,0,0:0:0:0:m_056.ogg
128,192,97236,1,0,0:0:0:0:m_033.ogg
384,192,97236,1,0,0:0:0:0:m_054.ogg
179,192,97636,1,0,0:0:0:0:m_035.ogg
435,192,97636,1,0,0:0:0:0:m_056.ogg
25,192,98036,1,0,0:0:0:0:m_028.ogg
332,192,98036,1,0,0:0:0:0:m_052.ogg
128,192,98436,1,0,0:0:0:0:m_044.ogg
281,192,98636,128,0,98836:0:0:0:0:s_046.ogg
25,192,98836,1,0,0:0:0:0:m_028.ogg
486,192,98836,1,0,0:0:0:0:m_056.ogg
179,192,99236,1,0,0:0:0:0:m_045.ogg
435,192,99436,1,0,0:0:0:0:s_054.ogg
25,192,99636,1,0,0:0:0:0:m_028.ogg
435,192,99636,1,0,0:0:0:0:l_054.ogg
179,192,100036,1,0,0:0:0:0:m_045.ogg
25,192,100436,1,0,0:0:0:0:m_028.ogg
179,192,100836,1,0,0:0:0:0:m_045.ogg
76,192,101236,1,0,0:0:0:0:m_016.ogg
179,192,101418,1,0,0:0:0:0:m_031.ogg
384,192,101418,1,0,0:0:0:0:m_047.ogg
435,192,101600,1,0,0:0:0:0:m_048.ogg
486,192,101781,1,0,0:0:0:0:m_055.ogg
76,192,101963,1,0,0:0:0:0:m_016.ogg
230,192,102145,1,0,0:0:0:0:m_033.ogg
486,192,102145,1,0,0:0:0:0:m_055.ogg
384,192,102509,1,0,0:0:0:0:m_054.ogg
25,192,102690,1,0,0:0:0:0:m_016.ogg
128,192,102872,1,0,0:0:0:0:m_031.ogg
384,192,102872,1,0,0:0:0:0:m_054.ogg
332,192,103236,1,0,0:0:0:0:m_052.ogg
25,192,103418,1,0,0:0:0:0:m_016.ogg
179,192,103600,1,0,0:0:0:0:m_033.ogg
281,192,103600,1,0,0:0:0:0:m_047.ogg
281,192,103963,1,0,0:0:0:0:m_047.ogg
76,192,104145,1,0,0:0:0:0:m_016.ogg
179,192,104327,1,0,0:0:0:0:m_031.ogg
384,192,104327,1,0,0:0:0:0:m_047.ogg
435,192,104509,1,0,0:0:0:0:m_048.ogg
486,192,104690,1,0,0:0:0:0:m_055.ogg
76,192,104872,1,0,0:0:0:0:m_016.ogg
230,192,105054,1,0,0:0:0:0:m_033.ogg
486,192,105054,1,0,0:0:0:0:m_055.ogg
384,192,105418,1,0,0:0:0:0:m_054.ogg
25,192,105600,1,0,0:0:0:0:m_016.ogg
128,192,105781,1,0,0:0:0:0:m_031.ogg
384,192,105781,1,0,0:0:0:0:m_054.ogg
332,192,106145,1,0,0:0:0:0:m_052.ogg
25,192,106327,1,0,0:0:0:0:m_016.ogg
179,192,106509,1,0,0:0:0:0:m_033.ogg
281,192,106509,1,0,0:0:0:0:m_047.ogg
281,192,106872,1,0,0:0:0:0:m_047.ogg
76,192,107054,1,0,0:0:0:0:m_016.ogg
179,192,107236,1,0,0:0:0:0:m_031.ogg
332,192,107236,1,0,0:0:0:0:m_047.ogg
384,192,107418,1,0,0:0:0:0:m_048.ogg
486,192,107600,1,0,0:0:0:0:m_055.ogg
76,192,107781,1,0,0:0:0:0:m_016.ogg
230,192,107963,1,0,0:0:0:0:m_035.ogg
435,192,107963,1,0,0:0:0:0:m_052.ogg
486,192,108327,1,0,0:0:0:0:m_055.ogg
25,192,108509,1,0,0:0:0:0:m_016.ogg
128,192,108690,1,0,0:0:0:0:m_031.ogg
332,192,108690,1,0,0:0:0:0:m_047.ogg
384,192,108872,1,0,0:0:0:0:m_048.ogg
486,192,109054,1,0,0:0:0:0:m_055.ogg
25,192,109236,1,0,0:0:0:0:m_016.ogg
179,192,109418,1,0,0:0:0:0:m_035.ogg
435,192,109418,1,0,0:0:0:0:m_052.ogg
486,192,109781,1,0,0:0:0:0:m_055.ogg
76,192,109963,1,0,0:0:0:0:m_016.ogg
230,192,110145,1,0,0:0:0:0:m_031.ogg
281,192,110145,1,0,0:0:0:0:m_052.ogg
281,192,110509,1,0,0:0:0:0:s_052.ogg
76,192,110690,1,0,0:0:0:0:m_016.ogg
230,192,110872,1,0,0:0:0:0:m_031.ogg
281,192,110872,1,0,0:0:0:0:m_052.ogg
281,192,111236,1,0,0:0:0:0:s_052.ogg
76,192,111418,1,0,0:0:0:0:m_016.ogg
230,192,111600,1,0,0:0:0:0:m_031.ogg
281,192,111600,1,0,0:0:0:0:m_052.ogg
281,192,111963,1,0,0:0:0:0:m_052.ogg
76,192,112145,1,0,0:0:0:0:m_016.ogg
230,192,112327,1,0,0:0:0:0:m_031.ogg
281,192,112327,1,0,0:0:0:0:m_052.ogg
281,192,112690,1,0,0:0:0:0:s_052.ogg
25,192,112872,128,0,115690:0:0:0:0:l_016.ogg
435,192,113054,1,0,0:0:0:0:m_047.ogg
435,192,113418,1,0,0:0:0:0:m_047.ogg
435,192,113781,1,0,0:0:0:0:m_047.ogg
435,192,114145,1,0,0:0:0:0:m_047.ogg
435,192,114509,1,0,0:0:0:0:m_047.ogg
435,192,114872,1,0,0:0:0:0:m_047.ogg
435,192,115236,1,0,0:0:0:0:m_047.ogg
435,192,115600,1,0,0:0:0:0:s_047.ogg
76,192,115781,128,0,117145:0:0:0:0:l_023.ogg
435,192,115963,1,0,0:0:0:0:m_047.ogg
435,192,116327,1,0,0:0:0:0:m_047.ogg
435,192,116690,1,0,0:0:0:0:m_047.ogg
435,192,117054,1,0,0:0:0:0:s_047.ogg
128,192,117236,128,0,117509:0:0:0:0:m_025.ogg
435,192,117418,1,0,0:0:0:0:m_047.ogg
25,192,117600,128,0,117872:0:0:0:0:m_023.ogg
435,192,117781,1,0,0:0:0:0:m_047.ogg
76,192,117963,128,0,118236:0:0:0:0:m_028.ogg
435,192,118145,1,0,0:0:0:0:m_047.ogg
128,192,118327,128,0,118600:0:0:0:0:m_030.ogg
435,192,118509,1,0,0:0:0:0:s_047.ogg
179,192,118690,128,0,120054:0:0:0:0:l_032.ogg
435,192,118872,1,0,0:0:0:0:m_047.ogg
435,192,119236,1,0,0:0:0:0:m_047.ogg
435,192,119600,1,0,0:0:0:0:m_047.ogg
435,192,119963,1,0,0:0:0:0:s_047.ogg
230,192,120145,128,0,121509:0:0:0:0:l_035.ogg
435,192,120327,1,0,0:0:0:0:m_047.ogg
435,192,120690,1,0,0:0:0:0:m_047.ogg
435,192,121054,1,0,0:0:0:0:m_047.ogg
435,192,121418,1,0,0:0:0:0:s_047.ogg
179,192,121600,128,0,122236:0:0:0:0:l_033.ogg
435,192,121781,1,0,0:0:0:0:m_047.ogg
435,192,122145,1,0,0:0:0:0:m_047.ogg
128,192,122327,128,0,122963:0:0:0:0:l_032.ogg
435,192,122509,1,0,0:0:0:0:m_047.ogg
435,192,122872,1,0,0:0:0:0:m_047.ogg
76,192,123054,128,0,123690:0:0:0:0:m_030.ogg
435,192,123236,1,0,0:0:0:0:m_047.ogg
435,192,123600,1,0,0:0:0:0:m_047.ogg
128,192,123781,128,0,124054:0:0:0:0:m_032.ogg
435,192,123963,1,0,0:0:0:0:m_047.ogg
76,192,124145,128,0,124418:0:0:0:0:m_028.ogg
435,192,124327,1,0,0:0:0:0:s_047.ogg
25,192,124509,128,0,127327:0:0:0:0:l_023.ogg
384,192,124690,1,0,0:0:0:0:m_047.ogg
384,192,125054,1,0,0:0:0:0:m_047.ogg
384,192,125418,1,0,0:0:0:0:m_047.ogg
384,192,125781,1,0,0:0:0:0:s_047.ogg
230,192,125963,128,0,127327:0:0:0:0:l_011.ogg
486,192,126145,1,0,0:0:0:0:m_047.ogg
486,192,126509,1,0,0:0:0:0:m_047.ogg
486,192,126872,1,0,0:0:0:0:m_047.ogg
486,192,127236,1,0,0:0:0:0:s_047.ogg
76,192,127418,1,0,0:0:0:0:l_016.ogg
179,192,127463,1,0,0:0:0:0:l_023.ogg
332,192,127509,1,0,0:0:0:0:l_033.ogg
435,192,127554,1,0,0:0:0:0:l_035.ogg
25,192,128872,1,0,0:0:0:0:l_016.ogg
128,192,128918,1,0,0:0:0:0:l_023.ogg
281,192,128963,1,0,0:0:0:0:l_028.ogg
384,192,129009,1,0,0:0:0:0:l_032.ogg
