osu file format v14

[General]
AudioFilename: virtual
AudioLeadIn: 0
PreviewTime: 0
Countdown: 0
SampleSet: Soft
StackLeniency: 0.7
Mode: 3
LetterboxInBreaks: 0
SpecialStyle: 0
WidescreenStoryboard: 1

[Editor]
DistanceSpacing: 0.8
BeatDivisor: 4
GridSize: 32
TimelineZoom: 1.100006

[Metadata]
Title:Piano Beatmap Set
TitleUnicode:Piano Beatmap Set
Artist:Collection
ArtistUnicode:Collection
Creator:CircusGalop
Version:Fantaisie Impromptu - 10K EX
Source:BMS
Tags:
BeatmapID:882920
BeatmapSetID:332673

[Difficulty]
HPDrainRate:9
CircleSize:10
OverallDifficulty:5
ApproachRate:5
SliderMultiplier:1.4
SliderTickRate:1

[Events]
//Background and Video events
0,0,"CircusGalop.jpg",0,0
//Break Periods
//Storyboard Layer 0 (Background)
//Storyboard Layer 1 (Fail)
//Storyboard Layer 2 (Pass)
//Storyboard Layer 3 (Foreground)
//Storyboard Sound Samples

[TimingPoints]
0,363.636363636366,4,2,0,100,1,0
59636.364,400,4,2,0,100,1,0
59636.364,-90.9090909090909,4,2,0,100,0,0
101236.364,363.636363636366,4,2,0,100,1,0

[HitObjects]
230,192,1454,128,0,4363:0:0:0:0:l_023.ogg
281,192,1454,128,0,4363:0:0:0:0:l_035.ogg
25,192,4363,1,0,0:0:0:0:l_016.ogg
76,192,4363,1,0,0:0:0:0:m_028.ogg
128,192,4484,1,0,0:0:0:0:m_035.ogg
179,192,4606,1,0,0:0:0:0:m_040.ogg
230,192,4727,1,0,0:0:0:0:m_043.ogg
179,192,4848,1,0,0:0:0:0:m_040.ogg
128,192,4969,1,0,0:0:0:0:m_035.ogg
76,192,5090,1,0,0:0:0:0:m_028.ogg
128,192,5212,1,0,0:0:0:0:m_035.ogg
179,192,5333,1,0,0:0:0:0:m_040.ogg
230,192,5454,1,0,0:0:0:0:m_043.ogg
179,192,5575,1,0,0:0:0:0:m_040.ogg
128,192,5696,1,0,0:0:0:0:m_035.ogg
76,192,5818,1,0,0:0:0:0:m_028.ogg
128,192,5939,1,0,0:0:0:0:m_035.ogg
179,192,6060,1,0,0:0:0:0:m_040.ogg
230,192,6181,1,0,0:0:0:0:m_043.ogg
179,192,6303,1,0,0:0:0:0:m_040.ogg
128,192,6424,1,0,0:0:0:0:m_035.ogg
76,192,6545,1,0,0:0:0:0:m_028.ogg
128,192,6666,1,0,0:0:0:0:m_035.ogg
179,192,6787,1,0,0:0:0:0:m_040.ogg
230,192,6909,1,0,0:0:0:0:m_043.ogg
179,192,7030,1,0,0:0:0:0:s_040.ogg
128,192,7151,1,0,0:0:0:0:s_035.ogg
76,192,7272,1,0,0:0:0:0:m_028.ogg
332,192,7363,1,0,0:0:0:0:s_047.ogg
128,192,7393,1,0,0:0:0:0:m_035.ogg
384,192,7454,1,0,0:0:0:0:m_048.ogg
179,192,7515,1,0,0:0:0:0:m_040.ogg
332,192,7545,1,0,0:0:0:0:s_047.ogg
230,192,7636,1,0,0:0:0:0:m_043.ogg
281,192,7636,1,0,0:0:0:0:m_046.ogg
332,192,7727,1,0,0:0:0:0:s_047.ogg
179,192,7757,1,0,0:0:0:0:s_040.ogg
384,192,7818,1,0,0:0:0:0:s_052.ogg
128,192,7878,1,0,0:0:0:0:s_035.ogg
486,192,7909,1,0,0:0:0:0:s_055.ogg
25,192,8000,1,0,0:0:0:0:m_031.ogg
435,192,8000,1,0,0:0:0:0:s_054.ogg
384,192,8090,1,0,0:0:0:0:s_052.ogg
128,192,8121,1,0,0:0:0:0:m_035.ogg
435,192,8181,1,0,0:0:0:0:m_054.ogg
179,192,8242,1,0,0:0:0:0:m_040.ogg
384,192,8272,1,0,0:0:0:0:s_052.ogg
230,192,8363,1,0,0:0:0:0:m_043.ogg
332,192,8363,1,0,0:0:0:0:m_051.ogg
384,192,8454,1,0,0:0:0:0:s_052.ogg
179,192,8484,1,0,0:0:0:0:s_040.ogg
435,192,8545,1,0,0:0:0:0:s_055.ogg
128,192,8606,1,0,0:0:0:0:s_035.ogg
486,192,8636,1,0,0:0:0:0:s_059.ogg
76,192,8727,1,0,0:0:0:0:m_028.ogg
332,192,8818,1,0,0:0:0:0:s_047.ogg
128,192,8848,1,0,0:0:0:0:m_035.ogg
384,192,8909,1,0,0:0:0:0:m_048.ogg
179,192,8969,1,0,0:0:0:0:m_040.ogg
332,192,9000,1,0,0:0:0:0:s_047.ogg
230,192,9090,1,0,0:0:0:0:m_043.ogg
281,192,9090,1,0,0:0:0:0:m_046.ogg
332,192,9181,1,0,0:0:0:0:s_047.ogg
179,192,9212,1,0,0:0:0:0:s_040.ogg
384,192,9272,1,0,0:0:0:0:s_052.ogg
128,192,9333,1,0,0:0:0:0:s_035.ogg
486,192,9363,1,0,0:0:0:0:s_055.ogg
25,192,9454,1,0,0:0:0:0:m_031.ogg
435,192,9454,1,0,0:0:0:0:s_054.ogg
384,192,9545,1,0,0:0:0:0:s_052.ogg
128,192,9575,1,0,0:0:0:0:m_035.ogg
435,192,9636,1,0,0:0:0:0:m_054.ogg
179,192,9696,1,0,0:0:0:0:m_040.ogg
384,192,9727,1,0,0:0:0:0:s_052.ogg
230,192,9818,1,0,0:0:0:0:m_043.ogg
332,192,9818,1,0,0:0:0:0:m_051.ogg
384,192,9909,1,0,0:0:0:0:s_052.ogg
179,192,9939,1,0,0:0:0:0:s_040.ogg
435,192,10000,1,0,0:0:0:0:s_055.ogg
128,192,10060,1,0,0:0:0:0:s_035.ogg
486,192,10090,1,0,0:0:0:0:s_059.ogg
25,192,10181,1,0,0:0:0:0:m_030.ogg
281,192,10272,1,0,0:0:0:0:m_048.ogg
76,192,10303,1,0,0:0:0:0:m_036.ogg
332,192,10363,1,0,0:0:0:0:m_052.ogg
128,192,10424,1,0,0:0:0:0:m_040.ogg
384,192,10454,1,0,0:0:0:0:m_054.ogg
179,192,10545,1,0,0:0:0:0:m_045.ogg
435,192,10545,1,0,0:0:0:0:m_057.ogg
486,192,10636,1,0,0:0:0:0:s_060.ogg
128,192,10666,1,0,0:0:0:0:s_040.ogg
384,192,10727,1,0,0:0:0:0:s_064.ogg
76,192,10787,1,0,0:0:0:0:s_036.ogg
435,192,10818,1,0,0:0:0:0:s_066.ogg
25,192,10909,1,0,0:0:0:0:m_033.ogg
486,192,10909,1,0,0:0:0:0:m_074.ogg
435,192,11000,1,0,0:0:0:0:m_072.ogg
128,192,11030,1,0,0:0:0:0:m_040.ogg
384,192,11090,1,0,0:0:0:0:m_071.ogg
179,192,11151,1,0,0:0:0:0:m_042.ogg
332,192,11181,1,0,0:0:0:0:m_069.ogg
230,192,11272,1,0,0:0:0:0:m_048.ogg
281,192,11272,1,0,0:0:0:0:m_067.ogg
435,192,11363,1,0,0:0:0:0:s_066.ogg
179,192,11393,1,0,0:0:0:0:s_042.ogg
486,192,11454,1,0,0:0:0:0:s_069.ogg
128,192,11515,1,0,0:0:0:0:s_040.ogg
384,192,11545,1,0,0:0:0:0:s_064.ogg
25,192,11636,1,0,0:0:0:0:m_023.ogg
332,192,11636,1,0,0:0:0:0:m_063.ogg
486,192,11727,1,0,0:0:0:0:m_066.ogg
76,192,11757,1,0,0:0:0:0:m_030.ogg
384,192,11818,1,0,0:0:0:0:m_060.ogg
128,192,11878,1,0,0:0:0:0:m_033.ogg
332,192,11909,1,0,0:0:0:0:m_059.ogg
230,192,12000,1,0,0:0:0:0:m_039.ogg
281,192,12000,1,0,0:0:0:0:m_057.ogg
435,192,12090,1,0,0:0:0:0:m_060.ogg
179,192,12121,1,0,0:0:0:0:m_033.ogg
384,192,12181,1,0,0:0:0:0:m_055.ogg
128,192,12242,1,0,0:0:0:0:m_030.ogg
332,192,12272,1,0,0:0:0:0:m_054.ogg
25,192,12363,1,0,0:0:0:0:m_023.ogg
486,192,12363,1,0,0:0:0:0:m_057.ogg
435,192,12454,1,0,0:0:0:0:m_052.ogg
76,192,12484,1,0,0:0:0:0:m_030.ogg
384,192,12545,1,0,0:0:0:0:m_051.ogg
128,192,12606,1,0,0:0:0:0:m_033.ogg
486,192,12636,1,0,0:0:0:0:m_054.ogg
230,192,12727,1,0,0:0:0:0:m_039.ogg
332,192,12727,1,0,0:0:0:0:m_048.ogg
281,192,12818,1,0,0:0:0:0:s_047.ogg
179,192,12848,1,0,0:0:0:0:s_033.ogg
435,192,12909,1,0,0:0:0:0:s_050.ogg
128,192,12969,1,0,0:0:0:0:s_030.ogg
384,192,13000,1,0,0:0:0:0:m_048.ogg
76,192,13090,1,0,0:0:0:0:m_028.ogg
332,192,13181,1,0,0:0:0:0:s_047.ogg
128,192,13212,1,0,0:0:0:0:m_035.ogg
384,192,13272,1,0,0:0:0:0:m_048.ogg
179,192,13333,1,0,0:0:0:0:m_040.ogg
332,192,13363,1,0,0:0:0:0:s_047.ogg
230,192,13454,1,0,0:0:0:0:m_043.ogg
281,192,13454,1,0,0:0:0:0:m_046.ogg
332,192,13545,1,0,0:0:0:0:s_047.ogg
179,192,13575,1,0,0:0:0:0:s_040.ogg
384,192,13636,1,0,0:0:0:0:s_052.ogg
128,192,13696,1,0,0:0:0:0:s_035.ogg
486,192,13727,1,0,0:0:0:0:s_055.ogg
25,192,13818,1,0,0:0:0:0:m_031.ogg
435,192,13818,1,0,0:0:0:0:s_054.ogg
384,192,13909,1,0,0:0:0:0:s_052.ogg
128,192,13939,1,0,0:0:0:0:m_035.ogg
435,192,14000,1,0,0:0:0:0:m_054.ogg
179,192,14060,1,0,0:0:0:0:m_040.ogg
384,192,14090,1,0,0:0:0:0:s_052.ogg
230,192,14181,1,0,0:0:0:0:m_043.ogg
332,192,14181,1,0,0:0:0:0:m_051.ogg
384,192,14272,1,0,0:0:0:0:s_052.ogg
179,192,14303,1,0,0:0:0:0:s_040.ogg
435,192,14363,1,0,0:0:0:0:s_055.ogg
128,192,14424,1,0,0:0:0:0:s_035.ogg
486,192,14454,1,0,0:0:0:0:s_059.ogg
76,192,14545,1,0,0:0:0:0:m_028.ogg
332,192,14636,1,0,0:0:0:0:s_047.ogg
128,192,14666,1,0,0:0:0:0:m_035.ogg
384,192,14727,1,0,0:0:0:0:m_049.ogg
179,192,14787,1,0,0:0:0:0:m_037.ogg
332,192,14818,1,0,0:0:0:0:s_047.ogg
230,192,14909,1,0,0:0:0:0:m_043.ogg
281,192,14909,1,0,0:0:0:0:m_046.ogg
332,192,15000,1,0,0:0:0:0:s_047.ogg
179,192,15030,1,0,0:0:0:0:s_037.ogg
384,192,15090,1,0,0:0:0:0:s_052.ogg
128,192,15151,1,0,0:0:0:0:s_035.ogg
486,192,15181,1,0,0:0:0:0:s_055.ogg
25,192,15272,1,0,0:0:0:0:m_031.ogg
435,192,15272,1,0,0:0:0:0:s_054.ogg
384,192,15363,1,0,0:0:0:0:s_052.ogg
128,192,15393,1,0,0:0:0:0:m_035.ogg
435,192,15454,1,0,0:0:0:0:m_054.ogg
179,192,15515,1,0,0:0:0:0:m_037.ogg
384,192,15545,1,0,0:0:0:0:s_052.ogg
230,192,15636,1,0,0:0:0:0:m_040.ogg
332,192,15636,1,0,0:0:0:0:m_051.ogg
384,192,15727,1,0,0:0:0:0:s_052.ogg
179,192,15757,1,0,0:0:0:0:s_037.ogg
435,192,15818,1,0,0:0:0:0:s_055.ogg
128,192,15878,1,0,0:0:0:0:s_035.ogg
486,192,15909,1,0,0:0:0:0:s_059.ogg
25,192,16000,1,0,0:0:0:0:m_030.ogg
384,192,16000,1,0,0:0:0:0:s_054.ogg
435,192,16090,1,0,0:0:0:0:m_055.ogg
76,192,16121,1,0,0:0:0:0:m_035.ogg
384,192,16181,1,0,0:0:0:0:s_054.ogg
128,192,16242,1,0,0:0:0:0:m_038.ogg
332,192,16272,1,0,0:0:0:0:m_053.ogg
179,192,16363,1,0,0:0:0:0:m_042.ogg
384,192,16363,1,0,0:0:0:0:m_054.ogg
486,192,16454,1,0,0:0:0:0:s_062.ogg
128,192,16484,1,0,0:0:0:0:s_038.ogg
435,192,16545,1,0,0:0:0:0:s_061.ogg
76,192,16606,1,0,0:0:0:0:s_035.ogg
384,192,16636,1,0,0:0:0:0:s_059.ogg
25,192,16727,1,0,0:0:0:0:m_030.ogg
332,192,16727,1,0,0:0:0:0:m_058.ogg
435,192,16818,1,0,0:0:0:0:m_067.ogg
128,192,16848,1,0,0:0:0:0:m_037.ogg
384,192,16909,1,0,0:0:0:0:m_066.ogg
179,192,16969,1,0,0:0:0:0:m_040.ogg
332,192,17000,1,0,0:0:0:0:m_064.ogg
230,192,17090,1,0,0:0:0:0:m_046.ogg
281,192,17090,1,0,0:0:0:0:m_062.ogg
435,192,17181,1,0,0:0:0:0:s_061.ogg
179,192,17212,1,0,0:0:0:0:s_040.ogg
384,192,17272,1,0,0:0:0:0:s_059.ogg
128,192,17333,1,0,0:0:0:0:s_037.ogg
332,192,17363,1,0,0:0:0:0:s_058.ogg
25,192,17454,1,0,0:0:0:0:m_023.ogg
435,192,17454,1,0,0:0:0:0:m_061.ogg
384,192,17545,1,0,0:0:0:0:m_059.ogg
76,192,17575,1,0,0:0:0:0:m_030.ogg
486,192,17636,1,0,0:0:0:0:m_062.ogg
128,192,17696,1,0,0:0:0:0:m_035.ogg
281,192,17727,1,0,0:0:0:0:m_053.ogg
230,192,17818,1,0,0:0:0:0:m_038.ogg
435,192,17818,1,0,0:0:0:0:m_055.ogg
332,192,17909,1,0,0:0:0:0:m_054.ogg
179,192,17939,1,0,0:0:0:0:m_035.ogg
486,192,18000,1,0,0:0:0:0:m_059.ogg
128,192,18060,1,0,0:0:0:0:m_030.ogg
281,192,18090,1,0,0:0:0:0:m_049.ogg
25,192,18181,1,0,0:0:0:0:m_023.ogg
384,192,18181,1,0,0:0:0:0:m_052.ogg
332,192,18272,1,0,0:0:0:0:m_050.ogg
76,192,18303,1,0,0:0:0:0:m_030.ogg
435,192,18363,1,0,0:0:0:0:m_054.ogg
128,192,18424,1,0,0:0:0:0:m_035.ogg
281,192,18454,1,0,0:0:0:0:m_046.ogg
230,192,18545,1,0,0:0:0:0:m_038.ogg
384,192,18545,1,0,0:0:0:0:m_049.ogg
332,192,18636,1,0,0:0:0:0:s_047.ogg
179,192,18666,1,0,0:0:0:0:s_035.ogg
281,192,18727,1,0,0:0:0:0:s_046.ogg
128,192,18787,1,0,0:0:0:0:s_030.ogg
332,192,18818,1,0,0:0:0:0:s_047.ogg
76,192,18909,1,0,0:0:0:0:m_024.ogg
486,192,18909,128,0,19181:0:0:0:0:m_047.ogg
384,192,19000,1,0,0:0:0:0:m_059.ogg
128,192,19030,1,0,0:0:0:0:m_028.ogg
281,192,19090,1,0,0:0:0:0:m_051.ogg
179,192,19151,1,0,0:0:0:0:m_033.ogg
332,192,19181,1,0,0:0:0:0:m_052.ogg
230,192,19272,1,0,0:0:0:0:m_036.ogg
435,192,19272,128,0,19545:0:0:0:0:m_045.ogg
486,192,19363,1,0,0:0:0:0:s_057.ogg
179,192,19393,1,0,0:0:0:0:s_033.ogg
281,192,19454,1,0,0:0:0:0:s_051.ogg
128,192,19515,1,0,0:0:0:0:s_028.ogg
332,192,19545,1,0,0:0:0:0:s_052.ogg
76,192,19636,1,0,0:0:0:0:m_024.ogg
384,192,19636,128,0,19909:0:0:0:0:m_044.ogg
486,192,19727,1,0,0:0:0:0:m_056.ogg
128,192,19757,1,0,0:0:0:0:m_028.ogg
281,192,19818,1,0,0:0:0:0:m_051.ogg
179,192,19878,1,0,0:0:0:0:m_033.ogg
332,192,19909,1,0,0:0:0:0:m_052.ogg
230,192,20000,1,0,0:0:0:0:m_036.ogg
435,192,20000,128,0,20272:0:0:0:0:m_045.ogg
486,192,20090,1,0,0:0:0:0:s_057.ogg
179,192,20121,1,0,0:0:0:0:s_033.ogg
332,192,20181,1,0,0:0:0:0:s_051.ogg
128,192,20242,1,0,0:0:0:0:s_028.ogg
384,192,20272,1,0,0:0:0:0:s_052.ogg
25,192,20363,1,0,0:0:0:0:m_026.ogg
281,192,20363,128,0,20636:0:0:0:0:m_040.ogg
486,192,20454,1,0,0:0:0:0:m_052.ogg
128,192,20484,1,0,0:0:0:0:m_033.ogg
384,192,20545,1,0,0:0:0:0:m_045.ogg
179,192,20606,1,0,0:0:0:0:m_036.ogg
435,192,20636,1,0,0:0:0:0:m_048.ogg
230,192,20727,1,0,0:0:0:0:m_038.ogg
332,192,20727,128,0,21000:0:0:0:0:m_042.ogg
486,192,20818,1,0,0:0:0:0:s_054.ogg
128,192,20848,1,0,0:0:0:0:s_036.ogg
281,192,20909,1,0,0:0:0:0:s_045.ogg
76,192,20969,1,0,0:0:0:0:s_033.ogg
435,192,21000,1,0,0:0:0:0:s_048.ogg
25,192,21090,1,0,0:0:0:0:m_019.ogg
384,192,21090,128,0,21363:0:0:0:0:m_043.ogg
486,192,21181,1,0,0:0:0:0:m_055.ogg
76,192,21212,1,0,0:0:0:0:m_026.ogg
281,192,21272,1,0,0:0:0:0:s_047.ogg
128,192,21333,1,0,0:0:0:0:m_031.ogg
332,192,21363,1,0,0:0:0:0:m_050.ogg
230,192,21454,1,0,0:0:0:0:m_035.ogg
435,192,21454,128,0,21727:0:0:0:0:m_047.ogg
384,192,21545,1,0,0:0:0:0:s_059.ogg
179,192,21575,1,0,0:0:0:0:s_031.ogg
281,192,21636,1,0,0:0:0:0:s_050.ogg
128,192,21696,1,0,0:0:0:0:s_026.ogg
332,192,21727,1,0,0:0:0:0:s_055.ogg
76,192,21818,1,0,0:0:0:0:m_024.ogg
486,192,21818,128,0,22090:0:0:0:0:m_047.ogg
384,192,21909,1,0,0:0:0:0:m_059.ogg
128,192,21939,1,0,0:0:0:0:m_028.ogg
281,192,22000,1,0,0:0:0:0:m_051.ogg
179,192,22060,1,0,0:0:0:0:m_033.ogg
332,192,22090,1,0,0:0:0:0:m_052.ogg
230,192,22181,1,0,0:0:0:0:m_036.ogg
435,192,22181,128,0,22454:0:0:0:0:m_045.ogg
486,192,22272,1,0,0:0:0:0:s_057.ogg
179,192,22303,1,0,0:0:0:0:s_033.ogg
281,192,22363,1,0,0:0:0:0:s_051.ogg
128,192,22424,1,0,0:0:0:0:s_028.ogg
332,192,22454,1,0,0:0:0:0:s_052.ogg
76,192,22545,1,0,0:0:0:0:m_024.ogg
384,192,22545,128,0,22818:0:0:0:0:m_044.ogg
486,192,22636,1,0,0:0:0:0:m_056.ogg
128,192,22666,1,0,0:0:0:0:m_028.ogg
281,192,22727,1,0,0:0:0:0:m_051.ogg
179,192,22787,1,0,0:0:0:0:m_033.ogg
332,192,22818,1,0,0:0:0:0:m_052.ogg
230,192,22909,1,0,0:0:0:0:m_036.ogg
435,192,22909,128,0,23181:0:0:0:0:m_045.ogg
486,192,23000,1,0,0:0:0:0:s_057.ogg
179,192,23030,1,0,0:0:0:0:s_033.ogg
332,192,23090,1,0,0:0:0:0:s_051.ogg
128,192,23151,1,0,0:0:0:0:s_028.ogg
384,192,23181,1,0,0:0:0:0:s_052.ogg
25,192,23272,1,0,0:0:0:0:m_026.ogg
281,192,23272,128,0,23545:0:0:0:0:m_044.ogg
486,192,23363,1,0,0:0:0:0:m_056.ogg
128,192,23393,1,0,0:0:0:0:m_033.ogg
384,192,23454,1,0,0:0:0:0:m_050.ogg
179,192,23515,1,0,0:0:0:0:m_036.ogg
435,192,23545,1,0,0:0:0:0:m_054.ogg
230,192,23636,1,0,0:0:0:0:m_038.ogg
332,192,23636,128,0,23909:0:0:0:0:m_045.ogg
486,192,23727,1,0,0:0:0:0:s_057.ogg
128,192,23757,1,0,0:0:0:0:s_036.ogg
281,192,23818,1,0,0:0:0:0:s_050.ogg
76,192,23878,1,0,0:0:0:0:s_033.ogg
435,192,23909,1,0,0:0:0:0:s_054.ogg
25,192,24000,1,0,0:0:0:0:m_019.ogg
384,192,24000,128,0,24272:0:0:0:0:m_048.ogg
486,192,24090,1,0,0:0:0:0:m_060.ogg
76,192,24121,1,0,0:0:0:0:m_026.ogg
281,192,24181,1,0,0:0:0:0:m_050.ogg
128,192,24242,1,0,0:0:0:0:m_031.ogg
435,192,24272,1,0,0:0:0:0:m_055.ogg
230,192,24363,1,0,0:0:0:0:m_035.ogg
332,192,24363,128,0,24636:0:0:0:0:m_047.ogg
486,192,24454,1,0,0:0:0:0:s_059.ogg
179,192,24484,1,0,0:0:0:0:s_031.ogg
384,192,24545,1,0,0:0:0:0:s_050.ogg
128,192,24606,1,0,0:0:0:0:s_026.ogg
435,192,24636,1,0,0:0:0:0:s_055.ogg
76,192,24727,1,0,0:0:0:0:m_024.ogg
486,192,24727,128,0,25000:0:0:0:0:m_047.ogg
384,192,24818,1,0,0:0:0:0:m_059.ogg
128,192,24848,1,0,0:0:0:0:m_028.ogg
281,192,24909,1,0,0:0:0:0:m_051.ogg
179,192,24969,1,0,0:0:0:0:m_033.ogg
332,192,25000,1,0,0:0:0:0:m_052.ogg
230,192,25090,1,0,0:0:0:0:m_036.ogg
435,192,25090,128,0,25363:0:0:0:0:m_045.ogg
486,192,25181,1,0,0:0:0:0:m_057.ogg
179,192,25212,1,0,0:0:0:0:s_033.ogg
281,192,25272,1,0,0:0:0:0:s_051.ogg
128,192,25333,1,0,0:0:0:0:s_028.ogg
332,192,25363,1,0,0:0:0:0:s_052.ogg
76,192,25454,1,0,0:0:0:0:m_024.ogg
384,192,25454,128,0,25727:0:0:0:0:m_044.ogg
486,192,25545,1,0,0:0:0:0:m_056.ogg
128,192,25575,1,0,0:0:0:0:m_028.ogg
281,192,25636,1,0,0:0:0:0:m_051.ogg
179,192,25696,1,0,0:0:0:0:m_033.ogg
332,192,25727,1,0,0:0:0:0:m_052.ogg
230,192,25818,1,0,0:0:0:0:m_036.ogg
435,192,25818,128,0,26090:0:0:0:0:m_045.ogg
486,192,25909,1,0,0:0:0:0:m_057.ogg
179,192,25939,1,0,0:0:0:0:s_033.ogg
332,192,26000,1,0,0:0:0:0:s_051.ogg
128,192,26060,1,0,0:0:0:0:s_028.ogg
384,192,26090,1,0,0:0:0:0:s_052.ogg
25,192,26181,1,0,0:0:0:0:m_026.ogg
281,192,26181,128,0,26454:0:0:0:0:m_040.ogg
486,192,26272,1,0,0:0:0:0:m_052.ogg
128,192,26303,1,0,0:0:0:0:m_033.ogg
384,192,26363,1,0,0:0:0:0:m_045.ogg
179,192,26424,1,0,0:0:0:0:m_036.ogg
435,192,26454,1,0,0:0:0:0:m_048.ogg
230,192,26545,1,0,0:0:0:0:m_038.ogg
332,192,26545,128,0,26818:0:0:0:0:m_042.ogg
486,192,26636,1,0,0:0:0:0:m_054.ogg
128,192,26666,1,0,0:0:0:0:s_036.ogg
281,192,26727,1,0,0:0:0:0:s_045.ogg
76,192,26787,1,0,0:0:0:0:s_033.ogg
435,192,26818,1,0,0:0:0:0:s_048.ogg
25,192,26909,1,0,0:0:0:0:m_019.ogg
384,192,26909,128,0,27181:0:0:0:0:m_043.ogg
486,192,27000,1,0,0:0:0:0:m_055.ogg
76,192,27030,1,0,0:0:0:0:m_026.ogg
281,192,27090,1,0,0:0:0:0:s_047.ogg
128,192,27151,1,0,0:0:0:0:m_031.ogg
332,192,27181,1,0,0:0:0:0:m_050.ogg
230,192,27272,1,0,0:0:0:0:m_035.ogg
435,192,27272,128,0,27545:0:0:0:0:m_047.ogg
384,192,27363,1,0,0:0:0:0:m_059.ogg
179,192,27393,1,0,0:0:0:0:s_031.ogg
281,192,27454,1,0,0:0:0:0:s_050.ogg
128,192,27515,1,0,0:0:0:0:s_026.ogg
332,192,27545,1,0,0:0:0:0:s_055.ogg
76,192,27636,1,0,0:0:0:0:m_024.ogg
435,192,27636,128,0,27909:0:0:0:0:m_047.ogg
486,192,27727,1,0,0:0:0:0:m_059.ogg
128,192,27757,1,0,0:0:0:0:m_028.ogg
281,192,27818,1,0,0:0:0:0:m_051.ogg
179,192,27878,1,0,0:0:0:0:m_033.ogg
332,192,27909,1,0,0:0:0:0:m_052.ogg
230,192,28000,1,0,0:0:0:0:m_036.ogg
384,192,28000,128,0,28272:0:0:0:0:m_045.ogg
435,192,28090,1,0,0:0:0:0:m_057.ogg
179,192,28121,1,0,0:0:0:0:s_033.ogg
281,192,28181,1,0,0:0:0:0:s_051.ogg
128,192,28242,1,0,0:0:0:0:s_028.ogg
332,192,28272,1,0,0:0:0:0:s_052.ogg
76,192,28363,1,0,0:0:0:0:m_024.ogg
486,192,28363,128,0,28636:0:0:0:0:m_054.ogg
384,192,28454,1,0,0:0:0:0:m_066.ogg
128,192,28484,1,0,0:0:0:0:m_028.ogg
281,192,28545,1,0,0:0:0:0:m_057.ogg
179,192,28606,1,0,0:0:0:0:m_033.ogg
332,192,28636,1,0,0:0:0:0:m_060.ogg
230,192,28727,1,0,0:0:0:0:m_036.ogg
435,192,28727,128,0,29000:0:0:0:0:m_052.ogg
384,192,28818,1,0,0:0:0:0:m_064.ogg
179,192,28848,1,0,0:0:0:0:s_033.ogg
281,192,28909,1,0,0:0:0:0:s_057.ogg
128,192,28969,1,0,0:0:0:0:s_028.ogg
332,192,29000,1,0,0:0:0:0:s_060.ogg
25,192,29090,1,0,0:0:0:0:m_023.ogg
435,192,29090,128,0,29363:0:0:0:0:m_052.ogg
486,192,29181,1,0,0:0:0:0:m_064.ogg
76,192,29212,1,0,0:0:0:0:m_030.ogg
281,192,29272,1,0,0:0:0:0:m_054.ogg
128,192,29333,1,0,0:0:0:0:m_033.ogg
332,192,29363,1,0,0:0:0:0:m_057.ogg
179,192,29454,1,0,0:0:0:0:m_039.ogg
384,192,29454,128,0,29727:0:0:0:0:m_051.ogg
486,192,29545,1,0,0:0:0:0:m_063.ogg
128,192,29575,1,0,0:0:0:0:m_033.ogg
281,192,29636,1,0,0:0:0:0:m_054.ogg
76,192,29696,1,0,0:0:0:0:m_030.ogg
332,192,29727,1,0,0:0:0:0:m_057.ogg
25,192,29818,1,0,0:0:0:0:m_023.ogg
384,192,29818,128,0,30090:0:0:0:0:m_051.ogg
486,192,29909,1,0,0:0:0:0:m_063.ogg
76,192,29939,1,0,0:0:0:0:m_030.ogg
281,192,30000,1,0,0:0:0:0:m_054.ogg
128,192,30060,1,0,0:0:0:0:m_033.ogg
332,192,30090,1,0,0:0:0:0:m_057.ogg
179,192,30181,1,0,0:0:0:0:m_039.ogg
384,192,30181,128,0,30454:0:0:0:0:m_051.ogg
486,192,30272,1,0,0:0:0:0:m_063.ogg
128,192,30303,1,0,0:0:0:0:s_033.ogg
281,192,30363,1,0,0:0:0:0:s_054.ogg
76,192,30424,1,0,0:0:0:0:s_030.ogg
332,192,30454,1,0,0:0:0:0:s_057.ogg
25,192,30545,1,0,0:0:0:0:m_024.ogg
435,192,30545,1,0,0:0:0:0:m_051.ogg
486,192,30636,1,0,0:0:0:0:m_063.ogg
128,192,30666,1,0,0:0:0:0:m_030.ogg
281,192,30727,1,0,0:0:0:0:m_054.ogg
179,192,30787,1,0,0:0:0:0:m_033.ogg
332,192,30818,1,0,0:0:0:0:m_057.ogg
230,192,30909,1,0,0:0:0:0:m_038.ogg
384,192,30909,1,0,0:0:0:0:m_050.ogg
486,192,31000,1,0,0:0:0:0:m_062.ogg
179,192,31030,1,0,0:0:0:0:s_033.ogg
281,192,31090,1,0,0:0:0:0:s_054.ogg
128,192,31151,1,0,0:0:0:0:s_030.ogg
332,192,31181,1,0,0:0:0:0:s_057.ogg
76,192,31272,1,0,0:0:0:0:m_025.ogg
384,192,31272,1,0,0:0:0:0:m_050.ogg
486,192,31363,1,0,0:0:0:0:m_062.ogg
128,192,31393,1,0,0:0:0:0:m_030.ogg
281,192,31454,1,0,0:0:0:0:m_054.ogg
179,192,31515,1,0,0:0:0:0:m_033.ogg
435,192,31545,1,0,0:0:0:0:m_057.ogg
230,192,31636,1,0,0:0:0:0:m_037.ogg
332,192,31636,1,0,0:0:0:0:m_049.ogg
486,192,31727,1,0,0:0:0:0:m_061.ogg
179,192,31757,1,0,0:0:0:0:s_033.ogg
281,192,31818,1,0,0:0:0:0:s_054.ogg
128,192,31878,1,0,0:0:0:0:s_030.ogg
435,192,31909,1,0,0:0:0:0:s_057.ogg
25,192,32000,1,0,0:0:0:0:m_027.ogg
332,192,32000,1,0,0:0:0:0:m_049.ogg
486,192,32090,1,0,0:0:0:0:m_061.ogg
76,192,32121,1,0,0:0:0:0:m_030.ogg
384,192,32181,1,0,0:0:0:0:m_054.ogg
128,192,32242,1,0,0:0:0:0:m_033.ogg
435,192,32272,1,0,0:0:0:0:m_057.ogg
230,192,32363,1,0,0:0:0:0:m_036.ogg
281,192,32363,1,0,0:0:0:0:m_048.ogg
486,192,32454,1,0,0:0:0:0:m_060.ogg
179,192,32484,1,0,0:0:0:0:m_033.ogg
332,192,32545,1,0,0:0:0:0:m_054.ogg
128,192,32606,1,0,0:0:0:0:m_030.ogg
384,192,32636,1,0,0:0:0:0:m_057.ogg
25,192,32727,1,0,0:0:0:0:m_027.ogg
281,192,32727,1,0,0:0:0:0:m_048.ogg
435,192,32818,1,0,0:0:0:0:m_060.ogg
76,192,32848,1,0,0:0:0:0:m_030.ogg
332,192,32909,1,0,0:0:0:0:m_054.ogg
128,192,32969,1,0,0:0:0:0:m_033.ogg
384,192,33000,1,0,0:0:0:0:m_057.ogg
230,192,33090,1,0,0:0:0:0:m_036.ogg
281,192,33090,1,0,0:0:0:0:m_048.ogg
486,192,33181,1,0,0:0:0:0:m_060.ogg
179,192,33212,1,0,0:0:0:0:s_033.ogg
332,192,33272,1,0,0:0:0:0:s_054.ogg
128,192,33333,1,0,0:0:0:0:s_030.ogg
435,192,33363,1,0,0:0:0:0:s_057.ogg
25,192,33454,1,0,0:0:0:0:m_024.ogg
486,192,33454,1,0,0:0:0:0:m_051.ogg
384,192,33545,1,0,0:0:0:0:m_063.ogg
76,192,33575,1,0,0:0:0:0:m_030.ogg
281,192,33636,1,0,0:0:0:0:m_054.ogg
128,192,33696,1,0,0:0:0:0:m_033.ogg
332,192,33727,1,0,0:0:0:0:m_057.ogg
179,192,33818,1,0,0:0:0:0:m_038.ogg
435,192,33818,1,0,0:0:0:0:m_050.ogg
486,192,33909,1,0,0:0:0:0:s_062.ogg
128,192,33939,1,0,0:0:0:0:s_033.ogg
281,192,34000,1,0,0:0:0:0:s_054.ogg
76,192,34060,1,0,0:0:0:0:s_030.ogg
332,192,34090,1,0,0:0:0:0:s_057.ogg
25,192,34181,1,0,0:0:0:0:m_025.ogg
435,192,34181,1,0,0:0:0:0:m_050.ogg
486,192,34272,1,0,0:0:0:0:m_062.ogg
128,192,34303,1,0,0:0:0:0:m_030.ogg
281,192,34363,1,0,0:0:0:0:m_054.ogg
179,192,34424,1,0,0:0:0:0:m_033.ogg
332,192,34454,1,0,0:0:0:0:m_057.ogg
230,192,34545,1,0,0:0:0:0:m_037.ogg
384,192,34545,1,0,0:0:0:0:m_049.ogg
435,192,34636,1,0,0:0:0:0:s_061.ogg
179,192,34666,1,0,0:0:0:0:s_033.ogg
281,192,34727,1,0,0:0:0:0:s_054.ogg
128,192,34787,1,0,0:0:0:0:s_030.ogg
332,192,34818,1,0,0:0:0:0:s_057.ogg
25,192,34909,1,0,0:0:0:0:m_027.ogg
384,192,34909,1,0,0:0:0:0:m_049.ogg
486,192,35000,1,0,0:0:0:0:m_061.ogg
128,192,35030,1,0,0:0:0:0:m_030.ogg
281,192,35090,1,0,0:0:0:0:m_054.ogg
179,192,35151,1,0,0:0:0:0:m_033.ogg
435,192,35181,1,0,0:0:0:0:m_057.ogg
230,192,35272,1,0,0:0:0:0:m_036.ogg
332,192,35272,1,0,0:0:0:0:m_048.ogg
486,192,35363,1,0,0:0:0:0:m_060.ogg
128,192,35393,1,0,0:0:0:0:m_033.ogg
384,192,35454,1,0,0:0:0:0:m_054.ogg
76,192,35515,1,0,0:0:0:0:m_030.ogg
435,192,35545,1,0,0:0:0:0:m_057.ogg
25,192,35636,1,0,0:0:0:0:m_027.ogg
332,192,35636,1,0,0:0:0:0:m_048.ogg
486,192,35727,1,0,0:0:0:0:m_060.ogg
76,192,35757,1,0,0:0:0:0:m_030.ogg
384,192,35818,1,0,0:0:0:0:m_054.ogg
128,192,35878,1,0,0:0:0:0:m_033.ogg
435,192,35909,1,0,0:0:0:0:m_057.ogg
230,192,36000,1,0,0:0:0:0:m_035.ogg
281,192,36000,1,0,0:0:0:0:m_047.ogg
486,192,36090,1,0,0:0:0:0:s_059.ogg
179,192,36121,1,0,0:0:0:0:s_033.ogg
384,192,36181,1,0,0:0:0:0:s_054.ogg
128,192,36242,1,0,0:0:0:0:s_030.ogg
435,192,36272,1,0,0:0:0:0:s_057.ogg
332,192,36363,1,0,0:0:0:0:m_028.ogg
76,192,36454,1,0,0:0:0:0:s_047.ogg
384,192,36484,1,0,0:0:0:0:m_035.ogg
128,192,36545,1,0,0:0:0:0:m_048.ogg
435,192,36606,1,0,0:0:0:0:m_040.ogg
76,192,36636,1,0,0:0:0:0:s_047.ogg
25,192,36727,1,0,0:0:0:0:m_046.ogg
486,192,36727,1,0,0:0:0:0:m_043.ogg
76,192,36818,1,0,0:0:0:0:s_047.ogg
435,192,36848,1,0,0:0:0:0:s_040.ogg
128,192,36909,1,0,0:0:0:0:s_052.ogg
384,192,36969,1,0,0:0:0:0:s_035.ogg
230,192,37000,1,0,0:0:0:0:s_055.ogg
179,192,37090,1,0,0:0:0:0:s_054.ogg
281,192,37090,1,0,0:0:0:0:m_031.ogg
128,192,37181,1,0,0:0:0:0:s_052.ogg
384,192,37212,1,0,0:0:0:0:m_035.ogg
179,192,37272,1,0,0:0:0:0:m_054.ogg
435,192,37333,1,0,0:0:0:0:m_040.ogg
128,192,37363,1,0,0:0:0:0:s_052.ogg
76,192,37454,1,0,0:0:0:0:m_051.ogg
486,192,37454,1,0,0:0:0:0:m_043.ogg
128,192,37545,1,0,0:0:0:0:s_052.ogg
435,192,37575,1,0,0:0:0:0:s_040.ogg
179,192,37636,1,0,0:0:0:0:s_055.ogg
384,192,37696,1,0,0:0:0:0:s_035.ogg
230,192,37727,1,0,0:0:0:0:s_059.ogg
332,192,37818,1,0,0:0:0:0:m_028.ogg
76,192,37909,1,0,0:0:0:0:s_047.ogg
384,192,37939,1,0,0:0:0:0:m_035.ogg
128,192,38000,1,0,0:0:0:0:m_048.ogg
435,192,38060,1,0,0:0:0:0:m_040.ogg
76,192,38090,1,0,0:0:0:0:s_047.ogg
25,192,38181,1,0,0:0:0:0:m_046.ogg
486,192,38181,1,0,0:0:0:0:m_043.ogg
76,192,38272,1,0,0:0:0:0:s_047.ogg
435,192,38303,1,0,0:0:0:0:s_040.ogg
128,192,38363,1,0,0:0:0:0:s_052.ogg
384,192,38424,1,0,0:0:0:0:s_035.ogg
230,192,38454,1,0,0:0:0:0:s_055.ogg
179,192,38545,1,0,0:0:0:0:s_054.ogg
281,192,38545,1,0,0:0:0:0:m_031.ogg
128,192,38636,1,0,0:0:0:0:s_052.ogg
384,192,38666,1,0,0:0:0:0:m_035.ogg
179,192,38727,1,0,0:0:0:0:m_054.ogg
435,192,38787,1,0,0:0:0:0:m_040.ogg
128,192,38818,1,0,0:0:0:0:s_052.ogg
76,192,38909,1,0,0:0:0:0:m_051.ogg
486,192,38909,1,0,0:0:0:0:m_043.ogg
128,192,39000,1,0,0:0:0:0:s_052.ogg
435,192,39030,1,0,0:0:0:0:s_040.ogg
179,192,39090,1,0,0:0:0:0:s_055.ogg
384,192,39151,1,0,0:0:0:0:s_035.ogg
230,192,39181,1,0,0:0:0:0:s_059.ogg
281,192,39272,1,0,0:0:0:0:m_030.ogg
25,192,39363,1,0,0:0:0:0:m_048.ogg
332,192,39393,1,0,0:0:0:0:m_036.ogg
76,192,39454,1,0,0:0:0:0:m_052.ogg
384,192,39515,1,0,0:0:0:0:m_040.ogg
128,192,39545,1,0,0:0:0:0:m_054.ogg
179,192,39636,1,0,0:0:0:0:m_057.ogg
435,192,39636,1,0,0:0:0:0:m_045.ogg
230,192,39727,1,0,0:0:0:0:s_060.ogg
384,192,39757,1,0,0:0:0:0:s_040.ogg
128,192,39818,1,0,0:0:0:0:s_064.ogg
332,192,39878,1,0,0:0:0:0:s_036.ogg
179,192,39909,1,0,0:0:0:0:s_066.ogg
230,192,40000,1,0,0:0:0:0:m_074.ogg
281,192,40000,1,0,0:0:0:0:m_033.ogg
179,192,40090,1,0,0:0:0:0:m_072.ogg
384,192,40121,1,0,0:0:0:0:m_040.ogg
128,192,40181,1,0,0:0:0:0:m_071.ogg
435,192,40242,1,0,0:0:0:0:m_042.ogg
76,192,40272,1,0,0:0:0:0:m_069.ogg
25,192,40363,1,0,0:0:0:0:m_067.ogg
486,192,40363,1,0,0:0:0:0:m_048.ogg
179,192,40454,1,0,0:0:0:0:s_066.ogg
435,192,40484,1,0,0:0:0:0:s_042.ogg
230,192,40545,1,0,0:0:0:0:s_069.ogg
384,192,40606,1,0,0:0:0:0:s_040.ogg
128,192,40636,1,0,0:0:0:0:s_064.ogg
76,192,40727,1,0,0:0:0:0:m_063.ogg
281,192,40727,1,0,0:0:0:0:m_023.ogg
230,192,40818,1,0,0:0:0:0:m_066.ogg
332,192,40848,1,0,0:0:0:0:m_030.ogg
128,192,40909,1,0,0:0:0:0:m_060.ogg
384,192,40969,1,0,0:0:0:0:m_033.ogg
76,192,41000,1,0,0:0:0:0:m_059.ogg
25,192,41090,1,0,0:0:0:0:m_057.ogg
486,192,41090,1,0,0:0:0:0:m_039.ogg
179,192,41181,1,0,0:0:0:0:m_060.ogg
435,192,41212,1,0,0:0:0:0:m_033.ogg
128,192,41272,1,0,0:0:0:0:m_055.ogg
384,192,41333,1,0,0:0:0:0:m_030.ogg
76,192,41363,1,0,0:0:0:0:m_054.ogg
230,192,41454,1,0,0:0:0:0:m_057.ogg
281,192,41454,1,0,0:0:0:0:m_023.ogg
179,192,41545,1,0,0:0:0:0:m_052.ogg
384,192,41575,1,0,0:0:0:0:m_030.ogg
128,192,41636,1,0,0:0:0:0:m_051.ogg
435,192,41696,1,0,0:0:0:0:m_033.ogg
230,192,41727,1,0,0:0:0:0:m_054.ogg
76,192,41818,1,0,0:0:0:0:m_048.ogg
486,192,41818,1,0,0:0:0:0:m_039.ogg
25,192,41909,1,0,0:0:0:0:s_047.ogg
435,192,41939,1,0,0:0:0:0:s_033.ogg
179,192,42000,1,0,0:0:0:0:s_050.ogg
384,192,42060,1,0,0:0:0:0:s_030.ogg
128,192,42090,1,0,0:0:0:0:m_048.ogg
25,192,42181,1,0,0:0:0:0:m_028.ogg
332,192,42272,1,0,0:0:0:0:s_047.ogg
76,192,42303,1,0,0:0:0:0:m_035.ogg
384,192,42363,1,0,0:0:0:0:m_048.ogg
128,192,42424,1,0,0:0:0:0:m_040.ogg
332,192,42454,1,0,0:0:0:0:s_047.ogg
179,192,42545,1,0,0:0:0:0:m_043.ogg
281,192,42545,1,0,0:0:0:0:m_046.ogg
332,192,42636,1,0,0:0:0:0:s_047.ogg
128,192,42666,1,0,0:0:0:0:s_040.ogg
384,192,42727,1,0,0:0:0:0:s_052.ogg
76,192,42787,1,0,0:0:0:0:s_035.ogg
486,192,42818,1,0,0:0:0:0:s_055.ogg
25,192,42909,1,0,0:0:0:0:m_031.ogg
435,192,42909,1,0,0:0:0:0:s_054.ogg
384,192,43000,1,0,0:0:0:0:s_052.ogg
76,192,43030,1,0,0:0:0:0:m_035.ogg
435,192,43090,1,0,0:0:0:0:m_054.ogg
128,192,43151,1,0,0:0:0:0:m_040.ogg
384,192,43181,1,0,0:0:0:0:s_052.ogg
230,192,43272,1,0,0:0:0:0:m_043.ogg
332,192,43272,1,0,0:0:0:0:m_051.ogg
384,192,43363,1,0,0:0:0:0:s_052.ogg
128,192,43393,1,0,0:0:0:0:s_040.ogg
435,192,43454,1,0,0:0:0:0:s_055.ogg
76,192,43515,1,0,0:0:0:0:s_035.ogg
486,192,43545,1,0,0:0:0:0:s_059.ogg
25,192,43636,1,0,0:0:0:0:m_033.ogg
384,192,43636,1,0,0:0:0:0:s_055.ogg
332,192,43727,1,0,0:0:0:0:s_054.ogg
128,192,43757,1,0,0:0:0:0:m_040.ogg
384,192,43818,1,0,0:0:0:0:m_055.ogg
179,192,43878,1,0,0:0:0:0:m_042.ogg
332,192,43909,1,0,0:0:0:0:s_054.ogg
230,192,44000,1,0,0:0:0:0:m_048.ogg
281,192,44000,1,0,0:0:0:0:m_053.ogg
332,192,44090,1,0,0:0:0:0:s_054.ogg
179,192,44121,1,0,0:0:0:0:s_042.ogg
384,192,44181,1,0,0:0:0:0:s_057.ogg
128,192,44242,1,0,0:0:0:0:s_040.ogg
486,192,44272,1,0,0:0:0:0:s_060.ogg
76,192,44363,1,0,0:0:0:0:m_035.ogg
435,192,44363,1,0,0:0:0:0:s_057.ogg
384,192,44454,1,0,0:0:0:0:s_056.ogg
128,192,44484,1,0,0:0:0:0:m_040.ogg
435,192,44545,1,0,0:0:0:0:m_057.ogg
179,192,44606,1,0,0:0:0:0:m_044.ogg
384,192,44636,1,0,0:0:0:0:s_056.ogg
230,192,44727,1,0,0:0:0:0:m_050.ogg
332,192,44727,1,0,0:0:0:0:m_055.ogg
384,192,44818,1,0,0:0:0:0:s_056.ogg
179,192,44848,1,0,0:0:0:0:s_044.ogg
435,192,44909,1,0,0:0:0:0:s_059.ogg
128,192,44969,1,0,0:0:0:0:s_040.ogg
486,192,45000,1,0,0:0:0:0:s_064.ogg
25,192,45090,1,0,0:0:0:0:m_036.ogg
332,192,45181,1,0,0:0:0:0:s_052.ogg
76,192,45212,1,0,0:0:0:0:m_040.ogg
384,192,45272,1,0,0:0:0:0:m_053.ogg
179,192,45333,1,0,0:0:0:0:m_045.ogg
332,192,45363,1,0,0:0:0:0:s_052.ogg
230,192,45454,1,0,0:0:0:0:m_048.ogg
281,192,45454,1,0,0:0:0:0:m_051.ogg
332,192,45545,1,0,0:0:0:0:s_052.ogg
179,192,45575,1,0,0:0:0:0:s_045.ogg
384,192,45636,1,0,0:0:0:0:s_057.ogg
76,192,45696,1,0,0:0:0:0:s_040.ogg
435,192,45727,1,0,0:0:0:0:s_060.ogg
25,192,45818,1,0,0:0:0:0:m_035.ogg
384,192,45818,1,0,0:0:0:0:s_057.ogg
332,192,45909,1,0,0:0:0:0:s_056.ogg
128,192,45939,1,0,0:0:0:0:m_040.ogg
384,192,46000,1,0,0:0:0:0:m_057.ogg
179,192,46060,1,0,0:0:0:0:m_044.ogg
332,192,46090,1,0,0:0:0:0:s_056.ogg
230,192,46181,1,0,0:0:0:0:m_050.ogg
281,192,46181,1,0,0:0:0:0:m_055.ogg
332,192,46272,1,0,0:0:0:0:s_056.ogg
128,192,46303,1,0,0:0:0:0:s_044.ogg
384,192,46363,1,0,0:0:0:0:s_059.ogg
76,192,46424,1,0,0:0:0:0:s_040.ogg
486,192,46454,1,0,0:0:0:0:s_064.ogg
25,192,46545,1,0,0:0:0:0:m_036.ogg
435,192,46545,1,0,0:0:0:0:s_059.ogg
384,192,46636,1,0,0:0:0:0:s_057.ogg
76,192,46666,1,0,0:0:0:0:m_040.ogg
435,192,46727,1,0,0:0:0:0:m_059.ogg
128,192,46787,1,0,0:0:0:0:m_045.ogg
384,192,46818,1,0,0:0:0:0:s_057.ogg
230,192,46909,1,0,0:0:0:0:m_048.ogg
332,192,46909,1,0,0:0:0:0:m_056.ogg
384,192,47000,1,0,0:0:0:0:s_057.ogg
179,192,47030,1,0,0:0:0:0:s_045.ogg
435,192,47090,1,0,0:0:0:0:s_060.ogg
128,192,47151,1,0,0:0:0:0:s_040.ogg
486,192,47181,1,0,0:0:0:0:s_064.ogg
25,192,47272,1,0,0:0:0:0:m_027.ogg
435,192,47272,1,0,0:0:0:0:s_060.ogg
384,192,47363,1,0,0:0:0:0:s_059.ogg
76,192,47393,1,0,0:0:0:0:m_033.ogg
435,192,47454,1,0,0:0:0:0:m_060.ogg
128,192,47515,1,0,0:0:0:0:m_035.ogg
384,192,47545,1,0,0:0:0:0:s_059.ogg
179,192,47636,1,0,0:0:0:0:m_042.ogg
332,192,47636,1,0,0:0:0:0:m_058.ogg
384,192,47727,1,0,0:0:0:0:s_059.ogg
128,192,47757,1,0,0:0:0:0:s_035.ogg
435,192,47818,1,0,0:0:0:0:s_063.ogg
76,192,47878,1,0,0:0:0:0:s_033.ogg
486,192,47909,1,0,0:0:0:0:s_066.ogg
25,192,48000,1,0,0:0:0:0:m_028.ogg
384,192,48000,1,0,0:0:0:0:s_059.ogg
435,192,48090,1,0,0:0:0:0:m_060.ogg
128,192,48121,1,0,0:0:0:0:m_035.ogg
384,192,48181,1,0,0:0:0:0:s_059.ogg
179,192,48242,1,0,0:0:0:0:m_040.ogg
332,192,48272,1,0,0:0:0:0:m_058.ogg
230,192,48363,1,0,0:0:0:0:m_043.ogg
384,192,48363,1,0,0:0:0:0:m_059.ogg
486,192,48454,1,0,0:0:0:0:s_067.ogg
179,192,48484,1,0,0:0:0:0:s_040.ogg
435,192,48545,1,0,0:0:0:0:s_066.ogg
128,192,48606,1,0,0:0:0:0:s_035.ogg
384,192,48636,1,0,0:0:0:0:s_065.ogg
76,192,48727,1,0,0:0:0:0:m_030.ogg
332,192,48727,1,0,0:0:0:0:m_064.ogg
435,192,48818,1,0,0:0:0:0:m_063.ogg
128,192,48848,1,0,0:0:0:0:m_035.ogg
384,192,48909,1,0,0:0:0:0:m_062.ogg
179,192,48969,1,0,0:0:0:0:m_039.ogg
332,192,49000,1,0,0:0:0:0:m_061.ogg
230,192,49090,1,0,0:0:0:0:m_045.ogg
281,192,49090,1,0,0:0:0:0:m_060.ogg
486,192,49181,1,0,0:0:0:0:s_059.ogg
179,192,49212,1,0,0:0:0:0:s_039.ogg
435,192,49272,1,0,0:0:0:0:s_058.ogg
128,192,49333,1,0,0:0:0:0:s_035.ogg
384,192,49363,1,0,0:0:0:0:s_057.ogg
25,192,49454,1,0,0:0:0:0:m_031.ogg
332,192,49454,1,0,0:0:0:0:s_055.ogg
384,192,49545,1,0,0:0:0:0:m_057.ogg
76,192,49575,1,0,0:0:0:0:m_035.ogg
332,192,49636,1,0,0:0:0:0:s_055.ogg
128,192,49696,1,0,0:0:0:0:m_040.ogg
281,192,49727,1,0,0:0:0:0:m_054.ogg
179,192,49818,1,0,0:0:0:0:m_043.ogg
332,192,49818,1,0,0:0:0:0:m_055.ogg
486,192,49909,1,0,0:0:0:0:s_067.ogg
128,192,49939,1,0,0:0:0:0:s_040.ogg
435,192,50000,1,0,0:0:0:0:s_066.ogg
76,192,50060,1,0,0:0:0:0:s_035.ogg
384,192,50090,1,0,0:0:0:0:s_065.ogg
25,192,50181,1,0,0:0:0:0:m_033.ogg
332,192,50181,1,0,0:0:0:0:m_064.ogg
435,192,50272,1,0,0:0:0:0:m_063.ogg
128,192,50303,1,0,0:0:0:0:m_040.ogg
384,192,50363,1,0,0:0:0:0:m_062.ogg
179,192,50424,1,0,0:0:0:0:m_042.ogg
332,192,50454,1,0,0:0:0:0:m_061.ogg
230,192,50545,1,0,0:0:0:0:m_048.ogg
281,192,50545,1,0,0:0:0:0:m_060.ogg
384,192,50636,1,0,0:0:0:0:s_059.ogg
128,192,50666,1,0,0:0:0:0:s_042.ogg
332,192,50727,1,0,0:0:0:0:s_058.ogg
76,192,50787,1,0,0:0:0:0:s_040.ogg
281,192,50818,1,0,0:0:0:0:s_057.ogg
435,192,50909,1,0,0:0:0:0:m_043.ogg
230,192,50909,128,0,51272:0:0:0:0:m_035.ogg
179,192,50909,128,0,51272:0:0:0:0:m_047.ogg
128,192,50909,128,0,51272:0:0:0:0:m_040.ogg
25,192,50909,1,0,0:0:0:0:s_059.ogg
486,192,51090,1,0,0:0:0:0:s_071.ogg
435,192,51181,1,0,0:0:0:0:s_070.ogg
384,192,51272,1,0,0:0:0:0:s_069.ogg
332,192,51363,1,0,0:0:0:0:s_068.ogg
281,192,51454,1,0,0:0:0:0:s_067.ogg
486,192,51545,1,0,0:0:0:0:s_066.ogg
435,192,51636,1,0,0:0:0:0:m_065.ogg
25,192,51636,128,0,53727:0:0:0:0:l_034.ogg
76,192,51666,128,0,53727:0:0:0:0:l_040.ogg
179,192,51696,128,0,53727:0:0:0:0:l_043.ogg
384,192,51727,1,0,0:0:0:0:m_064.ogg
230,192,51727,128,0,53727:0:0:0:0:l_048.ogg
332,192,51818,1,0,0:0:0:0:m_063.ogg
281,192,51909,1,0,0:0:0:0:m_062.ogg
486,192,52000,1,0,0:0:0:0:m_061.ogg
435,192,52090,1,0,0:0:0:0:m_060.ogg
384,192,52181,1,0,0:0:0:0:m_059.ogg
332,192,52272,1,0,0:0:0:0:m_058.ogg
281,192,52363,1,0,0:0:0:0:m_057.ogg
486,192,52454,1,0,0:0:0:0:m_056.ogg
435,192,52545,1,0,0:0:0:0:m_055.ogg
384,192,52636,1,0,0:0:0:0:s_054.ogg
332,192,52727,1,0,0:0:0:0:s_053.ogg
281,192,52818,1,0,0:0:0:0:s_052.ogg
486,192,52909,1,0,0:0:0:0:s_051.ogg
435,192,53000,1,0,0:0:0:0:s_050.ogg
384,192,53090,1,0,0:0:0:0:s_049.ogg
332,192,53181,1,0,0:0:0:0:s_048.ogg
281,192,53272,1,0,0:0:0:0:s_047.ogg
486,192,53363,1,0,0:0:0:0:s_046.ogg
435,192,53454,1,0,0:0:0:0:s_045.ogg
384,192,53545,1,0,0:0:0:0:s_043.ogg
332,192,53636,1,0,0:0:0:0:s_042.ogg
281,192,53727,1,0,0:0:0:0:s_040.ogg
25,192,53818,1,0,0:0:0:0:m_035.ogg
128,192,53818,1,0,0:0:0:0:l_011.ogg
76,192,53818,1,0,0:0:0:0:l_023.ogg
435,192,54181,1,0,0:0:0:0:l_072.ogg
230,192,54181,128,0,54454:0:0:0:0:m_043.ogg
128,192,54181,128,0,54454:0:0:0:0:m_055.ogg
384,192,54272,1,0,0:0:0:0:m_071.ogg
486,192,54363,1,0,0:0:0:0:l_079.ogg
332,192,54454,1,0,0:0:0:0:s_067.ogg
384,192,54545,1,0,0:0:0:0:l_069.ogg
179,192,54545,128,0,54818:0:0:0:0:m_052.ogg
76,192,54545,128,0,54818:0:0:0:0:m_040.ogg
332,192,54636,1,0,0:0:0:0:m_067.ogg
435,192,54727,1,0,0:0:0:0:l_076.ogg
281,192,54818,1,0,0:0:0:0:s_064.ogg
332,192,54909,1,0,0:0:0:0:l_066.ogg
128,192,54909,128,0,55181:0:0:0:0:m_035.ogg
25,192,54909,128,0,55181:0:0:0:0:m_047.ogg
281,192,55000,1,0,0:0:0:0:m_064.ogg
384,192,55090,1,0,0:0:0:0:l_071.ogg
230,192,55181,1,0,0:0:0:0:s_059.ogg
281,192,55272,1,0,0:0:0:0:l_060.ogg
486,192,55272,128,0,55545:0:0:0:0:m_031.ogg
76,192,55272,128,0,55545:0:0:0:0:m_043.ogg
230,192,55363,1,0,0:0:0:0:m_059.ogg
332,192,55454,1,0,0:0:0:0:m_067.ogg
179,192,55545,1,0,0:0:0:0:s_055.ogg
230,192,55636,1,0,0:0:0:0:m_057.ogg
25,192,55636,128,0,55909:0:0:0:0:m_028.ogg
435,192,55636,128,0,55909:0:0:0:0:m_040.ogg
179,192,55727,1,0,0:0:0:0:m_055.ogg
281,192,55818,1,0,0:0:0:0:m_064.ogg
128,192,55909,1,0,0:0:0:0:s_052.ogg
179,192,56000,1,0,0:0:0:0:m_054.ogg
486,192,56000,128,0,56272:0:0:0:0:m_023.ogg
384,192,56000,128,0,56272:0:0:0:0:m_035.ogg
128,192,56090,1,0,0:0:0:0:m_052.ogg
230,192,56181,1,0,0:0:0:0:m_059.ogg
76,192,56272,1,0,0:0:0:0:s_047.ogg
128,192,56363,1,0,0:0:0:0:m_048.ogg
435,192,56363,128,0,56636:0:0:0:0:m_031.ogg
332,192,56363,128,0,56636:0:0:0:0:m_019.ogg
76,192,56454,1,0,0:0:0:0:m_047.ogg
179,192,56545,1,0,0:0:0:0:s_055.ogg
25,192,56636,1,0,0:0:0:0:s_043.ogg
76,192,56727,1,0,0:0:0:0:s_045.ogg
384,192,56727,128,0,57000:0:0:0:0:m_028.ogg
281,192,56727,128,0,57000:0:0:0:0:m_016.ogg
25,192,56818,1,0,0:0:0:0:s_043.ogg
128,192,56909,1,0,0:0:0:0:s_052.ogg
230,192,57000,1,0,0:0:0:0:s_040.ogg
435,192,57090,1,0,0:0:0:0:m_042.ogg
179,192,57090,128,0,57363:0:0:0:0:m_023.ogg
76,192,57090,128,0,57363:0:0:0:0:m_011.ogg
332,192,57181,1,0,0:0:0:0:m_040.ogg
486,192,57272,1,0,0:0:0:0:m_047.ogg
281,192,57363,1,0,0:0:0:0:m_035.ogg
435,192,57454,1,0,0:0:0:0:m_042.ogg
179,192,57454,128,0,57727:0:0:0:0:m_023.ogg
76,192,57454,128,0,57727:0:0:0:0:m_011.ogg
332,192,57545,1,0,0:0:0:0:s_040.ogg
486,192,57636,1,0,0:0:0:0:s_047.ogg
281,192,57727,1,0,0:0:0:0:s_035.ogg
435,192,57818,1,0,0:0:0:0:m_042.ogg
230,192,57818,128,0,58090:0:0:0:0:m_024.ogg
128,192,57818,128,0,58090:0:0:0:0:m_012.ogg
332,192,57909,1,0,0:0:0:0:s_040.ogg
486,192,58000,1,0,0:0:0:0:s_048.ogg
384,192,58090,1,0,0:0:0:0:s_036.ogg
435,192,58181,1,0,0:0:0:0:m_042.ogg
179,192,58181,128,0,58454:0:0:0:0:m_023.ogg
76,192,58181,128,0,58454:0:0:0:0:m_011.ogg
332,192,58272,1,0,0:0:0:0:s_040.ogg
486,192,58363,1,0,0:0:0:0:s_047.ogg
281,192,58454,1,0,0:0:0:0:s_035.ogg
435,192,58545,1,0,0:0:0:0:m_042.ogg
128,192,58545,128,0,58818:0:0:0:0:m_022.ogg
25,192,58545,128,0,58818:0:0:0:0:m_010.ogg
332,192,58636,1,0,0:0:0:0:s_040.ogg
384,192,58727,1,0,0:0:0:0:s_046.ogg
281,192,58818,1,0,0:0:0:0:s_034.ogg
435,192,58909,1,0,0:0:0:0:m_042.ogg
179,192,58909,128,0,59545:0:0:0:0:m_023.ogg
76,192,58909,128,0,59545:0:0:0:0:m_011.ogg
332,192,59000,1,0,0:0:0:0:m_040.ogg
486,192,59090,1,0,0:0:0:0:s_047.ogg
281,192,59181,1,0,0:0:0:0:s_035.ogg
435,192,59272,1,0,0:0:0:0:s_042.ogg
332,192,59363,1,0,0:0:0:0:s_039.ogg
486,192,59454,1,0,0:0:0:0:s_047.ogg
281,192,59545,1,0,0:0:0:0:s_035.ogg
128,192,59636,1,0,0:0:0:0:l_016.ogg
179,192,59769,1,0,0:0:0:0:m_023.ogg
230,192,59903,1,0,0:0:0:0:m_028.ogg
281,192,60036,1,0,0:0:0:0:m_032.ogg
332,192,60169,1,0,0:0:0:0:m_035.ogg
384,192,60303,1,0,0:0:0:0:m_040.ogg
435,192,60436,1,0,0:0:0:0:l_044.ogg
332,192,60569,1,0,0:0:0:0:m_040.ogg
281,192,60703,1,0,0:0:0:0:m_035.ogg
230,192,60836,1,0,0:0:0:0:m_032.ogg
179,192,60969,1,0,0:0:0:0:m_028.ogg
128,192,61103,1,0,0:0:0:0:m_023.ogg
76,192,61236,1,0,0:0:0:0:m_016.ogg
179,192,61369,1,0,0:0:0:0:m_023.ogg
230,192,61503,1,0,0:0:0:0:m_028.ogg
281,192,61636,1,0,0:0:0:0:m_032.ogg
332,192,61769,1,0,0:0:0:0:m_035.ogg
384,192,61903,1,0,0:0:0:0:m_040.ogg
435,192,62036,1,0,0:0:0:0:m_044.ogg
332,192,62169,1,0,0:0:0:0:m_040.ogg
281,192,62303,1,0,0:0:0:0:m_035.ogg
230,192,62436,1,0,0:0:0:0:m_032.ogg
179,192,62569,1,0,0:0:0:0:s_028.ogg
128,192,62703,1,0,0:0:0:0:s_023.ogg
25,192,62836,1,0,0:0:0:0:m_016.ogg
76,192,62836,1,0,0:0:0:0:m_023.ogg
332,192,62836,128,0,63536:0:0:0:0:m_047.ogg
128,192,62969,1,0,0:0:0:0:m_035.ogg
179,192,63103,1,0,0:0:0:0:m_039.ogg
230,192,63236,1,0,0:0:0:0:m_042.ogg
179,192,63369,1,0,0:0:0:0:m_039.ogg
128,192,63503,1,0,0:0:0:0:m_035.ogg
25,192,63636,1,0,0:0:0:0:m_028.ogg
384,192,63636,1,0,0:0:0:0:s_049.ogg
435,192,63686,1,0,0:0:0:0:m_051.ogg
384,192,63736,1,0,0:0:0:0:m_049.ogg
76,192,63769,1,0,0:0:0:0:m_035.ogg
281,192,63836,1,0,0:0:0:0:s_047.ogg
128,192,63903,1,0,0:0:0:0:s_039.ogg
179,192,64036,1,0,0:0:0:0:s_045.ogg
332,192,64036,1,0,0:0:0:0:s_052.ogg
128,192,64169,1,0,0:0:0:0:s_039.ogg
384,192,64236,1,0,0:0:0:0:s_054.ogg
76,192,64303,1,0,0:0:0:0:s_035.ogg
25,192,64436,1,0,0:0:0:0:m_028.ogg
435,192,64436,128,0,65136:0:0:0:0:m_056.ogg
128,192,64569,1,0,0:0:0:0:m_035.ogg
179,192,64703,1,0,0:0:0:0:m_040.ogg
230,192,64836,1,0,0:0:0:0:m_044.ogg
179,192,64969,1,0,0:0:0:0:m_040.ogg
128,192,65103,1,0,0:0:0:0:m_035.ogg
25,192,65236,1,0,0:0:0:0:m_028.ogg
486,192,65236,128,0,65936:0:0:0:0:m_059.ogg
76,192,65369,1,0,0:0:0:0:m_035.ogg
128,192,65503,1,0,0:0:0:0:m_044.ogg
230,192,65636,1,0,0:0:0:0:m_047.ogg
179,192,65769,1,0,0:0:0:0:s_044.ogg
128,192,65903,1,0,0:0:0:0:s_035.ogg
435,192,66036,128,0,66436:0:0:0:0:m_057.ogg
230,192,66036,128,0,66436:0:0:0:0:m_045.ogg
76,192,66169,1,0,0:0:0:0:s_042.ogg
25,192,66303,1,0,0:0:0:0:s_035.ogg
179,192,66436,128,0,66836:0:0:0:0:m_044.ogg
384,192,66436,128,0,66836:0:0:0:0:m_056.ogg
76,192,66569,1,0,0:0:0:0:s_040.ogg
25,192,66703,1,0,0:0:0:0:s_035.ogg
332,192,66836,128,0,67236:0:0:0:0:m_054.ogg
128,192,66836,128,0,67236:0:0:0:0:m_042.ogg
76,192,66969,1,0,0:0:0:0:s_039.ogg
25,192,67103,1,0,0:0:0:0:s_035.ogg
179,192,67236,128,0,67636:0:0:0:0:m_040.ogg
384,192,67236,128,0,67536:0:0:0:0:m_056.ogg
76,192,67369,1,0,0:0:0:0:s_035.ogg
25,192,67503,1,0,0:0:0:0:s_032.ogg
332,192,67536,1,0,0:0:0:0:s_052.ogg
76,192,67636,1,0,0:0:0:0:m_023.ogg
281,192,67636,128,0,68336:0:0:0:0:m_047.ogg
128,192,67769,1,0,0:0:0:0:m_030.ogg
179,192,67903,1,0,0:0:0:0:m_035.ogg
230,192,68036,1,0,0:0:0:0:m_039.ogg
179,192,68169,1,0,0:0:0:0:s_035.ogg
128,192,68303,1,0,0:0:0:0:s_030.ogg
25,192,68436,1,0,0:0:0:0:m_021.ogg
332,192,68436,128,0,69936:0:0:0:0:l_049.ogg
128,192,68569,1,0,0:0:0:0:m_033.ogg
179,192,68703,1,0,0:0:0:0:m_037.ogg
230,192,68836,1,0,0:0:0:0:m_040.ogg
179,192,68969,1,0,0:0:0:0:s_037.ogg
128,192,69103,1,0,0:0:0:0:s_033.ogg
25,192,69236,1,0,0:0:0:0:m_025.ogg
76,192,69369,1,0,0:0:0:0:m_032.ogg
128,192,69503,1,0,0:0:0:0:m_037.ogg
179,192,69636,1,0,0:0:0:0:m_041.ogg
128,192,69769,1,0,0:0:0:0:s_037.ogg
76,192,69903,1,0,0:0:0:0:s_032.ogg
25,192,70036,1,0,0:0:0:0:m_025.ogg
384,192,70036,1,0,0:0:0:0:s_050.ogg
435,192,70086,1,0,0:0:0:0:m_052.ogg
384,192,70136,1,0,0:0:0:0:m_050.ogg
76,192,70169,1,0,0:0:0:0:m_037.ogg
332,192,70236,1,0,0:0:0:0:m_049.ogg
128,192,70303,1,0,0:0:0:0:m_041.ogg
230,192,70436,1,0,0:0:0:0:m_047.ogg
384,192,70436,1,0,0:0:0:0:m_054.ogg
179,192,70569,1,0,0:0:0:0:s_041.ogg
435,192,70636,1,0,0:0:0:0:s_056.ogg
128,192,70703,1,0,0:0:0:0:s_037.ogg
486,192,70836,128,0,71236:0:0:0:0:m_057.ogg
25,192,70836,128,0,71236:0:0:0:0:m_030.ogg
230,192,70969,1,0,0:0:0:0:s_045.ogg
179,192,71103,1,0,0:0:0:0:s_037.ogg
76,192,71236,128,0,71636:0:0:0:0:m_032.ogg
435,192,71236,128,0,71636:0:0:0:0:m_056.ogg
230,192,71369,1,0,0:0:0:0:s_044.ogg
179,192,71503,1,0,0:0:0:0:s_036.ogg
384,192,71636,128,0,72036:0:0:0:0:m_054.ogg
128,192,71636,128,0,72036:0:0:0:0:m_033.ogg
230,192,71769,1,0,0:0:0:0:s_042.ogg
179,192,71903,1,0,0:0:0:0:s_037.ogg
435,192,72036,128,0,72436:0:0:0:0:m_056.ogg
76,192,72036,128,0,72436:0:0:0:0:m_035.ogg
230,192,72169,1,0,0:0:0:0:s_045.ogg
179,192,72303,1,0,0:0:0:0:s_039.ogg
25,192,72436,1,0,0:0:0:0:m_028.ogg
332,192,72436,128,0,72936:0:0:0:0:m_052.ogg
128,192,72569,1,0,0:0:0:0:m_035.ogg
179,192,72703,1,0,0:0:0:0:m_040.ogg
230,192,72836,1,0,0:0:0:0:m_044.ogg
179,192,72969,1,0,0:0:0:0:s_040.ogg
281,192,73036,1,0,0:0:0:0:s_051.ogg
332,192,73086,1,0,0:0:0:0:s_052.ogg
128,192,73103,1,0,0:0:0:0:s_035.ogg
384,192,73136,1,0,0:0:0:0:s_054.ogg
332,192,73186,1,0,0:0:0:0:s_052.ogg
76,192,73236,1,0,0:0:0:0:m_030.ogg
486,192,73236,128,0,73736:0:0:0:0:m_056.ogg
128,192,73369,1,0,0:0:0:0:m_034.ogg
179,192,73503,1,0,0:0:0:0:m_040.ogg
230,192,73636,1,0,0:0:0:0:m_042.ogg
179,192,73769,1,0,0:0:0:0:s_040.ogg
435,192,73836,1,0,0:0:0:0:s_054.ogg
128,192,73903,1,0,0:0:0:0:s_034.ogg
25,192,74036,1,0,0:0:0:0:m_023.ogg
435,192,74036,128,0,75536:0:0:0:0:l_054.ogg
76,192,74169,1,0,0:0:0:0:m_030.ogg
128,192,74303,1,0,0:0:0:0:m_035.ogg
230,192,74436,1,0,0:0:0:0:m_039.ogg
128,192,74569,1,0,0:0:0:0:s_035.ogg
76,192,74703,1,0,0:0:0:0:s_030.ogg
25,192,74836,1,0,0:0:0:0:m_023.ogg
76,192,74969,1,0,0:0:0:0:m_030.ogg
128,192,75103,1,0,0:0:0:0:m_033.ogg
179,192,75236,1,0,0:0:0:0:m_037.ogg
128,192,75369,1,0,0:0:0:0:s_033.ogg
76,192,75503,1,0,0:0:0:0:s_030.ogg
25,192,75636,1,0,0:0:0:0:m_023.ogg
384,192,75636,128,0,76336:0:0:0:0:m_047.ogg
128,192,75769,1,0,0:0:0:0:m_035.ogg
179,192,75903,1,0,0:0:0:0:m_039.ogg
230,192,76036,1,0,0:0:0:0:m_042.ogg
179,192,76169,1,0,0:0:0:0:m_039.ogg
128,192,76303,1,0,0:0:0:0:m_035.ogg
76,192,76436,1,0,0:0:0:0:m_023.ogg
435,192,76436,1,0,0:0:0:0:s_049.ogg
486,192,76486,1,0,0:0:0:0:m_051.ogg
435,192,76536,1,0,0:0:0:0:m_049.ogg
128,192,76569,1,0,0:0:0:0:m_035.ogg
281,192,76636,1,0,0:0:0:0:s_047.ogg
179,192,76703,1,0,0:0:0:0:s_039.ogg
230,192,76836,1,0,0:0:0:0:s_045.ogg
332,192,76836,1,0,0:0:0:0:s_052.ogg
179,192,76969,1,0,0:0:0:0:s_039.ogg
384,192,77036,1,0,0:0:0:0:s_054.ogg
128,192,77103,1,0,0:0:0:0:s_035.ogg
25,192,77236,1,0,0:0:0:0:m_028.ogg
435,192,77236,128,0,77936:0:0:0:0:m_056.ogg
76,192,77369,1,0,0:0:0:0:m_035.ogg
128,192,77503,1,0,0:0:0:0:m_040.ogg
230,192,77636,1,0,0:0:0:0:m_044.ogg
128,192,77769,1,0,0:0:0:0:m_040.ogg
76,192,77903,1,0,0:0:0:0:m_035.ogg
25,192,78036,1,0,0:0:0:0:m_028.ogg
486,192,78036,128,0,78736:0:0:0:0:m_059.ogg
76,192,78169,1,0,0:0:0:0:m_035.ogg
128,192,78303,1,0,0:0:0:0:m_044.ogg
230,192,78436,1,0,0:0:0:0:m_047.ogg
179,192,78569,1,0,0:0:0:0:s_044.ogg
128,192,78703,1,0,0:0:0:0:s_035.ogg
435,192,78836,128,0,79236:0:0:0:0:m_057.ogg
230,192,78836,128,0,79236:0:0:0:0:m_045.ogg
76,192,78969,1,0,0:0:0:0:s_042.ogg
25,192,79103,1,0,0:0:0:0:s_035.ogg
384,192,79236,128,0,79636:0:0:0:0:m_056.ogg
179,192,79236,128,0,79636:0:0:0:0:m_044.ogg
76,192,79369,1,0,0:0:0:0:s_040.ogg
25,192,79503,1,0,0:0:0:0:s_035.ogg
332,192,79636,1,0,0:0:0:0:s_054.ogg
128,192,79636,128,0,80036:0:0:0:0:m_042.ogg
230,192,79769,1,0,0:0:0:0:s_039.ogg
435,192,79836,1,0,0:0:0:0:s_056.ogg
384,192,79886,1,0,0:0:0:0:s_054.ogg
179,192,79903,1,0,0:0:0:0:s_035.ogg
332,192,79936,1,0,0:0:0:0:s_052.ogg
384,192,79986,1,0,0:0:0:0:s_054.ogg
76,192,80036,128,0,80436:0:0:0:0:m_040.ogg
435,192,80036,128,0,80336:0:0:0:0:m_056.ogg
230,192,80169,1,0,0:0:0:0:s_035.ogg
179,192,80303,1,0,0:0:0:0:s_032.ogg
332,192,80336,1,0,0:0:0:0:s_052.ogg
25,192,80436,1,0,0:0:0:0:m_023.ogg
281,192,80436,128,0,81136:0:0:0:0:m_047.ogg
76,192,80569,1,0,0:0:0:0:m_030.ogg
128,192,80703,1,0,0:0:0:0:m_035.ogg
179,192,80836,1,0,0:0:0:0:m_039.ogg
128,192,80969,1,0,0:0:0:0:s_035.ogg
76,192,81103,1,0,0:0:0:0:s_030.ogg
25,192,81236,1,0,0:0:0:0:m_021.ogg
384,192,81236,128,0,82736:0:0:0:0:l_049.ogg
128,192,81369,1,0,0:0:0:0:m_033.ogg
179,192,81503,1,0,0:0:0:0:m_037.ogg
230,192,81636,1,0,0:0:0:0:m_040.ogg
179,192,81769,1,0,0:0:0:0:s_037.ogg
128,192,81903,1,0,0:0:0:0:s_033.ogg
76,192,82036,1,0,0:0:0:0:m_025.ogg
128,192,82169,1,0,0:0:0:0:m_032.ogg
179,192,82303,1,0,0:0:0:0:m_037.ogg
230,192,82436,1,0,0:0:0:0:m_041.ogg
179,192,82569,1,0,0:0:0:0:s_037.ogg
128,192,82703,1,0,0:0:0:0:s_032.ogg
25,192,82836,1,0,0:0:0:0:m_025.ogg
435,192,82836,1,0,0:0:0:0:s_050.ogg
486,192,82886,1,0,0:0:0:0:m_052.ogg
435,192,82936,1,0,0:0:0:0:m_050.ogg
76,192,82969,1,0,0:0:0:0:m_037.ogg
332,192,83036,1,0,0:0:0:0:m_049.ogg
128,192,83103,1,0,0:0:0:0:m_041.ogg
230,192,83236,1,0,0:0:0:0:m_047.ogg
384,192,83236,1,0,0:0:0:0:m_054.ogg
179,192,83369,1,0,0:0:0:0:s_041.ogg
435,192,83436,1,0,0:0:0:0:s_056.ogg
128,192,83503,1,0,0:0:0:0:s_037.ogg
486,192,83636,128,0,84036:0:0:0:0:m_057.ogg
25,192,83636,128,0,84036:0:0:0:0:m_030.ogg
230,192,83769,1,0,0:0:0:0:s_045.ogg
179,192,83903,1,0,0:0:0:0:s_037.ogg
435,192,84036,128,0,84436:0:0:0:0:m_056.ogg
76,192,84036,128,0,84436:0:0:0:0:m_032.ogg
230,192,84169,1,0,0:0:0:0:s_044.ogg
179,192,84303,1,0,0:0:0:0:s_036.ogg
128,192,84436,128,0,84836:0:0:0:0:m_033.ogg
384,192,84436,128,0,84836:0:0:0:0:m_054.ogg
76,192,84569,1,0,0:0:0:0:s_042.ogg
25,192,84703,1,0,0:0:0:0:s_037.ogg
179,192,84836,128,0,85236:0:0:0:0:m_035.ogg
435,192,84836,128,0,85236:0:0:0:0:m_056.ogg
76,192,84969,1,0,0:0:0:0:s_045.ogg
25,192,85103,1,0,0:0:0:0:s_039.ogg
76,192,85236,1,0,0:0:0:0:m_028.ogg
332,192,85236,128,0,85736:0:0:0:0:m_052.ogg
128,192,85369,1,0,0:0:0:0:m_035.ogg
179,192,85503,1,0,0:0:0:0:m_040.ogg
230,192,85636,1,0,0:0:0:0:m_044.ogg
179,192,85769,1,0,0:0:0:0:s_040.ogg
281,192,85836,1,0,0:0:0:0:s_046.ogg
332,192,85886,1,0,0:0:0:0:s_047.ogg
128,192,85903,1,0,0:0:0:0:s_035.ogg
384,192,85936,1,0,0:0:0:0:s_049.ogg
332,192,85986,1,0,0:0:0:0:s_047.ogg
25,192,86036,1,0,0:0:0:0:m_028.ogg
486,192,86036,128,0,86536:0:0:0:0:m_056.ogg
128,192,86169,1,0,0:0:0:0:m_035.ogg
179,192,86303,1,0,0:0:0:0:m_039.ogg
230,192,86436,1,0,0:0:0:0:m_045.ogg
128,192,86569,1,0,0:0:0:0:s_039.ogg
435,192,86636,1,0,0:0:0:0:s_054.ogg
76,192,86703,1,0,0:0:0:0:s_035.ogg
25,192,86836,1,0,0:0:0:0:m_028.ogg
435,192,86836,128,0,87536:0:0:0:0:m_054.ogg
76,192,86969,1,0,0:0:0:0:m_035.ogg
128,192,87103,1,0,0:0:0:0:m_039.ogg
230,192,87236,1,0,0:0:0:0:m_045.ogg
179,192,87369,1,0,0:0:0:0:s_039.ogg
128,192,87503,1,0,0:0:0:0:s_035.ogg
25,192,87636,1,0,0:0:0:0:m_028.ogg
384,192,87636,128,0,88136:0:0:0:0:m_052.ogg
76,192,87769,1,0,0:0:0:0:m_035.ogg
128,192,87903,1,0,0:0:0:0:m_040.ogg
179,192,88036,1,0,0:0:0:0:m_044.ogg
128,192,88169,1,0,0:0:0:0:s_040.ogg
486,192,88236,1,0,0:0:0:0:s_059.ogg
76,192,88303,1,0,0:0:0:0:s_035.ogg
25,192,88436,1,0,0:0:0:0:m_023.ogg
435,192,88436,128,0,89136:0:0:0:0:m_047.ogg
128,192,88569,1,0,0:0:0:0:m_030.ogg
179,192,88703,1,0,0:0:0:0:m_035.ogg
230,192,88836,1,0,0:0:0:0:m_039.ogg
179,192,88969,1,0,0:0:0:0:s_035.ogg
128,192,89103,1,0,0:0:0:0:s_030.ogg
76,192,89236,1,0,0:0:0:0:m_023.ogg
384,192,89236,1,0,0:0:0:0:s_049.ogg
435,192,89286,1,0,0:0:0:0:m_051.ogg
384,192,89336,1,0,0:0:0:0:m_049.ogg
128,192,89369,1,0,0:0:0:0:m_030.ogg
179,192,89503,1,0,0:0:0:0:m_034.ogg
332,192,89536,1,0,0:0:0:0:m_048.ogg
230,192,89636,1,0,0:0:0:0:m_040.ogg
384,192,89636,1,0,0:0:0:0:m_049.ogg
179,192,89769,1,0,0:0:0:0:s_034.ogg
128,192,89903,1,0,0:0:0:0:s_030.ogg
435,192,89936,1,0,0:0:0:0:s_051.ogg
25,192,90036,1,0,0:0:0:0:m_023.ogg
281,192,90036,128,0,90336:0:0:0:0:m_047.ogg
76,192,90169,1,0,0:0:0:0:m_030.ogg
128,192,90303,1,0,0:0:0:0:m_035.ogg
179,192,90436,1,0,0:0:0:0:m_039.ogg
486,192,90436,128,0,90836:0:0:0:0:m_063.ogg
128,192,90569,1,0,0:0:0:0:s_035.ogg
76,192,90703,1,0,0:0:0:0:s_030.ogg
25,192,90836,1,0,0:0:0:0:m_028.ogg
486,192,90936,1,0,0:0:0:0:m_061.ogg
76,192,90969,1,0,0:0:0:0:m_035.ogg
435,192,91036,1,0,0:0:0:0:m_059.ogg
128,192,91103,1,0,0:0:0:0:m_040.ogg
384,192,91136,1,0,0:0:0:0:m_055.ogg
230,192,91236,1,0,0:0:0:0:m_043.ogg
332,192,91236,1,0,0:0:0:0:m_052.ogg
281,192,91336,1,0,0:0:0:0:s_049.ogg
179,192,91369,1,0,0:0:0:0:s_040.ogg
128,192,91503,1,0,0:0:0:0:s_035.ogg
435,192,91536,1,0,0:0:0:0:s_059.ogg
25,192,91636,1,0,0:0:0:0:m_018.ogg
332,192,91636,128,0,92336:0:0:0:0:m_042.ogg
128,192,91769,1,0,0:0:0:0:m_030.ogg
179,192,91903,1,0,0:0:0:0:m_035.ogg
230,192,92036,1,0,0:0:0:0:m_039.ogg
179,192,92169,1,0,0:0:0:0:s_035.ogg
128,192,92303,1,0,0:0:0:0:s_030.ogg
76,192,92436,1,0,0:0:0:0:m_018.ogg
435,192,92436,1,0,0:0:0:0:m_051.ogg
384,192,92486,1,0,0:0:0:0:m_049.ogg
128,192,92569,1,0,0:0:0:0:m_030.ogg
179,192,92703,1,0,0:0:0:0:m_034.ogg
332,192,92736,1,0,0:0:0:0:m_048.ogg
230,192,92836,1,0,0:0:0:0:m_040.ogg
384,192,92836,1,0,0:0:0:0:m_049.ogg
179,192,92969,1,0,0:0:0:0:s_034.ogg
128,192,93103,1,0,0:0:0:0:s_030.ogg
486,192,93136,1,0,0:0:0:0:s_054.ogg
25,192,93236,1,0,0:0:0:0:m_023.ogg
281,192,93236,128,0,93936:0:0:0:0:m_047.ogg
76,192,93369,1,0,0:0:0:0:m_030.ogg
128,192,93503,1,0,0:0:0:0:m_035.ogg
179,192,93636,1,0,0:0:0:0:m_039.ogg
128,192,93769,1,0,0:0:0:0:s_035.ogg
76,192,93903,1,0,0:0:0:0:s_030.ogg
25,192,94036,1,0,0:0:0:0:m_021.ogg
384,192,94036,128,0,95536:0:0:0:0:l_049.ogg
76,192,94169,1,0,0:0:0:0:m_033.ogg
128,192,94303,1,0,0:0:0:0:m_037.ogg
230,192,94436,1,0,0:0:0:0:m_040.ogg
128,192,94569,1,0,0:0:0:0:s_037.ogg
76,192,94703,1,0,0:0:0:0:s_033.ogg
25,192,94836,1,0,0:0:0:0:m_025.ogg
128,192,94969,1,0,0:0:0:0:m_032.ogg
179,192,95103,1,0,0:0:0:0:m_037.ogg
230,192,95236,1,0,0:0:0:0:m_041.ogg
179,192,95369,1,0,0:0:0:0:s_037.ogg
128,192,95503,1,0,0:0:0:0:s_032.ogg
25,192,95636,1,0,0:0:0:0:m_025.ogg
435,192,95636,1,0,0:0:0:0:s_050.ogg
486,192,95686,1,0,0:0:0:0:m_052.ogg
435,192,95736,1,0,0:0:0:0:m_050.ogg
76,192,95769,1,0,0:0:0:0:m_037.ogg
281,192,95836,1,0,0:0:0:0:m_049.ogg
128,192,95903,1,0,0:0:0:0:m_041.ogg
230,192,96036,1,0,0:0:0:0:m_047.ogg
332,192,96036,1,0,0:0:0:0:m_054.ogg
179,192,96169,1,0,0:0:0:0:s_041.ogg
384,192,96236,1,0,0:0:0:0:s_056.ogg
128,192,96303,1,0,0:0:0:0:s_037.ogg
486,192,96436,128,0,96836:0:0:0:0:m_057.ogg
25,192,96436,128,0,96836:0:0:0:0:m_030.ogg
179,192,96569,1,0,0:0:0:0:s_045.ogg
128,192,96703,1,0,0:0:0:0:s_037.ogg
76,192,96836,128,0,97236:0:0:0:0:m_032.ogg
435,192,96836,128,0,97236:0:0:0:0:m_056.ogg
230,192,96969,1,0,0:0:0:0:s_044.ogg
179,192,97103,1,0,0:0:0:0:s_036.ogg
128,192,97236,128,0,97636:0:0:0:0:m_033.ogg
384,192,97236,128,0,97636:0:0:0:0:m_054.ogg
76,192,97369,1,0,0:0:0:0:s_042.ogg
25,192,97503,1,0,0:0:0:0:s_037.ogg
179,192,97636,128,0,98036:0:0:0:0:m_035.ogg
435,192,97636,128,0,98036:0:0:0:0:m_056.ogg
128,192,97769,1,0,0:0:0:0:s_045.ogg
76,192,97903,1,0,0:0:0:0:s_039.ogg
25,192,98036,1,0,0:0:0:0:m_028.ogg
332,192,98036,128,0,98536:0:0:0:0:m_052.ogg
76,192,98169,1,0,0:0:0:0:m_035.ogg
128,192,98303,1,0,0:0:0:0:m_040.ogg
230,192,98436,1,0,0:0:0:0:m_044.ogg
179,192,98569,1,0,0:0:0:0:s_040.ogg
281,192,98636,1,0,0:0:0:0:s_046.ogg
332,192,98686,1,0,0:0:0:0:s_047.ogg
128,192,98703,1,0,0:0:0:0:s_035.ogg
384,192,98736,1,0,0:0:0:0:s_049.ogg
332,192,98786,1,0,0:0:0:0:s_047.ogg
76,192,98836,1,0,0:0:0:0:m_028.ogg
486,192,98836,128,0,99336:0:0:0:0:m_056.ogg
128,192,98969,1,0,0:0:0:0:m_035.ogg
179,192,99103,1,0,0:0:0:0:m_039.ogg
230,192,99236,1,0,0:0:0:0:m_045.ogg
179,192,99369,1,0,0:0:0:0:s_039.ogg
435,192,99436,1,0,0:0:0:0:s_054.ogg
128,192,99503,1,0,0:0:0:0:s_035.ogg
76,192,99636,1,0,0:0:0:0:m_028.ogg
435,192,99636,128,0,101136:0:0:0:0:l_054.ogg
128,192,99769,1,0,0:0:0:0:m_035.ogg
179,192,99903,1,0,0:0:0:0:m_039.ogg
230,192,100036,1,0,0:0:0:0:m_045.ogg
179,192,100169,1,0,0:0:0:0:s_039.ogg
128,192,100303,1,0,0:0:0:0:s_035.ogg
76,192,100436,1,0,0:0:0:0:m_028.ogg
128,192,100569,1,0,0:0:0:0:m_035.ogg
179,192,100703,1,0,0:0:0:0:m_039.ogg
230,192,100836,1,0,0:0:0:0:m_045.ogg
179,192,100969,1,0,0:0:0:0:s_039.ogg
128,192,101103,1,0,0:0:0:0:s_035.ogg
384,192,101236,1,0,0:0:0:0:m_042.ogg
25,192,101236,128,0,101781:0:0:0:0:m_016.ogg
332,192,101327,1,0,0:0:0:0:m_040.ogg
486,192,101418,1,0,0:0:0:0:m_047.ogg
179,192,101418,128,0,101781:0:0:0:0:m_031.ogg
281,192,101509,1,0,0:0:0:0:m_035.ogg
435,192,101600,1,0,0:0:0:0:m_048.ogg
128,192,101600,128,0,101781:0:0:0:0:m_028.ogg
384,192,101690,1,0,0:0:0:0:s_047.ogg
76,192,101781,1,0,0:0:0:0:s_023.ogg
486,192,101781,1,0,0:0:0:0:m_055.ogg
332,192,101872,1,0,0:0:0:0:s_043.ogg
435,192,101963,1,0,0:0:0:0:m_048.ogg
25,192,101963,128,0,102509:0:0:0:0:m_016.ogg
384,192,102054,1,0,0:0:0:0:m_047.ogg
486,192,102145,1,0,0:0:0:0:m_055.ogg
230,192,102145,128,0,102509:0:0:0:0:m_033.ogg
332,192,102236,1,0,0:0:0:0:m_043.ogg
435,192,102327,1,0,0:0:0:0:m_048.ogg
179,192,102327,128,0,102509:0:0:0:0:m_027.ogg
384,192,102418,1,0,0:0:0:0:s_047.ogg
128,192,102509,1,0,0:0:0:0:s_023.ogg
486,192,102509,1,0,0:0:0:0:m_054.ogg
281,192,102600,1,0,0:0:0:0:s_042.ogg
435,192,102690,1,0,0:0:0:0:m_048.ogg
25,192,102690,128,0,103236:0:0:0:0:m_016.ogg
384,192,102781,1,0,0:0:0:0:m_047.ogg
486,192,102872,1,0,0:0:0:0:m_054.ogg
179,192,102872,128,0,103236:0:0:0:0:m_031.ogg
281,192,102963,1,0,0:0:0:0:m_042.ogg
435,192,103054,1,0,0:0:0:0:m_048.ogg
128,192,103054,128,0,103236:0:0:0:0:m_028.ogg
384,192,103145,1,0,0:0:0:0:s_047.ogg
76,192,103236,1,0,0:0:0:0:s_023.ogg
486,192,103236,1,0,0:0:0:0:m_052.ogg
332,192,103327,1,0,0:0:0:0:s_040.ogg
384,192,103418,1,0,0:0:0:0:m_042.ogg
25,192,103418,128,0,103963:0:0:0:0:m_016.ogg
332,192,103509,1,0,0:0:0:0:m_040.ogg
435,192,103600,1,0,0:0:0:0:m_047.ogg
230,192,103600,128,0,103963:0:0:0:0:m_033.ogg
281,192,103690,1,0,0:0:0:0:m_035.ogg
384,192,103781,1,0,0:0:0:0:m_042.ogg
179,192,103781,128,0,103963:0:0:0:0:m_027.ogg
332,192,103872,1,0,0:0:0:0:s_040.ogg
128,192,103963,1,0,0:0:0:0:s_023.ogg
435,192,103963,1,0,0:0:0:0:m_047.ogg
281,192,104054,1,0,0:0:0:0:s_035.ogg
384,192,104145,1,0,0:0:0:0:m_042.ogg
25,192,104145,128,0,104690:0:0:0:0:m_016.ogg
332,192,104236,1,0,0:0:0:0:m_040.ogg
486,192,104327,1,0,0:0:0:0:m_047.ogg
128,192,104327,128,0,104690:0:0:0:0:m_031.ogg
281,192,104418,1,0,0:0:0:0:m_035.ogg
435,192,104509,1,0,0:0:0:0:m_048.ogg
76,192,104509,128,0,104690:0:0:0:0:m_028.ogg
384,192,104600,1,0,0:0:0:0:s_047.ogg
230,192,104690,1,0,0:0:0:0:s_023.ogg
486,192,104690,1,0,0:0:0:0:m_055.ogg
281,192,104781,1,0,0:0:0:0:s_043.ogg
435,192,104872,1,0,0:0:0:0:m_048.ogg
25,192,104872,128,0,105418:0:0:0:0:m_016.ogg
384,192,104963,1,0,0:0:0:0:m_047.ogg
486,192,105054,1,0,0:0:0:0:m_055.ogg
179,192,105054,128,0,105418:0:0:0:0:m_033.ogg
281,192,105145,1,0,0:0:0:0:m_043.ogg
435,192,105236,1,0,0:0:0:0:m_048.ogg
128,192,105236,128,0,105418:0:0:0:0:m_027.ogg
384,192,105327,1,0,0:0:0:0:s_047.ogg
230,192,105418,1,0,0:0:0:0:s_023.ogg
486,192,105418,1,0,0:0:0:0:m_054.ogg
332,192,105509,1,0,0:0:0:0:s_042.ogg
435,192,105600,1,0,0:0:0:0:m_048.ogg
25,192,105600,128,0,106145:0:0:0:0:m_016.ogg
384,192,105690,1,0,0:0:0:0:m_047.ogg
486,192,105781,1,0,0:0:0:0:m_054.ogg
128,192,105781,128,0,106145:0:0:0:0:m_031.ogg
332,192,105872,1,0,0:0:0:0:m_042.ogg
435,192,105963,1,0,0:0:0:0:m_048.ogg
76,192,105963,128,0,106145:0:0:0:0:m_028.ogg
384,192,106054,1,0,0:0:0:0:s_047.ogg
230,192,106145,1,0,0:0:0:0:s_023.ogg
486,192,106145,1,0,0:0:0:0:m_052.ogg
332,192,106236,1,0,0:0:0:0:s_040.ogg
384,192,106327,1,0,0:0:0:0:m_042.ogg
25,192,106327,128,0,106872:0:0:0:0:m_016.ogg
332,192,106418,1,0,0:0:0:0:m_040.ogg
435,192,106509,1,0,0:0:0:0:m_047.ogg
179,192,106509,128,0,106872:0:0:0:0:m_033.ogg
281,192,106600,1,0,0:0:0:0:m_035.ogg
384,192,106690,1,0,0:0:0:0:m_042.ogg
128,192,106690,128,0,106872:0:0:0:0:m_027.ogg
332,192,106781,1,0,0:0:0:0:s_040.ogg
230,192,106872,1,0,0:0:0:0:s_023.ogg
435,192,106872,1,0,0:0:0:0:m_047.ogg
281,192,106963,1,0,0:0:0:0:s_035.ogg
384,192,107054,1,0,0:0:0:0:m_042.ogg
25,192,107054,128,0,107600:0:0:0:0:m_016.ogg
332,192,107145,1,0,0:0:0:0:m_040.ogg
486,192,107236,1,0,0:0:0:0:m_047.ogg
179,192,107236,128,0,107600:0:0:0:0:m_031.ogg
281,192,107327,1,0,0:0:0:0:m_035.ogg
435,192,107418,1,0,0:0:0:0:m_048.ogg
128,192,107418,128,0,107600:0:0:0:0:m_028.ogg
384,192,107509,1,0,0:0:0:0:m_047.ogg
76,192,107600,1,0,0:0:0:0:m_023.ogg
486,192,107600,1,0,0:0:0:0:m_055.ogg
281,192,107690,1,0,0:0:0:0:s_043.ogg
384,192,107781,1,0,0:0:0:0:m_045.ogg
25,192,107781,128,0,108327:0:0:0:0:m_016.ogg
332,192,107872,1,0,0:0:0:0:m_043.ogg
486,192,107963,1,0,0:0:0:0:m_052.ogg
230,192,107963,128,0,108327:0:0:0:0:m_035.ogg
281,192,108054,1,0,0:0:0:0:m_040.ogg
435,192,108145,1,0,0:0:0:0:m_048.ogg
179,192,108145,128,0,108327:0:0:0:0:m_028.ogg
384,192,108236,1,0,0:0:0:0:s_047.ogg
76,192,108327,1,0,0:0:0:0:s_023.ogg
486,192,108327,1,0,0:0:0:0:m_055.ogg
281,192,108418,1,0,0:0:0:0:s_043.ogg
435,192,108509,1,0,0:0:0:0:m_042.ogg
25,192,108509,128,0,109054:0:0:0:0:m_016.ogg
332,192,108600,1,0,0:0:0:0:m_040.ogg
486,192,108690,1,0,0:0:0:0:m_047.ogg
179,192,108690,128,0,109054:0:0:0:0:m_031.ogg
281,192,108781,1,0,0:0:0:0:m_035.ogg
435,192,108872,1,0,0:0:0:0:m_048.ogg
128,192,108872,128,0,109054:0:0:0:0:m_028.ogg
384,192,108963,1,0,0:0:0:0:m_047.ogg
76,192,109054,1,0,0:0:0:0:m_023.ogg
486,192,109054,1,0,0:0:0:0:m_055.ogg
332,192,109145,1,0,0:0:0:0:s_043.ogg
384,192,109236,1,0,0:0:0:0:m_045.ogg
25,192,109236,128,0,109781:0:0:0:0:m_016.ogg
332,192,109327,1,0,0:0:0:0:m_043.ogg
486,192,109418,1,0,0:0:0:0:m_052.ogg
230,192,109418,128,0,109781:0:0:0:0:m_035.ogg
281,192,109509,1,0,0:0:0:0:m_040.ogg
435,192,109600,1,0,0:0:0:0:m_048.ogg
179,192,109600,128,0,109781:0:0:0:0:m_028.ogg
384,192,109690,1,0,0:0:0:0:s_047.ogg
76,192,109781,1,0,0:0:0:0:s_023.ogg
486,192,109781,1,0,0:0:0:0:m_055.ogg
332,192,109872,1,0,0:0:0:0:s_043.ogg
384,192,109963,1,0,0:0:0:0:m_045.ogg
25,192,109963,128,0,110509:0:0:0:0:m_016.ogg
332,192,110054,1,0,0:0:0:0:m_043.ogg
486,192,110145,1,0,0:0:0:0:m_052.ogg
179,192,110145,128,0,110509:0:0:0:0:m_031.ogg
281,192,110236,1,0,0:0:0:0:m_040.ogg
435,192,110327,1,0,0:0:0:0:m_048.ogg
128,192,110327,128,0,110509:0:0:0:0:m_028.ogg
384,192,110418,1,0,0:0:0:0:s_047.ogg
76,192,110509,1,0,0:0:0:0:s_023.ogg
486,192,110509,1,0,0:0:0:0:s_052.ogg
281,192,110600,1,0,0:0:0:0:s_040.ogg
384,192,110690,1,0,0:0:0:0:m_045.ogg
25,192,110690,128,0,111236:0:0:0:0:m_016.ogg
332,192,110781,1,0,0:0:0:0:m_043.ogg
486,192,110872,1,0,0:0:0:0:m_052.ogg
179,192,110872,128,0,111236:0:0:0:0:m_031.ogg
281,192,110963,1,0,0:0:0:0:m_040.ogg
435,192,111054,1,0,0:0:0:0:m_048.ogg
128,192,111054,128,0,111236:0:0:0:0:m_028.ogg
384,192,111145,1,0,0:0:0:0:s_047.ogg
76,192,111236,1,0,0:0:0:0:s_023.ogg
486,192,111236,1,0,0:0:0:0:s_052.ogg
281,192,111327,1,0,0:0:0:0:s_040.ogg
384,192,111418,1,0,0:0:0:0:m_045.ogg
25,192,111418,128,0,111963:0:0:0:0:m_016.ogg
332,192,111509,1,0,0:0:0:0:m_043.ogg
486,192,111600,1,0,0:0:0:0:m_052.ogg
179,192,111600,128,0,111963:0:0:0:0:m_031.ogg
281,192,111690,1,0,0:0:0:0:m_040.ogg
435,192,111781,1,0,0:0:0:0:m_048.ogg
128,192,111781,128,0,111963:0:0:0:0:m_028.ogg
384,192,111872,1,0,0:0:0:0:m_047.ogg
76,192,111963,1,0,0:0:0:0:m_023.ogg
486,192,111963,1,0,0:0:0:0:m_052.ogg
281,192,112054,1,0,0:0:0:0:m_040.ogg
384,192,112145,1,0,0:0:0:0:m_045.ogg
25,192,112145,128,0,112690:0:0:0:0:m_016.ogg
332,192,112236,1,0,0:0:0:0:m_043.ogg
486,192,112327,1,0,0:0:0:0:m_052.ogg
179,192,112327,128,0,112690:0:0:0:0:m_031.ogg
281,192,112418,1,0,0:0:0:0:m_040.ogg
435,192,112509,1,0,0:0:0:0:m_048.ogg
128,192,112509,128,0,112690:0:0:0:0:m_028.ogg
384,192,112600,1,0,0:0:0:0:s_047.ogg
76,192,112690,1,0,0:0:0:0:s_023.ogg
486,192,112690,1,0,0:0:0:0:s_052.ogg
281,192,112781,1,0,0:0:0:0:s_040.ogg
384,192,112872,1,0,0:0:0:0:m_042.ogg
25,192,112872,128,0,115690:0:0:0:0:l_016.ogg
332,192,112963,1,0,0:0:0:0:m_040.ogg
435,192,113054,1,0,0:0:0:0:m_047.ogg
281,192,113145,1,0,0:0:0:0:m_035.ogg
384,192,113236,1,0,0:0:0:0:m_042.ogg
332,192,113327,1,0,0:0:0:0:m_040.ogg
435,192,113418,1,0,0:0:0:0:m_047.ogg
281,192,113509,1,0,0:0:0:0:m_035.ogg
384,192,113600,1,0,0:0:0:0:m_042.ogg
332,192,113690,1,0,0:0:0:0:m_040.ogg
435,192,113781,1,0,0:0:0:0:m_047.ogg
281,192,113872,1,0,0:0:0:0:m_035.ogg
384,192,113963,1,0,0:0:0:0:m_042.ogg
332,192,114054,1,0,0:0:0:0:m_040.ogg
435,192,114145,1,0,0:0:0:0:m_047.ogg
281,192,114236,1,0,0:0:0:0:m_035.ogg
384,192,114327,1,0,0:0:0:0:m_042.ogg
332,192,114418,1,0,0:0:0:0:m_040.ogg
435,192,114509,1,0,0:0:0:0:m_047.ogg
281,192,114600,1,0,0:0:0:0:m_035.ogg
384,192,114690,1,0,0:0:0:0:m_042.ogg
332,192,114781,1,0,0:0:0:0:m_040.ogg
435,192,114872,1,0,0:0:0:0:m_047.ogg
281,192,114963,1,0,0:0:0:0:m_035.ogg
384,192,115054,1,0,0:0:0:0:m_042.ogg
332,192,115145,1,0,0:0:0:0:m_040.ogg
435,192,115236,1,0,0:0:0:0:m_047.ogg
281,192,115327,1,0,0:0:0:0:m_035.ogg
384,192,115418,1,0,0:0:0:0:m_042.ogg
332,192,115509,1,0,0:0:0:0:s_040.ogg
435,192,115600,1,0,0:0:0:0:s_047.ogg
281,192,115690,1,0,0:0:0:0:s_035.ogg
384,192,115781,1,0,0:0:0:0:m_042.ogg
76,192,115781,128,0,117145:0:0:0:0:l_023.ogg
25,192,115781,128,0,117145:0:0:0:0:l_016.ogg
332,192,115872,1,0,0:0:0:0:m_040.ogg
435,192,115963,1,0,0:0:0:0:m_047.ogg
281,192,116054,1,0,0:0:0:0:m_035.ogg
384,192,116145,1,0,0:0:0:0:m_042.ogg
332,192,116236,1,0,0:0:0:0:m_040.ogg
435,192,116327,1,0,0:0:0:0:m_047.ogg
281,192,116418,1,0,0:0:0:0:m_035.ogg
384,192,116509,1,0,0:0:0:0:m_042.ogg
332,192,116600,1,0,0:0:0:0:m_040.ogg
435,192,116690,1,0,0:0:0:0:m_047.ogg
281,192,116781,1,0,0:0:0:0:m_035.ogg
384,192,116872,1,0,0:0:0:0:m_042.ogg
332,192,116963,1,0,0:0:0:0:s_040.ogg
435,192,117054,1,0,0:0:0:0:s_047.ogg
281,192,117145,1,0,0:0:0:0:m_035.ogg
384,192,117236,1,0,0:0:0:0:m_042.ogg
128,192,117236,128,0,117509:0:0:0:0:m_025.ogg
332,192,117327,1,0,0:0:0:0:m_040.ogg
435,192,117418,1,0,0:0:0:0:m_047.ogg
281,192,117509,1,0,0:0:0:0:m_035.ogg
384,192,117600,1,0,0:0:0:0:m_042.ogg
25,192,117600,128,0,117872:0:0:0:0:m_023.ogg
332,192,117690,1,0,0:0:0:0:m_040.ogg
435,192,117781,1,0,0:0:0:0:m_047.ogg
281,192,117872,1,0,0:0:0:0:m_035.ogg
384,192,117963,1,0,0:0:0:0:m_042.ogg
76,192,117963,128,0,118236:0:0:0:0:m_028.ogg
332,192,118054,1,0,0:0:0:0:m_040.ogg
435,192,118145,1,0,0:0:0:0:m_047.ogg
281,192,118236,1,0,0:0:0:0:m_035.ogg
384,192,118327,1,0,0:0:0:0:m_042.ogg
128,192,118327,128,0,118600:0:0:0:0:m_030.ogg
332,192,118418,1,0,0:0:0:0:s_040.ogg
435,192,118509,1,0,0:0:0:0:s_047.ogg
281,192,118600,1,0,0:0:0:0:s_035.ogg
384,192,118690,1,0,0:0:0:0:m_042.ogg
179,192,118690,128,0,120054:0:0:0:0:l_032.ogg
332,192,118781,1,0,0:0:0:0:m_040.ogg
435,192,118872,1,0,0:0:0:0:m_047.ogg
281,192,118963,1,0,0:0:0:0:m_035.ogg
384,192,119054,1,0,0:0:0:0:m_042.ogg
332,192,119145,1,0,0:0:0:0:m_040.ogg
435,192,119236,1,0,0:0:0:0:m_047.ogg
281,192,119327,1,0,0:0:0:0:m_035.ogg
384,192,119418,1,0,0:0:0:0:m_042.ogg
332,192,119509,1,0,0:0:0:0:m_040.ogg
435,192,119600,1,0,0:0:0:0:m_047.ogg
281,192,119690,1,0,0:0:0:0:m_035.ogg
384,192,119781,1,0,0:0:0:0:m_042.ogg
332,192,119872,1,0,0:0:0:0:s_040.ogg
435,192,119963,1,0,0:0:0:0:s_047.ogg
281,192,120054,1,0,0:0:0:0:s_035.ogg
384,192,120145,1,0,0:0:0:0:m_042.ogg
230,192,120145,128,0,121509:0:0:0:0:l_035.ogg
332,192,120236,1,0,0:0:0:0:m_040.ogg
435,192,120327,1,0,0:0:0:0:m_047.ogg
281,192,120418,1,0,0:0:0:0:m_035.ogg
384,192,120509,1,0,0:0:0:0:m_042.ogg
332,192,120600,1,0,0:0:0:0:m_040.ogg
435,192,120690,1,0,0:0:0:0:m_047.ogg
281,192,120781,1,0,0:0:0:0:m_035.ogg
384,192,120872,1,0,0:0:0:0:m_042.ogg
332,192,120963,1,0,0:0:0:0:m_040.ogg
435,192,121054,1,0,0:0:0:0:m_047.ogg
281,192,121145,1,0,0:0:0:0:m_035.ogg
384,192,121236,1,0,0:0:0:0:m_042.ogg
332,192,121327,1,0,0:0:0:0:s_040.ogg
435,192,121418,1,0,0:0:0:0:s_047.ogg
281,192,121509,1,0,0:0:0:0:s_035.ogg
384,192,121600,1,0,0:0:0:0:m_042.ogg
179,192,121600,128,0,122236:0:0:0:0:l_033.ogg
332,192,121690,1,0,0:0:0:0:m_040.ogg
435,192,121781,1,0,0:0:0:0:m_047.ogg
281,192,121872,1,0,0:0:0:0:m_035.ogg
384,192,121963,1,0,0:0:0:0:m_042.ogg
332,192,122054,1,0,0:0:0:0:m_040.ogg
435,192,122145,1,0,0:0:0:0:m_047.ogg
281,192,122236,1,0,0:0:0:0:m_035.ogg
384,192,122327,1,0,0:0:0:0:m_042.ogg
128,192,122327,128,0,122963:0:0:0:0:l_032.ogg
332,192,122418,1,0,0:0:0:0:m_040.ogg
435,192,122509,1,0,0:0:0:0:m_047.ogg
281,192,122600,1,0,0:0:0:0:m_035.ogg
384,192,122690,1,0,0:0:0:0:m_042.ogg
332,192,122781,1,0,0:0:0:0:m_040.ogg
435,192,122872,1,0,0:0:0:0:m_047.ogg
281,192,122963,1,0,0:0:0:0:m_035.ogg
384,192,123054,1,0,0:0:0:0:m_042.ogg
76,192,123054,128,0,123690:0:0:0:0:m_030.ogg
332,192,123145,1,0,0:0:0:0:m_040.ogg
435,192,123236,1,0,0:0:0:0:m_047.ogg
281,192,123327,1,0,0:0:0:0:m_035.ogg
384,192,123418,1,0,0:0:0:0:m_042.ogg
332,192,123509,1,0,0:0:0:0:m_040.ogg
435,192,123600,1,0,0:0:0:0:m_047.ogg
281,192,123690,1,0,0:0:0:0:m_035.ogg
384,192,123781,1,0,0:0:0:0:m_042.ogg
128,192,123781,128,0,124054:0:0:0:0:m_032.ogg
332,192,123872,1,0,0:0:0:0:m_040.ogg
435,192,123963,1,0,0:0:0:0:m_047.ogg
281,192,124054,1,0,0:0:0:0:m_035.ogg
384,192,124145,1,0,0:0:0:0:m_042.ogg
76,192,124145,128,0,124418:0:0:0:0:m_028.ogg
332,192,124236,1,0,0:0:0:0:s_040.ogg
435,192,124327,1,0,0:0:0:0:s_047.ogg
281,192,124418,1,0,0:0:0:0:s_035.ogg
384,192,124509,1,0,0:0:0:0:m_042.ogg
25,192,124509,128,0,127327:0:0:0:0:l_023.ogg
332,192,124600,1,0,0:0:0:0:m_040.ogg
486,192,124690,1,0,0:0:0:0:m_047.ogg
281,192,124781,1,0,0:0:0:0:m_032.ogg
384,192,124872,1,0,0:0:0:0:m_042.ogg
332,192,124963,1,0,0:0:0:0:m_040.ogg
486,192,125054,1,0,0:0:0:0:m_047.ogg
281,192,125145,1,0,0:0:0:0:m_032.ogg
384,192,125236,1,0,0:0:0:0:m_042.ogg
332,192,125327,1,0,0:0:0:0:m_040.ogg
486,192,125418,1,0,0:0:0:0:m_047.ogg
281,192,125509,1,0,0:0:0:0:m_032.ogg
384,192,125600,1,0,0:0:0:0:m_042.ogg
332,192,125690,1,0,0:0:0:0:s_040.ogg
486,192,125781,1,0,0:0:0:0:s_047.ogg
281,192,125872,1,0,0:0:0:0:s_032.ogg
435,192,125963,1,0,0:0:0:0:m_044.ogg
230,192,125963,128,0,127327:0:0:0:0:l_011.ogg
384,192,126054,1,0,0:0:0:0:m_042.ogg
486,192,126145,1,0,0:0:0:0:m_047.ogg
281,192,126236,1,0,0:0:0:0:m_035.ogg
435,192,126327,1,0,0:0:0:0:m_044.ogg
384,192,126418,1,0,0:0:0:0:m_042.ogg
486,192,126509,1,0,0:0:0:0:m_047.ogg
281,192,126600,1,0,0:0:0:0:m_035.ogg
435,192,126690,1,0,0:0:0:0:m_044.ogg
384,192,126781,1,0,0:0:0:0:m_042.ogg
486,192,126872,1,0,0:0:0:0:m_047.ogg
281,192,126963,1,0,0:0:0:0:m_035.ogg
435,192,127054,1,0,0:0:0:0:m_044.ogg
384,192,127145,1,0,0:0:0:0:s_042.ogg
486,192,127236,1,0,0:0:0:0:s_047.ogg
281,192,127327,1,0,0:0:0:0:s_035.ogg
76,192,127418,128,0,128781:0:0:0:0:l_016.ogg
179,192,127463,128,0,128781:0:0:0:0:l_023.ogg
332,192,127509,128,0,128781:0:0:0:0:l_033.ogg
384,192,127554,128,0,128781:0:0:0:0:l_035.ogg
435,192,127600,128,0,128781:0:0:0:0:l_039.ogg
486,192,127645,128,0,128781:0:0:0:0:l_042.ogg
25,192,128872,128,0,130327:0:0:0:0:l_016.ogg
128,192,128918,128,0,130327:0:0:0:0:l_023.ogg
281,192,128963,128,0,130327:0:0:0:0:l_028.ogg
332,192,129009,128,0,130327:0:0:0:0:l_032.ogg
384,192,129054,128,0,130327:0:0:0:0:l_035.ogg
435,192,129100,128,0,130327:0:0:0:0:l_040.ogg
