osu file format v14

[General]
AudioFilename: virtual
AudioLeadIn: 0
PreviewTime: 0
Countdown: 0
SampleSet: Soft
StackLeniency: 0.7
Mode: 3
LetterboxInBreaks: 0
SpecialStyle: 0
WidescreenStoryboard: 1

[Editor]
DistanceSpacing: 0.8
BeatDivisor: 4
GridSize: 32
TimelineZoom: 2.900005

[Metadata]
Title:Piano Beatmap Set
TitleUnicode:Piano Beatmap Set
Artist:Collection
ArtistUnicode:Collection
Creator:CircusGalop
Version:Circus Galop - 10K SHD
Source:BMS
Tags:
BeatmapID:823109
BeatmapSetID:332673

[Difficulty]
HPDrainRate:7
CircleSize:10
OverallDifficulty:5
ApproachRate:5
SliderMultiplier:1.4
SliderTickRate:1

[Events]
//Background and Video events
0,0,"CircusGalop.jpg",0,0
//Break Periods
//Storyboard Layer 0 (Background)
//Storyboard Layer 1 (Fail)
//Storyboard Layer 2 (Pass)
//Storyboard Layer 3 (Foreground)
//Storyboard Sound Samples
Sample,1050,0,"s_027.ogg",100
Sample,1050,0,"s_015.ogg",100
Sample,1125,0,"s_015.ogg",100
Sample,1125,0,"s_039.ogg",100
Sample,1200,0,"m_027.ogg",100
Sample,1200,0,"m_015.ogg",100
Sample,1650,0,"s_015.ogg",100
Sample,1650,0,"s_027.ogg",100
Sample,1725,0,"s_015.ogg",100
Sample,1725,0,"s_039.ogg",100
Sample,1800,0,"m_015.ogg",100
Sample,1800,0,"m_051.ogg",100
Sample,2250,0,"s_015.ogg",100
Sample,2250,0,"s_027.ogg",100
Sample,2325,0,"s_015.ogg",100
Sample,2325,0,"s_039.ogg",100
Sample,2400,0,"s_027.ogg",100
Sample,2400,0,"s_015.ogg",100
Sample,2550,0,"s_015.ogg",100
Sample,2550,0,"s_063.ogg",100
Sample,2550,0,"s_043.ogg",100
Sample,2550,0,"s_031.ogg",100
Sample,2550,0,"s_039.ogg",100
Sample,2625,0,"s_015.ogg",100
Sample,2625,0,"s_039.ogg",100
Sample,2625,0,"s_043.ogg",100
Sample,2700,0,"s_056.ogg",100
Sample,2700,0,"s_063.ogg",100
Sample,2700,0,"s_041.ogg",100
Sample,2700,0,"s_029.ogg",100
Sample,2700,0,"s_027.ogg",100
Sample,2700,0,"s_032.ogg",100
Sample,2700,0,"s_053.ogg",100
Sample,2700,0,"s_051.ogg",100
Sample,2775,0,"s_063.ogg",100
Sample,2775,0,"s_027.ogg",100
Sample,2775,0,"s_053.ogg",100
Sample,2775,0,"s_029.ogg",100
Sample,2850,0,"s_063.ogg",100
Sample,2850,0,"s_039.ogg",100
Sample,2850,0,"s_054.ogg",100
Sample,2850,0,"s_015.ogg",100
Sample,2850,0,"s_057.ogg",100
Sample,2850,0,"s_042.ogg",100
Sample,2850,0,"s_045.ogg",100
Sample,2850,0,"s_027.ogg",100
Sample,2925,0,"s_045.ogg",100
Sample,2925,0,"s_042.ogg",100
Sample,2925,0,"s_039.ogg",100
Sample,2925,0,"s_015.ogg",100
Sample,3000,0,"s_027.ogg",100
Sample,3000,0,"s_063.ogg",100
Sample,3000,0,"s_046.ogg",100
Sample,3000,0,"s_055.ogg",100
Sample,3000,0,"s_031.ogg",100
Sample,3000,0,"s_051.ogg",100
Sample,3000,0,"s_058.ogg",100
Sample,3000,0,"s_034.ogg",100
Sample,3075,0,"s_034.ogg",100
Sample,3075,0,"s_055.ogg",100
Sample,3075,0,"s_063.ogg",100
Sample,3075,0,"s_031.ogg",100
Sample,3150,0,"s_047.ogg",100
Sample,3150,0,"s_059.ogg",100
Sample,3150,0,"s_055.ogg",100
Sample,3150,0,"s_043.ogg",100
Sample,3150,0,"s_063.ogg",100
Sample,3150,0,"s_039.ogg",100
Sample,3150,0,"s_015.ogg",100
Sample,3150,0,"s_027.ogg",100
Sample,3225,0,"s_047.ogg",100
Sample,3225,0,"s_039.ogg",100
Sample,3225,0,"s_015.ogg",100
Sample,3225,0,"s_043.ogg",100
Sample,3300,0,"s_036.ogg",100
Sample,3300,0,"s_056.ogg",100
Sample,3300,0,"s_039.ogg",100
Sample,3300,0,"s_051.ogg",100
Sample,3300,0,"s_063.ogg",100
Sample,3300,0,"s_032.ogg",100
Sample,3300,0,"s_060.ogg",100
Sample,3300,0,"s_027.ogg",100
Sample,3375,0,"s_051.ogg",100
Sample,3375,0,"s_027.ogg",100
Sample,3375,0,"s_060.ogg",100
Sample,3375,0,"s_032.ogg",100
Sample,3450,0,"s_045.ogg",100
Sample,3450,0,"s_051.ogg",100
Sample,3450,0,"s_015.ogg",100
Sample,3450,0,"s_057.ogg",100
Sample,3450,0,"s_048.ogg",100
Sample,3450,0,"s_039.ogg",100
Sample,3450,0,"s_060.ogg",100
Sample,3450,0,"s_036.ogg",100
Sample,3525,0,"s_045.ogg",100
Sample,3525,0,"s_039.ogg",100
Sample,3525,0,"s_015.ogg",100
Sample,3525,0,"s_048.ogg",100
Sample,3600,0,"m_039.ogg",100
Sample,3600,0,"m_049.ogg",100
Sample,3600,0,"m_063.ogg",100
Sample,3600,0,"m_058.ogg",100
Sample,3600,0,"m_051.ogg",100
Sample,3600,0,"m_061.ogg",100
Sample,3600,0,"m_055.ogg",100
Sample,3975,0,"s_036.ogg",100
Sample,3975,0,"s_026.ogg",100
Sample,3975,0,"s_056.ogg",100
Sample,3975,0,"s_038.ogg",100
Sample,3975,0,"s_052.ogg",100
Sample,3975,0,"s_050.ogg",100
Sample,3975,0,"s_014.ogg",100
Sample,3975,0,"s_059.ogg",100
Sample,3975,0,"s_047.ogg",100
Sample,3975,0,"s_042.ogg",100
Sample,3975,0,"s_062.ogg",100
Sample,3975,0,"s_064.ogg",100
Sample,4050,0,"s_037.ogg",100
Sample,4050,0,"s_013.ogg",100
Sample,4050,0,"s_053.ogg",100
Sample,4050,0,"s_035.ogg",100
Sample,4050,0,"s_065.ogg",100
Sample,4050,0,"s_032.ogg",100
Sample,4050,0,"s_048.ogg",100
Sample,4050,0,"s_060.ogg",100
Sample,4050,0,"s_063.ogg",100
Sample,4050,0,"s_051.ogg",100
Sample,4050,0,"s_057.ogg",100
Sample,4125,0,"s_031.ogg",100
Sample,4125,0,"s_061.ogg",100
Sample,4125,0,"s_064.ogg",100
Sample,4125,0,"s_012.ogg",100
Sample,4125,0,"s_036.ogg",100
Sample,4125,0,"s_034.ogg",100
Sample,4125,0,"s_058.ogg",100
Sample,4125,0,"s_066.ogg",100
Sample,4125,0,"s_049.ogg",100
Sample,4125,0,"s_040.ogg",100
Sample,4125,0,"s_054.ogg",100
Sample,4125,0,"s_052.ogg",100
Sample,4200,0,"s_050.ogg",100
Sample,4200,0,"s_035.ogg",100
Sample,4200,0,"s_011.ogg",100
Sample,4200,0,"s_059.ogg",100
Sample,4200,0,"s_053.ogg",100
Sample,4200,0,"s_033.ogg",100
Sample,4200,0,"s_062.ogg",100
Sample,4200,0,"s_065.ogg",100
Sample,4200,0,"s_055.ogg",100
Sample,4200,0,"s_067.ogg",100
Sample,4200,0,"s_039.ogg",100
Sample,4200,0,"s_030.ogg",100
Sample,4275,0,"s_034.ogg",100
Sample,4275,0,"s_010.ogg",100
Sample,4275,0,"s_054.ogg",100
Sample,4275,0,"s_038.ogg",100
Sample,4275,0,"s_032.ogg",100
Sample,4275,0,"s_022.ogg",100
Sample,4275,0,"s_051.ogg",100
Sample,4275,0,"s_056.ogg",100
Sample,4275,0,"s_068.ogg",100
Sample,4275,0,"s_060.ogg",100
Sample,4275,0,"s_066.ogg",100
Sample,4275,0,"s_063.ogg",100
Sample,4350,0,"s_069.ogg",100
Sample,4350,0,"s_031.ogg",100
Sample,4350,0,"s_061.ogg",100
Sample,4350,0,"s_055.ogg",100
Sample,4350,0,"s_057.ogg",100
Sample,4350,0,"s_033.ogg",100
Sample,4350,0,"s_052.ogg",100
Sample,4350,0,"s_064.ogg",100
Sample,4350,0,"s_009.ogg",100
Sample,4350,0,"s_028.ogg",100
Sample,4350,0,"s_067.ogg",100
Sample,4350,0,"s_037.ogg",100
Sample,4425,0,"s_032.ogg",100
Sample,4425,0,"s_058.ogg",100
Sample,4425,0,"s_070.ogg",100
Sample,4425,0,"s_036.ogg",100
Sample,4425,0,"s_065.ogg",100
Sample,4425,0,"s_030.ogg",100
Sample,4425,0,"s_068.ogg",100
Sample,4425,0,"s_056.ogg",100
Sample,4425,0,"s_062.ogg",100
Sample,4425,0,"s_027.ogg",100
Sample,4425,0,"s_053.ogg",100
Sample,4425,0,"s_008.ogg",100
Sample,4500,0,"s_066.ogg",100
Sample,4500,0,"s_069.ogg",100
Sample,4500,0,"s_035.ogg",100
Sample,4500,0,"s_054.ogg",100
Sample,4500,0,"s_057.ogg",100
Sample,4500,0,"s_063.ogg",100
Sample,4500,0,"s_059.ogg",100
Sample,4500,0,"s_031.ogg",100
Sample,4500,0,"s_029.ogg",100
Sample,4500,0,"s_007.ogg",100
Sample,4500,0,"s_071.ogg",100
Sample,4500,0,"s_026.ogg",100
Sample,4575,0,"s_034.ogg",100
Sample,4575,0,"s_030.ogg",100
Sample,4575,0,"s_055.ogg",100
Sample,4575,0,"s_064.ogg",100
Sample,4575,0,"s_006.ogg",100
Sample,4575,0,"s_070.ogg",100
Sample,4575,0,"s_060.ogg",100
Sample,4575,0,"s_058.ogg",100
Sample,4575,0,"s_067.ogg",100
Sample,4575,0,"s_072.ogg",100
Sample,4575,0,"s_028.ogg",100
Sample,4575,0,"s_018.ogg",100
Sample,4650,0,"s_065.ogg",100
Sample,4650,0,"s_068.ogg",100
Sample,4650,0,"s_059.ogg",100
Sample,4650,0,"s_056.ogg",100
Sample,4650,0,"s_073.ogg",100
Sample,4650,0,"s_033.ogg",100
Sample,4650,0,"s_027.ogg",100
Sample,4650,0,"s_071.ogg",100
Sample,4650,0,"s_005.ogg",100
Sample,4650,0,"s_029.ogg",100
Sample,4650,0,"s_061.ogg",100
Sample,4650,0,"s_017.ogg",100
Sample,4725,0,"s_004.ogg",100
Sample,4725,0,"s_032.ogg",100
Sample,4725,0,"s_069.ogg",100
Sample,4725,0,"s_062.ogg",100
Sample,4725,0,"s_066.ogg",100
Sample,4725,0,"s_072.ogg",100
Sample,4725,0,"s_060.ogg",100
Sample,4725,0,"s_057.ogg",100
Sample,4725,0,"s_028.ogg",100
Sample,4725,0,"s_074.ogg",100
Sample,4725,0,"s_026.ogg",100
Sample,4725,0,"s_023.ogg",100
Sample,4800,0,"s_061.ogg",100
Sample,4800,0,"s_067.ogg",100
Sample,4800,0,"s_070.ogg",100
Sample,4800,0,"s_058.ogg",100
Sample,4800,0,"s_003.ogg",100
Sample,4800,0,"s_063.ogg",100
Sample,4800,0,"s_025.ogg",100
Sample,4800,0,"s_075.ogg",100
Sample,4800,0,"s_073.ogg",100
Sample,4800,0,"s_027.ogg",100
Sample,4800,0,"s_022.ogg",100
Sample,4800,0,"s_031.ogg",100
Sample,5850,0,"s_077.ogg",100
Sample,5850,0,"s_065.ogg",100
Sample,5900,0,"s_079.ogg",100
Sample,5900,0,"s_067.ogg",100
Sample,5950,0,"s_077.ogg",100
Sample,5950,0,"s_065.ogg",100
Sample,6000,0,"s_063.ogg",100
Sample,6000,0,"s_008.ogg",100
Sample,6150,0,"s_063.ogg",100
Sample,6150,0,"s_041.ogg",100
Sample,6150,0,"s_048.ogg",100
Sample,6150,0,"s_060.ogg",100
Sample,6150,0,"s_051.ogg",100
Sample,6300,0,"s_056.ogg",100
Sample,6300,0,"s_003.ogg",100
Sample,6450,0,"s_046.ogg",100
Sample,6450,0,"s_051.ogg",100
Sample,6450,0,"s_053.ogg",100
Sample,6450,0,"s_041.ogg",100
Sample,6600,0,"s_008.ogg",100
Sample,6600,0,"s_051.ogg",100
Sample,6750,0,"s_044.ogg",100
Sample,6750,0,"s_063.ogg",100
Sample,6750,0,"s_041.ogg",100
Sample,6750,0,"s_056.ogg",100
Sample,6900,0,"s_003.ogg",100
Sample,6900,0,"s_015.ogg",100
Sample,7050,0,"s_046.ogg",100
Sample,7050,0,"s_056.ogg",100
Sample,7050,0,"s_063.ogg",100
Sample,7050,0,"s_036.ogg",100
Sample,7200,0,"s_008.ogg",100
Sample,7200,0,"s_051.ogg",100
Sample,7350,0,"s_063.ogg",100
Sample,7350,0,"s_041.ogg",100
Sample,7350,0,"s_051.ogg",100
Sample,7350,0,"s_036.ogg",100
Sample,7350,0,"s_046.ogg",100
Sample,7350,0,"s_056.ogg",100
Sample,7425,0,"s_041.ogg",100
Sample,7425,0,"s_056.ogg",100
Sample,7425,0,"s_051.ogg",100
Sample,7425,0,"s_063.ogg",100
Sample,7425,0,"s_036.ogg",100
Sample,7500,0,"s_014.ogg",100
Sample,7500,0,"s_026.ogg",100
Sample,7650,0,"s_046.ogg",100
Sample,7650,0,"s_063.ogg",100
Sample,7650,0,"s_056.ogg",100
Sample,7800,0,"s_008.ogg",100
Sample,7800,0,"s_049.ogg",100
Sample,7800,0,"s_032.ogg",100
Sample,7875,0,"s_062.ogg",100
Sample,7875,0,"s_038.ogg",100
Sample,7950,0,"s_041.ogg",100
Sample,7950,0,"s_027.ogg",100
Sample,7950,0,"s_046.ogg",100
Sample,7950,0,"s_051.ogg",100
Sample,7950,0,"s_056.ogg",100
Sample,8025,0,"s_046.ogg",100
Sample,8025,0,"s_056.ogg",100
Sample,8025,0,"s_027.ogg",100
Sample,8025,0,"s_041.ogg",100
Sample,8025,0,"s_048.ogg",100
Sample,8100,0,"s_020.ogg",100
Sample,8100,0,"s_051.ogg",100
Sample,8250,0,"s_046.ogg",100
Sample,8250,0,"s_058.ogg",100
Sample,8250,0,"s_070.ogg",100
Sample,8250,0,"s_041.ogg",100
Sample,8300,0,"s_072.ogg",100
Sample,8300,0,"s_060.ogg",100
Sample,8350,0,"s_070.ogg",100
Sample,8350,0,"s_046.ogg",100
Sample,8400,0,"s_056.ogg",100
Sample,8400,0,"s_068.ogg",100
Sample,8550,0,"s_041.ogg",100
Sample,8550,0,"s_049.ogg",100
Sample,8550,0,"s_053.ogg",100
Sample,8550,0,"s_034.ogg",100
Sample,8700,0,"s_068.ogg",100
Sample,8850,0,"s_049.ogg",100
Sample,8850,0,"s_073.ogg",100
Sample,8850,0,"s_034.ogg",100
Sample,8850,0,"s_012.ogg",100
Sample,8850,0,"s_044.ogg",100
Sample,8850,0,"s_039.ogg",100
Sample,8850,0,"s_036.ogg",100
Sample,9000,0,"s_068.ogg",100
Sample,9000,0,"s_056.ogg",100
Sample,9150,0,"s_065.ogg",100
Sample,9150,0,"s_044.ogg",100
Sample,9150,0,"s_039.ogg",100
Sample,9150,0,"s_053.ogg",100
Sample,9300,0,"s_068.ogg",100
Sample,9450,0,"s_053.ogg",100
Sample,9450,0,"s_057.ogg",100
Sample,9450,0,"s_039.ogg",100
Sample,9450,0,"s_069.ogg",100
Sample,9450,0,"s_049.ogg",100
Sample,9600,0,"s_067.ogg",100
Sample,9600,0,"s_071.ogg",100
Sample,9600,0,"s_003.ogg",100
Sample,9600,0,"s_061.ogg",100
Sample,9600,0,"s_052.ogg",100
Sample,9600,0,"s_064.ogg",100
Sample,9600,0,"s_031.ogg",100
Sample,9600,0,"s_049.ogg",100
Sample,9600,0,"s_027.ogg",100
Sample,9600,0,"s_059.ogg",100
Sample,9675,0,"s_004.ogg",100
Sample,9675,0,"s_060.ogg",100
Sample,9675,0,"s_048.ogg",100
Sample,9675,0,"s_070.ogg",100
Sample,9675,0,"s_028.ogg",100
Sample,9675,0,"s_051.ogg",100
Sample,9675,0,"s_058.ogg",100
Sample,9675,0,"s_066.ogg",100
Sample,9675,0,"s_063.ogg",100
Sample,9675,0,"s_034.ogg",100
Sample,9750,0,"s_047.ogg",100
Sample,9750,0,"s_057.ogg",100
Sample,9750,0,"s_062.ogg",100
Sample,9750,0,"s_065.ogg",100
Sample,9750,0,"s_029.ogg",100
Sample,9750,0,"s_059.ogg",100
Sample,9750,0,"s_069.ogg",100
Sample,9750,0,"s_050.ogg",100
Sample,9750,0,"s_005.ogg",100
Sample,9825,0,"s_068.ogg",100
Sample,9825,0,"s_061.ogg",100
Sample,9825,0,"s_064.ogg",100
Sample,9825,0,"s_056.ogg",100
Sample,9825,0,"s_049.ogg",100
Sample,9825,0,"s_006.ogg",100
Sample,9825,0,"s_018.ogg",100
Sample,9825,0,"s_058.ogg",100
Sample,9825,0,"s_030.ogg",100
Sample,9825,0,"s_046.ogg",100
Sample,9900,0,"s_055.ogg",100
Sample,9900,0,"s_031.ogg",100
Sample,9900,0,"s_045.ogg",100
Sample,9900,0,"s_007.ogg",100
Sample,9900,0,"s_067.ogg",100
Sample,9900,0,"s_048.ogg",100
Sample,9900,0,"s_060.ogg",100
Sample,9900,0,"s_063.ogg",100
Sample,9900,0,"s_057.ogg",100
Sample,9900,0,"s_043.ogg",100
Sample,9975,0,"s_059.ogg",100
Sample,9975,0,"s_054.ogg",100
Sample,9975,0,"s_032.ogg",100
Sample,9975,0,"s_056.ogg",100
Sample,9975,0,"s_062.ogg",100
Sample,9975,0,"s_044.ogg",100
Sample,9975,0,"s_020.ogg",100
Sample,9975,0,"s_066.ogg",100
Sample,9975,0,"s_047.ogg",100
Sample,9975,0,"s_008.ogg",100
Sample,10050,0,"s_046.ogg",100
Sample,10050,0,"s_058.ogg",100
Sample,10050,0,"s_055.ogg",100
Sample,10050,0,"s_009.ogg",100
Sample,10050,0,"s_043.ogg",100
Sample,10050,0,"s_061.ogg",100
Sample,10050,0,"s_065.ogg",100
Sample,10050,0,"s_053.ogg",100
Sample,10050,0,"s_033.ogg",100
Sample,10050,0,"s_041.ogg",100
Sample,10125,0,"s_045.ogg",100
Sample,10125,0,"s_060.ogg",100
Sample,10125,0,"s_010.ogg",100
Sample,10125,0,"s_064.ogg",100
Sample,10125,0,"s_052.ogg",100
Sample,10125,0,"s_042.ogg",100
Sample,10125,0,"s_054.ogg",100
Sample,10125,0,"s_057.ogg",100
Sample,10125,0,"s_034.ogg",100
Sample,10200,0,"s_044.ogg",100
Sample,10200,0,"s_053.ogg",100
Sample,10200,0,"s_035.ogg",100
Sample,10200,0,"s_011.ogg",100
Sample,10200,0,"s_056.ogg",100
Sample,10200,0,"s_041.ogg",100
Sample,10200,0,"s_023.ogg",100
Sample,10200,0,"s_059.ogg",100
Sample,10200,0,"s_063.ogg",100
Sample,10200,0,"s_051.ogg",100
Sample,10275,0,"s_058.ogg",100
Sample,10275,0,"s_052.ogg",100
Sample,10275,0,"s_055.ogg",100
Sample,10275,0,"s_012.ogg",100
Sample,10275,0,"s_043.ogg",100
Sample,10275,0,"s_040.ogg",100
Sample,10275,0,"s_036.ogg",100
Sample,10275,0,"s_062.ogg",100
Sample,10275,0,"s_050.ogg",100
Sample,10275,0,"s_041.ogg",100
Sample,10350,0,"s_057.ogg",100
Sample,10350,0,"s_054.ogg",100
Sample,10350,0,"s_037.ogg",100
Sample,10350,0,"s_042.ogg",100
Sample,10350,0,"s_039.ogg",100
Sample,10350,0,"s_051.ogg",100
Sample,10350,0,"s_025.ogg",100
Sample,10350,0,"s_013.ogg",100
Sample,10350,0,"s_061.ogg",100
Sample,10350,0,"s_049.ogg",100
Sample,10425,0,"s_050.ogg",100
Sample,10425,0,"s_056.ogg",100
Sample,10425,0,"s_037.ogg",100
Sample,10425,0,"s_038.ogg",100
Sample,10425,0,"s_060.ogg",100
Sample,10425,0,"s_041.ogg",100
Sample,10425,0,"s_053.ogg",100
Sample,10425,0,"s_014.ogg",100
Sample,10425,0,"s_048.ogg",100
Sample,10500,0,"s_049.ogg",100
Sample,10500,0,"s_047.ogg",100
Sample,10500,0,"s_037.ogg",100
Sample,10500,0,"s_055.ogg",100
Sample,10500,0,"s_059.ogg",100
Sample,10500,0,"s_052.ogg",100
Sample,10500,0,"s_040.ogg",100
Sample,10500,0,"s_015.ogg",100
Sample,10650,0,"s_065.ogg",100
Sample,10650,0,"s_077.ogg",100
Sample,10700,0,"s_067.ogg",100
Sample,10700,0,"s_079.ogg",100
Sample,10750,0,"s_077.ogg",100
Sample,10750,0,"s_065.ogg",100
Sample,10800,0,"s_063.ogg",100
Sample,10800,0,"s_008.ogg",100
Sample,10950,0,"s_060.ogg",100
Sample,10950,0,"s_048.ogg",100
Sample,10950,0,"s_051.ogg",100
Sample,10950,0,"s_041.ogg",100
Sample,10950,0,"s_063.ogg",100
Sample,11100,0,"s_056.ogg",100
Sample,11100,0,"s_003.ogg",100
Sample,11250,0,"s_046.ogg",100
Sample,11250,0,"s_053.ogg",100
Sample,11250,0,"s_051.ogg",100
Sample,11250,0,"s_041.ogg",100
Sample,11400,0,"s_051.ogg",100
Sample,11400,0,"s_008.ogg",100
Sample,11550,0,"s_056.ogg",100
Sample,11550,0,"s_041.ogg",100
Sample,11550,0,"s_063.ogg",100
Sample,11550,0,"s_044.ogg",100
Sample,11700,0,"s_003.ogg",100
Sample,11700,0,"s_015.ogg",100
Sample,11850,0,"s_036.ogg",100
Sample,11850,0,"s_051.ogg",100
Sample,11850,0,"s_046.ogg",100
Sample,12000,0,"s_044.ogg",100
Sample,12000,0,"s_039.ogg",100
Sample,12000,0,"s_020.ogg",100
Sample,12075,0,"s_066.ogg",100
Sample,12075,0,"s_054.ogg",100
Sample,12150,0,"s_051.ogg",100
Sample,12150,0,"s_036.ogg",100
Sample,12150,0,"s_063.ogg",100
Sample,12150,0,"s_058.ogg",100
Sample,12150,0,"s_042.ogg",100
Sample,12225,0,"s_051.ogg",100
Sample,12225,0,"s_075.ogg",100
Sample,12300,0,"s_032.ogg",100
Sample,12300,0,"s_053.ogg",100
Sample,12300,0,"s_008.ogg",100
Sample,12375,0,"s_078.ogg",100
Sample,12375,0,"s_066.ogg",100
Sample,12450,0,"s_042.ogg",100
Sample,12450,0,"s_046.ogg",100
Sample,12450,0,"s_079.ogg",100
Sample,12450,0,"s_051.ogg",100
Sample,12450,0,"s_036.ogg",100
Sample,12450,0,"s_063.ogg",100
Sample,12525,0,"s_084.ogg",100
Sample,12525,0,"s_060.ogg",100
Sample,12600,0,"s_082.ogg",100
Sample,12600,0,"s_070.ogg",100
Sample,12750,0,"s_041.ogg",100
Sample,12750,0,"s_061.ogg",100
Sample,12750,0,"s_068.ogg",100
Sample,12750,0,"s_049.ogg",100
Sample,12750,0,"s_056.ogg",100
Sample,12900,0,"m_056.ogg",100
Sample,13050,0,"s_049.ogg",100
Sample,13050,0,"s_044.ogg",100
Sample,13050,0,"s_051.ogg",100
Sample,13050,0,"s_012.ogg",100
Sample,13050,0,"s_061.ogg",100
Sample,13050,0,"s_036.ogg",100
Sample,13200,0,"s_064.ogg",100
Sample,13200,0,"s_056.ogg",100
Sample,13200,0,"s_049.ogg",100
Sample,13200,0,"m_034.ogg",100
Sample,13275,0,"s_052.ogg",100
Sample,13275,0,"s_061.ogg",100
Sample,13275,0,"s_076.ogg",100
Sample,13350,0,"s_044.ogg",100
Sample,13350,0,"s_040.ogg",100
Sample,13350,0,"s_037.ogg",100
Sample,13350,0,"s_056.ogg",100
Sample,13425,0,"s_068.ogg",100
Sample,13425,0,"s_052.ogg",100
Sample,13425,0,"s_061.ogg",100
Sample,13500,0,"s_056.ogg",100
Sample,13500,0,"s_049.ogg",100
Sample,13500,0,"s_064.ogg",100
Sample,13575,0,"s_072.ogg",100
Sample,13575,0,"s_048.ogg",100
Sample,13575,0,"s_055.ogg",100
Sample,13650,0,"s_073.ogg",100
Sample,13650,0,"s_049.ogg",100
Sample,13650,0,"s_056.ogg",100
Sample,13725,0,"s_061.ogg",100
Sample,13725,0,"s_046.ogg",100
Sample,13725,0,"s_052.ogg",100
Sample,13800,0,"s_068.ogg",100
Sample,13800,0,"s_053.ogg",100
Sample,13800,0,"s_044.ogg",100
Sample,13800,0,"m_027.ogg",100
Sample,13800,0,"s_039.ogg",100
Sample,13875,0,"s_048.ogg",100
Sample,13875,0,"s_056.ogg",100
Sample,13875,0,"s_072.ogg",100
Sample,13950,0,"s_036.ogg",100
Sample,13950,0,"s_039.ogg",100
Sample,13950,0,"s_051.ogg",100
Sample,13950,0,"s_044.ogg",100
Sample,14025,0,"s_072.ogg",100
Sample,14025,0,"s_056.ogg",100
Sample,14025,0,"s_048.ogg",100
Sample,14100,0,"s_044.ogg",100
Sample,14100,0,"s_053.ogg",100
Sample,14100,0,"s_068.ogg",100
Sample,14175,0,"s_043.ogg",100
Sample,14175,0,"s_052.ogg",100
Sample,14175,0,"s_058.ogg",100
Sample,14250,0,"s_044.ogg",100
Sample,14250,0,"s_059.ogg",100
Sample,14250,0,"s_053.ogg",100
Sample,14325,0,"s_050.ogg",100
Sample,14325,0,"s_056.ogg",100
Sample,14325,0,"s_041.ogg",100
Sample,14400,0,"s_046.ogg",100
Sample,14400,0,"s_039.ogg",100
Sample,14400,0,"s_034.ogg",100
Sample,14475,0,"s_062.ogg",100
Sample,14475,0,"s_045.ogg",100
Sample,14475,0,"s_038.ogg",100
Sample,14550,0,"s_039.ogg",100
Sample,14550,0,"s_027.ogg",100
Sample,14550,0,"s_015.ogg",100
Sample,14625,0,"s_065.ogg",100
Sample,14625,0,"s_048.ogg",100
Sample,14625,0,"s_041.ogg",100
Sample,14700,0,"s_039.ogg",100
Sample,14700,0,"s_051.ogg",100
Sample,14700,0,"s_043.ogg",100
Sample,14775,0,"s_055.ogg",100
Sample,14775,0,"s_039.ogg",100
Sample,14775,0,"s_046.ogg",100
Sample,14850,0,"s_027.ogg",100
Sample,14850,0,"s_049.ogg",100
Sample,14850,0,"s_043.ogg",100
Sample,14925,0,"s_072.ogg",100
Sample,14925,0,"s_055.ogg",100
Sample,14925,0,"s_048.ogg",100
Sample,15000,0,"s_061.ogg",100
Sample,15000,0,"s_032.ogg",100
Sample,15300,0,"s_041.ogg",100
Sample,15300,0,"s_048.ogg",100
Sample,15300,0,"s_046.ogg",100
Sample,15300,0,"s_050.ogg",100
Sample,15300,0,"s_043.ogg",100
Sample,15300,0,"s_039.ogg",100
Sample,15300,0,"m_051.ogg",100
Sample,15350,0,"s_043.ogg",100
Sample,15350,0,"s_047.ogg",100
Sample,15350,0,"s_049.ogg",100
Sample,15350,0,"s_040.ogg",100
Sample,15400,0,"s_041.ogg",100
Sample,15400,0,"s_039.ogg",100
Sample,15400,0,"s_043.ogg",100
Sample,15400,0,"s_046.ogg",100
Sample,15450,0,"s_042.ogg",100
Sample,15450,0,"s_043.ogg",100
Sample,15450,0,"s_040.ogg",100
Sample,15450,0,"s_045.ogg",100
Sample,15500,0,"s_032.ogg",100
Sample,15500,0,"s_038.ogg",100
Sample,15500,0,"s_041.ogg",100
Sample,15500,0,"s_039.ogg",100
Sample,15550,0,"s_031.ogg",100
Sample,15550,0,"s_038.ogg",100
Sample,15550,0,"s_035.ogg",100
Sample,15550,0,"s_037.ogg",100
Sample,15600,0,"s_029.ogg",100
Sample,15600,0,"s_038.ogg",100
Sample,15600,0,"s_034.ogg",100
Sample,15600,0,"s_039.ogg",100
Sample,15650,0,"s_033.ogg",100
Sample,15650,0,"s_038.ogg",100
Sample,15700,0,"s_027.ogg",100
Sample,15700,0,"s_034.ogg",100
Sample,15700,0,"s_029.ogg",100
Sample,15700,0,"s_026.ogg",100
Sample,15750,0,"s_030.ogg",100
Sample,15750,0,"s_065.ogg",100
Sample,15750,0,"s_053.ogg",100
Sample,15750,0,"s_028.ogg",100
Sample,15750,0,"s_025.ogg",100
Sample,15800,0,"s_027.ogg",100
Sample,15800,0,"s_022.ogg",100
Sample,15800,0,"s_079.ogg",100
Sample,15800,0,"s_055.ogg",100
Sample,15800,0,"s_029.ogg",100
Sample,15800,0,"s_067.ogg",100
Sample,15800,0,"s_032.ogg",100
Sample,15850,0,"s_077.ogg",100
Sample,15850,0,"s_053.ogg",100
Sample,15850,0,"s_023.ogg",100
Sample,15850,0,"s_065.ogg",100
Sample,15850,0,"s_021.ogg",100
Sample,15900,0,"s_075.ogg",100
Sample,15900,0,"s_032.ogg",100
Sample,15900,0,"s_063.ogg",100
Sample,15900,0,"s_008.ogg",100
Sample,16050,0,"s_051.ogg",100
Sample,16050,0,"s_060.ogg",100
Sample,16050,0,"s_063.ogg",100
Sample,16050,0,"s_041.ogg",100
Sample,16050,0,"s_048.ogg",100
Sample,16200,0,"s_003.ogg",100
Sample,16200,0,"s_056.ogg",100
Sample,16350,0,"s_041.ogg",100
Sample,16350,0,"s_046.ogg",100
Sample,16350,0,"s_053.ogg",100
Sample,16350,0,"s_051.ogg",100
Sample,16500,0,"s_008.ogg",100
Sample,16500,0,"s_051.ogg",100
Sample,16650,0,"s_063.ogg",100
Sample,16650,0,"s_044.ogg",100
Sample,16650,0,"s_056.ogg",100
Sample,16650,0,"s_041.ogg",100
Sample,16800,0,"s_003.ogg",100
Sample,16800,0,"s_015.ogg",100
Sample,16950,0,"s_056.ogg",100
Sample,16950,0,"s_036.ogg",100
Sample,16950,0,"s_046.ogg",100
Sample,16950,0,"s_063.ogg",100
Sample,17100,0,"s_051.ogg",100
Sample,17100,0,"s_008.ogg",100
Sample,17250,0,"s_063.ogg",100
Sample,17250,0,"s_036.ogg",100
Sample,17250,0,"s_041.ogg",100
Sample,17250,0,"s_046.ogg",100
Sample,17250,0,"s_051.ogg",100
Sample,17250,0,"s_056.ogg",100
Sample,17325,0,"s_051.ogg",100
Sample,17325,0,"s_056.ogg",100
Sample,17325,0,"s_041.ogg",100
Sample,17325,0,"s_036.ogg",100
Sample,17325,0,"s_063.ogg",100
Sample,17400,0,"s_026.ogg",100
Sample,17400,0,"s_014.ogg",100
Sample,17550,0,"s_063.ogg",100
Sample,17550,0,"s_046.ogg",100
Sample,17550,0,"s_056.ogg",100
Sample,17700,0,"s_049.ogg",100
Sample,17700,0,"s_037.ogg",100
Sample,17700,0,"s_020.ogg",100
Sample,17775,0,"s_062.ogg",100
Sample,17775,0,"s_038.ogg",100
Sample,17850,0,"s_046.ogg",100
Sample,17850,0,"s_027.ogg",100
Sample,17850,0,"s_056.ogg",100
Sample,17850,0,"s_041.ogg",100
Sample,17850,0,"s_051.ogg",100
Sample,17925,0,"s_046.ogg",100
Sample,17925,0,"s_056.ogg",100
Sample,17925,0,"s_027.ogg",100
Sample,17925,0,"s_048.ogg",100
Sample,17925,0,"s_036.ogg",100
Sample,18000,0,"s_051.ogg",100
Sample,18000,0,"s_020.ogg",100
Sample,18150,0,"s_058.ogg",100
Sample,18150,0,"s_051.ogg",100
Sample,18150,0,"s_070.ogg",100
Sample,18150,0,"s_036.ogg",100
Sample,18200,0,"s_048.ogg",100
Sample,18200,0,"s_072.ogg",100
Sample,18250,0,"s_070.ogg",100
Sample,18250,0,"s_058.ogg",100
Sample,18300,0,"s_056.ogg",100
Sample,18300,0,"s_068.ogg",100
Sample,18450,0,"s_049.ogg",100
Sample,18450,0,"s_053.ogg",100
Sample,18450,0,"s_041.ogg",100
Sample,18450,0,"s_034.ogg",100
Sample,18600,0,"s_068.ogg",100
Sample,18750,0,"s_049.ogg",100
Sample,18750,0,"s_073.ogg",100
Sample,18750,0,"s_061.ogg",100
Sample,18750,0,"s_044.ogg",100
Sample,18750,0,"s_012.ogg",100
Sample,18750,0,"s_034.ogg",100
Sample,18750,0,"s_053.ogg",100
Sample,18900,0,"s_068.ogg",100
Sample,18900,0,"s_056.ogg",100
Sample,19050,0,"s_044.ogg",100
Sample,19050,0,"s_039.ogg",100
Sample,19050,0,"s_053.ogg",100
Sample,19050,0,"s_065.ogg",100
Sample,19200,0,"s_068.ogg",100
Sample,19350,0,"s_039.ogg",100
Sample,19350,0,"s_049.ogg",100
Sample,19350,0,"s_057.ogg",100
Sample,19350,0,"s_069.ogg",100
Sample,19350,0,"s_053.ogg",100
Sample,19500,0,"s_071.ogg",100
Sample,19500,0,"s_003.ogg",100
Sample,19500,0,"s_064.ogg",100
Sample,19500,0,"s_049.ogg",100
Sample,19500,0,"s_067.ogg",100
Sample,19500,0,"s_027.ogg",100
Sample,19500,0,"s_059.ogg",100
Sample,19500,0,"s_052.ogg",100
Sample,19500,0,"s_061.ogg",100
Sample,19500,0,"s_031.ogg",100
Sample,19575,0,"s_048.ogg",100
Sample,19575,0,"s_066.ogg",100
Sample,19575,0,"s_060.ogg",100
Sample,19575,0,"s_070.ogg",100
Sample,19575,0,"s_051.ogg",100
Sample,19575,0,"s_063.ogg",100
Sample,19575,0,"s_016.ogg",100
Sample,19575,0,"s_028.ogg",100
Sample,19575,0,"s_004.ogg",100
Sample,19575,0,"s_058.ogg",100
Sample,19650,0,"s_059.ogg",100
Sample,19650,0,"s_005.ogg",100
Sample,19650,0,"s_037.ogg",100
Sample,19650,0,"s_047.ogg",100
Sample,19650,0,"s_062.ogg",100
Sample,19650,0,"s_065.ogg",100
Sample,19650,0,"s_069.ogg",100
Sample,19650,0,"s_057.ogg",100
Sample,19650,0,"s_050.ogg",100
Sample,19725,0,"s_056.ogg",100
Sample,19725,0,"s_064.ogg",100
Sample,19725,0,"s_061.ogg",100
Sample,19725,0,"s_006.ogg",100
Sample,19725,0,"s_058.ogg",100
Sample,19725,0,"s_049.ogg",100
Sample,19725,0,"s_046.ogg",100
Sample,19725,0,"s_030.ogg",100
Sample,19725,0,"s_068.ogg",100
Sample,19725,0,"s_018.ogg",100
Sample,19800,0,"s_060.ogg",100
Sample,19800,0,"s_048.ogg",100
Sample,19800,0,"s_067.ogg",100
Sample,19800,0,"s_007.ogg",100
Sample,19800,0,"s_057.ogg",100
Sample,19800,0,"s_031.ogg",100
Sample,19800,0,"s_019.ogg",100
Sample,19800,0,"s_055.ogg",100
Sample,19800,0,"s_063.ogg",100
Sample,19800,0,"s_045.ogg",100
Sample,19875,0,"s_066.ogg",100
Sample,19875,0,"s_044.ogg",100
Sample,19875,0,"s_059.ogg",100
Sample,19875,0,"s_056.ogg",100
Sample,19875,0,"s_062.ogg",100
Sample,19875,0,"s_047.ogg",100
Sample,19875,0,"s_032.ogg",100
Sample,19875,0,"s_008.ogg",100
Sample,19875,0,"s_054.ogg",100
Sample,19875,0,"s_037.ogg",100
Sample,19950,0,"s_061.ogg",100
Sample,19950,0,"s_046.ogg",100
Sample,19950,0,"s_055.ogg",100
Sample,19950,0,"s_053.ogg",100
Sample,19950,0,"s_065.ogg",100
Sample,19950,0,"s_033.ogg",100
Sample,19950,0,"s_021.ogg",100
Sample,19950,0,"s_043.ogg",100
Sample,19950,0,"s_058.ogg",100
Sample,19950,0,"s_009.ogg",100
Sample,20025,0,"s_042.ogg",100
Sample,20025,0,"s_060.ogg",100
Sample,20025,0,"s_034.ogg",100
Sample,20025,0,"s_010.ogg",100
Sample,20025,0,"s_057.ogg",100
Sample,20025,0,"s_054.ogg",100
Sample,20025,0,"s_045.ogg",100
Sample,20025,0,"s_064.ogg",100
Sample,20025,0,"s_052.ogg",100
Sample,20100,0,"s_041.ogg",100
Sample,20100,0,"s_059.ogg",100
Sample,20100,0,"s_051.ogg",100
Sample,20100,0,"s_044.ogg",100
Sample,20100,0,"s_011.ogg",100
Sample,20100,0,"s_063.ogg",100
Sample,20100,0,"s_053.ogg",100
Sample,20100,0,"s_056.ogg",100
Sample,20100,0,"s_035.ogg",100
Sample,20100,0,"s_023.ogg",100
Sample,20175,0,"s_043.ogg",100
Sample,20175,0,"s_055.ogg",100
Sample,20175,0,"s_036.ogg",100
Sample,20175,0,"s_012.ogg",100
Sample,20175,0,"s_050.ogg",100
Sample,20175,0,"s_062.ogg",100
Sample,20175,0,"s_041.ogg",100
Sample,20175,0,"s_040.ogg",100
Sample,20175,0,"s_058.ogg",100
Sample,20175,0,"s_052.ogg",100
Sample,20250,0,"s_054.ogg",100
Sample,20250,0,"s_013.ogg",100
Sample,20250,0,"s_061.ogg",100
Sample,20250,0,"s_037.ogg",100
Sample,20250,0,"s_057.ogg",100
Sample,20250,0,"s_039.ogg",100
Sample,20250,0,"s_049.ogg",100
Sample,20250,0,"s_042.ogg",100
Sample,20250,0,"s_051.ogg",100
Sample,20250,0,"s_043.ogg",100
Sample,20325,0,"s_038.ogg",100
Sample,20325,0,"s_056.ogg",100
Sample,20325,0,"s_041.ogg",100
Sample,20325,0,"s_053.ogg",100
Sample,20325,0,"s_050.ogg",100
Sample,20325,0,"s_014.ogg",100
Sample,20325,0,"s_048.ogg",100
Sample,20325,0,"s_060.ogg",100
Sample,20325,0,"s_037.ogg",100
Sample,20400,0,"s_052.ogg",100
Sample,20400,0,"s_059.ogg",100
Sample,20400,0,"s_037.ogg",100
Sample,20400,0,"s_040.ogg",100
Sample,20400,0,"s_049.ogg",100
Sample,20400,0,"s_047.ogg",100
Sample,20400,0,"s_015.ogg",100
Sample,20400,0,"s_055.ogg",100
Sample,20550,0,"s_077.ogg",100
Sample,20550,0,"s_065.ogg",100
Sample,20600,0,"s_067.ogg",100
Sample,20600,0,"s_079.ogg",100
Sample,20650,0,"s_065.ogg",100
Sample,20650,0,"s_077.ogg",100
Sample,20700,0,"s_008.ogg",100
Sample,20700,0,"s_063.ogg",100
Sample,20850,0,"s_041.ogg",100
Sample,20850,0,"s_048.ogg",100
Sample,20850,0,"s_060.ogg",100
Sample,20850,0,"s_063.ogg",100
Sample,20850,0,"s_051.ogg",100
Sample,21000,0,"s_056.ogg",100
Sample,21000,0,"s_003.ogg",100
Sample,21150,0,"s_051.ogg",100
Sample,21150,0,"s_046.ogg",100
Sample,21150,0,"s_041.ogg",100
Sample,21150,0,"s_053.ogg",100
Sample,21300,0,"s_008.ogg",100
Sample,21300,0,"s_051.ogg",100
Sample,21450,0,"s_041.ogg",100
Sample,21450,0,"s_063.ogg",100
Sample,21450,0,"s_056.ogg",100
Sample,21450,0,"s_044.ogg",100
Sample,21600,0,"s_041.ogg",100
Sample,21600,0,"s_027.ogg",100
Sample,21750,0,"s_046.ogg",100
Sample,21750,0,"s_036.ogg",100
Sample,21750,0,"s_051.ogg",100
Sample,21900,0,"s_044.ogg",100
Sample,21900,0,"s_063.ogg",100
Sample,21900,0,"s_020.ogg",100
Sample,21975,0,"s_054.ogg",100
Sample,21975,0,"s_066.ogg",100
Sample,22050,0,"s_058.ogg",100
Sample,22050,0,"s_051.ogg",100
Sample,22050,0,"s_063.ogg",100
Sample,22050,0,"s_036.ogg",100
Sample,22050,0,"s_042.ogg",100
Sample,22125,0,"s_075.ogg",100
Sample,22125,0,"s_063.ogg",100
Sample,22200,0,"s_032.ogg",100
Sample,22200,0,"s_065.ogg",100
Sample,22200,0,"s_008.ogg",100
Sample,22275,0,"s_066.ogg",100
Sample,22275,0,"s_078.ogg",100
Sample,22350,0,"s_042.ogg",100
Sample,22350,0,"s_046.ogg",100
Sample,22350,0,"s_051.ogg",100
Sample,22350,0,"s_063.ogg",100
Sample,22350,0,"s_036.ogg",100
Sample,22350,0,"s_079.ogg",100
Sample,22425,0,"s_060.ogg",100
Sample,22425,0,"s_084.ogg",100
Sample,22500,0,"s_070.ogg",100
Sample,22500,0,"s_082.ogg",100
Sample,22650,0,"s_068.ogg",100
Sample,22650,0,"s_041.ogg",100
Sample,22650,0,"s_061.ogg",100
Sample,22650,0,"s_056.ogg",100
Sample,22650,0,"s_049.ogg",100
Sample,22800,0,"m_056.ogg",100
Sample,22950,0,"s_036.ogg",100
Sample,22950,0,"s_051.ogg",100
Sample,22950,0,"s_044.ogg",100
Sample,22950,0,"s_012.ogg",100
Sample,22950,0,"s_061.ogg",100
Sample,22950,0,"s_049.ogg",100
Sample,23100,0,"s_064.ogg",100
Sample,23100,0,"s_049.ogg",100
Sample,23100,0,"s_073.ogg",100
Sample,23100,0,"s_056.ogg",100
Sample,23175,0,"s_076.ogg",100
Sample,23175,0,"s_052.ogg",100
Sample,23175,0,"s_061.ogg",100
Sample,23250,0,"s_037.ogg",100
Sample,23250,0,"s_056.ogg",100
Sample,23250,0,"s_040.ogg",100
Sample,23250,0,"s_044.ogg",100
Sample,23325,0,"s_076.ogg",100
Sample,23325,0,"s_061.ogg",100
Sample,23325,0,"s_052.ogg",100
Sample,23400,0,"s_073.ogg",100
Sample,23400,0,"s_049.ogg",100
Sample,23400,0,"s_056.ogg",100
Sample,23475,0,"s_048.ogg",100
Sample,23475,0,"s_072.ogg",100
Sample,23475,0,"s_055.ogg",100
Sample,23550,0,"s_049.ogg",100
Sample,23550,0,"s_056.ogg",100
Sample,23550,0,"s_036.ogg",100
Sample,23625,0,"s_046.ogg",100
Sample,23625,0,"s_052.ogg",100
Sample,23625,0,"s_070.ogg",100
Sample,23700,0,"s_039.ogg",100
Sample,23700,0,"m_015.ogg",100
Sample,23700,0,"s_053.ogg",100
Sample,23700,0,"s_068.ogg",100
Sample,23700,0,"s_044.ogg",100
Sample,23775,0,"s_048.ogg",100
Sample,23775,0,"s_056.ogg",100
Sample,23775,0,"s_072.ogg",100
Sample,23850,0,"s_044.ogg",100
Sample,23850,0,"s_051.ogg",100
Sample,23850,0,"s_036.ogg",100
Sample,23850,0,"s_039.ogg",100
Sample,23925,0,"s_056.ogg",100
Sample,23925,0,"s_072.ogg",100
Sample,23925,0,"s_048.ogg",100
Sample,24000,0,"s_044.ogg",100
Sample,24000,0,"s_059.ogg",100
Sample,24000,0,"s_053.ogg",100
Sample,24075,0,"s_043.ogg",100
Sample,24075,0,"s_052.ogg",100
Sample,24075,0,"s_029.ogg",100
Sample,24150,0,"s_053.ogg",100
Sample,24150,0,"s_031.ogg",100
Sample,24150,0,"s_044.ogg",100
Sample,24225,0,"s_041.ogg",100
Sample,24225,0,"s_050.ogg",100
Sample,24225,0,"s_056.ogg",100
Sample,24300,0,"s_046.ogg",100
Sample,24300,0,"s_063.ogg",100
Sample,24300,0,"s_034.ogg",100
Sample,24375,0,"s_038.ogg",100
Sample,24375,0,"s_045.ogg",100
Sample,24375,0,"s_062.ogg",100
Sample,24450,0,"s_039.ogg",100
Sample,24450,0,"s_063.ogg",100
Sample,24450,0,"s_015.ogg",100
Sample,24525,0,"s_048.ogg",100
Sample,24525,0,"s_041.ogg",100
Sample,24525,0,"s_056.ogg",100
Sample,24600,0,"s_043.ogg",100
Sample,24600,0,"s_067.ogg",100
Sample,24600,0,"s_039.ogg",100
Sample,24675,0,"s_039.ogg",100
Sample,24675,0,"s_046.ogg",100
Sample,24675,0,"s_055.ogg",100
Sample,24750,0,"s_043.ogg",100
Sample,24750,0,"s_058.ogg",100
Sample,24750,0,"s_027.ogg",100
Sample,24825,0,"s_048.ogg",100
Sample,24825,0,"s_055.ogg",100
Sample,24825,0,"s_072.ogg",100
Sample,25280,0,"m_055.ogg",100
Sample,25290,0,"m_057.ogg",100
Sample,25300,0,"m_059.ogg",100
Sample,25310,0,"m_060.ogg",100
Sample,25320,0,"m_062.ogg",100
Sample,25330,0,"m_063.ogg",100
Sample,25340,0,"m_064.ogg",100
Sample,25350,0,"m_066.ogg",100
Sample,25880,0,"m_055.ogg",100
Sample,25890,0,"m_056.ogg",100
Sample,25900,0,"m_060.ogg",100
Sample,25910,0,"m_061.ogg",100
Sample,25920,0,"m_063.ogg",100
Sample,25930,0,"m_064.ogg",100
Sample,25940,0,"m_067.ogg",100
Sample,26100,0,"m_015.ogg",100
Sample,26400,0,"m_049.ogg",100
Sample,26400,0,"m_055.ogg",100
Sample,26400,0,"m_031.ogg",100
Sample,26400,0,"m_037.ogg",100
Sample,26400,0,"m_044.ogg",100
Sample,26400,0,"m_051.ogg",100
Sample,26400,0,"m_062.ogg",100
Sample,26400,0,"m_043.ogg",100
Sample,26400,0,"m_060.ogg",100
Sample,26400,0,"m_056.ogg",100
Sample,26400,0,"m_058.ogg",100
Sample,26700,0,"s_046.ogg",100
Sample,26700,0,"s_037.ogg",100
Sample,26850,0,"s_044.ogg",100
Sample,26850,0,"s_036.ogg",100
Sample,27000,0,"s_027.ogg",100
Sample,27000,0,"s_039.ogg",100
Sample,27075,0,"s_029.ogg",100
Sample,27075,0,"s_041.ogg",100
Sample,27150,0,"s_039.ogg",100
Sample,27150,0,"s_027.ogg",100
Sample,27225,0,"s_025.ogg",100
Sample,27225,0,"s_037.ogg",100
Sample,27300,0,"s_036.ogg",100
Sample,27300,0,"s_012.ogg",100
Sample,27375,0,"s_013.ogg",100
Sample,27375,0,"s_025.ogg",100
Sample,27450,0,"s_012.ogg",100
Sample,27450,0,"s_024.ogg",100
Sample,27525,0,"s_010.ogg",100
Sample,27525,0,"s_022.ogg",100
Sample,27600,0,"s_036.ogg",100
Sample,27600,0,"m_020.ogg",100
Sample,27600,0,"s_072.ogg",100
Sample,27600,0,"s_075.ogg",100
Sample,27675,0,"s_039.ogg",100
Sample,27750,0,"s_041.ogg",100
Sample,27750,0,"s_048.ogg",100
Sample,27750,0,"s_060.ogg",100
Sample,27750,0,"s_053.ogg",100
Sample,27750,0,"s_056.ogg",100
Sample,27750,0,"s_051.ogg",100
Sample,27825,0,"s_012.ogg",100
Sample,27825,0,"s_036.ogg",100
Sample,27900,0,"s_072.ogg",100
Sample,27900,0,"s_039.ogg",100
Sample,27900,0,"s_015.ogg",100
Sample,27900,0,"s_032.ogg",100
Sample,27975,0,"s_039.ogg",100
Sample,28050,0,"s_048.ogg",100
Sample,28050,0,"s_053.ogg",100
Sample,28050,0,"s_020.ogg",100
Sample,28050,0,"s_056.ogg",100
Sample,28050,0,"s_063.ogg",100
Sample,28050,0,"s_032.ogg",100
Sample,28125,0,"s_039.ogg",100
Sample,28200,0,"s_075.ogg",100
Sample,28200,0,"s_032.ogg",100
Sample,28200,0,"s_072.ogg",100
Sample,28200,0,"s_021.ogg",100
Sample,28200,0,"s_036.ogg",100
Sample,28275,0,"s_065.ogg",100
Sample,28275,0,"s_044.ogg",100
Sample,28275,0,"s_039.ogg",100
Sample,28350,0,"s_063.ogg",100
Sample,28350,0,"s_060.ogg",100
Sample,28350,0,"s_048.ogg",100
Sample,28350,0,"s_053.ogg",100
Sample,28350,0,"s_041.ogg",100
Sample,28350,0,"s_044.ogg",100
Sample,28350,0,"s_051.ogg",100
Sample,28350,0,"s_034.ogg",100
Sample,28425,0,"s_065.ogg",100
Sample,28425,0,"s_023.ogg",100
Sample,28425,0,"s_039.ogg",100
Sample,28500,0,"s_075.ogg",100
Sample,28500,0,"s_032.ogg",100
Sample,28500,0,"s_072.ogg",100
Sample,28500,0,"s_024.ogg",100
Sample,28575,0,"s_039.ogg",100
Sample,28575,0,"s_023.ogg",100
Sample,28575,0,"s_065.ogg",100
Sample,28650,0,"s_056.ogg",100
Sample,28650,0,"s_060.ogg",100
Sample,28650,0,"s_025.ogg",100
Sample,28650,0,"s_041.ogg",100
Sample,28650,0,"s_044.ogg",100
Sample,28650,0,"s_051.ogg",100
Sample,28650,0,"s_048.ogg",100
Sample,28650,0,"s_063.ogg",100
Sample,28725,0,"s_026.ogg",100
Sample,28725,0,"s_065.ogg",100
Sample,28725,0,"s_039.ogg",100
Sample,28800,0,"s_072.ogg",100
Sample,28800,0,"s_032.ogg",100
Sample,28800,0,"s_036.ogg",100
Sample,28800,0,"s_075.ogg",100
Sample,28875,0,"s_065.ogg",100
Sample,28950,0,"s_060.ogg",100
Sample,28950,0,"s_053.ogg",100
Sample,28950,0,"s_056.ogg",100
Sample,28950,0,"s_063.ogg",100
Sample,28950,0,"s_044.ogg",100
Sample,28950,0,"s_051.ogg",100
Sample,29025,0,"s_065.ogg",100
Sample,29025,0,"s_039.ogg",100
Sample,29100,0,"s_032.ogg",100
Sample,29100,0,"s_036.ogg",100
Sample,29100,0,"s_075.ogg",100
Sample,29100,0,"s_031.ogg",100
Sample,29175,0,"s_039.ogg",100
Sample,29250,0,"s_048.ogg",100
Sample,29250,0,"s_063.ogg",100
Sample,29250,0,"s_032.ogg",100
Sample,29250,0,"s_056.ogg",100
Sample,29250,0,"s_041.ogg",100
Sample,29325,0,"s_039.ogg",100
Sample,29400,0,"s_051.ogg",100
Sample,29400,0,"s_027.ogg",100
Sample,29400,0,"s_032.ogg",100
Sample,29400,0,"s_072.ogg",100
Sample,29475,0,"s_039.ogg",100
Sample,29550,0,"s_048.ogg",100
Sample,29550,0,"s_063.ogg",100
Sample,29550,0,"s_036.ogg",100
Sample,29550,0,"s_053.ogg",100
Sample,29550,0,"s_024.ogg",100
Sample,29550,0,"s_056.ogg",100
Sample,29625,0,"s_039.ogg",100
Sample,29700,0,"s_072.ogg",100
Sample,29700,0,"s_032.ogg",100
Sample,29700,0,"s_020.ogg",100
Sample,29775,0,"s_039.ogg",100
Sample,29850,0,"s_063.ogg",100
Sample,29850,0,"s_056.ogg",100
Sample,29850,0,"s_019.ogg",100
Sample,29850,0,"s_048.ogg",100
Sample,29850,0,"s_053.ogg",100
Sample,29850,0,"s_041.ogg",100
Sample,29850,0,"s_051.ogg",100
Sample,29925,0,"s_039.ogg",100
Sample,30000,0,"s_038.ogg",100
Sample,30000,0,"m_018.ogg",100
Sample,30000,0,"s_074.ogg",100
Sample,30000,0,"s_073.ogg",100
Sample,30075,0,"s_045.ogg",100
Sample,30150,0,"s_049.ogg",100
Sample,30150,0,"s_051.ogg",100
Sample,30150,0,"s_063.ogg",100
Sample,30150,0,"s_050.ogg",100
Sample,30225,0,"s_045.ogg",100
Sample,30225,0,"s_068.ogg",100
Sample,30300,0,"s_015.ogg",100
Sample,30300,0,"s_038.ogg",100
Sample,30300,0,"s_075.ogg",100
Sample,30300,0,"s_073.ogg",100
Sample,30375,0,"s_045.ogg",100
Sample,30450,0,"s_050.ogg",100
Sample,30450,0,"s_051.ogg",100
Sample,30450,0,"s_049.ogg",100
Sample,30450,0,"s_063.ogg",100
Sample,30450,0,"m_018.ogg",100
Sample,30525,0,"s_045.ogg",100
Sample,30600,0,"s_073.ogg",100
Sample,30600,0,"s_038.ogg",100
Sample,30600,0,"s_074.ogg",100
Sample,30675,0,"s_068.ogg",100
Sample,30675,0,"s_045.ogg",100
Sample,30750,0,"s_027.ogg",100
Sample,30750,0,"s_051.ogg",100
Sample,30750,0,"s_063.ogg",100
Sample,30750,0,"s_050.ogg",100
Sample,30750,0,"s_049.ogg",100
Sample,30825,0,"s_068.ogg",100
Sample,30900,0,"s_074.ogg",100
Sample,30900,0,"s_038.ogg",100
Sample,30900,0,"m_018.ogg",100
Sample,30900,0,"s_073.ogg",100
Sample,30975,0,"s_045.ogg",100
Sample,31050,0,"s_051.ogg",100
Sample,31050,0,"s_050.ogg",100
Sample,31050,0,"s_049.ogg",100
Sample,31050,0,"s_063.ogg",100
Sample,31125,0,"s_045.ogg",100
Sample,31125,0,"s_068.ogg",100
Sample,31200,0,"s_073.ogg",100
Sample,31200,0,"s_038.ogg",100
Sample,31200,0,"s_015.ogg",100
Sample,31200,0,"s_075.ogg",100
Sample,31275,0,"s_045.ogg",100
Sample,31350,0,"s_050.ogg",100
Sample,31350,0,"m_018.ogg",100
Sample,31350,0,"s_049.ogg",100
Sample,31350,0,"s_051.ogg",100
Sample,31350,0,"s_063.ogg",100
Sample,31425,0,"s_045.ogg",100
Sample,31500,0,"s_038.ogg",100
Sample,31500,0,"s_073.ogg",100
Sample,31500,0,"s_074.ogg",100
Sample,31575,0,"s_045.ogg",100
Sample,31575,0,"s_068.ogg",100
Sample,31650,0,"s_051.ogg",100
Sample,31650,0,"s_050.ogg",100
Sample,31650,0,"s_063.ogg",100
Sample,31650,0,"s_061.ogg",100
Sample,31650,0,"s_015.ogg",100
Sample,31725,0,"s_045.ogg",100
Sample,31800,0,"s_074.ogg",100
Sample,31800,0,"m_018.ogg",100
Sample,31800,0,"s_073.ogg",100
Sample,31800,0,"s_038.ogg",100
Sample,31875,0,"s_045.ogg",100
Sample,31950,0,"s_051.ogg",100
Sample,31950,0,"s_063.ogg",100
Sample,31950,0,"s_050.ogg",100
Sample,31950,0,"s_049.ogg",100
Sample,32025,0,"s_045.ogg",100
Sample,32025,0,"s_068.ogg",100
Sample,32100,0,"s_073.ogg",100
Sample,32100,0,"s_015.ogg",100
Sample,32100,0,"s_038.ogg",100
Sample,32100,0,"s_075.ogg",100
Sample,32175,0,"s_045.ogg",100
Sample,32250,0,"m_018.ogg",100
Sample,32250,0,"s_050.ogg",100
Sample,32250,0,"s_049.ogg",100
Sample,32250,0,"s_063.ogg",100
Sample,32250,0,"s_051.ogg",100
Sample,32325,0,"s_037.ogg",100
Sample,32325,0,"s_074.ogg",100
Sample,32325,0,"s_073.ogg",100
Sample,32400,0,"s_045.ogg",100
Sample,32475,0,"s_051.ogg",100
Sample,32475,0,"s_050.ogg",100
Sample,32475,0,"s_063.ogg",100
Sample,32475,0,"s_049.ogg",100
Sample,32475,0,"s_017.ogg",100
Sample,32550,0,"s_049.ogg",100
Sample,32550,0,"s_015.ogg",100
Sample,32550,0,"s_050.ogg",100
Sample,32550,0,"s_061.ogg",100
Sample,32550,0,"s_063.ogg",100
Sample,32625,0,"s_074.ogg",100
Sample,32625,0,"s_037.ogg",100
Sample,32625,0,"s_073.ogg",100
Sample,32700,0,"s_037.ogg",100
Sample,32700,0,"s_013.ogg",100
Sample,32775,0,"s_051.ogg",100
Sample,32775,0,"s_050.ogg",100
Sample,32775,0,"s_063.ogg",100
Sample,32775,0,"s_049.ogg",100
Sample,32850,0,"s_032.ogg",100
Sample,32850,0,"s_072.ogg",100
Sample,32850,0,"s_075.ogg",100
Sample,32925,0,"s_068.ogg",100
Sample,32925,0,"s_044.ogg",100
Sample,32925,0,"s_025.ogg",100
Sample,33000,0,"s_053.ogg",100
Sample,33000,0,"s_060.ogg",100
Sample,33000,0,"s_056.ogg",100
Sample,33000,0,"s_048.ogg",100
Sample,33000,0,"s_063.ogg",100
Sample,33000,0,"s_051.ogg",100
Sample,33000,0,"s_039.ogg",100
Sample,33075,0,"s_041.ogg",100
Sample,33075,0,"s_044.ogg",100
Sample,33075,0,"s_068.ogg",100
Sample,33150,0,"s_032.ogg",100
Sample,33150,0,"s_036.ogg",100
Sample,33150,0,"s_078.ogg",100
Sample,33150,0,"s_040.ogg",100
Sample,33225,0,"s_014.ogg",100
Sample,33225,0,"s_044.ogg",100
Sample,33225,0,"s_068.ogg",100
Sample,33300,0,"s_046.ogg",100
Sample,33300,0,"s_048.ogg",100
Sample,33300,0,"s_015.ogg",100
Sample,33300,0,"s_027.ogg",100
Sample,33300,0,"s_061.ogg",100
Sample,33300,0,"s_051.ogg",100
Sample,33300,0,"s_066.ogg",100
Sample,33375,0,"s_037.ogg",100
Sample,33375,0,"s_044.ogg",100
Sample,33375,0,"s_068.ogg",100
Sample,33450,0,"s_071.ogg",100
Sample,33450,0,"s_039.ogg",100
Sample,33450,0,"s_036.ogg",100
Sample,33525,0,"s_042.ogg",100
Sample,33525,0,"s_026.ogg",100
Sample,33525,0,"s_068.ogg",100
Sample,33600,0,"s_056.ogg",100
Sample,33600,0,"s_059.ogg",100
Sample,33600,0,"s_051.ogg",100
Sample,33600,0,"s_044.ogg",100
Sample,33600,0,"s_063.ogg",100
Sample,33600,0,"s_047.ogg",100
Sample,33600,0,"s_066.ogg",100
Sample,33600,0,"s_037.ogg",100
Sample,33675,0,"s_023.ogg",100
Sample,33675,0,"s_068.ogg",100
Sample,33675,0,"s_042.ogg",100
Sample,33750,0,"s_073.ogg",100
Sample,33750,0,"s_039.ogg",100
Sample,33750,0,"s_075.ogg",100
Sample,33750,0,"s_078.ogg",100
Sample,33825,0,"s_068.ogg",100
Sample,33825,0,"s_024.ogg",100
Sample,33825,0,"s_044.ogg",100
Sample,33900,0,"s_066.ogg",100
Sample,33900,0,"s_049.ogg",100
Sample,33900,0,"s_047.ogg",100
Sample,33900,0,"s_063.ogg",100
Sample,33900,0,"s_061.ogg",100
Sample,33900,0,"s_023.ogg",100
Sample,33900,0,"s_011.ogg",100
Sample,33975,0,"s_009.ogg",100
Sample,33975,0,"s_068.ogg",100
Sample,33975,0,"s_044.ogg",100
Sample,34050,0,"m_008.ogg",100
Sample,34050,0,"s_036.ogg",100
Sample,34125,0,"s_039.ogg",100
Sample,34200,0,"s_048.ogg",100
Sample,34200,0,"s_056.ogg",100
Sample,34200,0,"s_060.ogg",100
Sample,34200,0,"s_063.ogg",100
Sample,34200,0,"s_044.ogg",100
Sample,34200,0,"s_041.ogg",100
Sample,34275,0,"s_036.ogg",100
Sample,34275,0,"s_012.ogg",100
Sample,34350,0,"s_068.ogg",100
Sample,34350,0,"s_015.ogg",100
Sample,34350,0,"s_039.ogg",100
Sample,34425,0,"s_051.ogg",100
Sample,34500,0,"s_060.ogg",100
Sample,34500,0,"s_020.ogg",100
Sample,34575,0,"s_051.ogg",100
Sample,34650,0,"m_035.ogg",100
Sample,34650,0,"s_068.ogg",100
Sample,34650,0,"s_044.ogg",100
Sample,34725,0,"s_049.ogg",100
Sample,34800,0,"s_051.ogg",100
Sample,34950,0,"s_059.ogg",100
Sample,34950,0,"s_022.ogg",100
Sample,35025,0,"s_044.ogg",100
Sample,35100,0,"s_020.ogg",100
Sample,35100,0,"s_044.ogg",100
Sample,35250,0,"s_036.ogg",100
Sample,35250,0,"s_058.ogg",100
Sample,35250,0,"s_046.ogg",100
Sample,35325,0,"s_025.ogg",100
Sample,35325,0,"s_055.ogg",100
Sample,35325,0,"s_056.ogg",100
Sample,35325,0,"s_043.ogg",100
Sample,35400,0,"s_058.ogg",100
Sample,35400,0,"s_026.ogg",100
Sample,35400,0,"s_060.ogg",100
Sample,35400,0,"s_046.ogg",100
Sample,35475,0,"s_029.ogg",100
Sample,35475,0,"s_043.ogg",100
Sample,35475,0,"s_056.ogg",100
Sample,35475,0,"s_055.ogg",100
Sample,35550,0,"s_054.ogg",100
Sample,35550,0,"s_028.ogg",100
Sample,35550,0,"s_056.ogg",100
Sample,35550,0,"s_042.ogg",100
Sample,35625,0,"s_041.ogg",100
Sample,35625,0,"s_027.ogg",100
Sample,35700,0,"s_056.ogg",100
Sample,35700,0,"s_024.ogg",100
Sample,35700,0,"s_042.ogg",100
Sample,35700,0,"s_054.ogg",100
Sample,35775,0,"s_041.ogg",100
Sample,35775,0,"s_053.ogg",100
Sample,35850,0,"s_049.ogg",100
Sample,35850,0,"s_037.ogg",100
Sample,35850,0,"s_048.ogg",100
Sample,35850,0,"s_036.ogg",100
Sample,35925,0,"s_030.ogg",100
Sample,35925,0,"s_051.ogg",100
Sample,35925,0,"s_050.ogg",100
Sample,35925,0,"s_038.ogg",100
Sample,36000,0,"s_049.ogg",100
Sample,36000,0,"s_031.ogg",100
Sample,36000,0,"s_048.ogg",100
Sample,36000,0,"s_036.ogg",100
Sample,36075,0,"s_034.ogg",100
Sample,36075,0,"s_038.ogg",100
Sample,36075,0,"s_050.ogg",100
Sample,36075,0,"s_051.ogg",100
Sample,36150,0,"s_044.ogg",100
Sample,36225,0,"s_060.ogg",100
Sample,36300,0,"s_050.ogg",100
Sample,36300,0,"s_043.ogg",100
Sample,36300,0,"s_055.ogg",100
Sample,36375,0,"s_051.ogg",100
Sample,36375,0,"s_063.ogg",100
Sample,36375,0,"s_042.ogg",100
Sample,36450,0,"s_036.ogg",100
Sample,36450,0,"s_043.ogg",100
Sample,36450,0,"s_059.ogg",100
Sample,36450,0,"s_052.ogg",100
Sample,36450,0,"s_064.ogg",100
Sample,36450,0,"s_031.ogg",100
Sample,36450,0,"s_039.ogg",100
Sample,36525,0,"s_058.ogg",100
Sample,36525,0,"s_044.ogg",100
Sample,36525,0,"s_040.ogg",100
Sample,36525,0,"s_065.ogg",100
Sample,36600,0,"s_045.ogg",100
Sample,36600,0,"s_054.ogg",100
Sample,36600,0,"s_041.ogg",100
Sample,36600,0,"s_066.ogg",100
Sample,36675,0,"s_062.ogg",100
Sample,36675,0,"s_067.ogg",100
Sample,36675,0,"s_048.ogg",100
Sample,36675,0,"s_043.ogg",100
Sample,36750,0,"m_027.ogg",100
Sample,36750,0,"m_031.ogg",100
Sample,36750,0,"m_082.ogg",100
Sample,36750,0,"m_072.ogg",100
Sample,36750,0,"m_019.ogg",100
Sample,36750,0,"m_074.ogg",100
Sample,37050,0,"s_036.ogg",100
Sample,37050,0,"s_031.ogg",100
Sample,37050,0,"s_039.ogg",100
Sample,37050,0,"s_059.ogg",100
Sample,37050,0,"s_064.ogg",100
Sample,37050,0,"s_052.ogg",100
Sample,37050,0,"s_057.ogg",100
Sample,37125,0,"s_058.ogg",100
Sample,37125,0,"s_040.ogg",100
Sample,37125,0,"s_065.ogg",100
Sample,37125,0,"s_044.ogg",100
Sample,37200,0,"s_041.ogg",100
Sample,37200,0,"s_066.ogg",100
Sample,37200,0,"s_045.ogg",100
Sample,37200,0,"s_054.ogg",100
Sample,37275,0,"s_062.ogg",100
Sample,37275,0,"s_067.ogg",100
Sample,37275,0,"s_048.ogg",100
Sample,37275,0,"s_043.ogg",100
Sample,37350,0,"m_019.ogg",100
Sample,37350,0,"m_072.ogg",100
Sample,37350,0,"m_007.ogg",100
Sample,37350,0,"m_031.ogg",100
Sample,37350,0,"m_027.ogg",100
Sample,37350,0,"m_082.ogg",100
Sample,37650,0,"s_057.ogg",100
Sample,37650,0,"s_048.ogg",100
Sample,37650,0,"s_062.ogg",100
Sample,37650,0,"s_019.ogg",100
Sample,37650,0,"s_033.ogg",100
Sample,37725,0,"s_063.ogg",100
Sample,37725,0,"s_049.ogg",100
Sample,37725,0,"s_020.ogg",100
Sample,37725,0,"s_034.ogg",100
Sample,37725,0,"s_058.ogg",100
Sample,37800,0,"s_019.ogg",100
Sample,37800,0,"s_062.ogg",100
Sample,37800,0,"s_048.ogg",100
Sample,37800,0,"s_057.ogg",100
Sample,37800,0,"s_033.ogg",100
Sample,37875,0,"s_031.ogg",100
Sample,37875,0,"s_060.ogg",100
Sample,37875,0,"s_017.ogg",100
Sample,37875,0,"s_055.ogg",100
Sample,37875,0,"s_046.ogg",100
Sample,37950,0,"s_058.ogg",100
Sample,37950,0,"s_029.ogg",100
Sample,37950,0,"s_053.ogg",100
Sample,37950,0,"s_015.ogg",100
Sample,37950,0,"s_044.ogg",100
Sample,38025,0,"s_031.ogg",100
Sample,38025,0,"s_060.ogg",100
Sample,38025,0,"s_017.ogg",100
Sample,38025,0,"s_046.ogg",100
Sample,38025,0,"s_055.ogg",100
Sample,38100,0,"s_053.ogg",100
Sample,38100,0,"s_058.ogg",100
Sample,38100,0,"s_015.ogg",100
Sample,38100,0,"s_044.ogg",100
Sample,38100,0,"s_029.ogg",100
Sample,38175,0,"s_043.ogg",100
Sample,38175,0,"s_028.ogg",100
Sample,38175,0,"s_014.ogg",100
Sample,38175,0,"s_057.ogg",100
Sample,38175,0,"s_052.ogg",100
Sample,38250,0,"s_019.ogg",100
Sample,38250,0,"s_043.ogg",100
Sample,38250,0,"s_055.ogg",100
Sample,38250,0,"s_048.ogg",100
Sample,38250,0,"s_036.ogg",100
Sample,38250,0,"s_024.ogg",100
Sample,38250,0,"s_060.ogg",100
Sample,38400,0,"s_043.ogg",100
Sample,38400,0,"s_031.ogg",100
Sample,38400,0,"s_039.ogg",100
Sample,38475,0,"s_039.ogg",100
Sample,38475,0,"s_038.ogg",100
Sample,38475,0,"s_031.ogg",100
Sample,38550,0,"s_031.ogg",100
Sample,38550,0,"s_043.ogg",100
Sample,38550,0,"s_039.ogg",100
Sample,38700,0,"s_036.ogg",100
Sample,38700,0,"s_039.ogg",100
Sample,38700,0,"s_031.ogg",100
Sample,38850,0,"m_045.ogg",100
Sample,38850,0,"m_040.ogg",100
Sample,38850,0,"m_051.ogg",100
Sample,38850,0,"s_049.ogg",100
Sample,38850,0,"m_027.ogg",100
Sample,38850,0,"m_043.ogg",100
Sample,38850,0,"m_039.ogg",100
Sample,39450,0,"m_051.ogg",100
Sample,39450,0,"s_027.ogg",100
Sample,39450,0,"s_015.ogg",100
Sample,39466,0,"m_040.ogg",100
Sample,39483,0,"s_041.ogg",100
Sample,39500,0,"s_038.ogg",100
Sample,39500,0,"s_064.ogg",100
Sample,39516,0,"m_043.ogg",100
Sample,39525,0,"m_027.ogg",100
Sample,39525,0,"m_015.ogg",100
Sample,39533,0,"s_044.ogg",100
Sample,39550,0,"s_037.ogg",100
Sample,39550,0,"m_045.ogg",100
Sample,39566,0,"s_046.ogg",100
Sample,39583,0,"s_047.ogg",100
Sample,39600,0,"s_036.ogg",100
Sample,39600,0,"s_026.ogg",100
Sample,39600,0,"s_014.ogg",100
Sample,39600,0,"s_048.ogg",100
Sample,39616,0,"s_049.ogg",100
Sample,39633,0,"s_050.ogg",100
Sample,39650,0,"m_051.ogg",100
Sample,39650,0,"s_035.ogg",100
Sample,39666,0,"s_050.ogg",100
Sample,39675,0,"s_025.ogg",100
Sample,39675,0,"s_013.ogg",100
Sample,39683,0,"m_049.ogg",100
Sample,39700,0,"s_034.ogg",100
Sample,39700,0,"s_048.ogg",100
Sample,39716,0,"s_047.ogg",100
Sample,39733,0,"s_046.ogg",100
Sample,39750,0,"s_012.ogg",100
Sample,39750,0,"m_045.ogg",100
Sample,39750,0,"s_024.ogg",100
Sample,39750,0,"m_033.ogg",100
Sample,39766,0,"s_044.ogg",100
Sample,39783,0,"s_043.ogg",100
Sample,39800,0,"s_042.ogg",100
Sample,39800,0,"s_032.ogg",100
Sample,39816,0,"s_041.ogg",100
Sample,39825,0,"s_023.ogg",100
Sample,39825,0,"s_011.ogg",100
Sample,39833,0,"s_040.ogg",100
Sample,39850,0,"s_071.ogg",100
Sample,39850,0,"s_039.ogg",100
Sample,39866,0,"s_038.ogg",100
Sample,39883,0,"s_037.ogg",100
Sample,39900,0,"s_022.ogg",100
Sample,39900,0,"s_072.ogg",100
Sample,39900,0,"s_010.ogg",100
Sample,39900,0,"s_030.ogg",100
Sample,39916,0,"s_035.ogg",100
Sample,39933,0,"s_034.ogg",100
Sample,39950,0,"s_073.ogg",100
Sample,39950,0,"s_029.ogg",100
Sample,39966,0,"s_032.ogg",100
Sample,39975,0,"s_021.ogg",100
Sample,39975,0,"s_009.ogg",100
Sample,39983,0,"s_031.ogg",100
Sample,40000,0,"s_028.ogg",100
Sample,40000,0,"s_074.ogg",100
Sample,40016,0,"s_029.ogg",100
Sample,40033,0,"s_028.ogg",100
Sample,40050,0,"s_036.ogg",100
Sample,40050,0,"s_075.ogg",100
Sample,40050,0,"s_072.ogg",100
Sample,40050,0,"s_027.ogg",100
Sample,40125,0,"s_039.ogg",100
Sample,40200,0,"s_053.ogg",100
Sample,40200,0,"s_056.ogg",100
Sample,40200,0,"s_051.ogg",100
Sample,40200,0,"s_060.ogg",100
Sample,40200,0,"s_041.ogg",100
Sample,40200,0,"s_048.ogg",100
Sample,40275,0,"s_012.ogg",100
Sample,40275,0,"s_036.ogg",100
Sample,40350,0,"s_072.ogg",100
Sample,40350,0,"s_039.ogg",100
Sample,40350,0,"s_015.ogg",100
Sample,40350,0,"s_032.ogg",100
Sample,40425,0,"s_039.ogg",100
Sample,40500,0,"s_020.ogg",100
Sample,40500,0,"s_056.ogg",100
Sample,40500,0,"s_032.ogg",100
Sample,40500,0,"s_048.ogg",100
Sample,40500,0,"s_063.ogg",100
Sample,40500,0,"s_053.ogg",100
Sample,40575,0,"s_039.ogg",100
Sample,40650,0,"s_036.ogg",100
Sample,40650,0,"s_032.ogg",100
Sample,40650,0,"s_075.ogg",100
Sample,40650,0,"s_033.ogg",100
Sample,40650,0,"s_072.ogg",100
Sample,40725,0,"s_039.ogg",100
Sample,40725,0,"s_065.ogg",100
Sample,40725,0,"s_044.ogg",100
Sample,40800,0,"s_051.ogg",100
Sample,40800,0,"s_044.ogg",100
Sample,40800,0,"s_048.ogg",100
Sample,40800,0,"s_060.ogg",100
Sample,40800,0,"s_041.ogg",100
Sample,40800,0,"s_063.ogg",100
Sample,40800,0,"s_053.ogg",100
Sample,40800,0,"s_034.ogg",100
Sample,40875,0,"s_039.ogg",100
Sample,40875,0,"s_023.ogg",100
Sample,40875,0,"s_065.ogg",100
Sample,40950,0,"s_032.ogg",100
Sample,40950,0,"s_072.ogg",100
Sample,40950,0,"s_075.ogg",100
Sample,40950,0,"s_024.ogg",100
Sample,41025,0,"s_065.ogg",100
Sample,41025,0,"s_023.ogg",100
Sample,41025,0,"s_039.ogg",100
Sample,41100,0,"s_063.ogg",100
Sample,41100,0,"s_060.ogg",100
Sample,41100,0,"s_025.ogg",100
Sample,41100,0,"s_044.ogg",100
Sample,41100,0,"s_048.ogg",100
Sample,41100,0,"s_051.ogg",100
Sample,41100,0,"s_041.ogg",100
Sample,41100,0,"s_056.ogg",100
Sample,41175,0,"s_065.ogg",100
Sample,41175,0,"s_039.ogg",100
Sample,41175,0,"s_026.ogg",100
Sample,41250,0,"s_032.ogg",100
Sample,41250,0,"s_036.ogg",100
Sample,41250,0,"s_072.ogg",100
Sample,41250,0,"s_075.ogg",100
Sample,41325,0,"s_065.ogg",100
Sample,41400,0,"s_044.ogg",100
Sample,41400,0,"s_053.ogg",100
Sample,41400,0,"s_051.ogg",100
Sample,41400,0,"s_041.ogg",100
Sample,41400,0,"s_063.ogg",100
Sample,41400,0,"s_056.ogg",100
Sample,41475,0,"s_065.ogg",100
Sample,41475,0,"s_039.ogg",100
Sample,41550,0,"s_036.ogg",100
Sample,41550,0,"s_032.ogg",100
Sample,41550,0,"s_075.ogg",100
Sample,41550,0,"s_031.ogg",100
Sample,41625,0,"s_039.ogg",100
Sample,41700,0,"s_063.ogg",100
Sample,41700,0,"s_041.ogg",100
Sample,41700,0,"s_056.ogg",100
Sample,41700,0,"s_032.ogg",100
Sample,41700,0,"s_048.ogg",100
Sample,41775,0,"s_039.ogg",100
Sample,41850,0,"s_032.ogg",100
Sample,41850,0,"s_051.ogg",100
Sample,41850,0,"s_027.ogg",100
Sample,41850,0,"s_039.ogg",100
Sample,41850,0,"s_075.ogg",100
Sample,41925,0,"s_048.ogg",100
Sample,41925,0,"s_036.ogg",100
Sample,41925,0,"s_024.ogg",100
Sample,42000,0,"s_063.ogg",100
Sample,42000,0,"s_056.ogg",100
Sample,42000,0,"s_053.ogg",100
Sample,42000,0,"s_024.ogg",100
Sample,42000,0,"s_036.ogg",100
Sample,42000,0,"s_060.ogg",100
Sample,42000,0,"s_048.ogg",100
Sample,42075,0,"s_036.ogg",100
Sample,42075,0,"s_024.ogg",100
Sample,42075,0,"s_048.ogg",100
Sample,42150,0,"s_072.ogg",100
Sample,42150,0,"s_032.ogg",100
Sample,42150,0,"s_020.ogg",100
Sample,42225,0,"s_039.ogg",100
Sample,42300,0,"s_048.ogg",100
Sample,42300,0,"s_056.ogg",100
Sample,42300,0,"s_053.ogg",100
Sample,42300,0,"s_041.ogg",100
Sample,42300,0,"s_019.ogg",100
Sample,42300,0,"s_063.ogg",100
Sample,42300,0,"s_031.ogg",100
Sample,42375,0,"s_039.ogg",100
Sample,42450,0,"s_037.ogg",100
Sample,42450,0,"s_074.ogg",100
Sample,42450,0,"m_018.ogg",100
Sample,42450,0,"s_073.ogg",100
Sample,42525,0,"s_045.ogg",100
Sample,42600,0,"s_049.ogg",100
Sample,42600,0,"s_051.ogg",100
Sample,42600,0,"s_050.ogg",100
Sample,42600,0,"s_063.ogg",100
Sample,42675,0,"s_068.ogg",100
Sample,42675,0,"s_045.ogg",100
Sample,42750,0,"s_073.ogg",100
Sample,42750,0,"s_015.ogg",100
Sample,42750,0,"s_037.ogg",100
Sample,42750,0,"s_075.ogg",100
Sample,42825,0,"s_045.ogg",100
Sample,42900,0,"s_049.ogg",100
Sample,42900,0,"m_018.ogg",100
Sample,42900,0,"s_063.ogg",100
Sample,42900,0,"s_051.ogg",100
Sample,42900,0,"s_050.ogg",100
Sample,42975,0,"s_037.ogg",100
Sample,42975,0,"s_073.ogg",100
Sample,42975,0,"s_074.ogg",100
Sample,43050,0,"s_045.ogg",100
Sample,43125,0,"s_051.ogg",100
Sample,43125,0,"s_063.ogg",100
Sample,43125,0,"s_050.ogg",100
Sample,43125,0,"s_049.ogg",100
Sample,43125,0,"s_017.ogg",100
Sample,43200,0,"s_039.ogg",100
Sample,43200,0,"s_015.ogg",100
Sample,43275,0,"s_037.ogg",100
Sample,43275,0,"s_074.ogg",100
Sample,43275,0,"s_073.ogg",100
Sample,43350,0,"s_045.ogg",100
Sample,43350,0,"m_018.ogg",100
Sample,43425,0,"s_051.ogg",100
Sample,43425,0,"s_050.ogg",100
Sample,43425,0,"s_049.ogg",100
Sample,43425,0,"s_063.ogg",100
Sample,43500,0,"s_037.ogg",100
Sample,43500,0,"s_074.ogg",100
Sample,43500,0,"s_073.ogg",100
Sample,43575,0,"s_068.ogg",100
Sample,43575,0,"s_045.ogg",100
Sample,43650,0,"s_061.ogg",100
Sample,43650,0,"s_051.ogg",100
Sample,43650,0,"s_063.ogg",100
Sample,43650,0,"s_050.ogg",100
Sample,43650,0,"s_015.ogg",100
Sample,43725,0,"s_045.ogg",100
Sample,43800,0,"s_074.ogg",100
Sample,43800,0,"m_018.ogg",100
Sample,43800,0,"s_073.ogg",100
Sample,43800,0,"s_037.ogg",100
Sample,43875,0,"s_045.ogg",100
Sample,43950,0,"s_051.ogg",100
Sample,43950,0,"s_050.ogg",100
Sample,43950,0,"s_063.ogg",100
Sample,43950,0,"s_049.ogg",100
Sample,44025,0,"s_073.ogg",100
Sample,44025,0,"s_037.ogg",100
Sample,44025,0,"s_074.ogg",100
Sample,44025,0,"s_033.ogg",100
Sample,44100,0,"s_039.ogg",100
Sample,44100,0,"s_015.ogg",100
Sample,44175,0,"s_049.ogg",100
Sample,44175,0,"s_051.ogg",100
Sample,44175,0,"s_050.ogg",100
Sample,44175,0,"s_063.ogg",100
Sample,44250,0,"m_018.ogg",100
Sample,44250,0,"s_045.ogg",100
Sample,44325,0,"s_074.ogg",100
Sample,44325,0,"s_073.ogg",100
Sample,44325,0,"s_037.ogg",100
Sample,44400,0,"s_045.ogg",100
Sample,44475,0,"s_017.ogg",100
Sample,44475,0,"s_051.ogg",100
Sample,44475,0,"s_050.ogg",100
Sample,44475,0,"s_049.ogg",100
Sample,44475,0,"s_063.ogg",100
Sample,44550,0,"s_015.ogg",100
Sample,44550,0,"s_037.ogg",100
Sample,44550,0,"s_073.ogg",100
Sample,44550,0,"s_075.ogg",100
Sample,44625,0,"s_045.ogg",100
Sample,44700,0,"s_050.ogg",100
Sample,44700,0,"s_063.ogg",100
Sample,44700,0,"m_018.ogg",100
Sample,44700,0,"s_049.ogg",100
Sample,44700,0,"s_051.ogg",100
Sample,44775,0,"s_045.ogg",100
Sample,44850,0,"s_073.ogg",100
Sample,44850,0,"s_037.ogg",100
Sample,44850,0,"s_074.ogg",100
Sample,44925,0,"s_045.ogg",100
Sample,44925,0,"s_068.ogg",100
Sample,45000,0,"s_015.ogg",100
Sample,45000,0,"s_063.ogg",100
Sample,45000,0,"s_050.ogg",100
Sample,45000,0,"s_051.ogg",100
Sample,45000,0,"s_061.ogg",100
Sample,45075,0,"s_074.ogg",100
Sample,45075,0,"s_037.ogg",100
Sample,45075,0,"s_073.ogg",100
Sample,45150,0,"m_018.ogg",100
Sample,45150,0,"s_045.ogg",100
Sample,45225,0,"s_063.ogg",100
Sample,45225,0,"s_049.ogg",100
Sample,45225,0,"s_050.ogg",100
Sample,45225,0,"s_051.ogg",100
Sample,45300,0,"s_045.ogg",100
Sample,45375,0,"s_033.ogg",100
Sample,45375,0,"s_074.ogg",100
Sample,45375,0,"s_037.ogg",100
Sample,45375,0,"s_073.ogg",100
Sample,45450,0,"s_015.ogg",100
Sample,45450,0,"s_039.ogg",100
Sample,45525,0,"s_063.ogg",100
Sample,45525,0,"s_051.ogg",100
Sample,45525,0,"s_050.ogg",100
Sample,45525,0,"s_049.ogg",100
Sample,45600,0,"s_075.ogg",100
Sample,45600,0,"s_018.ogg",100
Sample,45600,0,"s_030.ogg",100
Sample,45600,0,"s_042.ogg",100
Sample,45675,0,"s_017.ogg",100
Sample,45675,0,"s_041.ogg",100
Sample,45675,0,"s_068.ogg",100
Sample,45750,0,"s_050.ogg",100
Sample,45750,0,"s_061.ogg",100
Sample,45750,0,"s_051.ogg",100
Sample,45750,0,"s_039.ogg",100
Sample,45750,0,"s_015.ogg",100
Sample,45750,0,"s_027.ogg",100
Sample,45825,0,"s_042.ogg",100
Sample,45825,0,"s_018.ogg",100
Sample,45900,0,"s_029.ogg",100
Sample,45900,0,"s_017.ogg",100
Sample,45900,0,"s_037.ogg",100
Sample,45900,0,"s_041.ogg",100
Sample,45900,0,"s_075.ogg",100
Sample,45975,0,"s_015.ogg",100
Sample,45975,0,"s_039.ogg",100
Sample,45975,0,"s_045.ogg",100
Sample,46050,0,"s_018.ogg",100
Sample,46050,0,"s_051.ogg",100
Sample,46050,0,"s_061.ogg",100
Sample,46050,0,"s_042.ogg",100
Sample,46050,0,"s_030.ogg",100
Sample,46125,0,"s_029.ogg",100
Sample,46125,0,"s_037.ogg",100
Sample,46125,0,"s_017.ogg",100
Sample,46125,0,"s_075.ogg",100
Sample,46125,0,"s_041.ogg",100
Sample,46200,0,"s_039.ogg",100
Sample,46200,0,"s_045.ogg",100
Sample,46200,0,"s_015.ogg",100
Sample,46275,0,"s_061.ogg",100
Sample,46275,0,"s_063.ogg",100
Sample,46275,0,"s_050.ogg",100
Sample,46275,0,"s_049.ogg",100
Sample,46275,0,"s_051.ogg",100
Sample,46350,0,"s_068.ogg",100
Sample,46425,0,"s_075.ogg",100
Sample,46425,0,"s_041.ogg",100
Sample,46425,0,"s_017.ogg",100
Sample,46425,0,"s_029.ogg",100
Sample,46500,0,"s_068.ogg",100
Sample,46500,0,"s_045.ogg",100
Sample,46575,0,"s_049.ogg",100
Sample,46575,0,"s_051.ogg",100
Sample,46575,0,"s_050.ogg",100
Sample,46575,0,"s_061.ogg",100
Sample,46650,0,"s_074.ogg",100
Sample,46650,0,"s_037.ogg",100
Sample,46650,0,"m_018.ogg",100
Sample,46650,0,"s_073.ogg",100
Sample,46725,0,"s_045.ogg",100
Sample,46800,0,"s_050.ogg",100
Sample,46800,0,"s_049.ogg",100
Sample,46800,0,"s_051.ogg",100
Sample,46800,0,"s_063.ogg",100
Sample,46875,0,"s_045.ogg",100
Sample,46875,0,"s_068.ogg",100
Sample,46950,0,"s_073.ogg",100
Sample,46950,0,"s_075.ogg",100
Sample,46950,0,"s_037.ogg",100
Sample,46950,0,"s_015.ogg",100
Sample,47025,0,"s_045.ogg",100
Sample,47100,0,"s_049.ogg",100
Sample,47100,0,"s_063.ogg",100
Sample,47100,0,"s_050.ogg",100
Sample,47100,0,"m_018.ogg",100
Sample,47100,0,"s_051.ogg",100
Sample,47175,0,"s_073.ogg",100
Sample,47175,0,"s_074.ogg",100
Sample,47175,0,"s_037.ogg",100
Sample,47250,0,"s_045.ogg",100
Sample,47325,0,"s_049.ogg",100
Sample,47325,0,"s_041.ogg",100
Sample,47325,0,"s_063.ogg",100
Sample,47400,0,"s_015.ogg",100
Sample,47400,0,"s_039.ogg",100
Sample,47475,0,"s_051.ogg",100
Sample,47475,0,"s_050.ogg",100
Sample,47550,0,"s_018.ogg",100
Sample,47550,0,"s_042.ogg",100
Sample,47550,0,"s_030.ogg",100
Sample,47550,0,"s_075.ogg",100
Sample,47625,0,"s_041.ogg",100
Sample,47625,0,"s_045.ogg",100
Sample,47625,0,"s_017.ogg",100
Sample,47700,0,"s_049.ogg",100
Sample,47700,0,"s_039.ogg",100
Sample,47700,0,"s_015.ogg",100
Sample,47775,0,"s_030.ogg",100
Sample,47775,0,"s_018.ogg",100
Sample,47850,0,"s_017.ogg",100
Sample,47850,0,"s_029.ogg",100
Sample,47850,0,"s_050.ogg",100
Sample,47925,0,"s_039.ogg",100
Sample,47925,0,"s_015.ogg",100
Sample,47925,0,"s_051.ogg",100
Sample,48000,0,"s_037.ogg",100
Sample,48000,0,"s_074.ogg",100
Sample,48000,0,"s_073.ogg",100
Sample,48000,0,"m_018.ogg",100
Sample,48075,0,"s_045.ogg",100
Sample,48150,0,"s_049.ogg",100
Sample,48150,0,"s_063.ogg",100
Sample,48150,0,"s_051.ogg",100
Sample,48150,0,"s_050.ogg",100
Sample,48225,0,"s_068.ogg",100
Sample,48225,0,"s_045.ogg",100
Sample,48300,0,"s_073.ogg",100
Sample,48300,0,"s_075.ogg",100
Sample,48300,0,"s_015.ogg",100
Sample,48300,0,"s_037.ogg",100
Sample,48375,0,"s_045.ogg",100
Sample,48450,0,"s_063.ogg",100
Sample,48450,0,"s_050.ogg",100
Sample,48450,0,"s_013.ogg",100
Sample,48450,0,"s_061.ogg",100
Sample,48450,0,"s_051.ogg",100
Sample,48525,0,"s_045.ogg",100
Sample,48600,0,"s_032.ogg",100
Sample,48600,0,"s_072.ogg",100
Sample,48600,0,"s_075.ogg",100
Sample,48675,0,"s_025.ogg",100
Sample,48675,0,"s_068.ogg",100
Sample,48675,0,"s_044.ogg",100
Sample,48750,0,"s_060.ogg",100
Sample,48750,0,"s_056.ogg",100
Sample,48750,0,"s_053.ogg",100
Sample,48750,0,"s_048.ogg",100
Sample,48750,0,"s_051.ogg",100
Sample,48750,0,"s_039.ogg",100
Sample,48750,0,"s_063.ogg",100
Sample,48825,0,"s_044.ogg",100
Sample,48825,0,"s_029.ogg",100
Sample,48825,0,"s_068.ogg",100
Sample,48900,0,"s_032.ogg",100
Sample,48900,0,"s_073.ogg",100
Sample,48900,0,"s_078.ogg",100
Sample,48900,0,"s_036.ogg",100
Sample,48975,0,"s_044.ogg",100
Sample,48975,0,"s_026.ogg",100
Sample,48975,0,"s_068.ogg",100
Sample,49050,0,"s_049.ogg",100
Sample,49050,0,"s_066.ogg",100
Sample,49050,0,"s_047.ogg",100
Sample,49050,0,"s_061.ogg",100
Sample,49050,0,"s_054.ogg",100
Sample,49050,0,"s_039.ogg",100
Sample,49125,0,"s_044.ogg",100
Sample,49125,0,"s_068.ogg",100
Sample,49125,0,"s_037.ogg",100
Sample,49200,0,"s_071.ogg",100
Sample,49200,0,"s_039.ogg",100
Sample,49200,0,"s_075.ogg",100
Sample,49275,0,"s_042.ogg",100
Sample,49275,0,"s_068.ogg",100
Sample,49275,0,"s_026.ogg",100
Sample,49350,0,"s_059.ogg",100
Sample,49350,0,"s_044.ogg",100
Sample,49350,0,"s_037.ogg",100
Sample,49350,0,"s_056.ogg",100
Sample,49350,0,"s_051.ogg",100
Sample,49350,0,"s_047.ogg",100
Sample,49350,0,"s_063.ogg",100
Sample,49350,0,"s_066.ogg",100
Sample,49425,0,"s_068.ogg",100
Sample,49425,0,"s_023.ogg",100
Sample,49425,0,"s_042.ogg",100
Sample,49500,0,"s_078.ogg",100
Sample,49500,0,"s_073.ogg",100
Sample,49500,0,"s_039.ogg",100
Sample,49575,0,"s_024.ogg",100
Sample,49575,0,"s_068.ogg",100
Sample,49575,0,"s_044.ogg",100
Sample,49650,0,"s_049.ogg",100
Sample,49650,0,"s_054.ogg",100
Sample,49650,0,"s_061.ogg",100
Sample,49650,0,"s_063.ogg",100
Sample,49650,0,"s_047.ogg",100
Sample,49650,0,"s_066.ogg",100
Sample,49650,0,"s_035.ogg",100
Sample,49725,0,"s_033.ogg",100
Sample,49725,0,"s_044.ogg",100
Sample,49725,0,"s_068.ogg",100
Sample,49800,0,"s_063.ogg",100
Sample,49800,0,"s_072.ogg",100
Sample,49800,0,"s_075.ogg",100
Sample,49800,0,"s_051.ogg",100
Sample,49800,0,"s_048.ogg",100
Sample,49875,0,"s_068.ogg",100
Sample,49875,0,"s_056.ogg",100
Sample,49950,0,"s_063.ogg",100
Sample,50025,0,"s_012.ogg",100
Sample,50025,0,"s_036.ogg",100
Sample,50100,0,"s_015.ogg",100
Sample,50100,0,"s_039.ogg",100
Sample,50175,0,"s_063.ogg",100
Sample,50250,0,"s_018.ogg",100
Sample,50250,0,"s_042.ogg",100
Sample,50325,0,"s_054.ogg",100
Sample,50400,0,"s_065.ogg",100
Sample,50400,0,"s_068.ogg",100
Sample,50475,0,"s_063.ogg",100
Sample,50625,0,"s_054.ogg",100
Sample,50700,0,"s_021.ogg",100
Sample,50775,0,"s_062.ogg",100
Sample,50850,0,"s_044.ogg",100
Sample,50850,0,"s_020.ogg",100
Sample,50925,0,"s_049.ogg",100
Sample,51000,0,"s_025.ogg",100
Sample,51000,0,"s_043.ogg",100
Sample,51000,0,"s_013.ogg",100
Sample,51000,0,"s_049.ogg",100
Sample,51000,0,"s_036.ogg",100
Sample,51000,0,"s_046.ogg",100
Sample,51075,0,"s_044.ogg",100
Sample,51075,0,"s_042.ogg",100
Sample,51150,0,"s_043.ogg",100
Sample,51150,0,"s_045.ogg",100
Sample,51225,0,"s_044.ogg",100
Sample,51225,0,"s_046.ogg",100
Sample,51300,0,"s_045.ogg",100
Sample,51300,0,"s_047.ogg",100
Sample,51375,0,"s_046.ogg",100
Sample,51375,0,"s_048.ogg",100
Sample,51450,0,"s_047.ogg",100
Sample,51450,0,"s_049.ogg",100
Sample,51525,0,"s_048.ogg",100
Sample,51525,0,"s_050.ogg",100
Sample,51600,0,"s_049.ogg",100
Sample,51600,0,"s_051.ogg",100
Sample,51675,0,"s_050.ogg",100
Sample,51675,0,"s_052.ogg",100
Sample,51750,0,"s_051.ogg",100
Sample,51750,0,"s_053.ogg",100
Sample,51825,0,"s_052.ogg",100
Sample,51825,0,"s_054.ogg",100
Sample,51900,0,"s_053.ogg",100
Sample,51900,0,"s_055.ogg",100
Sample,51960,0,"s_052.ogg",100
Sample,51960,0,"s_054.ogg",100
Sample,52020,0,"s_055.ogg",100
Sample,52020,0,"s_053.ogg",100
Sample,52080,0,"s_054.ogg",100
Sample,52080,0,"s_056.ogg",100
Sample,52140,0,"s_055.ogg",100
Sample,52140,0,"s_057.ogg",100
Sample,52200,0,"s_070.ogg",100
Sample,52200,0,"s_014.ogg",100
Sample,52200,0,"s_038.ogg",100
Sample,52200,0,"s_080.ogg",100
Sample,52200,0,"s_053.ogg",100
Sample,52200,0,"s_075.ogg",100
Sample,52200,0,"s_068.ogg",100
Sample,52350,0,"s_034.ogg",100
Sample,52350,0,"m_072.ogg",100
Sample,52350,0,"m_084.ogg",100
Sample,52350,0,"m_079.ogg",100
Sample,52350,0,"m_044.ogg",100
Sample,52500,0,"s_010.ogg",100
Sample,52500,0,"s_022.ogg",100
Sample,52500,0,"s_034.ogg",100
Sample,52650,0,"s_080.ogg",100
Sample,52650,0,"s_075.ogg",100
Sample,52650,0,"s_041.ogg",100
Sample,52650,0,"s_068.ogg",100
Sample,52650,0,"s_034.ogg",100
Sample,52800,0,"s_041.ogg",100
Sample,52800,0,"s_022.ogg",100
Sample,52800,0,"s_072.ogg",100
Sample,52800,0,"s_077.ogg",100
Sample,52800,0,"s_062.ogg",100
Sample,52800,0,"s_053.ogg",100
Sample,52800,0,"s_067.ogg",100
Sample,52800,0,"s_065.ogg",100
Sample,52950,0,"m_068.ogg",100
Sample,52950,0,"m_053.ogg",100
Sample,52950,0,"m_080.ogg",100
Sample,52950,0,"m_044.ogg",100
Sample,52950,0,"m_075.ogg",100
Sample,53100,0,"s_010.ogg",100
Sample,53100,0,"s_022.ogg",100
Sample,53100,0,"s_034.ogg",100
Sample,53250,0,"s_077.ogg",100
Sample,53250,0,"s_065.ogg",100
Sample,53250,0,"s_050.ogg",100
Sample,53250,0,"s_067.ogg",100
Sample,53250,0,"s_041.ogg",100
Sample,53400,0,"s_015.ogg",100
Sample,53400,0,"s_027.ogg",100
Sample,53475,0,"s_027.ogg",100
Sample,53475,0,"s_015.ogg",100
Sample,53550,0,"s_036.ogg",100
Sample,53625,0,"s_037.ogg",100
Sample,53700,0,"s_038.ogg",100
Sample,53775,0,"s_041.ogg",100
Sample,53850,0,"s_039.ogg",100
Sample,53925,0,"s_027.ogg",100
Sample,54000,0,"s_051.ogg",100
Sample,54000,0,"s_079.ogg",100
Sample,54000,0,"s_074.ogg",100
Sample,54000,0,"s_053.ogg",100
Sample,54075,0,"s_051.ogg",100
Sample,54075,0,"s_066.ogg",100
Sample,54075,0,"s_053.ogg",100
Sample,54075,0,"s_060.ogg",100
Sample,54150,0,"s_036.ogg",100
Sample,54225,0,"s_037.ogg",100
Sample,54300,0,"s_038.ogg",100
Sample,54375,0,"s_041.ogg",100
Sample,54450,0,"s_039.ogg",100
Sample,54525,0,"s_032.ogg",100
Sample,54600,0,"s_027.ogg",100
Sample,54600,0,"s_015.ogg",100
Sample,54675,0,"s_027.ogg",100
Sample,54675,0,"s_015.ogg",100
Sample,54750,0,"s_036.ogg",100
Sample,54825,0,"s_037.ogg",100
Sample,54900,0,"s_038.ogg",100
Sample,54975,0,"s_041.ogg",100
Sample,55050,0,"s_039.ogg",100
Sample,55125,0,"s_027.ogg",100
Sample,55200,0,"s_051.ogg",100
Sample,55200,0,"s_079.ogg",100
Sample,55200,0,"s_060.ogg",100
Sample,55200,0,"s_053.ogg",100
Sample,55275,0,"s_051.ogg",100
Sample,55275,0,"s_066.ogg",100
Sample,55275,0,"s_053.ogg",100
Sample,55275,0,"s_044.ogg",100
Sample,55350,0,"s_036.ogg",100
Sample,55425,0,"s_037.ogg",100
Sample,55500,0,"s_038.ogg",100
Sample,55575,0,"s_041.ogg",100
Sample,55650,0,"s_039.ogg",100
Sample,55725,0,"s_032.ogg",100
Sample,55800,0,"s_003.ogg",100
Sample,55800,0,"s_015.ogg",100
Sample,55875,0,"s_015.ogg",100
Sample,55875,0,"s_003.ogg",100
Sample,55950,0,"s_036.ogg",100
Sample,56025,0,"s_037.ogg",100
Sample,56100,0,"s_038.ogg",100
Sample,56175,0,"s_041.ogg",100
Sample,56250,0,"s_039.ogg",100
Sample,56325,0,"s_027.ogg",100
Sample,56400,0,"s_044.ogg",100
Sample,56400,0,"s_079.ogg",100
Sample,56550,0,"s_015.ogg",100
Sample,56550,0,"s_003.ogg",100
Sample,56625,0,"s_015.ogg",100
Sample,56625,0,"s_003.ogg",100
Sample,56700,0,"s_036.ogg",100
Sample,56775,0,"s_037.ogg",100
Sample,56850,0,"s_038.ogg",100
Sample,56925,0,"s_041.ogg",100
Sample,57000,0,"s_039.ogg",100
Sample,57075,0,"s_027.ogg",100
Sample,57150,0,"s_045.ogg",100
Sample,57150,0,"s_066.ogg",100
Sample,57300,0,"s_027.ogg",100
Sample,57300,0,"s_015.ogg",100
Sample,57375,0,"s_015.ogg",100
Sample,57375,0,"s_003.ogg",100
Sample,57450,0,"s_050.ogg",100
Sample,57450,0,"s_034.ogg",100
Sample,57525,0,"s_035.ogg",100
Sample,57525,0,"s_051.ogg",100
Sample,58200,0,"s_044.ogg",100
Sample,58200,0,"s_053.ogg",100
Sample,58275,0,"s_056.ogg",100
Sample,58275,0,"s_048.ogg",100
Sample,58350,0,"s_046.ogg",100
Sample,58350,0,"s_055.ogg",100
Sample,58425,0,"s_058.ogg",100
Sample,58425,0,"s_049.ogg",100
Sample,58500,0,"s_066.ogg",100
Sample,58500,0,"s_057.ogg",100
Sample,58575,0,"s_051.ogg",100
Sample,58575,0,"s_069.ogg",100
Sample,58650,0,"s_068.ogg",100
Sample,58650,0,"s_050.ogg",100
Sample,58725,0,"s_051.ogg",100
Sample,58725,0,"s_071.ogg",100
Sample,58800,0,"s_061.ogg",100
Sample,58800,0,"s_079.ogg",100
Sample,58860,0,"s_055.ogg",100
Sample,58920,0,"s_058.ogg",100
Sample,58980,0,"s_055.ogg",100
Sample,59040,0,"s_051.ogg",100
Sample,59100,0,"s_049.ogg",100
Sample,59160,0,"s_046.ogg",100
Sample,59220,0,"s_043.ogg",100
Sample,59280,0,"s_039.ogg",100
Sample,59340,0,"s_043.ogg",100
Sample,59400,0,"s_055.ogg",100
Sample,59460,0,"s_052.ogg",100
Sample,59520,0,"s_049.ogg",100
Sample,59580,0,"s_046.ogg",100
Sample,59640,0,"s_043.ogg",100
Sample,59700,0,"s_040.ogg",100
Sample,59760,0,"s_037.ogg",100
Sample,59820,0,"s_034.ogg",100
Sample,59880,0,"s_031.ogg",100
Sample,59940,0,"s_028.ogg",100
Sample,60000,0,"s_025.ogg",100
Sample,60060,0,"s_028.ogg",100
Sample,60120,0,"s_031.ogg",100
Sample,60180,0,"s_028.ogg",100
Sample,60240,0,"s_024.ogg",100
Sample,60300,0,"s_022.ogg",100
Sample,60360,0,"s_019.ogg",100
Sample,60420,0,"s_016.ogg",100
Sample,60480,0,"s_013.ogg",100
Sample,60540,0,"s_016.ogg",100
Sample,60600,0,"s_019.ogg",100
Sample,60660,0,"s_022.ogg",100
Sample,60720,0,"s_025.ogg",100
Sample,60780,0,"s_028.ogg",100
Sample,60840,0,"s_031.ogg",100
Sample,60900,0,"s_034.ogg",100
Sample,60950,0,"s_037.ogg",100
Sample,61000,0,"s_040.ogg",100
Sample,61050,0,"s_043.ogg",100
Sample,61100,0,"s_046.ogg",100
Sample,61200,0,"s_037.ogg",100
Sample,61200,0,"s_049.ogg",100
Sample,61200,0,"s_034.ogg",100
Sample,61200,0,"s_043.ogg",100
Sample,61200,0,"s_015.ogg",100
Sample,61200,0,"s_041.ogg",100
Sample,61350,0,"s_064.ogg",100
Sample,61350,0,"s_071.ogg",100
Sample,61350,0,"s_077.ogg",100
Sample,61350,0,"s_084.ogg",100
Sample,61363,0,"s_070.ogg",100
Sample,61363,0,"s_063.ogg",100
Sample,61363,0,"s_083.ogg",100
Sample,61363,0,"s_076.ogg",100
Sample,61376,0,"s_062.ogg",100
Sample,61376,0,"s_069.ogg",100
Sample,61376,0,"s_075.ogg",100
Sample,61376,0,"s_082.ogg",100
Sample,61390,0,"s_081.ogg",100
Sample,61390,0,"s_061.ogg",100
Sample,61390,0,"s_068.ogg",100
Sample,61390,0,"s_074.ogg",100
Sample,61404,0,"s_060.ogg",100
Sample,61404,0,"s_067.ogg",100
Sample,61404,0,"s_080.ogg",100
Sample,61404,0,"s_073.ogg",100
Sample,61418,0,"s_059.ogg",100
Sample,61418,0,"s_066.ogg",100
Sample,61418,0,"s_072.ogg",100
Sample,61418,0,"s_079.ogg",100
Sample,61431,0,"s_071.ogg",100
Sample,61431,0,"s_058.ogg",100
Sample,61431,0,"s_065.ogg",100
Sample,61431,0,"s_078.ogg",100
Sample,61445,0,"s_057.ogg",100
Sample,61445,0,"s_064.ogg",100
Sample,61445,0,"s_070.ogg",100
Sample,61445,0,"s_077.ogg",100
Sample,61458,0,"s_063.ogg",100
Sample,61458,0,"s_056.ogg",100
Sample,61458,0,"s_076.ogg",100
Sample,61458,0,"s_069.ogg",100
Sample,61472,0,"s_055.ogg",100
Sample,61472,0,"s_062.ogg",100
Sample,61472,0,"s_075.ogg",100
Sample,61472,0,"s_068.ogg",100
Sample,61486,0,"s_067.ogg",100
Sample,61486,0,"s_054.ogg",100
Sample,61486,0,"s_074.ogg",100
Sample,61486,0,"s_061.ogg",100
Sample,61500,0,"s_053.ogg",100
Sample,61500,0,"s_066.ogg",100
Sample,61500,0,"s_073.ogg",100
Sample,61500,0,"s_060.ogg",100
Sample,61513,0,"s_072.ogg",100
Sample,61513,0,"s_052.ogg",100
Sample,61513,0,"s_065.ogg",100
Sample,61513,0,"s_059.ogg",100
Sample,61526,0,"s_051.ogg",100
Sample,61526,0,"s_058.ogg",100
Sample,61526,0,"s_071.ogg",100
Sample,61526,0,"s_064.ogg",100
Sample,61540,0,"s_070.ogg",100
Sample,61540,0,"s_050.ogg",100
Sample,61540,0,"s_063.ogg",100
Sample,61540,0,"s_057.ogg",100
Sample,61554,0,"s_049.ogg",100
Sample,61554,0,"s_062.ogg",100
Sample,61554,0,"s_069.ogg",100
Sample,61554,0,"s_056.ogg",100
Sample,61568,0,"s_055.ogg",100
Sample,61568,0,"s_048.ogg",100
Sample,61568,0,"s_061.ogg",100
Sample,61568,0,"s_068.ogg",100
Sample,61581,0,"s_047.ogg",100
Sample,61581,0,"s_067.ogg",100
Sample,61581,0,"s_060.ogg",100
Sample,61581,0,"s_054.ogg",100
Sample,61595,0,"s_053.ogg",100
Sample,61595,0,"s_046.ogg",100
Sample,61595,0,"s_059.ogg",100
Sample,61595,0,"s_066.ogg",100
Sample,61608,0,"s_045.ogg",100
Sample,61608,0,"s_065.ogg",100
Sample,61608,0,"s_052.ogg",100
Sample,61608,0,"s_058.ogg",100
Sample,61622,0,"s_057.ogg",100
Sample,61622,0,"s_044.ogg",100
Sample,61622,0,"s_064.ogg",100
Sample,61622,0,"s_051.ogg",100
Sample,61636,0,"s_043.ogg",100
Sample,61636,0,"s_063.ogg",100
Sample,61636,0,"s_050.ogg",100
Sample,61636,0,"s_056.ogg",100
Sample,61650,0,"s_042.ogg",100
Sample,61650,0,"s_049.ogg",100
Sample,61650,0,"s_055.ogg",100
Sample,61650,0,"s_062.ogg",100
Sample,61663,0,"s_054.ogg",100
Sample,61663,0,"s_041.ogg",100
Sample,61663,0,"s_048.ogg",100
Sample,61663,0,"s_061.ogg",100
Sample,61676,0,"s_040.ogg",100
Sample,61676,0,"s_060.ogg",100
Sample,61676,0,"s_047.ogg",100
Sample,61676,0,"s_053.ogg",100
Sample,61690,0,"s_052.ogg",100
Sample,61690,0,"s_039.ogg",100
Sample,61690,0,"s_059.ogg",100
Sample,61690,0,"s_046.ogg",100
Sample,61704,0,"s_038.ogg",100
Sample,61704,0,"s_058.ogg",100
Sample,61704,0,"s_045.ogg",100
Sample,61704,0,"s_051.ogg",100
Sample,61718,0,"s_050.ogg",100
Sample,61718,0,"s_037.ogg",100
Sample,61718,0,"s_057.ogg",100
Sample,61718,0,"s_044.ogg",100
Sample,61731,0,"s_036.ogg",100
Sample,61731,0,"s_043.ogg",100
Sample,61731,0,"s_049.ogg",100
Sample,61731,0,"s_056.ogg",100
Sample,61745,0,"s_042.ogg",100
Sample,61745,0,"s_035.ogg",100
Sample,61745,0,"s_048.ogg",100
Sample,61745,0,"s_055.ogg",100
Sample,61758,0,"s_034.ogg",100
Sample,61758,0,"s_041.ogg",100
Sample,61758,0,"s_054.ogg",100
Sample,61758,0,"s_047.ogg",100
Sample,61772,0,"s_033.ogg",100
Sample,61772,0,"s_040.ogg",100
Sample,61772,0,"s_046.ogg",100
Sample,61772,0,"s_053.ogg",100
Sample,61786,0,"s_045.ogg",100
Sample,61786,0,"s_032.ogg",100
Sample,61786,0,"s_039.ogg",100
Sample,61786,0,"s_052.ogg",100
Sample,61800,0,"s_031.ogg",100
Sample,61800,0,"s_051.ogg",100
Sample,61800,0,"s_038.ogg",100
Sample,61800,0,"s_044.ogg",100
Sample,61813,0,"s_043.ogg",100
Sample,61813,0,"s_030.ogg",100
Sample,61813,0,"s_050.ogg",100
Sample,61813,0,"s_037.ogg",100
Sample,61826,0,"s_029.ogg",100
Sample,61826,0,"s_049.ogg",100
Sample,61826,0,"s_036.ogg",100
Sample,61826,0,"s_042.ogg",100
Sample,61840,0,"s_041.ogg",100
Sample,61840,0,"s_028.ogg",100
Sample,61840,0,"s_048.ogg",100
Sample,61840,0,"s_035.ogg",100
Sample,61854,0,"s_027.ogg",100
Sample,61854,0,"s_034.ogg",100
Sample,61854,0,"s_040.ogg",100
Sample,61854,0,"s_047.ogg",100
Sample,61868,0,"s_033.ogg",100
Sample,61868,0,"s_026.ogg",100
Sample,61868,0,"s_039.ogg",100
Sample,61868,0,"s_046.ogg",100
Sample,61881,0,"s_025.ogg",100
Sample,61881,0,"s_032.ogg",100
Sample,61881,0,"s_045.ogg",100
Sample,61881,0,"s_038.ogg",100
Sample,61895,0,"s_024.ogg",100
Sample,61895,0,"s_031.ogg",100
Sample,61895,0,"s_037.ogg",100
Sample,61895,0,"s_044.ogg",100
Sample,61908,0,"s_036.ogg",100
Sample,61908,0,"s_023.ogg",100
Sample,61908,0,"s_030.ogg",100
Sample,61908,0,"s_043.ogg",100
Sample,61922,0,"s_022.ogg",100
Sample,61922,0,"s_042.ogg",100
Sample,61922,0,"s_029.ogg",100
Sample,61922,0,"s_035.ogg",100
Sample,61936,0,"s_034.ogg",100
Sample,61936,0,"s_021.ogg",100
Sample,61936,0,"s_041.ogg",100
Sample,61936,0,"s_028.ogg",100
Sample,61950,0,"s_020.ogg",100
Sample,61950,0,"s_040.ogg",100
Sample,61950,0,"s_027.ogg",100
Sample,61950,0,"s_033.ogg",100
Sample,61963,0,"s_032.ogg",100
Sample,61963,0,"s_019.ogg",100
Sample,61963,0,"s_039.ogg",100
Sample,61963,0,"s_026.ogg",100
Sample,61976,0,"s_018.ogg",100
Sample,61976,0,"s_025.ogg",100
Sample,61976,0,"s_031.ogg",100
Sample,61976,0,"s_038.ogg",100
Sample,61990,0,"s_024.ogg",100
Sample,61990,0,"s_017.ogg",100
Sample,61990,0,"s_030.ogg",100
Sample,61990,0,"s_037.ogg",100
Sample,62004,0,"s_016.ogg",100
Sample,62004,0,"s_023.ogg",100
Sample,62004,0,"s_036.ogg",100
Sample,62004,0,"s_029.ogg",100
Sample,62018,0,"s_035.ogg",100
Sample,62018,0,"s_015.ogg",100
Sample,62018,0,"s_028.ogg",100
Sample,62018,0,"s_022.ogg",100
Sample,62031,0,"s_014.ogg",100
Sample,62031,0,"s_021.ogg",100
Sample,62031,0,"s_034.ogg",100
Sample,62031,0,"s_027.ogg",100
Sample,62045,0,"s_026.ogg",100
Sample,62045,0,"s_013.ogg",100
Sample,62045,0,"s_020.ogg",100
Sample,62045,0,"s_033.ogg",100
Sample,62058,0,"s_012.ogg",100
Sample,62058,0,"s_032.ogg",100
Sample,62058,0,"s_019.ogg",100
Sample,62058,0,"s_025.ogg",100
Sample,62072,0,"s_018.ogg",100
Sample,62072,0,"s_011.ogg",100
Sample,62072,0,"s_024.ogg",100
Sample,62072,0,"s_031.ogg",100
Sample,62086,0,"s_010.ogg",100
Sample,62086,0,"s_030.ogg",100
Sample,62086,0,"s_017.ogg",100
Sample,62086,0,"s_023.ogg",100
Sample,62100,0,"m_015.ogg",100
Sample,62100,0,"m_027.ogg",100
Sample,62250,0,"s_077.ogg",100
Sample,62250,0,"s_065.ogg",100
Sample,62280,0,"s_028.ogg",100
Sample,62280,0,"s_004.ogg",100
Sample,62280,0,"s_016.ogg",100
Sample,62300,0,"s_055.ogg",100
Sample,62300,0,"s_067.ogg",100
Sample,62310,0,"s_017.ogg",100
Sample,62310,0,"s_005.ogg",100
Sample,62310,0,"s_029.ogg",100
Sample,62340,0,"s_006.ogg",100
Sample,62340,0,"s_018.ogg",100
Sample,62340,0,"s_030.ogg",100
Sample,62350,0,"s_053.ogg",100
Sample,62350,0,"s_077.ogg",100
Sample,62370,0,"s_031.ogg",100
Sample,62370,0,"s_019.ogg",100
Sample,62370,0,"s_007.ogg",100
Sample,62400,0,"s_020.ogg",100
Sample,62400,0,"s_008.ogg",100
Sample,62400,0,"s_075.ogg",100
Sample,62400,0,"s_063.ogg",100
Sample,62400,0,"s_051.ogg",100
Sample,62400,0,"s_036.ogg",100
Sample,62400,0,"s_032.ogg",100
Sample,62475,0,"s_041.ogg",100
Sample,62475,0,"s_031.ogg",100
Sample,62475,0,"s_039.ogg",100
Sample,62550,0,"s_063.ogg",100
Sample,62550,0,"s_072.ogg",100
Sample,62550,0,"s_060.ogg",100
Sample,62550,0,"s_048.ogg",100
Sample,62550,0,"s_056.ogg",100
Sample,62550,0,"s_032.ogg",100
Sample,62625,0,"s_051.ogg",100
Sample,62625,0,"s_035.ogg",100
Sample,62700,0,"s_044.ogg",100
Sample,62700,0,"s_068.ogg",100
Sample,62700,0,"s_056.ogg",100
Sample,62700,0,"s_027.ogg",100
Sample,62700,0,"s_015.ogg",100
Sample,62700,0,"s_036.ogg",100
Sample,62775,0,"s_041.ogg",100
Sample,62775,0,"s_039.ogg",100
Sample,62775,0,"s_037.ogg",100
Sample,62850,0,"s_041.ogg",100
Sample,62850,0,"s_063.ogg",100
Sample,62850,0,"s_053.ogg",100
Sample,62850,0,"s_056.ogg",100
Sample,62850,0,"s_065.ogg",100
Sample,62850,0,"s_038.ogg",100
Sample,62925,0,"s_051.ogg",100
Sample,62925,0,"s_039.ogg",100
Sample,63000,0,"s_008.ogg",100
Sample,63000,0,"s_051.ogg",100
Sample,63000,0,"s_036.ogg",100
Sample,63000,0,"s_063.ogg",100
Sample,63000,0,"s_020.ogg",100
Sample,63000,0,"s_032.ogg",100
Sample,63000,0,"s_039.ogg",100
Sample,63075,0,"s_048.ogg",100
Sample,63075,0,"s_039.ogg",100
Sample,63075,0,"s_041.ogg",100
Sample,63150,0,"s_063.ogg",100
Sample,63150,0,"s_056.ogg",100
Sample,63150,0,"s_068.ogg",100
Sample,63150,0,"s_039.ogg",100
Sample,63150,0,"s_044.ogg",100
Sample,63225,0,"s_051.ogg",100
Sample,63225,0,"s_036.ogg",100
Sample,63300,0,"s_035.ogg",100
Sample,63300,0,"s_003.ogg",100
Sample,63300,0,"s_027.ogg",100
Sample,63300,0,"s_015.ogg",100
Sample,63300,0,"m_041.ogg",100
Sample,63300,0,"m_065.ogg",100
Sample,63300,0,"m_053.ogg",100
Sample,63375,0,"s_037.ogg",100
Sample,63375,0,"s_046.ogg",100
Sample,63450,0,"s_063.ogg",100
Sample,63450,0,"s_035.ogg",100
Sample,63450,0,"s_056.ogg",100
Sample,63525,0,"s_051.ogg",100
Sample,63525,0,"s_033.ogg",100
Sample,63600,0,"s_008.ogg",100
Sample,63600,0,"s_063.ogg",100
Sample,63600,0,"s_051.ogg",100
Sample,63600,0,"s_039.ogg",100
Sample,63600,0,"s_032.ogg",100
Sample,63600,0,"s_036.ogg",100
Sample,63600,0,"s_020.ogg",100
Sample,63675,0,"s_046.ogg",100
Sample,63675,0,"s_041.ogg",100
Sample,63675,0,"s_037.ogg",100
Sample,63750,0,"s_059.ogg",100
Sample,63750,0,"s_039.ogg",100
Sample,63750,0,"s_047.ogg",100
Sample,63750,0,"s_071.ogg",100
Sample,63750,0,"s_056.ogg",100
Sample,63825,0,"s_051.ogg",100
Sample,63825,0,"s_040.ogg",100
Sample,63900,0,"s_038.ogg",100
Sample,63900,0,"s_036.ogg",100
Sample,63900,0,"s_014.ogg",100
Sample,63900,0,"m_065.ogg",100
Sample,63900,0,"s_026.ogg",100
Sample,63900,0,"m_053.ogg",100
Sample,63975,0,"s_039.ogg",100
Sample,63975,0,"s_046.ogg",100
Sample,63975,0,"s_042.ogg",100
Sample,64050,0,"s_056.ogg",100
Sample,64050,0,"s_063.ogg",100
Sample,64050,0,"s_043.ogg",100
Sample,64125,0,"s_044.ogg",100
Sample,64125,0,"s_048.ogg",100
Sample,64200,0,"s_020.ogg",100
Sample,64200,0,"s_032.ogg",100
Sample,64200,0,"s_037.ogg",100
Sample,64200,0,"s_008.ogg",100
Sample,64200,0,"s_036.ogg",100
Sample,64200,0,"s_049.ogg",100
Sample,64200,0,"s_061.ogg",100
Sample,64200,0,"s_048.ogg",100
Sample,64275,0,"s_062.ogg",100
Sample,64275,0,"s_050.ogg",100
Sample,64275,0,"s_046.ogg",100
Sample,64275,0,"s_038.ogg",100
Sample,64275,0,"s_053.ogg",100
Sample,64275,0,"s_041.ogg",100
Sample,64350,0,"s_039.ogg",100
Sample,64350,0,"s_051.ogg",100
Sample,64350,0,"s_063.ogg",100
Sample,64350,0,"s_056.ogg",100
Sample,64425,0,"s_048.ogg",100
Sample,64425,0,"s_051.ogg",100
Sample,64425,0,"s_036.ogg",100
Sample,64425,0,"s_060.ogg",100
Sample,64500,0,"s_032.ogg",100
Sample,64500,0,"s_063.ogg",100
Sample,64500,0,"s_044.ogg",100
Sample,64500,0,"s_020.ogg",100
Sample,64500,0,"s_039.ogg",100
Sample,64500,0,"s_051.ogg",100
Sample,64500,0,"s_036.ogg",100
Sample,64575,0,"s_043.ogg",100
Sample,64575,0,"s_039.ogg",100
Sample,64575,0,"s_041.ogg",100
Sample,64575,0,"s_046.ogg",100
Sample,64650,0,"s_058.ogg",100
Sample,64650,0,"s_070.ogg",100
Sample,64650,0,"s_046.ogg",100
Sample,64650,0,"s_042.ogg",100
Sample,64650,0,"s_056.ogg",100
Sample,64650,0,"s_063.ogg",100
Sample,64700,0,"s_048.ogg",100
Sample,64700,0,"s_072.ogg",100
Sample,64700,0,"s_060.ogg",100
Sample,64725,0,"s_043.ogg",100
Sample,64725,0,"s_051.ogg",100
Sample,64750,0,"s_058.ogg",100
Sample,64750,0,"s_046.ogg",100
Sample,64750,0,"s_070.ogg",100
Sample,64800,0,"m_025.ogg",100
Sample,64800,0,"s_044.ogg",100
Sample,64800,0,"m_037.ogg",100
Sample,64800,0,"m_013.ogg",100
Sample,64800,0,"s_056.ogg",100
Sample,64800,0,"s_041.ogg",100
Sample,64825,0,"s_026.ogg",100
Sample,64850,0,"s_043.ogg",100
Sample,64875,0,"s_047.ogg",100
Sample,64875,0,"s_028.ogg",100
Sample,64875,0,"s_041.ogg",100
Sample,64875,0,"s_048.ogg",100
Sample,64900,0,"s_029.ogg",100
Sample,64925,0,"s_030.ogg",100
Sample,64950,0,"s_065.ogg",100
Sample,64950,0,"s_048.ogg",100
Sample,64950,0,"s_041.ogg",100
Sample,64950,0,"s_031.ogg",100
Sample,64950,0,"s_053.ogg",100
Sample,64950,0,"s_058.ogg",100
Sample,64950,0,"s_051.ogg",100
Sample,64975,0,"s_032.ogg",100
Sample,65000,0,"s_033.ogg",100
Sample,65025,0,"s_034.ogg",100
Sample,65025,0,"s_053.ogg",100
Sample,65025,0,"s_049.ogg",100
Sample,65050,0,"s_051.ogg",100
Sample,65075,0,"s_052.ogg",100
Sample,65100,0,"s_056.ogg",100
Sample,65100,0,"s_053.ogg",100
Sample,65100,0,"s_037.ogg",100
Sample,65100,0,"s_068.ogg",100
Sample,65125,0,"s_054.ogg",100
Sample,65150,0,"s_055.ogg",100
Sample,65175,0,"s_048.ogg",100
Sample,65175,0,"s_044.ogg",100
Sample,65175,0,"s_040.ogg",100
Sample,65175,0,"s_054.ogg",100
Sample,65175,0,"s_056.ogg",100
Sample,65200,0,"s_041.ogg",100
Sample,65225,0,"s_058.ogg",100
Sample,65250,0,"s_036.ogg",100
Sample,65250,0,"s_043.ogg",100
Sample,65250,0,"s_012.ogg",100
Sample,65250,0,"s_049.ogg",100
Sample,65250,0,"s_073.ogg",100
Sample,65250,0,"s_061.ogg",100
Sample,65250,0,"s_024.ogg",100
Sample,65250,0,"s_065.ogg",100
Sample,65250,0,"s_051.ogg",100
Sample,65250,0,"s_058.ogg",100
Sample,65250,0,"s_055.ogg",100
Sample,65275,0,"s_044.ogg",100
Sample,65300,0,"s_045.ogg",100
Sample,65325,0,"s_046.ogg",100
Sample,65325,0,"s_056.ogg",100
Sample,65325,0,"s_053.ogg",100
Sample,65350,0,"s_047.ogg",100
Sample,65375,0,"s_064.ogg",100
Sample,65400,0,"m_022.ogg",100
Sample,65400,0,"s_037.ogg",100
Sample,65400,0,"s_056.ogg",100
Sample,65400,0,"m_010.ogg",100
Sample,65400,0,"s_049.ogg",100
Sample,65400,0,"s_068.ogg",100
Sample,65400,0,"s_044.ogg",100
Sample,65400,0,"s_061.ogg",100
Sample,65400,0,"m_034.ogg",100
Sample,65425,0,"s_066.ogg",100
Sample,65450,0,"s_051.ogg",100
Sample,65475,0,"s_052.ogg",100
Sample,65475,0,"s_058.ogg",100
Sample,65475,0,"s_044.ogg",100
Sample,65475,0,"s_048.ogg",100
Sample,65475,0,"s_041.ogg",100
Sample,65500,0,"s_053.ogg",100
Sample,65525,0,"s_070.ogg",100
Sample,65550,0,"s_053.ogg",100
Sample,65550,0,"s_065.ogg",100
Sample,65550,0,"s_051.ogg",100
Sample,65550,0,"s_077.ogg",100
Sample,65550,0,"s_058.ogg",100
Sample,65550,0,"s_055.ogg",100
Sample,65575,0,"s_056.ogg",100
Sample,65600,0,"s_057.ogg",100
Sample,65625,0,"s_058.ogg",100
Sample,65625,0,"s_055.ogg",100
Sample,65625,0,"s_053.ogg",100
Sample,65650,0,"s_059.ogg",100
Sample,65675,0,"s_060.ogg",100
Sample,65700,0,"s_056.ogg",100
Sample,65700,0,"s_044.ogg",100
Sample,65700,0,"s_037.ogg",100
Sample,65700,0,"s_068.ogg",100
Sample,65700,0,"s_061.ogg",100
Sample,65737,0,"s_062.ogg",100
Sample,65775,0,"s_061.ogg",100
Sample,65775,0,"s_044.ogg",100
Sample,65775,0,"s_041.ogg",100
Sample,65775,0,"s_048.ogg",100
Sample,65775,0,"s_063.ogg",100
Sample,65812,0,"s_080.ogg",100
Sample,65850,0,"s_081.ogg",100
Sample,65850,0,"s_065.ogg",100
Sample,65850,0,"s_058.ogg",100
Sample,65850,0,"s_051.ogg",100
Sample,65850,0,"s_057.ogg",100
Sample,65925,0,"s_068.ogg",100
Sample,65925,0,"s_053.ogg",100
Sample,66000,0,"s_059.ogg",100
Sample,66000,0,"s_003.ogg",100
Sample,66000,0,"s_049.ogg",100
Sample,66000,0,"s_027.ogg",100
Sample,66000,0,"s_067.ogg",100
Sample,66000,0,"s_064.ogg",100
Sample,66000,0,"s_052.ogg",100
Sample,66000,0,"s_055.ogg",100
Sample,66000,0,"s_071.ogg",100
Sample,66000,0,"s_061.ogg",100
Sample,66075,0,"s_048.ogg",100
Sample,66075,0,"s_028.ogg",100
Sample,66075,0,"s_060.ogg",100
Sample,66075,0,"s_054.ogg",100
Sample,66075,0,"s_051.ogg",100
Sample,66075,0,"s_066.ogg",100
Sample,66075,0,"s_063.ogg",100
Sample,66075,0,"s_004.ogg",100
Sample,66075,0,"s_070.ogg",100
Sample,66075,0,"s_058.ogg",100
Sample,66150,0,"s_062.ogg",100
Sample,66150,0,"s_065.ogg",100
Sample,66150,0,"s_047.ogg",100
Sample,66150,0,"s_050.ogg",100
Sample,66150,0,"s_057.ogg",100
Sample,66150,0,"s_069.ogg",100
Sample,66150,0,"s_005.ogg",100
Sample,66150,0,"s_029.ogg",100
Sample,66150,0,"s_059.ogg",100
Sample,66225,0,"s_071.ogg",100
Sample,66225,0,"s_003.ogg",100
Sample,66225,0,"s_052.ogg",100
Sample,66225,0,"s_015.ogg",100
Sample,66225,0,"s_067.ogg",100
Sample,66225,0,"s_059.ogg",100
Sample,66225,0,"s_027.ogg",100
Sample,66225,0,"s_064.ogg",100
Sample,66225,0,"s_061.ogg",100
Sample,66225,0,"s_049.ogg",100
Sample,66300,0,"s_028.ogg",100
Sample,66300,0,"s_004.ogg",100
Sample,66300,0,"s_063.ogg",100
Sample,66300,0,"s_070.ogg",100
Sample,66300,0,"s_060.ogg",100
Sample,66300,0,"s_058.ogg",100
Sample,66300,0,"s_051.ogg",100
Sample,66300,0,"s_054.ogg",100
Sample,66300,0,"s_066.ogg",100
Sample,66300,0,"s_048.ogg",100
Sample,66375,0,"s_053.ogg",100
Sample,66375,0,"s_062.ogg",100
Sample,66375,0,"s_057.ogg",100
Sample,66375,0,"s_005.ogg",100
Sample,66375,0,"s_059.ogg",100
Sample,66375,0,"s_050.ogg",100
Sample,66375,0,"s_065.ogg",100
Sample,66375,0,"s_069.ogg",100
Sample,66375,0,"s_047.ogg",100
Sample,66450,0,"s_064.ogg",100
Sample,66450,0,"s_052.ogg",100
Sample,66450,0,"s_067.ogg",100
Sample,66450,0,"s_003.ogg",100
Sample,66450,0,"s_049.ogg",100
Sample,66450,0,"s_071.ogg",100
Sample,66450,0,"s_061.ogg",100
Sample,66450,0,"s_055.ogg",100
Sample,66450,0,"s_059.ogg",100
Sample,66450,0,"s_027.ogg",100
Sample,66525,0,"s_004.ogg",100
Sample,66525,0,"s_070.ogg",100
Sample,66525,0,"s_066.ogg",100
Sample,66525,0,"s_063.ogg",100
Sample,66525,0,"s_058.ogg",100
Sample,66525,0,"s_051.ogg",100
Sample,66525,0,"s_060.ogg",100
Sample,66525,0,"s_054.ogg",100
Sample,66525,0,"s_048.ogg",100
Sample,66525,0,"s_028.ogg",100
Sample,66600,0,"s_062.ogg",100
Sample,66600,0,"s_050.ogg",100
Sample,66600,0,"s_005.ogg",100
Sample,66600,0,"s_047.ogg",100
Sample,66600,0,"s_065.ogg",100
Sample,66600,0,"s_059.ogg",100
Sample,66600,0,"s_057.ogg",100
Sample,66600,0,"s_069.ogg",100
Sample,66600,0,"s_017.ogg",100
Sample,66675,0,"s_052.ogg",100
Sample,66675,0,"s_049.ogg",100
Sample,66675,0,"s_071.ogg",100
Sample,66675,0,"s_059.ogg",100
Sample,66675,0,"s_067.ogg",100
Sample,66675,0,"s_064.ogg",100
Sample,66675,0,"s_027.ogg",100
Sample,66675,0,"s_003.ogg",100
Sample,66675,0,"s_061.ogg",100
Sample,66675,0,"s_015.ogg",100
Sample,66750,0,"s_066.ogg",100
Sample,66750,0,"s_060.ogg",100
Sample,66750,0,"s_058.ogg",100
Sample,66750,0,"s_004.ogg",100
Sample,66750,0,"s_016.ogg",100
Sample,66750,0,"s_051.ogg",100
Sample,66750,0,"s_028.ogg",100
Sample,66750,0,"s_054.ogg",100
Sample,66750,0,"s_070.ogg",100
Sample,66750,0,"s_063.ogg",100
Sample,66825,0,"s_005.ogg",100
Sample,66825,0,"s_059.ogg",100
Sample,66825,0,"s_069.ogg",100
Sample,66825,0,"s_050.ogg",100
Sample,66825,0,"s_062.ogg",100
Sample,66825,0,"s_047.ogg",100
Sample,66825,0,"s_065.ogg",100
Sample,66825,0,"s_057.ogg",100
Sample,66825,0,"s_029.ogg",100
Sample,66900,0,"s_071.ogg",100
Sample,66900,0,"s_049.ogg",100
Sample,66900,0,"s_052.ogg",100
Sample,66900,0,"s_059.ogg",100
Sample,66900,0,"s_061.ogg",100
Sample,66900,0,"s_067.ogg",100
Sample,66900,0,"s_055.ogg",100
Sample,66900,0,"s_003.ogg",100
Sample,66900,0,"s_027.ogg",100
Sample,66900,0,"s_064.ogg",100
Sample,66975,0,"s_066.ogg",100
Sample,66975,0,"s_063.ogg",100
Sample,66975,0,"s_004.ogg",100
Sample,66975,0,"s_051.ogg",100
Sample,66975,0,"s_028.ogg",100
Sample,66975,0,"s_054.ogg",100
Sample,66975,0,"s_070.ogg",100
Sample,66975,0,"s_060.ogg",100
Sample,66975,0,"s_058.ogg",100
Sample,66975,0,"s_048.ogg",100
Sample,67050,0,"s_062.ogg",100
Sample,67050,0,"s_050.ogg",100
Sample,67050,0,"s_065.ogg",100
Sample,67050,0,"s_069.ogg",100
Sample,67050,0,"s_017.ogg",100
Sample,67050,0,"s_059.ogg",100
Sample,67050,0,"s_057.ogg",100
Sample,67050,0,"s_005.ogg",100
Sample,67050,0,"s_047.ogg",100
Sample,67125,0,"s_049.ogg",100
Sample,67125,0,"s_064.ogg",100
Sample,67125,0,"s_071.ogg",100
Sample,67125,0,"s_059.ogg",100
Sample,67125,0,"s_061.ogg",100
Sample,67125,0,"s_003.ogg",100
Sample,67125,0,"s_031.ogg",100
Sample,67125,0,"s_067.ogg",100
Sample,67125,0,"s_027.ogg",100
Sample,67125,0,"s_052.ogg",100
Sample,67200,0,"s_058.ogg",100
Sample,67200,0,"s_060.ogg",100
Sample,67200,0,"s_028.ogg",100
Sample,67200,0,"s_004.ogg",100
Sample,67200,0,"s_051.ogg",100
Sample,67200,0,"s_070.ogg",100
Sample,67200,0,"s_066.ogg",100
Sample,67200,0,"s_054.ogg",100
Sample,67200,0,"s_063.ogg",100
Sample,67200,0,"s_016.ogg",100
Sample,67275,0,"s_065.ogg",100
Sample,67275,0,"s_005.ogg",100
Sample,67275,0,"s_059.ogg",100
Sample,67275,0,"s_062.ogg",100
Sample,67275,0,"s_069.ogg",100
Sample,67275,0,"s_047.ogg",100
Sample,67275,0,"s_050.ogg",100
Sample,67275,0,"s_057.ogg",100
Sample,67275,0,"s_037.ogg",100
Sample,67350,0,"s_056.ogg",100
Sample,67350,0,"s_049.ogg",100
Sample,67350,0,"s_046.ogg",100
Sample,67350,0,"s_006.ogg",100
Sample,67350,0,"s_030.ogg",100
Sample,67350,0,"s_058.ogg",100
Sample,67350,0,"s_031.ogg",100
Sample,67350,0,"s_064.ogg",100
Sample,67350,0,"s_061.ogg",100
Sample,67350,0,"s_068.ogg",100
Sample,67425,0,"s_048.ogg",100
Sample,67425,0,"s_007.ogg",100
Sample,67425,0,"s_060.ogg",100
Sample,67425,0,"s_063.ogg",100
Sample,67425,0,"s_051.ogg",100
Sample,67425,0,"s_031.ogg",100
Sample,67425,0,"s_055.ogg",100
Sample,67425,0,"s_067.ogg",100
Sample,67425,0,"s_057.ogg",100
Sample,67425,0,"s_043.ogg",100
Sample,67500,0,"s_044.ogg",100
Sample,67500,0,"s_047.ogg",100
Sample,67500,0,"s_056.ogg",100
Sample,67500,0,"s_032.ogg",100
Sample,67500,0,"s_008.ogg",100
Sample,67500,0,"s_062.ogg",100
Sample,67500,0,"s_020.ogg",100
Sample,67500,0,"s_066.ogg",100
Sample,67500,0,"s_054.ogg",100
Sample,67500,0,"s_059.ogg",100
Sample,67575,0,"s_009.ogg",100
Sample,67575,0,"s_053.ogg",100
Sample,67575,0,"s_058.ogg",100
Sample,67575,0,"s_033.ogg",100
Sample,67575,0,"s_043.ogg",100
Sample,67575,0,"s_061.ogg",100
Sample,67575,0,"s_046.ogg",100
Sample,67575,0,"s_065.ogg",100
Sample,67575,0,"s_055.ogg",100
Sample,67575,0,"s_031.ogg",100
Sample,67650,0,"s_054.ogg",100
Sample,67650,0,"s_052.ogg",100
Sample,67650,0,"s_057.ogg",100
Sample,67650,0,"s_064.ogg",100
Sample,67650,0,"s_034.ogg",100
Sample,67650,0,"s_010.ogg",100
Sample,67650,0,"s_060.ogg",100
Sample,67650,0,"s_048.ogg",100
Sample,67650,0,"s_045.ogg",100
Sample,67725,0,"s_059.ogg",100
Sample,67725,0,"s_053.ogg",100
Sample,67725,0,"s_011.ogg",100
Sample,67725,0,"s_041.ogg",100
Sample,67725,0,"s_063.ogg",100
Sample,67725,0,"s_035.ogg",100
Sample,67725,0,"s_046.ogg",100
Sample,67725,0,"s_051.ogg",100
Sample,67725,0,"s_044.ogg",100
Sample,67725,0,"s_056.ogg",100
Sample,67800,0,"s_050.ogg",100
Sample,67800,0,"s_012.ogg",100
Sample,67800,0,"s_036.ogg",100
Sample,67800,0,"s_043.ogg",100
Sample,67800,0,"s_062.ogg",100
Sample,67800,0,"s_040.ogg",100
Sample,67800,0,"s_052.ogg",100
Sample,67800,0,"s_058.ogg",100
Sample,67800,0,"s_055.ogg",100
Sample,67800,0,"s_041.ogg",100
Sample,67875,0,"s_054.ogg",100
Sample,67875,0,"s_037.ogg",100
Sample,67875,0,"s_042.ogg",100
Sample,67875,0,"s_049.ogg",100
Sample,67875,0,"s_013.ogg",100
Sample,67875,0,"s_051.ogg",100
Sample,67875,0,"s_034.ogg",100
Sample,67875,0,"s_061.ogg",100
Sample,67875,0,"s_045.ogg",100
Sample,67875,0,"s_057.ogg",100
Sample,67950,0,"s_048.ogg",100
Sample,67950,0,"s_053.ogg",100
Sample,67950,0,"s_037.ogg",100
Sample,67950,0,"s_041.ogg",100
Sample,67950,0,"s_056.ogg",100
Sample,67950,0,"s_014.ogg",100
Sample,67950,0,"s_050.ogg",100
Sample,67950,0,"s_038.ogg",100
Sample,67950,0,"s_060.ogg",100
Sample,68025,0,"s_043.ogg",100
Sample,68025,0,"s_055.ogg",100
Sample,68025,0,"s_015.ogg",100
Sample,68025,0,"s_027.ogg",100
Sample,68025,0,"s_049.ogg",100
Sample,68025,0,"s_039.ogg",100
Sample,68025,0,"s_052.ogg",100
Sample,68025,0,"s_047.ogg",100
Sample,68175,0,"s_065.ogg",100
Sample,68175,0,"s_053.ogg",100
Sample,68225,0,"s_055.ogg",100
Sample,68225,0,"s_067.ogg",100
Sample,68275,0,"s_065.ogg",100
Sample,68275,0,"s_053.ogg",100
Sample,68325,0,"s_027.ogg",100
Sample,68325,0,"s_051.ogg",100
Sample,68325,0,"s_063.ogg",100
Sample,68325,0,"s_008.ogg",100
Sample,68325,0,"s_032.ogg",100
Sample,68325,0,"s_075.ogg",100
Sample,68325,0,"s_036.ogg",100
Sample,68347,0,"s_037.ogg",100
Sample,68370,0,"s_038.ogg",100
Sample,68393,0,"s_030.ogg",100
Sample,68400,0,"s_039.ogg",100
Sample,68400,0,"s_041.ogg",100
Sample,68400,0,"s_031.ogg",100
Sample,68416,0,"s_031.ogg",100
Sample,68440,0,"s_041.ogg",100
Sample,68463,0,"s_042.ogg",100
Sample,68475,0,"s_063.ogg",100
Sample,68475,0,"s_056.ogg",100
Sample,68475,0,"s_032.ogg",100
Sample,68475,0,"s_048.ogg",100
Sample,68475,0,"s_060.ogg",100
Sample,68475,0,"s_072.ogg",100
Sample,68486,0,"s_043.ogg",100
Sample,68509,0,"s_044.ogg",100
Sample,68532,0,"s_045.ogg",100
Sample,68550,0,"s_051.ogg",100
Sample,68550,0,"s_035.ogg",100
Sample,68555,0,"s_046.ogg",100
Sample,68578,0,"s_047.ogg",100
Sample,68601,0,"s_039.ogg",100
Sample,68625,0,"s_003.ogg",100
Sample,68625,0,"s_027.ogg",100
Sample,68625,0,"s_015.ogg",100
Sample,68625,0,"s_068.ogg",100
Sample,68625,0,"s_056.ogg",100
Sample,68625,0,"s_044.ogg",100
Sample,68625,0,"s_036.ogg",100
Sample,68647,0,"s_067.ogg",100
Sample,68670,0,"s_066.ogg",100
Sample,68693,0,"s_065.ogg",100
Sample,68700,0,"s_037.ogg",100
Sample,68700,0,"s_041.ogg",100
Sample,68700,0,"s_039.ogg",100
Sample,68716,0,"s_064.ogg",100
Sample,68740,0,"s_054.ogg",100
Sample,68763,0,"s_062.ogg",100
Sample,68775,0,"s_065.ogg",100
Sample,68775,0,"s_063.ogg",100
Sample,68775,0,"s_053.ogg",100
Sample,68775,0,"s_056.ogg",100
Sample,68775,0,"s_041.ogg",100
Sample,68775,0,"s_038.ogg",100
Sample,68786,0,"s_061.ogg",100
Sample,68809,0,"s_060.ogg",100
Sample,68832,0,"s_059.ogg",100
Sample,68850,0,"s_051.ogg",100
Sample,68850,0,"s_041.ogg",100
Sample,68855,0,"s_058.ogg",100
Sample,68878,0,"s_057.ogg",100
Sample,68901,0,"s_056.ogg",100
Sample,68925,0,"s_008.ogg",100
Sample,68925,0,"s_071.ogg",100
Sample,68925,0,"s_051.ogg",100
Sample,68925,0,"s_020.ogg",100
Sample,68925,0,"s_039.ogg",100
Sample,68925,0,"s_063.ogg",100
Sample,68925,0,"s_036.ogg",100
Sample,68925,0,"s_032.ogg",100
Sample,68947,0,"s_070.ogg",100
Sample,68970,0,"s_067.ogg",100
Sample,68993,0,"s_066.ogg",100
Sample,69000,0,"s_041.ogg",100
Sample,69000,0,"s_044.ogg",100
Sample,69000,0,"s_039.ogg",100
Sample,69016,0,"s_067.ogg",100
Sample,69040,0,"s_066.ogg",100
Sample,69063,0,"s_065.ogg",100
Sample,69075,0,"s_039.ogg",100
Sample,69075,0,"s_063.ogg",100
Sample,69075,0,"s_068.ogg",100
Sample,69075,0,"s_044.ogg",100
Sample,69075,0,"s_056.ogg",100
Sample,69086,0,"s_062.ogg",100
Sample,69109,0,"s_061.ogg",100
Sample,69132,0,"s_062.ogg",100
Sample,69150,0,"s_051.ogg",100
Sample,69150,0,"s_036.ogg",100
Sample,69155,0,"s_061.ogg",100
Sample,69178,0,"s_060.ogg",100
Sample,69201,0,"s_059.ogg",100
Sample,69225,0,"s_027.ogg",100
Sample,69225,0,"s_003.ogg",100
Sample,69225,0,"m_053.ogg",100
Sample,69225,0,"m_041.ogg",100
Sample,69225,0,"s_015.ogg",100
Sample,69225,0,"s_035.ogg",100
Sample,69225,0,"s_032.ogg",100
Sample,69225,0,"m_065.ogg",100
Sample,69247,0,"s_033.ogg",100
Sample,69270,0,"s_026.ogg",100
Sample,69293,0,"s_027.ogg",100
Sample,69300,0,"s_046.ogg",100
Sample,69300,0,"s_037.ogg",100
Sample,69316,0,"s_036.ogg",100
Sample,69340,0,"s_037.ogg",100
Sample,69363,0,"s_030.ogg",100
Sample,69375,0,"s_063.ogg",100
Sample,69375,0,"s_035.ogg",100
Sample,69375,0,"s_056.ogg",100
Sample,69386,0,"s_039.ogg",100
Sample,69409,0,"s_040.ogg",100
Sample,69432,0,"s_041.ogg",100
Sample,69450,0,"s_033.ogg",100
Sample,69450,0,"s_051.ogg",100
Sample,69455,0,"s_042.ogg",100
Sample,69478,0,"s_043.ogg",100
Sample,69501,0,"s_044.ogg",100
Sample,69501,0,"s_036.ogg",100
Sample,69525,0,"s_063.ogg",100
Sample,69525,0,"s_008.ogg",100
Sample,69525,0,"s_039.ogg",100
Sample,69525,0,"s_066.ogg",100
Sample,69525,0,"s_051.ogg",100
Sample,69525,0,"s_020.ogg",100
Sample,69525,0,"s_036.ogg",100
Sample,69525,0,"s_074.ogg",100
Sample,69525,0,"s_032.ogg",100
Sample,69537,0,"s_073.ogg",100
Sample,69537,0,"s_065.ogg",100
Sample,69550,0,"s_058.ogg",100
Sample,69550,0,"s_064.ogg",100
Sample,69562,0,"s_057.ogg",100
Sample,69562,0,"s_063.ogg",100
Sample,69575,0,"s_070.ogg",100
Sample,69575,0,"s_062.ogg",100
Sample,69587,0,"s_069.ogg",100
Sample,69587,0,"s_061.ogg",100
Sample,69600,0,"s_066.ogg",100
Sample,69600,0,"s_046.ogg",100
Sample,69600,0,"s_042.ogg",100
Sample,69600,0,"s_054.ogg",100
Sample,69600,0,"s_039.ogg",100
Sample,69600,0,"s_060.ogg",100
Sample,69612,0,"s_067.ogg",100
Sample,69612,0,"s_059.ogg",100
Sample,69625,0,"s_066.ogg",100
Sample,69625,0,"s_058.ogg",100
Sample,69637,0,"s_065.ogg",100
Sample,69637,0,"s_057.ogg",100
Sample,69650,0,"s_056.ogg",100
Sample,69650,0,"s_064.ogg",100
Sample,69662,0,"s_063.ogg",100
Sample,69662,0,"s_049.ogg",100
Sample,69675,0,"s_044.ogg",100
Sample,69675,0,"s_062.ogg",100
Sample,69675,0,"s_070.ogg",100
Sample,69675,0,"s_056.ogg",100
Sample,69675,0,"s_046.ogg",100
Sample,69675,0,"s_058.ogg",100
Sample,69675,0,"s_054.ogg",100
Sample,69675,0,"s_063.ogg",100
Sample,69686,0,"s_053.ogg",100
Sample,69686,0,"s_061.ogg",100
Sample,69697,0,"s_046.ogg",100
Sample,69697,0,"s_052.ogg",100
Sample,69709,0,"s_051.ogg",100
Sample,69709,0,"s_059.ogg",100
Sample,69720,0,"s_044.ogg",100
Sample,69720,0,"s_058.ogg",100
Sample,69732,0,"s_057.ogg",100
Sample,69732,0,"s_049.ogg",100
Sample,69743,0,"s_048.ogg",100
Sample,69743,0,"s_056.ogg",100
Sample,69750,0,"s_075.ogg",100
Sample,69750,0,"s_051.ogg",100
Sample,69750,0,"s_045.ogg",100
Sample,69750,0,"s_063.ogg",100
Sample,69755,0,"s_047.ogg",100
Sample,69755,0,"s_055.ogg",100
Sample,69766,0,"s_046.ogg",100
Sample,69766,0,"s_054.ogg",100
Sample,69778,0,"s_053.ogg",100
Sample,69778,0,"s_039.ogg",100
Sample,69790,0,"s_052.ogg",100
Sample,69790,0,"s_044.ogg",100
Sample,69801,0,"s_043.ogg",100
Sample,69801,0,"s_051.ogg",100
Sample,69813,0,"s_050.ogg",100
Sample,69813,0,"s_042.ogg",100
Sample,69825,0,"s_020.ogg",100
Sample,69825,0,"s_030.ogg",100
Sample,69825,0,"s_077.ogg",100
Sample,69825,0,"s_014.ogg",100
Sample,69825,0,"s_026.ogg",100
Sample,69825,0,"s_065.ogg",100
Sample,69825,0,"s_048.ogg",100
Sample,69825,0,"s_036.ogg",100
Sample,69825,0,"s_038.ogg",100
Sample,69825,0,"s_053.ogg",100
Sample,69900,0,"s_042.ogg",100
Sample,69900,0,"s_054.ogg",100
Sample,69900,0,"s_078.ogg",100
Sample,69900,0,"s_039.ogg",100
Sample,69975,0,"s_067.ogg",100
Sample,69975,0,"s_079.ogg",100
Sample,69975,0,"s_042.ogg",100
Sample,69975,0,"s_055.ogg",100
Sample,70050,0,"s_051.ogg",100
Sample,70050,0,"s_084.ogg",100
Sample,70050,0,"s_060.ogg",100
Sample,70125,0,"m_037.ogg",100
Sample,70125,0,"s_082.ogg",100
Sample,70125,0,"s_058.ogg",100
Sample,70200,0,"s_044.ogg",100
Sample,70275,0,"s_029.ogg",100
Sample,70275,0,"s_020.ogg",100
Sample,70275,0,"s_039.ogg",100
Sample,70275,0,"s_080.ogg",100
Sample,70275,0,"s_070.ogg",100
Sample,70275,0,"s_061.ogg",100
Sample,70275,0,"s_013.ogg",100
Sample,70350,0,"s_053.ogg",100
Sample,70425,0,"m_080.ogg",100
Sample,70425,0,"s_001.ogg",100
Sample,70425,0,"s_036.ogg",100
Sample,70425,0,"s_077.ogg",100
Sample,70425,0,"s_084.ogg",100
Sample,70425,0,"s_070.ogg",100
Sample,70500,0,"s_044.ogg",100
Sample,70500,0,"s_041.ogg",100
Sample,70575,0,"s_012.ogg",100
Sample,70575,0,"s_056.ogg",100
Sample,70575,0,"s_024.ogg",100
Sample,70575,0,"s_036.ogg",100
Sample,70575,0,"s_037.ogg",100
Sample,70650,0,"s_053.ogg",100
Sample,70725,0,"s_034.ogg",100
Sample,70725,0,"s_022.ogg",100
Sample,70725,0,"s_058.ogg",100
Sample,70725,0,"s_076.ogg",100
Sample,70800,0,"s_021.ogg",100
Sample,70800,0,"s_073.ogg",100
Sample,70800,0,"s_064.ogg",100
Sample,70875,0,"s_070.ogg",100
Sample,70875,0,"s_022.ogg",100
Sample,70875,0,"s_061.ogg",100
Sample,70950,0,"s_068.ogg",100
Sample,70950,0,"s_058.ogg",100
Sample,70950,0,"s_021.ogg",100
Sample,71025,0,"s_056.ogg",100
Sample,71025,0,"s_046.ogg",100
Sample,71025,0,"s_073.ogg",100
Sample,71100,0,"s_044.ogg",100
Sample,71175,0,"s_068.ogg",100
Sample,71175,0,"s_036.ogg",100
Sample,71175,0,"s_012.ogg",100
Sample,71175,0,"s_058.ogg",100
Sample,71250,0,"s_056.ogg",100
Sample,71250,0,"s_025.ogg",100
Sample,71250,0,"s_013.ogg",100
Sample,71325,0,"s_077.ogg",100
Sample,71325,0,"s_068.ogg",100
Sample,71325,0,"s_060.ogg",100
Sample,71325,0,"s_015.ogg",100
Sample,71325,0,"s_051.ogg",100
Sample,71325,0,"s_039.ogg",100
Sample,71400,0,"s_065.ogg",100
Sample,71400,0,"s_075.ogg",100
Sample,71475,0,"s_044.ogg",100
Sample,71475,0,"s_063.ogg",100
Sample,71550,0,"s_060.ogg",100
Sample,71550,0,"s_041.ogg",100
Sample,71625,0,"s_039.ogg",100
Sample,71625,0,"s_048.ogg",100
Sample,71700,0,"s_075.ogg",100
Sample,71700,0,"s_036.ogg",100
Sample,71775,0,"s_032.ogg",100
Sample,71775,0,"s_072.ogg",100
Sample,71850,0,"s_068.ogg",100
Sample,71850,0,"s_029.ogg",100
Sample,71925,0,"s_046.ogg",100
Sample,71925,0,"s_064.ogg",100
Sample,71925,0,"s_022.ogg",100
Sample,72000,0,"s_021.ogg",100
Sample,72000,0,"s_052.ogg",100
Sample,72075,0,"s_049.ogg",100
Sample,72075,0,"s_022.ogg",100
Sample,72150,0,"s_021.ogg",100
Sample,72150,0,"s_046.ogg",100
Sample,72225,0,"s_034.ogg",100
Sample,72225,0,"s_044.ogg",100
Sample,72300,0,"s_032.ogg",100
Sample,72375,0,"s_046.ogg",100
Sample,72375,0,"s_056.ogg",100
Sample,72375,0,"s_012.ogg",100
Sample,72450,0,"s_049.ogg",100
Sample,72450,0,"s_013.ogg",100
Sample,72525,0,"s_003.ogg",100
Sample,72525,0,"s_048.ogg",100
Sample,72525,0,"s_065.ogg",100
Sample,72525,0,"s_039.ogg",100
Sample,72525,0,"s_056.ogg",100
Sample,72600,0,"s_063.ogg",100
Sample,72600,0,"s_053.ogg",100
Sample,72675,0,"s_032.ogg",100
Sample,72675,0,"s_060.ogg",100
Sample,72750,0,"s_056.ogg",100
Sample,72750,0,"s_029.ogg",100
Sample,72825,0,"s_027.ogg",100
Sample,72825,0,"s_044.ogg",100
Sample,72900,0,"s_041.ogg",100
Sample,72900,0,"s_024.ogg",100
Sample,72975,0,"s_020.ogg",100
Sample,72975,0,"s_039.ogg",100
Sample,73050,0,"s_036.ogg",100
Sample,73050,0,"s_017.ogg",100
Sample,73125,0,"s_020.ogg",100
Sample,73125,0,"s_046.ogg",100
Sample,73200,0,"s_032.ogg",100
Sample,73275,0,"s_025.ogg",100
Sample,73350,0,"s_028.ogg",100
Sample,73425,0,"s_032.ogg",100
Sample,73425,0,"s_040.ogg",100
Sample,73500,0,"s_034.ogg",100
Sample,73575,0,"s_056.ogg",100
Sample,73575,0,"s_046.ogg",100
Sample,73575,0,"s_012.ogg",100
Sample,73650,0,"s_058.ogg",100
Sample,73650,0,"s_013.ogg",100
Sample,73650,0,"s_049.ogg",100
Sample,73725,0,"s_027.ogg",100
Sample,73725,0,"s_056.ogg",100
Sample,73725,0,"s_063.ogg",100
Sample,73725,0,"l_015.ogg",100
Sample,73725,0,"s_048.ogg",100
Sample,73800,0,"s_077.ogg",100
Sample,73800,0,"s_051.ogg",100
Sample,73875,0,"s_020.ogg",100
Sample,73875,0,"s_075.ogg",100
Sample,73875,0,"s_056.ogg",100
Sample,73950,0,"s_072.ogg",100
Sample,73950,0,"s_053.ogg",100
Sample,73950,0,"s_024.ogg",100
Sample,74025,0,"s_027.ogg",100
Sample,74025,0,"s_068.ogg",100
Sample,74025,0,"s_051.ogg",100
Sample,74100,0,"s_048.ogg",100
Sample,74100,0,"s_056.ogg",100
Sample,74175,0,"s_032.ogg",100
Sample,74175,0,"s_072.ogg",100
Sample,74175,0,"s_053.ogg",100
Sample,74250,0,"s_068.ogg",100
Sample,74250,0,"s_041.ogg",100
Sample,74325,0,"s_039.ogg",100
Sample,74325,0,"s_056.ogg",100
Sample,74325,0,"s_063.ogg",100
Sample,74400,0,"s_044.ogg",100
Sample,74400,0,"s_072.ogg",100
Sample,74475,0,"s_068.ogg",100
Sample,74475,0,"s_041.ogg",100
Sample,74550,0,"s_039.ogg",100
Sample,74550,0,"s_056.ogg",100
Sample,74625,0,"s_044.ogg",100
Sample,74625,0,"s_063.ogg",100
Sample,74625,0,"s_034.ogg",100
Sample,74700,0,"s_068.ogg",100
Sample,74700,0,"s_041.ogg",100
Sample,74775,0,"s_048.ogg",100
Sample,74775,0,"s_065.ogg",100
Sample,74775,0,"s_032.ogg",100
Sample,74850,0,"s_036.ogg",100
Sample,74850,0,"s_063.ogg",100
Sample,74925,0,"s_024.ogg",100
Sample,74925,0,"s_041.ogg",100
Sample,75000,0,"s_044.ogg",100
Sample,75000,0,"s_025.ogg",100
Sample,75075,0,"s_048.ogg",100
Sample,75075,0,"s_026.ogg",100
Sample,75150,0,"s_051.ogg",100
Sample,75150,0,"s_029.ogg",100
Sample,75225,0,"s_053.ogg",100
Sample,75225,0,"s_027.ogg",100
Sample,75300,0,"s_028.ogg",100
Sample,75300,0,"s_056.ogg",100
Sample,75375,0,"s_029.ogg",100
Sample,75450,0,"s_032.ogg",100
Sample,75450,0,"s_053.ogg",100
Sample,75525,0,"s_029.ogg",100
Sample,75600,0,"s_051.ogg",100
Sample,75600,0,"s_031.ogg",100
Sample,75675,0,"s_032.ogg",100
Sample,75750,0,"s_036.ogg",100
Sample,75750,0,"s_048.ogg",100
Sample,75825,0,"s_031.ogg",100
Sample,75900,0,"s_044.ogg",100
Sample,75900,0,"s_032.ogg",100
Sample,76050,0,"s_039.ogg",100
Sample,76125,0,"s_003.ogg",100
Sample,76162,0,"s_015.ogg",100
Sample,76200,0,"s_003.ogg",100
Sample,76225,0,"s_056.ogg",100
Sample,76237,0,"s_015.ogg",100
Sample,76275,0,"s_003.ogg",100
Sample,76275,0,"s_058.ogg",100
Sample,76312,0,"s_015.ogg",100
Sample,76325,0,"s_034.ogg",100
Sample,76325,0,"s_056.ogg",100
Sample,76325,0,"s_046.ogg",100
Sample,76350,0,"s_003.ogg",100
Sample,76375,0,"s_048.ogg",100
Sample,76375,0,"s_062.ogg",100
Sample,76375,0,"s_044.ogg",100
Sample,76387,0,"s_015.ogg",100
Sample,76425,0,"s_065.ogg",100
Sample,76425,0,"s_046.ogg",100
Sample,76425,0,"s_060.ogg",100
Sample,76425,0,"s_003.ogg",100
Sample,76425,0,"s_056.ogg",100
Sample,76462,0,"s_015.ogg",100
Sample,76475,0,"s_044.ogg",100
Sample,76475,0,"s_038.ogg",100
Sample,76475,0,"s_058.ogg",100
Sample,76475,0,"s_068.ogg",100
Sample,76500,0,"s_003.ogg",100
Sample,76525,0,"s_046.ogg",100
Sample,76525,0,"s_050.ogg",100
Sample,76525,0,"s_065.ogg",100
Sample,76525,0,"s_060.ogg",100
Sample,76525,0,"s_041.ogg",100
Sample,76537,0,"s_015.ogg",100
Sample,76575,0,"s_044.ogg",100
Sample,76575,0,"s_053.ogg",100
Sample,76575,0,"s_072.ogg",100
Sample,76575,0,"s_003.ogg",100
Sample,76575,0,"s_062.ogg",100
Sample,76575,0,"s_048.ogg",100
Sample,76612,0,"s_015.ogg",100
Sample,76625,0,"s_046.ogg",100
Sample,76625,0,"s_050.ogg",100
Sample,76625,0,"s_034.ogg",100
Sample,76625,0,"s_074.ogg",100
Sample,76625,0,"s_065.ogg",100
Sample,76650,0,"s_003.ogg",100
Sample,76675,0,"s_053.ogg",100
Sample,76675,0,"s_044.ogg",100
Sample,76675,0,"s_048.ogg",100
Sample,76675,0,"s_077.ogg",100
Sample,76675,0,"s_068.ogg",100
Sample,76687,0,"s_015.ogg",100
Sample,76725,0,"s_015.ogg",100
Sample,76725,0,"s_077.ogg",100
Sample,76725,0,"s_041.ogg",100
Sample,76725,0,"s_067.ogg",100
Sample,76725,0,"s_073.ogg",100
Sample,76725,0,"s_037.ogg",100
Sample,76725,0,"s_049.ogg",100
Sample,76725,0,"s_055.ogg",100
Sample,76725,0,"s_043.ogg",100
Sample,76725,0,"s_048.ogg",100
Sample,76725,0,"s_084.ogg",100
Sample,82725,0,"s_032.ogg",100
Sample,82875,0,"s_044.ogg",100
Sample,83025,0,"s_036.ogg",100
Sample,83325,0,"s_037.ogg",100
Sample,83550,0,"s_038.ogg",100
Sample,83700,0,"s_039.ogg",100
Sample,83775,0,"s_041.ogg",100
Sample,83925,0,"s_032.ogg",100
Sample,84075,0,"s_044.ogg",100
Sample,84225,0,"s_036.ogg",100
Sample,84525,0,"s_037.ogg",100
Sample,84750,0,"s_038.ogg",100
Sample,84900,0,"s_039.ogg",100
Sample,84975,0,"s_041.ogg",100
Sample,85125,0,"s_032.ogg",100
Sample,85275,0,"s_039.ogg",100
Sample,85425,0,"s_036.ogg",100
Sample,85725,0,"s_037.ogg",100
Sample,85950,0,"s_038.ogg",100
Sample,86100,0,"s_039.ogg",100
Sample,86175,0,"s_041.ogg",100
Sample,86325,0,"s_032.ogg",100
Sample,86475,0,"s_008.ogg",100
Sample,86475,0,"s_041.ogg",100
Sample,86625,0,"s_041.ogg",100
Sample,86775,0,"s_039.ogg",100
Sample,86925,0,"s_013.ogg",100
Sample,87075,0,"s_041.ogg",100
Sample,87075,0,"s_034.ogg",100
Sample,87150,0,"s_014.ogg",100
Sample,87300,0,"s_039.ogg",100
Sample,87375,0,"s_037.ogg",100
Sample,87375,0,"s_027.ogg",100
Sample,87375,0,"s_041.ogg",100
Sample,87525,0,"s_032.ogg",100
Sample,87675,0,"s_008.ogg",100
Sample,87675,0,"s_041.ogg",100
Sample,87825,0,"s_041.ogg",100
Sample,87975,0,"s_039.ogg",100
Sample,88125,0,"s_013.ogg",100
Sample,88275,0,"s_041.ogg",100
Sample,88275,0,"s_034.ogg",100
Sample,88350,0,"s_014.ogg",100
Sample,88500,0,"s_039.ogg",100
Sample,88575,0,"s_027.ogg",100
Sample,88575,0,"s_041.ogg",100
Sample,88575,0,"s_037.ogg",100
Sample,88725,0,"s_032.ogg",100
Sample,88875,0,"s_008.ogg",100
Sample,88875,0,"s_041.ogg",100
Sample,89025,0,"s_041.ogg",100
Sample,89175,0,"s_039.ogg",100
Sample,89325,0,"s_013.ogg",100
Sample,89475,0,"s_034.ogg",100
Sample,89475,0,"s_041.ogg",100
Sample,89550,0,"s_014.ogg",100
Sample,89700,0,"s_039.ogg",100
Sample,89775,0,"s_041.ogg",100
Sample,89775,0,"s_037.ogg",100
Sample,89775,0,"s_027.ogg",100
Sample,89925,0,"s_008.ogg",100
Sample,89925,0,"s_040.ogg",100
Sample,90000,0,"s_020.ogg",100
Sample,90075,0,"s_036.ogg",100
Sample,90075,0,"s_044.ogg",100
Sample,90150,0,"s_040.ogg",100
Sample,90225,0,"s_049.ogg",100
Sample,90225,0,"s_041.ogg",100
Sample,90300,0,"s_040.ogg",100
Sample,90375,0,"s_039.ogg",100
Sample,90375,0,"s_041.ogg",100
Sample,90450,0,"s_042.ogg",100
Sample,90525,0,"s_041.ogg",100
Sample,90525,0,"s_066.ogg",100
Sample,90600,0,"s_042.ogg",100
Sample,90675,0,"s_043.ogg",100
Sample,90675,0,"s_041.ogg",100
Sample,90675,0,"s_034.ogg",100
Sample,90750,0,"s_042.ogg",100
Sample,90750,0,"s_055.ogg",100
Sample,90825,0,"s_043.ogg",100
Sample,90900,0,"s_044.ogg",100
Sample,90900,0,"s_049.ogg",100
Sample,90975,0,"s_045.ogg",100
Sample,90975,0,"s_041.ogg",100
Sample,90975,0,"s_052.ogg",100
Sample,90975,0,"s_037.ogg",100
Sample,91050,0,"s_015.ogg",100
Sample,91125,0,"s_040.ogg",100
Sample,91125,0,"s_008.ogg",100
Sample,91200,0,"s_020.ogg",100
Sample,91275,0,"s_008.ogg",100
Sample,91275,0,"s_044.ogg",100
Sample,91350,0,"s_040.ogg",100
Sample,91425,0,"s_049.ogg",100
Sample,91425,0,"s_041.ogg",100
Sample,91500,0,"s_040.ogg",100
Sample,91575,0,"s_039.ogg",100
Sample,91575,0,"s_057.ogg",100
Sample,91650,0,"s_042.ogg",100
Sample,91725,0,"s_041.ogg",100
Sample,91725,0,"s_066.ogg",100
Sample,91800,0,"s_042.ogg",100
Sample,91875,0,"s_034.ogg",100
Sample,91875,0,"s_041.ogg",100
Sample,91875,0,"s_043.ogg",100
Sample,91950,0,"s_042.ogg",100
Sample,91950,0,"s_055.ogg",100
Sample,92025,0,"s_043.ogg",100
Sample,92100,0,"s_044.ogg",100
Sample,92100,0,"s_049.ogg",100
Sample,92175,0,"s_041.ogg",100
Sample,92175,0,"s_037.ogg",100
Sample,92175,0,"s_052.ogg",100
Sample,92175,0,"s_045.ogg",100
Sample,92250,0,"s_015.ogg",100
Sample,92325,0,"s_040.ogg",100
Sample,92325,0,"s_008.ogg",100
Sample,92400,0,"s_020.ogg",100
Sample,92475,0,"s_008.ogg",100
Sample,92475,0,"s_036.ogg",100
Sample,92550,0,"s_040.ogg",100
Sample,92625,0,"s_049.ogg",100
Sample,92625,0,"s_041.ogg",100
Sample,92700,0,"s_040.ogg",100
Sample,92775,0,"s_041.ogg",100
Sample,92775,0,"s_057.ogg",100
Sample,92850,0,"s_042.ogg",100
Sample,92925,0,"s_041.ogg",100
Sample,92925,0,"s_066.ogg",100
Sample,93000,0,"s_042.ogg",100
Sample,93075,0,"s_043.ogg",100
Sample,93075,0,"s_034.ogg",100
Sample,93075,0,"s_057.ogg",100
Sample,93150,0,"s_042.ogg",100
Sample,93150,0,"s_055.ogg",100
Sample,93225,0,"s_043.ogg",100
Sample,93300,0,"s_044.ogg",100
Sample,93300,0,"s_049.ogg",100
Sample,93375,0,"s_037.ogg",100
Sample,93375,0,"s_052.ogg",100
Sample,93375,0,"s_045.ogg",100
Sample,93375,0,"s_044.ogg",100
Sample,93450,0,"s_015.ogg",100
Sample,93525,0,"s_039.ogg",100
Sample,93525,0,"s_040.ogg",100
Sample,93525,0,"s_032.ogg",100
Sample,93600,0,"s_043.ogg",100
Sample,93675,0,"s_041.ogg",100
Sample,93750,0,"s_020.ogg",100
Sample,93750,0,"s_048.ogg",100
Sample,93825,0,"s_036.ogg",100
Sample,93825,0,"s_049.ogg",100
Sample,93900,0,"s_055.ogg",100
Sample,93900,0,"s_024.ogg",100
Sample,93975,0,"s_057.ogg",100
Sample,93975,0,"s_012.ogg",100
Sample,94050,0,"s_024.ogg",100
Sample,94125,0,"s_041.ogg",100
Sample,94125,0,"s_056.ogg",100
Sample,94125,0,"s_013.ogg",100
Sample,94200,0,"s_061.ogg",100
Sample,94200,0,"s_025.ogg",100
Sample,94275,0,"s_057.ogg",100
Sample,94275,0,"s_043.ogg",100
Sample,94275,0,"s_013.ogg",100
Sample,94350,0,"s_051.ogg",100
Sample,94350,0,"s_014.ogg",100
Sample,94350,0,"s_042.ogg",100
Sample,94425,0,"s_026.ogg",100
Sample,94500,0,"s_049.ogg",100
Sample,94500,0,"s_048.ogg",100
Sample,94500,0,"s_044.ogg",100
Sample,94575,0,"s_041.ogg",100
Sample,94575,0,"s_027.ogg",100
Sample,94575,0,"s_045.ogg",100
Sample,94650,0,"s_043.ogg",100
Sample,94725,0,"s_032.ogg",100
Sample,94725,0,"s_040.ogg",100
Sample,94725,0,"s_039.ogg",100
Sample,94800,0,"s_043.ogg",100
Sample,94875,0,"s_041.ogg",100
Sample,94950,0,"s_048.ogg",100
Sample,94950,0,"s_020.ogg",100
Sample,95025,0,"s_036.ogg",100
Sample,95025,0,"s_012.ogg",100
Sample,95100,0,"s_024.ogg",100
Sample,95100,0,"s_051.ogg",100
Sample,95175,0,"s_057.ogg",100
Sample,95175,0,"s_012.ogg",100
Sample,95250,0,"s_024.ogg",100
Sample,95325,0,"s_013.ogg",100
Sample,95325,0,"s_041.ogg",100
Sample,95325,0,"s_056.ogg",100
Sample,95400,0,"s_061.ogg",100
Sample,95400,0,"s_025.ogg",100
Sample,95475,0,"s_057.ogg",100
Sample,95475,0,"s_043.ogg",100
Sample,95475,0,"s_013.ogg",100
Sample,95550,0,"s_042.ogg",100
Sample,95550,0,"s_051.ogg",100
Sample,95550,0,"s_014.ogg",100
Sample,95625,0,"s_026.ogg",100
Sample,95700,0,"s_049.ogg",100
Sample,95700,0,"s_015.ogg",100
Sample,95700,0,"s_044.ogg",100
Sample,95775,0,"s_027.ogg",100
Sample,95775,0,"s_045.ogg",100
Sample,95775,0,"s_041.ogg",100
Sample,95850,0,"s_043.ogg",100
Sample,95925,0,"s_032.ogg",100
Sample,95925,0,"s_040.ogg",100
Sample,95925,0,"s_039.ogg",100
Sample,96000,0,"s_043.ogg",100
Sample,96075,0,"s_041.ogg",100
Sample,96150,0,"s_048.ogg",100
Sample,96150,0,"s_020.ogg",100
Sample,96225,0,"s_036.ogg",100
Sample,96225,0,"s_012.ogg",100
Sample,96300,0,"s_024.ogg",100
Sample,96300,0,"s_055.ogg",100
Sample,96375,0,"s_057.ogg",100
Sample,96375,0,"s_012.ogg",100
Sample,96450,0,"s_024.ogg",100
Sample,96525,0,"s_041.ogg",100
Sample,96525,0,"s_013.ogg",100
Sample,96525,0,"s_056.ogg",100
Sample,96600,0,"s_025.ogg",100
Sample,96600,0,"s_061.ogg",100
Sample,96675,0,"s_057.ogg",100
Sample,96675,0,"s_043.ogg",100
Sample,96675,0,"s_013.ogg",100
Sample,96750,0,"s_014.ogg",100
Sample,96750,0,"s_051.ogg",100
Sample,96750,0,"s_042.ogg",100
Sample,96825,0,"s_026.ogg",100
Sample,96900,0,"s_044.ogg",100
Sample,96900,0,"s_048.ogg",100
Sample,96900,0,"s_049.ogg",100
Sample,96975,0,"s_045.ogg",100
Sample,96975,0,"s_041.ogg",100
Sample,96975,0,"s_027.ogg",100
Sample,97050,0,"s_043.ogg",100
Sample,97125,0,"s_040.ogg",100
Sample,97125,0,"s_008.ogg",100
Sample,97125,0,"s_039.ogg",100
Sample,97125,0,"s_056.ogg",100
Sample,97200,0,"s_020.ogg",100
Sample,97275,0,"s_044.ogg",100
Sample,97275,0,"s_041.ogg",100
Sample,97275,0,"s_036.ogg",100
Sample,97275,0,"s_008.ogg",100
Sample,97350,0,"s_040.ogg",100
Sample,97350,0,"s_020.ogg",100
Sample,97350,0,"s_048.ogg",100
Sample,97425,0,"s_012.ogg",100
Sample,97425,0,"s_054.ogg",100
Sample,97425,0,"s_036.ogg",100
Sample,97500,0,"s_051.ogg",100
Sample,97500,0,"s_040.ogg",100
Sample,97500,0,"s_024.ogg",100
Sample,97575,0,"s_055.ogg",100
Sample,97575,0,"s_041.ogg",100
Sample,97575,0,"s_012.ogg",100
Sample,97575,0,"s_039.ogg",100
Sample,97575,0,"s_050.ogg",100
Sample,97650,0,"s_042.ogg",100
Sample,97650,0,"s_024.ogg",100
Sample,97725,0,"s_053.ogg",100
Sample,97725,0,"s_013.ogg",100
Sample,97725,0,"s_066.ogg",100
Sample,97725,0,"s_037.ogg",100
Sample,97800,0,"s_042.ogg",100
Sample,97800,0,"s_061.ogg",100
Sample,97800,0,"s_025.ogg",100
Sample,97875,0,"s_044.ogg",100
Sample,97875,0,"s_013.ogg",100
Sample,97875,0,"s_059.ogg",100
Sample,97875,0,"s_057.ogg",100
Sample,97875,0,"s_052.ogg",100
Sample,97950,0,"s_038.ogg",100
Sample,97950,0,"s_014.ogg",100
Sample,97950,0,"s_042.ogg",100
Sample,97950,0,"s_055.ogg",100
Sample,98025,0,"s_026.ogg",100
Sample,98025,0,"s_054.ogg",100
Sample,98100,0,"s_039.ogg",100
Sample,98100,0,"s_015.ogg",100
Sample,98100,0,"s_048.ogg",100
Sample,98100,0,"s_049.ogg",100
Sample,98175,0,"s_027.ogg",100
Sample,98175,0,"s_045.ogg",100
Sample,98175,0,"s_037.ogg",100
Sample,98175,0,"s_052.ogg",100
Sample,98175,0,"s_044.ogg",100
Sample,98250,0,"s_043.ogg",100
Sample,98325,0,"s_008.ogg",100
Sample,98325,0,"s_040.ogg",100
Sample,98325,0,"s_056.ogg",100
Sample,98325,0,"s_039.ogg",100
Sample,98400,0,"s_020.ogg",100
Sample,98475,0,"s_036.ogg",100
Sample,98475,0,"s_041.ogg",100
Sample,98475,0,"s_039.ogg",100
Sample,98475,0,"s_008.ogg",100
Sample,98550,0,"s_048.ogg",100
Sample,98550,0,"s_040.ogg",100
Sample,98550,0,"s_020.ogg",100
Sample,98625,0,"s_041.ogg",100
Sample,98625,0,"s_036.ogg",100
Sample,98625,0,"s_012.ogg",100
Sample,98700,0,"s_051.ogg",100
Sample,98700,0,"s_024.ogg",100
Sample,98700,0,"s_040.ogg",100
Sample,98775,0,"s_041.ogg",100
Sample,98775,0,"s_050.ogg",100
Sample,98775,0,"s_039.ogg",100
Sample,98775,0,"s_012.ogg",100
Sample,98775,0,"s_055.ogg",100
Sample,98850,0,"s_024.ogg",100
Sample,98850,0,"s_061.ogg",100
Sample,98925,0,"s_053.ogg",100
Sample,98925,0,"s_013.ogg",100
Sample,98925,0,"s_066.ogg",100
Sample,98925,0,"s_037.ogg",100
Sample,99000,0,"s_025.ogg",100
Sample,99000,0,"s_061.ogg",100
Sample,99000,0,"s_042.ogg",100
Sample,99075,0,"s_041.ogg",100
Sample,99075,0,"s_052.ogg",100
Sample,99075,0,"s_013.ogg",100
Sample,99075,0,"s_057.ogg",100
Sample,99075,0,"s_059.ogg",100
Sample,99150,0,"s_014.ogg",100
Sample,99150,0,"s_055.ogg",100
Sample,99150,0,"s_038.ogg",100
Sample,99150,0,"s_042.ogg",100
Sample,99225,0,"s_026.ogg",100
Sample,99225,0,"s_043.ogg",100
Sample,99300,0,"s_049.ogg",100
Sample,99300,0,"s_048.ogg",100
Sample,99300,0,"s_015.ogg",100
Sample,99300,0,"s_039.ogg",100
Sample,99375,0,"s_044.ogg",100
Sample,99375,0,"s_037.ogg",100
Sample,99375,0,"s_027.ogg",100
Sample,99375,0,"s_052.ogg",100
Sample,99375,0,"s_045.ogg",100
Sample,99450,0,"s_043.ogg",100
Sample,99525,0,"s_056.ogg",100
Sample,99525,0,"s_039.ogg",100
Sample,99525,0,"s_040.ogg",100
Sample,99525,0,"s_008.ogg",100
Sample,99600,0,"s_020.ogg",100
Sample,99675,0,"s_008.ogg",100
Sample,99675,0,"s_044.ogg",100
Sample,99675,0,"s_041.ogg",100
Sample,99675,0,"s_036.ogg",100
Sample,99750,0,"s_020.ogg",100
Sample,99750,0,"s_048.ogg",100
Sample,99750,0,"s_040.ogg",100
Sample,99825,0,"s_012.ogg",100
Sample,99825,0,"s_054.ogg",100
Sample,99825,0,"s_036.ogg",100
Sample,99900,0,"s_040.ogg",100
Sample,99900,0,"s_024.ogg",100
Sample,99900,0,"s_051.ogg",100
Sample,99975,0,"s_012.ogg",100
Sample,99975,0,"s_041.ogg",100
Sample,99975,0,"s_039.ogg",100
Sample,99975,0,"s_050.ogg",100
Sample,99975,0,"s_055.ogg",100
Sample,100050,0,"s_042.ogg",100
Sample,100050,0,"s_024.ogg",100
Sample,100125,0,"s_053.ogg",100
Sample,100125,0,"s_066.ogg",100
Sample,100125,0,"s_013.ogg",100
Sample,100125,0,"s_037.ogg",100
Sample,100200,0,"s_042.ogg",100
Sample,100200,0,"s_061.ogg",100
Sample,100200,0,"s_025.ogg",100
Sample,100275,0,"s_044.ogg",100
Sample,100275,0,"s_052.ogg",100
Sample,100275,0,"s_057.ogg",100
Sample,100275,0,"s_059.ogg",100
Sample,100275,0,"s_013.ogg",100
Sample,100350,0,"s_042.ogg",100
Sample,100350,0,"s_038.ogg",100
Sample,100350,0,"s_055.ogg",100
Sample,100350,0,"s_014.ogg",100
Sample,100425,0,"s_054.ogg",100
Sample,100425,0,"s_026.ogg",100
Sample,100500,0,"s_015.ogg",100
Sample,100500,0,"s_039.ogg",100
Sample,100500,0,"s_048.ogg",100
Sample,100500,0,"s_049.ogg",100
Sample,100575,0,"s_045.ogg",100
Sample,100575,0,"s_044.ogg",100
Sample,100575,0,"s_059.ogg",100
Sample,100575,0,"s_037.ogg",100
Sample,100575,0,"s_027.ogg",100
Sample,100650,0,"s_015.ogg",100
Sample,100725,0,"s_053.ogg",100
Sample,100725,0,"s_032.ogg",100
Sample,100725,0,"s_040.ogg",100
Sample,100725,0,"s_039.ogg",100
Sample,100785,0,"s_041.ogg",100
Sample,100800,0,"s_020.ogg",100
Sample,100800,0,"s_043.ogg",100
Sample,100875,0,"s_044.ogg",100
Sample,100875,0,"s_008.ogg",100
Sample,100875,0,"s_052.ogg",100
Sample,100875,0,"s_050.ogg",100
Sample,100875,0,"s_036.ogg",100
Sample,100875,0,"s_055.ogg",100
Sample,100905,0,"s_047.ogg",100
Sample,100950,0,"s_020.ogg",100
Sample,100950,0,"s_048.ogg",100
Sample,100950,0,"s_040.ogg",100
Sample,100950,0,"s_045.ogg",100
Sample,100965,0,"s_048.ogg",100
Sample,101025,0,"s_041.ogg",100
Sample,101025,0,"s_054.ogg",100
Sample,101025,0,"s_049.ogg",100
Sample,101025,0,"s_012.ogg",100
Sample,101085,0,"s_042.ogg",100
Sample,101100,0,"s_051.ogg",100
Sample,101100,0,"s_024.ogg",100
Sample,101100,0,"s_040.ogg",100
Sample,101100,0,"s_055.ogg",100
Sample,101145,0,"s_043.ogg",100
Sample,101175,0,"s_057.ogg",100
Sample,101175,0,"s_012.ogg",100
Sample,101175,0,"s_053.ogg",100
Sample,101175,0,"s_055.ogg",100
Sample,101175,0,"s_044.ogg",100
Sample,101175,0,"s_052.ogg",100
Sample,101175,0,"s_041.ogg",100
Sample,101205,0,"s_044.ogg",100
Sample,101250,0,"s_061.ogg",100
Sample,101250,0,"s_042.ogg",100
Sample,101250,0,"s_024.ogg",100
Sample,101265,0,"s_045.ogg",100
Sample,101325,0,"s_013.ogg",100
Sample,101325,0,"s_048.ogg",100
Sample,101325,0,"s_041.ogg",100
Sample,101325,0,"s_066.ogg",100
Sample,101325,0,"s_056.ogg",100
Sample,101325,0,"s_053.ogg",100
Sample,101385,0,"s_045.ogg",100
Sample,101400,0,"s_061.ogg",100
Sample,101400,0,"s_053.ogg",100
Sample,101400,0,"s_042.ogg",100
Sample,101400,0,"s_025.ogg",100
Sample,101445,0,"s_048.ogg",100
Sample,101475,0,"s_044.ogg",100
Sample,101475,0,"s_013.ogg",100
Sample,101475,0,"s_057.ogg",100
Sample,101475,0,"s_043.ogg",100
Sample,101475,0,"s_055.ogg",100
Sample,101475,0,"s_059.ogg",100
Sample,101475,0,"s_041.ogg",100
Sample,101505,0,"s_047.ogg",100
Sample,101550,0,"s_038.ogg",100
Sample,101550,0,"s_042.ogg",100
Sample,101550,0,"s_014.ogg",100
Sample,101550,0,"s_055.ogg",100
Sample,101550,0,"s_051.ogg",100
Sample,101565,0,"s_042.ogg",100
Sample,101625,0,"s_043.ogg",100
Sample,101625,0,"s_058.ogg",100
Sample,101625,0,"s_026.ogg",100
Sample,101625,0,"s_041.ogg",100
Sample,101685,0,"s_048.ogg",100
Sample,101700,0,"s_049.ogg",100
Sample,101700,0,"s_048.ogg",100
Sample,101700,0,"s_044.ogg",100
Sample,101700,0,"s_015.ogg",100
Sample,101700,0,"s_039.ogg",100
Sample,101745,0,"s_043.ogg",100
Sample,101775,0,"s_027.ogg",100
Sample,101775,0,"s_052.ogg",100
Sample,101775,0,"s_044.ogg",100
Sample,101775,0,"s_045.ogg",100
Sample,101775,0,"s_034.ogg",100
Sample,101775,0,"s_055.ogg",100
Sample,101775,0,"s_041.ogg",100
Sample,101805,0,"s_046.ogg",100
Sample,101850,0,"s_015.ogg",100
Sample,101850,0,"s_043.ogg",100
Sample,101865,0,"s_041.ogg",100
Sample,101925,0,"s_053.ogg",100
Sample,101925,0,"s_040.ogg",100
Sample,101925,0,"s_032.ogg",100
Sample,101925,0,"s_039.ogg",100
Sample,101985,0,"s_041.ogg",100
Sample,102000,0,"s_020.ogg",100
Sample,102000,0,"s_043.ogg",100
Sample,102075,0,"s_008.ogg",100
Sample,102075,0,"s_044.ogg",100
Sample,102075,0,"s_052.ogg",100
Sample,102075,0,"s_036.ogg",100
Sample,102075,0,"s_050.ogg",100
Sample,102075,0,"s_055.ogg",100
Sample,102105,0,"s_047.ogg",100
Sample,102150,0,"s_045.ogg",100
Sample,102150,0,"s_040.ogg",100
Sample,102150,0,"s_048.ogg",100
Sample,102150,0,"s_020.ogg",100
Sample,102165,0,"s_048.ogg",100
Sample,102225,0,"s_012.ogg",100
Sample,102225,0,"s_049.ogg",100
Sample,102225,0,"s_054.ogg",100
Sample,102225,0,"s_041.ogg",100
Sample,102285,0,"s_042.ogg",100
Sample,102300,0,"s_055.ogg",100
Sample,102300,0,"s_040.ogg",100
Sample,102300,0,"s_024.ogg",100
Sample,102300,0,"s_051.ogg",100
Sample,102345,0,"s_043.ogg",100
Sample,102375,0,"s_044.ogg",100
Sample,102375,0,"s_053.ogg",100
Sample,102375,0,"s_041.ogg",100
Sample,102375,0,"s_012.ogg",100
Sample,102375,0,"s_055.ogg",100
Sample,102375,0,"s_057.ogg",100
Sample,102375,0,"s_052.ogg",100
Sample,102405,0,"s_044.ogg",100
Sample,102450,0,"s_042.ogg",100
Sample,102450,0,"s_024.ogg",100
Sample,102450,0,"s_061.ogg",100
Sample,102465,0,"s_045.ogg",100
Sample,102525,0,"s_048.ogg",100
Sample,102525,0,"s_013.ogg",100
Sample,102525,0,"s_041.ogg",100
Sample,102525,0,"s_056.ogg",100
Sample,102525,0,"s_066.ogg",100
Sample,102525,0,"s_053.ogg",100
Sample,102585,0,"s_045.ogg",100
Sample,102600,0,"s_025.ogg",100
Sample,102600,0,"s_042.ogg",100
Sample,102600,0,"s_053.ogg",100
Sample,102600,0,"s_061.ogg",100
Sample,102645,0,"s_048.ogg",100
Sample,102675,0,"s_055.ogg",100
Sample,102675,0,"s_057.ogg",100
Sample,102675,0,"s_041.ogg",100
Sample,102675,0,"s_013.ogg",100
Sample,102675,0,"s_043.ogg",100
Sample,102675,0,"s_044.ogg",100
Sample,102675,0,"s_059.ogg",100
Sample,102705,0,"s_047.ogg",100
Sample,102750,0,"s_042.ogg",100
Sample,102750,0,"s_038.ogg",100
Sample,102750,0,"s_014.ogg",100
Sample,102750,0,"s_051.ogg",100
Sample,102750,0,"s_055.ogg",100
Sample,102765,0,"s_042.ogg",100
Sample,102825,0,"s_041.ogg",100
Sample,102825,0,"s_026.ogg",100
Sample,102825,0,"s_058.ogg",100
Sample,102825,0,"s_043.ogg",100
Sample,102885,0,"s_048.ogg",100
Sample,102900,0,"s_048.ogg",100
Sample,102900,0,"s_049.ogg",100
Sample,102900,0,"s_044.ogg",100
Sample,102900,0,"s_039.ogg",100
Sample,102900,0,"s_015.ogg",100
Sample,102945,0,"s_043.ogg",100
Sample,102975,0,"s_055.ogg",100
Sample,102975,0,"s_045.ogg",100
Sample,102975,0,"s_052.ogg",100
Sample,102975,0,"s_034.ogg",100
Sample,102975,0,"s_027.ogg",100
Sample,102975,0,"s_041.ogg",100
Sample,102975,0,"s_044.ogg",100
Sample,103005,0,"s_046.ogg",100
Sample,103050,0,"s_015.ogg",100
Sample,103050,0,"s_043.ogg",100
Sample,103065,0,"s_041.ogg",100
Sample,103125,0,"s_039.ogg",100
Sample,103125,0,"s_032.ogg",100
Sample,103125,0,"s_040.ogg",100
Sample,103125,0,"s_053.ogg",100
Sample,103185,0,"s_041.ogg",100
Sample,103200,0,"s_020.ogg",100
Sample,103200,0,"s_043.ogg",100
Sample,103275,0,"s_044.ogg",100
Sample,103275,0,"s_008.ogg",100
Sample,103275,0,"s_052.ogg",100
Sample,103275,0,"s_050.ogg",100
Sample,103275,0,"s_036.ogg",100
Sample,103275,0,"s_055.ogg",100
Sample,103305,0,"s_047.ogg",100
Sample,103350,0,"s_020.ogg",100
Sample,103350,0,"s_048.ogg",100
Sample,103350,0,"s_040.ogg",100
Sample,103350,0,"s_045.ogg",100
Sample,103365,0,"s_048.ogg",100
Sample,103425,0,"s_041.ogg",100
Sample,103425,0,"s_054.ogg",100
Sample,103425,0,"s_049.ogg",100
Sample,103425,0,"s_012.ogg",100
Sample,103485,0,"s_042.ogg",100
Sample,103500,0,"s_051.ogg",100
Sample,103500,0,"s_024.ogg",100
Sample,103500,0,"s_040.ogg",100
Sample,103500,0,"s_055.ogg",100
Sample,103545,0,"s_043.ogg",100
Sample,103575,0,"s_057.ogg",100
Sample,103575,0,"s_012.ogg",100
Sample,103575,0,"s_053.ogg",100
Sample,103575,0,"s_055.ogg",100
Sample,103575,0,"s_044.ogg",100
Sample,103575,0,"s_052.ogg",100
Sample,103575,0,"s_041.ogg",100
Sample,103605,0,"s_044.ogg",100
Sample,103650,0,"s_061.ogg",100
Sample,103650,0,"s_042.ogg",100
Sample,103650,0,"s_024.ogg",100
Sample,103665,0,"s_045.ogg",100
Sample,103725,0,"s_013.ogg",100
Sample,103725,0,"s_048.ogg",100
Sample,103725,0,"s_041.ogg",100
Sample,103725,0,"s_066.ogg",100
Sample,103725,0,"s_056.ogg",100
Sample,103725,0,"s_053.ogg",100
Sample,103785,0,"s_045.ogg",100
Sample,103800,0,"s_061.ogg",100
Sample,103800,0,"s_053.ogg",100
Sample,103800,0,"s_042.ogg",100
Sample,103800,0,"s_025.ogg",100
Sample,103845,0,"s_048.ogg",100
Sample,103875,0,"s_044.ogg",100
Sample,103875,0,"s_013.ogg",100
Sample,103875,0,"s_057.ogg",100
Sample,103875,0,"s_043.ogg",100
Sample,103875,0,"s_055.ogg",100
Sample,103875,0,"s_059.ogg",100
Sample,103875,0,"s_041.ogg",100
Sample,103905,0,"s_047.ogg",100
Sample,103950,0,"s_038.ogg",100
Sample,103950,0,"s_042.ogg",100
Sample,103950,0,"s_014.ogg",100
Sample,103950,0,"s_055.ogg",100
Sample,103950,0,"s_051.ogg",100
Sample,103965,0,"s_042.ogg",100
Sample,104025,0,"s_043.ogg",100
Sample,104025,0,"s_058.ogg",100
Sample,104025,0,"s_026.ogg",100
Sample,104025,0,"s_041.ogg",100
Sample,104085,0,"s_048.ogg",100
Sample,104100,0,"s_049.ogg",100
Sample,104100,0,"s_048.ogg",100
Sample,104100,0,"s_044.ogg",100
Sample,104100,0,"s_015.ogg",100
Sample,104100,0,"s_039.ogg",100
Sample,104145,0,"s_043.ogg",100
Sample,104175,0,"s_027.ogg",100
Sample,104175,0,"s_052.ogg",100
Sample,104175,0,"s_044.ogg",100
Sample,104175,0,"s_045.ogg",100
Sample,104175,0,"s_034.ogg",100
Sample,104175,0,"s_055.ogg",100
Sample,104175,0,"s_041.ogg",100
Sample,104205,0,"s_046.ogg",100
Sample,104250,0,"s_015.ogg",100
Sample,104250,0,"s_043.ogg",100
Sample,104265,0,"s_041.ogg",100
Sample,104325,0,"s_032.ogg",100
Sample,104325,0,"s_039.ogg",100
Sample,104325,0,"s_040.ogg",100
Sample,104325,0,"s_008.ogg",100
Sample,104325,0,"s_053.ogg",100
Sample,104325,0,"s_051.ogg",100
Sample,104385,0,"s_041.ogg",100
Sample,104400,0,"s_060.ogg",100
Sample,104400,0,"s_043.ogg",100
Sample,104475,0,"s_036.ogg",100
Sample,104475,0,"s_059.ogg",100
Sample,104475,0,"s_055.ogg",100
Sample,104475,0,"s_071.ogg",100
Sample,104475,0,"s_008.ogg",100
Sample,104475,0,"s_041.ogg",100
Sample,104475,0,"s_052.ogg",100
Sample,104475,0,"s_044.ogg",100
Sample,104505,0,"s_047.ogg",100
Sample,104550,0,"s_020.ogg",100
Sample,104550,0,"s_061.ogg",100
Sample,104550,0,"s_048.ogg",100
Sample,104550,0,"s_040.ogg",100
Sample,104565,0,"s_048.ogg",100
Sample,104625,0,"s_041.ogg",100
Sample,104625,0,"s_054.ogg",100
Sample,104625,0,"s_058.ogg",100
Sample,104625,0,"s_049.ogg",100
Sample,104625,0,"s_012.ogg",100
Sample,104625,0,"s_070.ogg",100
Sample,104685,0,"s_042.ogg",100
Sample,104700,0,"s_051.ogg",100
Sample,104700,0,"s_024.ogg",100
Sample,104700,0,"s_055.ogg",100
Sample,104700,0,"s_040.ogg",100
Sample,104745,0,"s_043.ogg",100
Sample,104775,0,"s_069.ogg",100
Sample,104775,0,"s_057.ogg",100
Sample,104775,0,"s_039.ogg",100
Sample,104775,0,"s_012.ogg",100
Sample,104775,0,"s_050.ogg",100
Sample,104775,0,"s_044.ogg",100
Sample,104775,0,"s_055.ogg",100
Sample,104775,0,"s_053.ogg",100
Sample,104775,0,"s_052.ogg",100
Sample,104805,0,"s_044.ogg",100
Sample,104850,0,"s_061.ogg",100
Sample,104850,0,"s_042.ogg",100
Sample,104850,0,"s_024.ogg",100
Sample,104865,0,"s_045.ogg",100
Sample,104925,0,"s_013.ogg",100
Sample,104925,0,"s_066.ogg",100
Sample,104925,0,"s_053.ogg",100
Sample,104925,0,"s_048.ogg",100
Sample,104925,0,"s_041.ogg",100
Sample,104925,0,"s_068.ogg",100
Sample,104925,0,"s_056.ogg",100
Sample,104925,0,"s_051.ogg",100
Sample,104985,0,"s_045.ogg",100
Sample,105000,0,"s_042.ogg",100
Sample,105000,0,"s_053.ogg",100
Sample,105000,0,"s_025.ogg",100
Sample,105000,0,"s_061.ogg",100
Sample,105045,0,"s_048.ogg",100
Sample,105075,0,"s_013.ogg",100
Sample,105075,0,"s_063.ogg",100
Sample,105075,0,"s_059.ogg",100
Sample,105075,0,"s_057.ogg",100
Sample,105075,0,"s_034.ogg",100
Sample,105075,0,"s_044.ogg",100
Sample,105075,0,"s_052.ogg",100
Sample,105075,0,"s_043.ogg",100
Sample,105075,0,"s_055.ogg",100
Sample,105105,0,"s_047.ogg",100
Sample,105150,0,"s_042.ogg",100
Sample,105150,0,"s_014.ogg",100
Sample,105150,0,"s_057.ogg",100
Sample,105150,0,"s_051.ogg",100
Sample,105150,0,"s_055.ogg",100
Sample,105165,0,"s_042.ogg",100
Sample,105225,0,"s_026.ogg",100
Sample,105225,0,"s_064.ogg",100
Sample,105225,0,"s_043.ogg",100
Sample,105225,0,"s_054.ogg",100
Sample,105225,0,"s_041.ogg",100
Sample,105225,0,"s_049.ogg",100
Sample,105285,0,"s_048.ogg",100
Sample,105300,0,"s_039.ogg",100
Sample,105300,0,"s_048.ogg",100
Sample,105300,0,"s_044.ogg",100
Sample,105300,0,"s_049.ogg",100
Sample,105300,0,"s_015.ogg",100
Sample,105345,0,"s_043.ogg",100
Sample,105375,0,"s_045.ogg",100
Sample,105375,0,"s_052.ogg",100
Sample,105375,0,"s_034.ogg",100
Sample,105375,0,"s_044.ogg",100
Sample,105375,0,"s_065.ogg",100
Sample,105375,0,"s_027.ogg",100
Sample,105375,0,"s_055.ogg",100
Sample,105375,0,"s_037.ogg",100
Sample,105375,0,"s_041.ogg",100
Sample,105405,0,"s_042.ogg",100
Sample,105450,0,"s_043.ogg",100
Sample,105450,0,"s_015.ogg",100
Sample,105465,0,"s_041.ogg",100
Sample,105525,0,"s_039.ogg",100
Sample,105525,0,"s_032.ogg",100
Sample,105525,0,"s_040.ogg",100
Sample,105525,0,"s_053.ogg",100
Sample,105525,0,"s_008.ogg",100
Sample,105525,0,"s_051.ogg",100
Sample,105585,0,"s_041.ogg",100
Sample,105600,0,"s_060.ogg",100
Sample,105600,0,"s_043.ogg",100
Sample,105675,0,"s_041.ogg",100
Sample,105675,0,"s_008.ogg",100
Sample,105675,0,"s_044.ogg",100
Sample,105675,0,"s_052.ogg",100
Sample,105675,0,"s_059.ogg",100
Sample,105675,0,"s_036.ogg",100
Sample,105675,0,"s_071.ogg",100
Sample,105675,0,"s_055.ogg",100
Sample,105705,0,"s_047.ogg",100
Sample,105750,0,"s_040.ogg",100
Sample,105750,0,"s_048.ogg",100
Sample,105750,0,"s_061.ogg",100
Sample,105750,0,"s_020.ogg",100
Sample,105765,0,"s_048.ogg",100
Sample,105825,0,"s_054.ogg",100
Sample,105825,0,"s_041.ogg",100
Sample,105825,0,"s_058.ogg",100
Sample,105825,0,"s_012.ogg",100
Sample,105825,0,"s_049.ogg",100
Sample,105825,0,"s_070.ogg",100
Sample,105885,0,"s_042.ogg",100
Sample,105900,0,"s_040.ogg",100
Sample,105900,0,"s_055.ogg",100
Sample,105900,0,"s_024.ogg",100
Sample,105900,0,"s_051.ogg",100
Sample,105945,0,"s_043.ogg",100
Sample,105975,0,"s_012.ogg",100
Sample,105975,0,"s_053.ogg",100
Sample,105975,0,"s_039.ogg",100
Sample,105975,0,"s_052.ogg",100
Sample,105975,0,"s_057.ogg",100
Sample,105975,0,"s_044.ogg",100
Sample,105975,0,"s_069.ogg",100
Sample,105975,0,"s_055.ogg",100
Sample,105975,0,"s_050.ogg",100
Sample,106005,0,"s_044.ogg",100
Sample,106050,0,"s_024.ogg",100
Sample,106050,0,"s_061.ogg",100
Sample,106050,0,"s_042.ogg",100
Sample,106065,0,"s_045.ogg",100
Sample,106125,0,"s_068.ogg",100
Sample,106125,0,"s_041.ogg",100
Sample,106125,0,"s_051.ogg",100
Sample,106125,0,"s_056.ogg",100
Sample,106125,0,"s_066.ogg",100
Sample,106125,0,"s_013.ogg",100
Sample,106125,0,"s_048.ogg",100
Sample,106125,0,"s_053.ogg",100
Sample,106185,0,"s_045.ogg",100
Sample,106200,0,"s_061.ogg",100
Sample,106200,0,"s_025.ogg",100
Sample,106200,0,"s_053.ogg",100
Sample,106200,0,"s_042.ogg",100
Sample,106245,0,"s_048.ogg",100
Sample,106275,0,"s_057.ogg",100
Sample,106275,0,"s_043.ogg",100
Sample,106275,0,"s_059.ogg",100
Sample,106275,0,"s_055.ogg",100
Sample,106275,0,"s_063.ogg",100
Sample,106275,0,"s_044.ogg",100
Sample,106275,0,"s_013.ogg",100
Sample,106275,0,"s_052.ogg",100
Sample,106275,0,"s_034.ogg",100
Sample,106305,0,"s_047.ogg",100
Sample,106350,0,"s_014.ogg",100
Sample,106350,0,"s_042.ogg",100
Sample,106350,0,"s_057.ogg",100
Sample,106350,0,"s_055.ogg",100
Sample,106350,0,"s_051.ogg",100
Sample,106365,0,"s_042.ogg",100
Sample,106425,0,"s_064.ogg",100
Sample,106425,0,"s_026.ogg",100
Sample,106425,0,"s_043.ogg",100
Sample,106425,0,"s_041.ogg",100
Sample,106425,0,"s_054.ogg",100
Sample,106425,0,"s_049.ogg",100
Sample,106485,0,"s_048.ogg",100
Sample,106500,0,"s_048.ogg",100
Sample,106500,0,"s_039.ogg",100
Sample,106500,0,"s_044.ogg",100
Sample,106500,0,"s_015.ogg",100
Sample,106500,0,"s_049.ogg",100
Sample,106545,0,"s_043.ogg",100
Sample,106575,0,"s_055.ogg",100
Sample,106575,0,"s_065.ogg",100
Sample,106575,0,"s_034.ogg",100
Sample,106575,0,"s_045.ogg",100
Sample,106575,0,"s_041.ogg",100
Sample,106575,0,"s_027.ogg",100
Sample,106575,0,"s_037.ogg",100
Sample,106575,0,"s_052.ogg",100
Sample,106575,0,"s_044.ogg",100
Sample,106605,0,"s_042.ogg",100
Sample,106650,0,"s_043.ogg",100
Sample,106650,0,"s_015.ogg",100
Sample,106665,0,"s_041.ogg",100
Sample,106725,0,"s_032.ogg",100
Sample,106725,0,"s_039.ogg",100
Sample,106725,0,"s_040.ogg",100
Sample,106725,0,"s_008.ogg",100
Sample,106725,0,"s_053.ogg",100
Sample,106725,0,"s_051.ogg",100
Sample,106785,0,"s_041.ogg",100
Sample,106800,0,"s_060.ogg",100
Sample,106800,0,"s_043.ogg",100
Sample,106875,0,"s_036.ogg",100
Sample,106875,0,"s_059.ogg",100
Sample,106875,0,"s_055.ogg",100
Sample,106875,0,"s_071.ogg",100
Sample,106875,0,"s_008.ogg",100
Sample,106875,0,"s_041.ogg",100
Sample,106875,0,"s_052.ogg",100
Sample,106875,0,"s_044.ogg",100
Sample,106905,0,"s_047.ogg",100
Sample,106950,0,"s_020.ogg",100
Sample,106950,0,"s_061.ogg",100
Sample,106950,0,"s_048.ogg",100
Sample,106950,0,"s_040.ogg",100
Sample,106965,0,"s_048.ogg",100
Sample,107025,0,"s_041.ogg",100
Sample,107025,0,"s_054.ogg",100
Sample,107025,0,"s_058.ogg",100
Sample,107025,0,"s_049.ogg",100
Sample,107025,0,"s_012.ogg",100
Sample,107025,0,"s_070.ogg",100
Sample,107085,0,"s_042.ogg",100
Sample,107100,0,"s_051.ogg",100
Sample,107100,0,"s_024.ogg",100
Sample,107100,0,"s_055.ogg",100
Sample,107100,0,"s_040.ogg",100
Sample,107145,0,"s_043.ogg",100
Sample,107175,0,"s_069.ogg",100
Sample,107175,0,"s_057.ogg",100
Sample,107175,0,"s_039.ogg",100
Sample,107175,0,"s_012.ogg",100
Sample,107175,0,"s_050.ogg",100
Sample,107175,0,"s_044.ogg",100
Sample,107175,0,"s_055.ogg",100
Sample,107175,0,"s_053.ogg",100
Sample,107175,0,"s_052.ogg",100
Sample,107205,0,"s_044.ogg",100
Sample,107250,0,"s_061.ogg",100
Sample,107250,0,"s_042.ogg",100
Sample,107250,0,"s_024.ogg",100
Sample,107265,0,"s_045.ogg",100
Sample,107325,0,"s_013.ogg",100
Sample,107325,0,"s_066.ogg",100
Sample,107325,0,"s_053.ogg",100
Sample,107325,0,"s_048.ogg",100
Sample,107325,0,"s_041.ogg",100
Sample,107325,0,"s_068.ogg",100
Sample,107325,0,"s_056.ogg",100
Sample,107325,0,"s_051.ogg",100
Sample,107385,0,"s_045.ogg",100
Sample,107400,0,"s_042.ogg",100
Sample,107400,0,"s_053.ogg",100
Sample,107400,0,"s_025.ogg",100
Sample,107400,0,"s_061.ogg",100
Sample,107445,0,"s_048.ogg",100
Sample,107475,0,"s_013.ogg",100
Sample,107475,0,"s_063.ogg",100
Sample,107475,0,"s_059.ogg",100
Sample,107475,0,"s_057.ogg",100
Sample,107475,0,"s_034.ogg",100
Sample,107475,0,"s_044.ogg",100
Sample,107475,0,"s_052.ogg",100
Sample,107475,0,"s_043.ogg",100
Sample,107475,0,"s_055.ogg",100
Sample,107505,0,"s_047.ogg",100
Sample,107550,0,"s_042.ogg",100
Sample,107550,0,"s_014.ogg",100
Sample,107550,0,"s_057.ogg",100
Sample,107550,0,"s_051.ogg",100
Sample,107550,0,"s_055.ogg",100
Sample,107565,0,"s_042.ogg",100
Sample,107625,0,"s_026.ogg",100
Sample,107625,0,"s_064.ogg",100
Sample,107625,0,"s_043.ogg",100
Sample,107625,0,"s_054.ogg",100
Sample,107625,0,"s_041.ogg",100
Sample,107625,0,"s_049.ogg",100
Sample,107685,0,"s_048.ogg",100
Sample,107700,0,"s_039.ogg",100
Sample,107700,0,"s_048.ogg",100
Sample,107700,0,"s_044.ogg",100
Sample,107700,0,"s_049.ogg",100
Sample,107700,0,"s_015.ogg",100
Sample,107745,0,"s_043.ogg",100
Sample,107775,0,"s_045.ogg",100
Sample,107775,0,"s_052.ogg",100
Sample,107775,0,"s_034.ogg",100
Sample,107775,0,"s_044.ogg",100
Sample,107775,0,"s_065.ogg",100
Sample,107775,0,"s_027.ogg",100
Sample,107775,0,"s_055.ogg",100
Sample,107775,0,"s_037.ogg",100
Sample,107775,0,"s_041.ogg",100
Sample,107805,0,"s_042.ogg",100
Sample,107850,0,"s_015.ogg",100
Sample,107850,0,"s_043.ogg",100
Sample,107865,0,"s_041.ogg",100
Sample,107925,0,"s_080.ogg",100
Sample,107925,0,"s_040.ogg",100
Sample,107925,0,"s_039.ogg",100
Sample,107925,0,"s_053.ogg",100
Sample,107925,0,"s_068.ogg",100
Sample,107925,0,"s_008.ogg",100
Sample,107985,0,"s_041.ogg",100
Sample,107985,0,"s_045.ogg",100
Sample,108000,0,"s_060.ogg",100
Sample,108000,0,"s_043.ogg",100
Sample,108045,0,"s_042.ogg",100
Sample,108075,0,"s_059.ogg",100
Sample,108075,0,"s_071.ogg",100
Sample,108075,0,"s_039.ogg",100
Sample,108075,0,"s_008.ogg",100
Sample,108075,0,"s_041.ogg",100
Sample,108075,0,"s_036.ogg",100
Sample,108075,0,"s_052.ogg",100
Sample,108105,0,"s_043.ogg",100
Sample,108105,0,"s_047.ogg",100
Sample,108150,0,"s_048.ogg",100
Sample,108150,0,"s_072.ogg",100
Sample,108150,0,"s_040.ogg",100
Sample,108150,0,"s_020.ogg",100
Sample,108165,0,"s_044.ogg",100
Sample,108165,0,"s_048.ogg",100
Sample,108225,0,"s_070.ogg",100
Sample,108225,0,"s_041.ogg",100
Sample,108225,0,"s_036.ogg",100
Sample,108225,0,"s_012.ogg",100
Sample,108225,0,"s_072.ogg",100
Sample,108225,0,"s_045.ogg",100
Sample,108225,0,"s_054.ogg",100
Sample,108285,0,"s_042.ogg",100
Sample,108285,0,"s_046.ogg",100
Sample,108300,0,"s_075.ogg",100
Sample,108300,0,"s_024.ogg",100
Sample,108300,0,"s_055.ogg",100
Sample,108300,0,"s_051.ogg",100
Sample,108345,0,"s_047.ogg",100
Sample,108345,0,"s_043.ogg",100
Sample,108375,0,"s_053.ogg",100
Sample,108375,0,"s_044.ogg",100
Sample,108375,0,"s_055.ogg",100
Sample,108375,0,"s_077.ogg",100
Sample,108375,0,"s_057.ogg",100
Sample,108375,0,"s_069.ogg",100
Sample,108375,0,"s_012.ogg",100
Sample,108375,0,"s_041.ogg",100
Sample,108375,0,"s_050.ogg",100
Sample,108405,0,"s_048.ogg",100
Sample,108405,0,"s_044.ogg",100
Sample,108450,0,"s_024.ogg",100
Sample,108450,0,"s_061.ogg",100
Sample,108450,0,"s_042.ogg",100
Sample,108465,0,"s_045.ogg",100
Sample,108465,0,"s_049.ogg",100
Sample,108525,0,"s_068.ogg",100
Sample,108525,0,"s_048.ogg",100
Sample,108525,0,"s_037.ogg",100
Sample,108525,0,"s_071.ogg",100
Sample,108525,0,"s_066.ogg",100
Sample,108525,0,"s_041.ogg",100
Sample,108525,0,"s_052.ogg",100
Sample,108525,0,"s_013.ogg",100
Sample,108525,0,"s_051.ogg",100
Sample,108585,0,"s_045.ogg",100
Sample,108585,0,"s_049.ogg",100
Sample,108600,0,"s_061.ogg",100
Sample,108600,0,"s_072.ogg",100
Sample,108600,0,"s_053.ogg",100
Sample,108600,0,"s_025.ogg",100
Sample,108645,0,"s_048.ogg",100
Sample,108645,0,"s_044.ogg",100
Sample,108675,0,"s_057.ogg",100
Sample,108675,0,"s_013.ogg",100
Sample,108675,0,"s_055.ogg",100
Sample,108675,0,"s_072.ogg",100
Sample,108675,0,"s_041.ogg",100
Sample,108675,0,"s_063.ogg",100
Sample,108675,0,"s_044.ogg",100
Sample,108675,0,"s_043.ogg",100
Sample,108675,0,"s_059.ogg",100
Sample,108705,0,"s_047.ogg",100
Sample,108705,0,"s_043.ogg",100
Sample,108750,0,"s_075.ogg",100
Sample,108750,0,"s_057.ogg",100
Sample,108750,0,"s_038.ogg",100
Sample,108750,0,"s_042.ogg",100
Sample,108750,0,"s_055.ogg",100
Sample,108765,0,"s_046.ogg",100
Sample,108765,0,"s_042.ogg",100
Sample,108825,0,"s_064.ogg",100
Sample,108825,0,"s_026.ogg",100
Sample,108825,0,"s_051.ogg",100
Sample,108825,0,"s_043.ogg",100
Sample,108825,0,"s_041.ogg",100
Sample,108825,0,"s_077.ogg",100
Sample,108825,0,"s_058.ogg",100
Sample,108885,0,"s_044.ogg",100
Sample,108885,0,"s_048.ogg",100
Sample,108900,0,"s_070.ogg",100
Sample,108900,0,"s_015.ogg",100
Sample,108900,0,"s_049.ogg",100
Sample,108900,0,"s_039.ogg",100
Sample,108900,0,"s_048.ogg",100
Sample,108945,0,"s_047.ogg",100
Sample,108945,0,"s_043.ogg",100
Sample,108975,0,"s_045.ogg",100
Sample,108975,0,"s_072.ogg",100
Sample,108975,0,"s_003.ogg",100
Sample,108975,0,"s_065.ogg",100
Sample,108975,0,"s_041.ogg",100
Sample,108975,0,"s_044.ogg",100
Sample,108975,0,"s_052.ogg",100
Sample,108975,0,"s_027.ogg",100
Sample,108975,0,"s_055.ogg",100
Sample,109005,0,"s_046.ogg",100
Sample,109005,0,"s_042.ogg",100
Sample,109050,0,"s_059.ogg",100
Sample,109050,0,"s_043.ogg",100
Sample,109065,0,"s_041.ogg",100
Sample,109065,0,"s_045.ogg",100
Sample,109125,0,"s_040.ogg",100
Sample,109125,0,"s_080.ogg",100
Sample,109125,0,"s_039.ogg",100
Sample,109125,0,"s_068.ogg",100
Sample,109125,0,"s_053.ogg",100
Sample,109125,0,"s_008.ogg",100
Sample,109185,0,"s_041.ogg",100
Sample,109185,0,"s_045.ogg",100
Sample,109200,0,"s_060.ogg",100
Sample,109200,0,"s_043.ogg",100
Sample,109245,0,"s_042.ogg",100
Sample,109275,0,"s_041.ogg",100
Sample,109275,0,"s_039.ogg",100
Sample,109275,0,"s_052.ogg",100
Sample,109275,0,"s_071.ogg",100
Sample,109275,0,"s_008.ogg",100
Sample,109275,0,"s_059.ogg",100
Sample,109275,0,"s_036.ogg",100
Sample,109305,0,"s_043.ogg",100
Sample,109305,0,"s_047.ogg",100
Sample,109350,0,"s_020.ogg",100
Sample,109350,0,"s_040.ogg",100
Sample,109350,0,"s_072.ogg",100
Sample,109350,0,"s_048.ogg",100
Sample,109365,0,"s_044.ogg",100
Sample,109365,0,"s_048.ogg",100
Sample,109425,0,"s_045.ogg",100
Sample,109425,0,"s_012.ogg",100
Sample,109425,0,"s_041.ogg",100
Sample,109425,0,"s_072.ogg",100
Sample,109425,0,"s_070.ogg",100
Sample,109425,0,"s_054.ogg",100
Sample,109425,0,"s_036.ogg",100
Sample,109485,0,"s_042.ogg",100
Sample,109485,0,"s_046.ogg",100
Sample,109500,0,"s_051.ogg",100
Sample,109500,0,"s_055.ogg",100
Sample,109500,0,"s_024.ogg",100
Sample,109500,0,"s_075.ogg",100
Sample,109545,0,"s_047.ogg",100
Sample,109545,0,"s_043.ogg",100
Sample,109575,0,"s_012.ogg",100
Sample,109575,0,"s_057.ogg",100
Sample,109575,0,"s_055.ogg",100
Sample,109575,0,"s_053.ogg",100
Sample,109575,0,"s_050.ogg",100
Sample,109575,0,"s_069.ogg",100
Sample,109575,0,"s_041.ogg",100
Sample,109575,0,"s_044.ogg",100
Sample,109575,0,"s_077.ogg",100
Sample,109605,0,"s_048.ogg",100
Sample,109605,0,"s_044.ogg",100
Sample,109650,0,"s_042.ogg",100
Sample,109650,0,"s_024.ogg",100
Sample,109650,0,"s_061.ogg",100
Sample,109665,0,"s_045.ogg",100
Sample,109665,0,"s_049.ogg",100
Sample,109725,0,"s_052.ogg",100
Sample,109725,0,"s_066.ogg",100
Sample,109725,0,"s_037.ogg",100
Sample,109725,0,"s_068.ogg",100
Sample,109725,0,"s_051.ogg",100
Sample,109725,0,"s_041.ogg",100
Sample,109725,0,"s_013.ogg",100
Sample,109725,0,"s_048.ogg",100
Sample,109725,0,"s_071.ogg",100
Sample,109785,0,"s_045.ogg",100
Sample,109785,0,"s_049.ogg",100
Sample,109800,0,"s_025.ogg",100
Sample,109800,0,"s_053.ogg",100
Sample,109800,0,"s_072.ogg",100
Sample,109800,0,"s_061.ogg",100
Sample,109845,0,"s_048.ogg",100
Sample,109845,0,"s_044.ogg",100
Sample,109875,0,"s_072.ogg",100
Sample,109875,0,"s_043.ogg",100
Sample,109875,0,"s_055.ogg",100
Sample,109875,0,"s_059.ogg",100
Sample,109875,0,"s_013.ogg",100
Sample,109875,0,"s_063.ogg",100
Sample,109875,0,"s_057.ogg",100
Sample,109875,0,"s_044.ogg",100
Sample,109875,0,"s_041.ogg",100
Sample,109905,0,"s_047.ogg",100
Sample,109905,0,"s_043.ogg",100
Sample,109950,0,"s_057.ogg",100
Sample,109950,0,"s_075.ogg",100
Sample,109950,0,"s_038.ogg",100
Sample,109950,0,"s_055.ogg",100
Sample,109950,0,"s_042.ogg",100
Sample,109965,0,"s_046.ogg",100
Sample,109965,0,"s_042.ogg",100
Sample,110025,0,"s_077.ogg",100
Sample,110025,0,"s_043.ogg",100
Sample,110025,0,"s_026.ogg",100
Sample,110025,0,"s_041.ogg",100
Sample,110025,0,"s_064.ogg",100
Sample,110025,0,"s_058.ogg",100
Sample,110025,0,"s_051.ogg",100
Sample,110085,0,"s_044.ogg",100
Sample,110085,0,"s_048.ogg",100
Sample,110100,0,"s_015.ogg",100
Sample,110100,0,"s_070.ogg",100
Sample,110100,0,"s_049.ogg",100
Sample,110100,0,"s_048.ogg",100
Sample,110100,0,"s_039.ogg",100
Sample,110145,0,"s_047.ogg",100
Sample,110145,0,"s_043.ogg",100
Sample,110175,0,"s_065.ogg",100
Sample,110175,0,"s_027.ogg",100
Sample,110175,0,"s_003.ogg",100
Sample,110175,0,"s_055.ogg",100
Sample,110175,0,"s_072.ogg",100
Sample,110175,0,"s_044.ogg",100
Sample,110175,0,"s_045.ogg",100
Sample,110175,0,"s_052.ogg",100
Sample,110175,0,"s_041.ogg",100
Sample,110205,0,"s_046.ogg",100
Sample,110205,0,"s_042.ogg",100
Sample,110250,0,"s_059.ogg",100
Sample,110250,0,"s_043.ogg",100
Sample,110265,0,"s_041.ogg",100
Sample,110265,0,"s_045.ogg",100
Sample,110325,0,"s_080.ogg",100
Sample,110325,0,"s_040.ogg",100
Sample,110325,0,"s_039.ogg",100
Sample,110325,0,"s_053.ogg",100
Sample,110325,0,"s_068.ogg",100
Sample,110325,0,"s_008.ogg",100
Sample,110385,0,"s_041.ogg",100
Sample,110385,0,"s_045.ogg",100
Sample,110400,0,"s_060.ogg",100
Sample,110400,0,"s_043.ogg",100
Sample,110445,0,"s_042.ogg",100
Sample,110475,0,"s_059.ogg",100
Sample,110475,0,"s_071.ogg",100
Sample,110475,0,"s_039.ogg",100
Sample,110475,0,"s_008.ogg",100
Sample,110475,0,"s_041.ogg",100
Sample,110475,0,"s_036.ogg",100
Sample,110475,0,"s_052.ogg",100
Sample,110505,0,"s_043.ogg",100
Sample,110505,0,"s_047.ogg",100
Sample,110550,0,"s_048.ogg",100
Sample,110550,0,"s_072.ogg",100
Sample,110550,0,"s_040.ogg",100
Sample,110550,0,"s_020.ogg",100
Sample,110565,0,"s_044.ogg",100
Sample,110565,0,"s_048.ogg",100
Sample,110625,0,"s_070.ogg",100
Sample,110625,0,"s_041.ogg",100
Sample,110625,0,"s_036.ogg",100
Sample,110625,0,"s_012.ogg",100
Sample,110625,0,"s_072.ogg",100
Sample,110625,0,"s_045.ogg",100
Sample,110625,0,"s_054.ogg",100
Sample,110685,0,"s_042.ogg",100
Sample,110685,0,"s_046.ogg",100
Sample,110700,0,"s_075.ogg",100
Sample,110700,0,"s_024.ogg",100
Sample,110700,0,"s_055.ogg",100
Sample,110700,0,"s_051.ogg",100
Sample,110745,0,"s_047.ogg",100
Sample,110745,0,"s_043.ogg",100
Sample,110775,0,"s_053.ogg",100
Sample,110775,0,"s_044.ogg",100
Sample,110775,0,"s_055.ogg",100
Sample,110775,0,"s_077.ogg",100
Sample,110775,0,"s_057.ogg",100
Sample,110775,0,"s_069.ogg",100
Sample,110775,0,"s_012.ogg",100
Sample,110775,0,"s_041.ogg",100
Sample,110775,0,"s_050.ogg",100
Sample,110805,0,"s_048.ogg",100
Sample,110805,0,"s_044.ogg",100
Sample,110850,0,"s_024.ogg",100
Sample,110850,0,"s_061.ogg",100
Sample,110850,0,"s_042.ogg",100
Sample,110865,0,"s_045.ogg",100
Sample,110865,0,"s_049.ogg",100
Sample,110925,0,"s_068.ogg",100
Sample,110925,0,"s_048.ogg",100
Sample,110925,0,"s_037.ogg",100
Sample,110925,0,"s_071.ogg",100
Sample,110925,0,"s_066.ogg",100
Sample,110925,0,"s_041.ogg",100
Sample,110925,0,"s_052.ogg",100
Sample,110925,0,"s_013.ogg",100
Sample,110925,0,"s_051.ogg",100
Sample,110985,0,"s_045.ogg",100
Sample,110985,0,"s_049.ogg",100
Sample,111000,0,"s_061.ogg",100
Sample,111000,0,"s_072.ogg",100
Sample,111000,0,"s_053.ogg",100
Sample,111000,0,"s_025.ogg",100
Sample,111045,0,"s_048.ogg",100
Sample,111045,0,"s_044.ogg",100
Sample,111075,0,"s_057.ogg",100
Sample,111075,0,"s_013.ogg",100
Sample,111075,0,"s_055.ogg",100
Sample,111075,0,"s_072.ogg",100
Sample,111075,0,"s_041.ogg",100
Sample,111075,0,"s_063.ogg",100
Sample,111075,0,"s_044.ogg",100
Sample,111075,0,"s_043.ogg",100
Sample,111075,0,"s_059.ogg",100
Sample,111105,0,"s_047.ogg",100
Sample,111105,0,"s_043.ogg",100
Sample,111150,0,"s_075.ogg",100
Sample,111150,0,"s_057.ogg",100
Sample,111150,0,"s_038.ogg",100
Sample,111150,0,"s_042.ogg",100
Sample,111150,0,"s_055.ogg",100
Sample,111165,0,"s_046.ogg",100
Sample,111165,0,"s_042.ogg",100
Sample,111225,0,"s_064.ogg",100
Sample,111225,0,"s_026.ogg",100
Sample,111225,0,"s_051.ogg",100
Sample,111225,0,"s_043.ogg",100
Sample,111225,0,"s_041.ogg",100
Sample,111225,0,"s_077.ogg",100
Sample,111225,0,"s_058.ogg",100
Sample,111285,0,"s_044.ogg",100
Sample,111285,0,"s_048.ogg",100
Sample,111300,0,"s_070.ogg",100
Sample,111300,0,"s_015.ogg",100
Sample,111300,0,"s_049.ogg",100
Sample,111300,0,"s_039.ogg",100
Sample,111300,0,"s_048.ogg",100
Sample,111345,0,"s_047.ogg",100
Sample,111345,0,"s_043.ogg",100
Sample,111375,0,"s_045.ogg",100
Sample,111375,0,"s_072.ogg",100
Sample,111375,0,"s_003.ogg",100
Sample,111375,0,"s_065.ogg",100
Sample,111375,0,"s_041.ogg",100
Sample,111375,0,"s_044.ogg",100
Sample,111375,0,"s_052.ogg",100
Sample,111375,0,"s_027.ogg",100
Sample,111375,0,"s_055.ogg",100
Sample,111405,0,"s_046.ogg",100
Sample,111405,0,"s_042.ogg",100
Sample,111450,0,"s_059.ogg",100
Sample,111450,0,"s_043.ogg",100
Sample,111465,0,"s_041.ogg",100
Sample,111465,0,"s_045.ogg",100
Sample,111525,0,"s_039.ogg",100
Sample,111525,0,"s_020.ogg",100
Sample,111525,0,"s_068.ogg",100
Sample,111525,0,"s_032.ogg",100
Sample,111525,0,"s_080.ogg",100
Sample,111525,0,"s_040.ogg",100
Sample,111525,0,"s_053.ogg",100
Sample,111585,0,"s_041.ogg",100
Sample,111585,0,"s_045.ogg",100
Sample,111600,0,"s_070.ogg",100
Sample,111600,0,"s_043.ogg",100
Sample,111600,0,"s_031.ogg",100
Sample,111645,0,"s_042.ogg",100
Sample,111675,0,"s_024.ogg",100
Sample,111675,0,"s_018.ogg",100
Sample,111675,0,"s_059.ogg",100
Sample,111675,0,"s_030.ogg",100
Sample,111675,0,"s_055.ogg",100
Sample,111675,0,"s_050.ogg",100
Sample,111675,0,"s_036.ogg",100
Sample,111675,0,"s_071.ogg",100
Sample,111675,0,"s_041.ogg",100
Sample,111705,0,"s_047.ogg",100
Sample,111705,0,"s_043.ogg",100
Sample,111750,0,"s_045.ogg",100
Sample,111750,0,"s_061.ogg",100
Sample,111750,0,"s_029.ogg",100
Sample,111750,0,"s_048.ogg",100
Sample,111750,0,"s_037.ogg",100
Sample,111750,0,"s_040.ogg",100
Sample,111750,0,"s_072.ogg",100
Sample,111765,0,"s_044.ogg",100
Sample,111765,0,"s_048.ogg",100
Sample,111825,0,"s_028.ogg",100
Sample,111825,0,"s_070.ogg",100
Sample,111825,0,"s_054.ogg",100
Sample,111825,0,"s_041.ogg",100
Sample,111825,0,"s_016.ogg",100
Sample,111825,0,"s_045.ogg",100
Sample,111825,0,"s_072.ogg",100
Sample,111885,0,"s_042.ogg",100
Sample,111885,0,"s_046.ogg",100
Sample,111900,0,"s_027.ogg",100
Sample,111900,0,"s_038.ogg",100
Sample,111900,0,"s_040.ogg",100
Sample,111900,0,"s_026.ogg",100
Sample,111900,0,"s_062.ogg",100
Sample,111900,0,"s_055.ogg",100
Sample,111900,0,"s_051.ogg",100
Sample,111945,0,"s_043.ogg",100
Sample,111945,0,"s_047.ogg",100
Sample,111975,0,"s_027.ogg",100
Sample,111975,0,"s_055.ogg",100
Sample,111975,0,"s_014.ogg",100
Sample,111975,0,"s_057.ogg",100
Sample,111975,0,"s_044.ogg",100
Sample,111975,0,"s_077.ogg",100
Sample,111975,0,"s_053.ogg",100
Sample,111975,0,"s_026.ogg",100
Sample,111975,0,"s_069.ogg",100
Sample,111975,0,"s_052.ogg",100
Sample,111975,0,"s_059.ogg",100
Sample,112005,0,"s_044.ogg",100
Sample,112005,0,"s_048.ogg",100
Sample,112050,0,"s_061.ogg",100
Sample,112050,0,"s_063.ogg",100
Sample,112050,0,"s_042.ogg",100
Sample,112050,0,"s_027.ogg",100
Sample,112065,0,"s_049.ogg",100
Sample,112065,0,"s_045.ogg",100
Sample,112125,0,"s_041.ogg",100
Sample,112125,0,"s_052.ogg",100
Sample,112125,0,"s_020.ogg",100
Sample,112125,0,"s_066.ogg",100
Sample,112125,0,"s_071.ogg",100
Sample,112125,0,"s_068.ogg",100
Sample,112125,0,"s_048.ogg",100
Sample,112125,0,"s_032.ogg",100
Sample,112125,0,"s_051.ogg",100
Sample,112185,0,"s_045.ogg",100
Sample,112185,0,"s_049.ogg",100
Sample,112200,0,"s_056.ogg",100
Sample,112200,0,"s_061.ogg",100
Sample,112200,0,"s_019.ogg",100
Sample,112200,0,"s_053.ogg",100
Sample,112200,0,"s_031.ogg",100
Sample,112245,0,"s_048.ogg",100
Sample,112245,0,"s_044.ogg",100
Sample,112275,0,"s_024.ogg",100
Sample,112275,0,"s_034.ogg",100
Sample,112275,0,"s_043.ogg",100
Sample,112275,0,"s_055.ogg",100
Sample,112275,0,"s_030.ogg",100
Sample,112275,0,"s_018.ogg",100
Sample,112275,0,"s_036.ogg",100
Sample,112275,0,"s_072.ogg",100
Sample,112275,0,"s_052.ogg",100
Sample,112275,0,"s_059.ogg",100
Sample,112275,0,"s_063.ogg",100
Sample,112275,0,"s_057.ogg",100
Sample,112305,0,"s_047.ogg",100
Sample,112305,0,"s_043.ogg",100
Sample,112350,0,"s_051.ogg",100
Sample,112350,0,"s_057.ogg",100
Sample,112350,0,"s_029.ogg",100
Sample,112350,0,"s_042.ogg",100
Sample,112350,0,"s_037.ogg",100
Sample,112350,0,"s_055.ogg",100
Sample,112350,0,"s_075.ogg",100
Sample,112365,0,"s_046.ogg",100
Sample,112365,0,"s_042.ogg",100
Sample,112425,0,"s_043.ogg",100
Sample,112425,0,"s_077.ogg",100
Sample,112425,0,"s_058.ogg",100
Sample,112425,0,"s_016.ogg",100
Sample,112425,0,"s_045.ogg",100
Sample,112425,0,"s_041.ogg",100
Sample,112425,0,"s_064.ogg",100
Sample,112425,0,"s_028.ogg",100
Sample,112485,0,"s_044.ogg",100
Sample,112485,0,"s_048.ogg",100
Sample,112500,0,"s_027.ogg",100
Sample,112500,0,"s_048.ogg",100
Sample,112500,0,"s_015.ogg",100
Sample,112500,0,"s_026.ogg",100
Sample,112500,0,"s_070.ogg",100
Sample,112500,0,"s_049.ogg",100
Sample,112500,0,"s_058.ogg",100
Sample,112545,0,"s_043.ogg",100
Sample,112545,0,"s_047.ogg",100
Sample,112575,0,"s_059.ogg",100
Sample,112575,0,"s_037.ogg",100
Sample,112575,0,"s_072.ogg",100
Sample,112575,0,"s_055.ogg",100
Sample,112575,0,"s_027.ogg",100
Sample,112575,0,"s_014.ogg",100
Sample,112575,0,"s_045.ogg",100
Sample,112575,0,"s_065.ogg",100
Sample,112575,0,"s_052.ogg",100
Sample,112575,0,"s_034.ogg",100
Sample,112575,0,"s_026.ogg",100
Sample,112575,0,"s_039.ogg",100
Sample,112605,0,"s_042.ogg",100
Sample,112605,0,"s_046.ogg",100
Sample,112650,0,"s_059.ogg",100
Sample,112650,0,"s_075.ogg",100
Sample,112650,0,"s_043.ogg",100
Sample,112665,0,"s_041.ogg",100
Sample,112665,0,"s_045.ogg",100
Sample,112725,0,"s_080.ogg",100
Sample,112725,0,"s_068.ogg",100
Sample,112725,0,"s_053.ogg",100
Sample,112725,0,"s_020.ogg",100
Sample,112725,0,"s_032.ogg",100
Sample,112725,0,"s_039.ogg",100
Sample,112725,0,"s_040.ogg",100
Sample,112785,0,"s_041.ogg",100
Sample,112785,0,"s_045.ogg",100
Sample,112800,0,"s_031.ogg",100
Sample,112800,0,"s_070.ogg",100
Sample,112800,0,"s_043.ogg",100
Sample,112845,0,"s_042.ogg",100
Sample,112875,0,"s_030.ogg",100
Sample,112875,0,"s_071.ogg",100
Sample,112875,0,"s_059.ogg",100
Sample,112875,0,"s_041.ogg",100
Sample,112875,0,"s_018.ogg",100
Sample,112875,0,"s_050.ogg",100
Sample,112875,0,"s_024.ogg",100
Sample,112875,0,"s_036.ogg",100
Sample,112875,0,"s_055.ogg",100
Sample,112905,0,"s_047.ogg",100
Sample,112905,0,"s_043.ogg",100
Sample,112950,0,"s_045.ogg",100
Sample,112950,0,"s_061.ogg",100
Sample,112950,0,"s_040.ogg",100
Sample,112950,0,"s_025.ogg",100
Sample,112950,0,"s_048.ogg",100
Sample,112950,0,"s_029.ogg",100
Sample,112950,0,"s_037.ogg",100
Sample,112965,0,"s_044.ogg",100
Sample,112965,0,"s_048.ogg",100
Sample,113025,0,"s_045.ogg",100
Sample,113025,0,"s_041.ogg",100
Sample,113025,0,"s_070.ogg",100
Sample,113025,0,"s_016.ogg",100
Sample,113025,0,"s_028.ogg",100
Sample,113025,0,"s_072.ogg",100
Sample,113025,0,"s_054.ogg",100
Sample,113085,0,"s_042.ogg",100
Sample,113085,0,"s_046.ogg",100
Sample,113100,0,"s_062.ogg",100
Sample,113100,0,"s_040.ogg",100
Sample,113100,0,"s_051.ogg",100
Sample,113100,0,"s_038.ogg",100
Sample,113100,0,"s_026.ogg",100
Sample,113100,0,"s_027.ogg",100
Sample,113100,0,"s_055.ogg",100
Sample,113145,0,"s_043.ogg",100
Sample,113145,0,"s_047.ogg",100
Sample,113175,0,"s_053.ogg",100
Sample,113175,0,"s_044.ogg",100
Sample,113175,0,"s_026.ogg",100
Sample,113175,0,"s_057.ogg",100
Sample,113175,0,"s_014.ogg",100
Sample,113175,0,"s_055.ogg",100
Sample,113175,0,"s_077.ogg",100
Sample,113175,0,"s_027.ogg",100
Sample,113175,0,"s_069.ogg",100
Sample,113175,0,"s_052.ogg",100
Sample,113175,0,"s_059.ogg",100
Sample,113205,0,"s_044.ogg",100
Sample,113205,0,"s_048.ogg",100
Sample,113250,0,"s_042.ogg",100
Sample,113250,0,"s_063.ogg",100
Sample,113250,0,"s_070.ogg",100
Sample,113250,0,"s_027.ogg",100
Sample,113265,0,"s_045.ogg",100
Sample,113265,0,"s_049.ogg",100
Sample,113325,0,"s_048.ogg",100
Sample,113325,0,"s_071.ogg",100
Sample,113325,0,"s_020.ogg",100
Sample,113325,0,"s_041.ogg",100
Sample,113325,0,"s_051.ogg",100
Sample,113325,0,"s_068.ogg",100
Sample,113325,0,"s_032.ogg",100
Sample,113325,0,"s_052.ogg",100
Sample,113325,0,"s_066.ogg",100
Sample,113385,0,"s_045.ogg",100
Sample,113385,0,"s_049.ogg",100
Sample,113400,0,"s_061.ogg",100
Sample,113400,0,"s_056.ogg",100
Sample,113400,0,"s_019.ogg",100
Sample,113400,0,"s_031.ogg",100
Sample,113400,0,"s_053.ogg",100
Sample,113445,0,"s_048.ogg",100
Sample,113445,0,"s_044.ogg",100
Sample,113475,0,"s_072.ogg",100
Sample,113475,0,"s_052.ogg",100
Sample,113475,0,"s_063.ogg",100
Sample,113475,0,"s_043.ogg",100
Sample,113475,0,"s_036.ogg",100
Sample,113475,0,"s_057.ogg",100
Sample,113475,0,"s_018.ogg",100
Sample,113475,0,"s_024.ogg",100
Sample,113475,0,"s_030.ogg",100
Sample,113475,0,"s_059.ogg",100
Sample,113475,0,"s_055.ogg",100
Sample,113475,0,"s_034.ogg",100
Sample,113505,0,"s_047.ogg",100
Sample,113505,0,"s_043.ogg",100
Sample,113550,0,"s_051.ogg",100
Sample,113550,0,"s_057.ogg",100
Sample,113550,0,"s_055.ogg",100
Sample,113550,0,"s_025.ogg",100
Sample,113550,0,"s_042.ogg",100
Sample,113550,0,"s_029.ogg",100
Sample,113550,0,"s_037.ogg",100
Sample,113565,0,"s_046.ogg",100
Sample,113565,0,"s_042.ogg",100
Sample,113625,0,"s_041.ogg",100
Sample,113625,0,"s_045.ogg",100
Sample,113625,0,"s_028.ogg",100
Sample,113625,0,"s_064.ogg",100
Sample,113625,0,"s_077.ogg",100
Sample,113625,0,"s_043.ogg",100
Sample,113625,0,"s_016.ogg",100
Sample,113625,0,"s_058.ogg",100
Sample,113685,0,"s_048.ogg",100
Sample,113685,0,"s_044.ogg",100
Sample,113700,0,"s_049.ogg",100
Sample,113700,0,"s_026.ogg",100
Sample,113700,0,"s_048.ogg",100
Sample,113700,0,"s_070.ogg",100
Sample,113700,0,"s_027.ogg",100
Sample,113700,0,"s_058.ogg",100
Sample,113700,0,"s_015.ogg",100
Sample,113745,0,"s_043.ogg",100
Sample,113745,0,"s_047.ogg",100
Sample,113775,0,"s_065.ogg",100
Sample,113775,0,"s_052.ogg",100
Sample,113775,0,"s_026.ogg",100
Sample,113775,0,"s_072.ogg",100
Sample,113775,0,"s_045.ogg",100
Sample,113775,0,"s_039.ogg",100
Sample,113775,0,"s_014.ogg",100
Sample,113775,0,"s_059.ogg",100
Sample,113775,0,"s_027.ogg",100
Sample,113775,0,"s_034.ogg",100
Sample,113775,0,"s_055.ogg",100
Sample,113775,0,"s_037.ogg",100
Sample,113805,0,"s_042.ogg",100
Sample,113805,0,"s_046.ogg",100
Sample,113850,0,"s_043.ogg",100
Sample,113850,0,"s_075.ogg",100
Sample,113850,0,"s_059.ogg",100
Sample,113865,0,"s_045.ogg",100
Sample,113865,0,"s_041.ogg",100
Sample,113925,0,"s_060.ogg",100
Sample,113925,0,"s_056.ogg",100
Sample,113925,0,"s_020.ogg",100
Sample,113925,0,"s_027.ogg",100
Sample,113925,0,"s_032.ogg",100
Sample,113970,0,"s_048.ogg",100
Sample,113975,0,"s_057.ogg",100
Sample,113985,0,"s_033.ogg",100
Sample,113991,0,"s_028.ogg",100
Sample,114000,0,"s_019.ogg",100
Sample,114000,0,"s_031.ogg",100
Sample,114000,0,"s_061.ogg",100
Sample,114016,0,"s_047.ogg",100
Sample,114025,0,"s_058.ogg",100
Sample,114045,0,"s_034.ogg",100
Sample,114058,0,"s_029.ogg",100
Sample,114063,0,"s_045.ogg",100
Sample,114075,0,"s_030.ogg",100
Sample,114075,0,"s_062.ogg",100
Sample,114075,0,"s_018.ogg",100
Sample,114075,0,"s_046.ogg",100
Sample,114105,0,"s_035.ogg",100
Sample,114109,0,"s_044.ogg",100
Sample,114125,0,"s_028.ogg",100
Sample,114125,0,"s_070.ogg",100
Sample,114150,0,"s_029.ogg",100
Sample,114150,0,"s_017.ogg",100
Sample,114150,0,"s_065.ogg",100
Sample,114155,0,"s_050.ogg",100
Sample,114165,0,"s_036.ogg",100
Sample,114175,0,"s_061.ogg",100
Sample,114191,0,"s_032.ogg",100
Sample,114201,0,"s_049.ogg",100
Sample,114225,0,"s_035.ogg",100
Sample,114225,0,"s_028.ogg",100
Sample,114225,0,"s_016.ogg",100
Sample,114225,0,"s_044.ogg",100
Sample,114225,0,"s_063.ogg",100
Sample,114247,0,"s_047.ogg",100
Sample,114258,0,"s_031.ogg",100
Sample,114275,0,"s_071.ogg",100
Sample,114285,0,"s_036.ogg",100
Sample,114293,0,"s_046.ogg",100
Sample,114300,0,"s_027.ogg",100
Sample,114300,0,"s_041.ogg",100
Sample,114300,0,"s_068.ogg",100
Sample,114325,0,"s_072.ogg",100
Sample,114325,0,"s_030.ogg",100
Sample,114340,0,"s_051.ogg",100
Sample,114345,0,"s_037.ogg",100
Sample,114375,0,"s_026.ogg",100
Sample,114375,0,"s_048.ogg",100
Sample,114375,0,"s_014.ogg",100
Sample,114375,0,"s_062.ogg",100
Sample,114386,0,"s_052.ogg",100
Sample,114391,0,"s_029.ogg",100
Sample,114405,0,"s_038.ogg",100
Sample,114425,0,"s_052.ogg",100
Sample,114432,0,"s_054.ogg",100
Sample,114450,0,"s_015.ogg",100
Sample,114450,0,"s_051.ogg",100
Sample,114450,0,"s_027.ogg",100
Sample,114458,0,"s_028.ogg",100
Sample,114465,0,"s_039.ogg",100
Sample,114478,0,"s_055.ogg",100
Sample,114525,0,"s_056.ogg",100
Sample,114525,0,"s_060.ogg",100
Sample,114525,0,"s_020.ogg",100
Sample,114525,0,"s_032.ogg",100
Sample,114525,0,"s_027.ogg",100
Sample,114570,0,"s_048.ogg",100
Sample,114575,0,"s_057.ogg",100
Sample,114585,0,"s_033.ogg",100
Sample,114591,0,"s_028.ogg",100
Sample,114600,0,"s_061.ogg",100
Sample,114600,0,"s_019.ogg",100
Sample,114600,0,"s_031.ogg",100
Sample,114616,0,"s_047.ogg",100
Sample,114625,0,"s_058.ogg",100
Sample,114645,0,"s_034.ogg",100
Sample,114658,0,"s_029.ogg",100
Sample,114663,0,"s_045.ogg",100
Sample,114675,0,"s_046.ogg",100
Sample,114675,0,"s_018.ogg",100
Sample,114675,0,"s_062.ogg",100
Sample,114675,0,"s_030.ogg",100
Sample,114705,0,"s_035.ogg",100
Sample,114709,0,"s_044.ogg",100
Sample,114725,0,"s_028.ogg",100
Sample,114725,0,"s_070.ogg",100
Sample,114750,0,"s_065.ogg",100
Sample,114750,0,"s_029.ogg",100
Sample,114750,0,"s_017.ogg",100
Sample,114755,0,"s_050.ogg",100
Sample,114765,0,"s_036.ogg",100
Sample,114775,0,"s_061.ogg",100
Sample,114791,0,"s_032.ogg",100
Sample,114801,0,"s_049.ogg",100
Sample,114825,0,"s_028.ogg",100
Sample,114825,0,"s_035.ogg",100
Sample,114825,0,"s_016.ogg",100
Sample,114825,0,"s_063.ogg",100
Sample,114825,0,"s_044.ogg",100
Sample,114847,0,"s_047.ogg",100
Sample,114858,0,"s_031.ogg",100
Sample,114875,0,"s_071.ogg",100
Sample,114885,0,"s_036.ogg",100
Sample,114893,0,"s_046.ogg",100
Sample,114900,0,"s_068.ogg",100
Sample,114900,0,"s_027.ogg",100
Sample,114900,0,"s_041.ogg",100
Sample,114925,0,"s_072.ogg",100
Sample,114925,0,"s_030.ogg",100
Sample,114940,0,"s_051.ogg",100
Sample,114945,0,"s_037.ogg",100
Sample,114975,0,"s_062.ogg",100
Sample,114975,0,"s_014.ogg",100
Sample,114975,0,"s_048.ogg",100
Sample,114975,0,"s_026.ogg",100
Sample,114986,0,"s_052.ogg",100
Sample,114991,0,"s_029.ogg",100
Sample,115005,0,"s_038.ogg",100
Sample,115025,0,"s_052.ogg",100
Sample,115032,0,"s_054.ogg",100
Sample,115050,0,"s_027.ogg",100
Sample,115050,0,"s_015.ogg",100
Sample,115050,0,"s_051.ogg",100
Sample,115058,0,"s_028.ogg",100
Sample,115065,0,"s_039.ogg",100
Sample,115078,0,"s_055.ogg",100
Sample,115125,0,"s_060.ogg",100
Sample,115125,0,"s_056.ogg",100
Sample,115125,0,"s_020.ogg",100
Sample,115125,0,"s_027.ogg",100
Sample,115125,0,"s_032.ogg",100
Sample,115170,0,"s_048.ogg",100
Sample,115175,0,"s_057.ogg",100
Sample,115185,0,"s_033.ogg",100
Sample,115191,0,"s_028.ogg",100
Sample,115200,0,"s_019.ogg",100
Sample,115200,0,"s_031.ogg",100
Sample,115200,0,"s_061.ogg",100
Sample,115216,0,"s_047.ogg",100
Sample,115225,0,"s_058.ogg",100
Sample,115245,0,"s_034.ogg",100
Sample,115258,0,"s_029.ogg",100
Sample,115263,0,"s_045.ogg",100
Sample,115275,0,"s_030.ogg",100
Sample,115275,0,"s_062.ogg",100
Sample,115275,0,"s_018.ogg",100
Sample,115275,0,"s_046.ogg",100
Sample,115305,0,"s_035.ogg",100
Sample,115309,0,"s_044.ogg",100
Sample,115325,0,"s_028.ogg",100
Sample,115325,0,"s_070.ogg",100
Sample,115350,0,"s_029.ogg",100
Sample,115350,0,"s_017.ogg",100
Sample,115350,0,"s_065.ogg",100
Sample,115355,0,"s_050.ogg",100
Sample,115365,0,"s_036.ogg",100
Sample,115375,0,"s_061.ogg",100
Sample,115391,0,"s_032.ogg",100
Sample,115401,0,"s_049.ogg",100
Sample,115425,0,"s_035.ogg",100
Sample,115425,0,"s_028.ogg",100
Sample,115425,0,"s_016.ogg",100
Sample,115425,0,"s_044.ogg",100
Sample,115425,0,"s_063.ogg",100
Sample,115447,0,"s_047.ogg",100
Sample,115458,0,"s_031.ogg",100
Sample,115475,0,"s_071.ogg",100
Sample,115485,0,"s_036.ogg",100
Sample,115493,0,"s_046.ogg",100
Sample,115500,0,"s_027.ogg",100
Sample,115500,0,"s_041.ogg",100
Sample,115500,0,"s_068.ogg",100
Sample,115525,0,"s_072.ogg",100
Sample,115525,0,"s_030.ogg",100
Sample,115540,0,"s_051.ogg",100
Sample,115545,0,"s_037.ogg",100
Sample,115575,0,"s_026.ogg",100
Sample,115575,0,"s_048.ogg",100
Sample,115575,0,"s_014.ogg",100
Sample,115575,0,"s_062.ogg",100
Sample,115586,0,"s_052.ogg",100
Sample,115591,0,"s_029.ogg",100
Sample,115605,0,"s_038.ogg",100
Sample,115625,0,"s_052.ogg",100
Sample,115632,0,"s_054.ogg",100
Sample,115650,0,"s_015.ogg",100
Sample,115650,0,"s_051.ogg",100
Sample,115650,0,"s_027.ogg",100
Sample,115658,0,"s_028.ogg",100
Sample,115665,0,"s_039.ogg",100
Sample,115678,0,"s_055.ogg",100
Sample,115725,0,"s_056.ogg",100
Sample,115725,0,"s_060.ogg",100
Sample,115725,0,"s_020.ogg",100
Sample,115725,0,"s_032.ogg",100
Sample,115725,0,"s_027.ogg",100
Sample,115770,0,"s_048.ogg",100
Sample,115775,0,"s_057.ogg",100
Sample,115785,0,"s_033.ogg",100
Sample,115791,0,"s_028.ogg",100
Sample,115800,0,"s_061.ogg",100
Sample,115800,0,"s_019.ogg",100
Sample,115800,0,"s_031.ogg",100
Sample,115816,0,"s_047.ogg",100
Sample,115825,0,"s_058.ogg",100
Sample,115845,0,"s_034.ogg",100
Sample,115858,0,"s_029.ogg",100
Sample,115863,0,"s_045.ogg",100
Sample,115875,0,"s_046.ogg",100
Sample,115875,0,"s_018.ogg",100
Sample,115875,0,"s_062.ogg",100
Sample,115875,0,"s_030.ogg",100
Sample,115905,0,"s_035.ogg",100
Sample,115909,0,"s_044.ogg",100
Sample,115925,0,"s_028.ogg",100
Sample,115925,0,"s_070.ogg",100
Sample,115950,0,"s_065.ogg",100
Sample,115950,0,"s_029.ogg",100
Sample,115950,0,"s_017.ogg",100
Sample,115955,0,"s_050.ogg",100
Sample,115965,0,"s_036.ogg",100
Sample,115975,0,"s_061.ogg",100
Sample,115991,0,"s_032.ogg",100
Sample,116001,0,"s_049.ogg",100
Sample,116025,0,"s_028.ogg",100
Sample,116025,0,"s_035.ogg",100
Sample,116025,0,"s_016.ogg",100
Sample,116025,0,"s_063.ogg",100
Sample,116025,0,"s_044.ogg",100
Sample,116047,0,"s_047.ogg",100
Sample,116058,0,"s_031.ogg",100
Sample,116075,0,"s_071.ogg",100
Sample,116085,0,"s_036.ogg",100
Sample,116093,0,"s_046.ogg",100
Sample,116100,0,"s_068.ogg",100
Sample,116100,0,"s_027.ogg",100
Sample,116100,0,"s_041.ogg",100
Sample,116125,0,"s_072.ogg",100
Sample,116125,0,"s_030.ogg",100
Sample,116140,0,"s_051.ogg",100
Sample,116145,0,"s_037.ogg",100
Sample,116175,0,"s_062.ogg",100
Sample,116175,0,"s_014.ogg",100
Sample,116175,0,"s_048.ogg",100
Sample,116175,0,"s_026.ogg",100
Sample,116186,0,"s_052.ogg",100
Sample,116191,0,"s_029.ogg",100
Sample,116205,0,"s_038.ogg",100
Sample,116225,0,"s_052.ogg",100
Sample,116232,0,"s_054.ogg",100
Sample,116250,0,"s_027.ogg",100
Sample,116250,0,"s_015.ogg",100
Sample,116250,0,"s_051.ogg",100
Sample,116258,0,"s_028.ogg",100
Sample,116265,0,"s_039.ogg",100
Sample,116278,0,"s_055.ogg",100
Sample,116325,0,"s_060.ogg",100
Sample,116325,0,"s_056.ogg",100
Sample,116325,0,"s_020.ogg",100
Sample,116325,0,"s_027.ogg",100
Sample,116325,0,"s_032.ogg",100
Sample,116370,0,"s_048.ogg",100
Sample,116375,0,"s_057.ogg",100
Sample,116385,0,"s_033.ogg",100
Sample,116391,0,"s_028.ogg",100
Sample,116400,0,"s_019.ogg",100
Sample,116400,0,"s_031.ogg",100
Sample,116400,0,"s_061.ogg",100
Sample,116416,0,"s_047.ogg",100
Sample,116425,0,"s_058.ogg",100
Sample,116445,0,"s_034.ogg",100
Sample,116458,0,"s_029.ogg",100
Sample,116463,0,"s_045.ogg",100
Sample,116475,0,"s_030.ogg",100
Sample,116475,0,"s_062.ogg",100
Sample,116475,0,"s_018.ogg",100
Sample,116475,0,"s_046.ogg",100
Sample,116505,0,"s_035.ogg",100
Sample,116509,0,"s_044.ogg",100
Sample,116525,0,"s_028.ogg",100
Sample,116525,0,"s_070.ogg",100
Sample,116550,0,"s_029.ogg",100
Sample,116550,0,"s_017.ogg",100
Sample,116550,0,"s_065.ogg",100
Sample,116555,0,"s_050.ogg",100
Sample,116565,0,"s_036.ogg",100
Sample,116575,0,"s_061.ogg",100
Sample,116591,0,"s_032.ogg",100
Sample,116601,0,"s_049.ogg",100
Sample,116625,0,"s_035.ogg",100
Sample,116625,0,"s_028.ogg",100
Sample,116625,0,"s_016.ogg",100
Sample,116625,0,"s_044.ogg",100
Sample,116625,0,"s_063.ogg",100
Sample,116647,0,"s_047.ogg",100
Sample,116658,0,"s_031.ogg",100
Sample,116675,0,"s_071.ogg",100
Sample,116685,0,"s_036.ogg",100
Sample,116693,0,"s_046.ogg",100
Sample,116700,0,"s_027.ogg",100
Sample,116700,0,"s_041.ogg",100
Sample,116700,0,"s_068.ogg",100
Sample,116725,0,"s_072.ogg",100
Sample,116725,0,"s_030.ogg",100
Sample,116740,0,"s_051.ogg",100
Sample,116745,0,"s_037.ogg",100
Sample,116775,0,"s_026.ogg",100
Sample,116775,0,"s_048.ogg",100
Sample,116775,0,"s_014.ogg",100
Sample,116775,0,"s_062.ogg",100
Sample,116786,0,"s_052.ogg",100
Sample,116791,0,"s_029.ogg",100
Sample,116805,0,"s_038.ogg",100
Sample,116825,0,"s_052.ogg",100
Sample,116832,0,"s_054.ogg",100
Sample,116850,0,"s_051.ogg",100
Sample,116850,0,"s_015.ogg",100
Sample,116850,0,"s_027.ogg",100
Sample,116858,0,"s_028.ogg",100
Sample,116865,0,"s_039.ogg",100
Sample,116878,0,"s_055.ogg",100
Sample,116925,0,"s_020.ogg",100
Sample,116925,0,"s_027.ogg",100
Sample,116925,0,"s_032.ogg",100
Sample,116925,0,"s_060.ogg",100
Sample,116925,0,"s_036.ogg",100
Sample,116967,0,"s_059.ogg",100
Sample,116970,0,"s_048.ogg",100
Sample,116975,0,"s_057.ogg",100
Sample,116985,0,"s_033.ogg",100
Sample,116991,0,"s_028.ogg",100
Sample,117000,0,"s_019.ogg",100
Sample,117000,0,"s_061.ogg",100
Sample,117010,0,"s_060.ogg",100
Sample,117016,0,"s_047.ogg",100
Sample,117025,0,"s_036.ogg",100
Sample,117045,0,"s_034.ogg",100
Sample,117053,0,"s_069.ogg",100
Sample,117058,0,"s_029.ogg",100
Sample,117063,0,"s_045.ogg",100
Sample,117075,0,"s_059.ogg",100
Sample,117075,0,"s_030.ogg",100
Sample,117075,0,"s_018.ogg",100
Sample,117091,0,"s_041.ogg",100
Sample,117096,0,"s_060.ogg",100
Sample,117105,0,"s_035.ogg",100
Sample,117109,0,"s_044.ogg",100
Sample,117125,0,"s_052.ogg",100
Sample,117125,0,"s_028.ogg",100
Sample,117125,0,"s_060.ogg",100
Sample,117138,0,"s_069.ogg",100
Sample,117150,0,"s_029.ogg",100
Sample,117150,0,"s_017.ogg",100
Sample,117155,0,"s_050.ogg",100
Sample,117158,0,"s_048.ogg",100
Sample,117165,0,"s_036.ogg",100
Sample,117175,0,"s_055.ogg",100
Sample,117181,0,"s_070.ogg",100
Sample,117191,0,"s_051.ogg",100
Sample,117191,0,"s_032.ogg",100
Sample,117201,0,"s_049.ogg",100
Sample,117225,0,"s_028.ogg",100
Sample,117225,0,"s_035.ogg",100
Sample,117225,0,"s_063.ogg",100
Sample,117225,0,"s_041.ogg",100
Sample,117225,0,"s_016.ogg",100
Sample,117247,0,"s_047.ogg",100
Sample,117258,0,"s_031.ogg",100
Sample,117258,0,"s_056.ogg",100
Sample,117275,0,"s_055.ogg",100
Sample,117275,0,"s_062.ogg",100
Sample,117285,0,"s_036.ogg",100
Sample,117285,0,"s_048.ogg",100
Sample,117291,0,"s_060.ogg",100
Sample,117293,0,"s_046.ogg",100
Sample,117300,0,"s_015.ogg",100
Sample,117325,0,"s_030.ogg",100
Sample,117325,0,"s_060.ogg",100
Sample,117325,0,"s_054.ogg",100
Sample,117325,0,"s_071.ogg",100
Sample,117325,0,"s_063.ogg",100
Sample,117340,0,"s_051.ogg",100
Sample,117345,0,"s_037.ogg",100
Sample,117345,0,"s_051.ogg",100
Sample,117358,0,"s_064.ogg",100
Sample,117375,0,"s_053.ogg",100
Sample,117375,0,"s_026.ogg",100
Sample,117375,0,"s_079.ogg",100
Sample,117375,0,"s_014.ogg",100
Sample,117386,0,"s_052.ogg",100
Sample,117391,0,"s_029.ogg",100
Sample,117391,0,"s_065.ogg",100
Sample,117405,0,"s_038.ogg",100
Sample,117425,0,"s_080.ogg",100
Sample,117425,0,"s_052.ogg",100
Sample,117425,0,"s_068.ogg",100
Sample,117432,0,"s_054.ogg",100
Sample,117450,0,"s_015.ogg",100
Sample,117458,0,"s_072.ogg",100
Sample,117458,0,"s_028.ogg",100
Sample,117475,0,"s_081.ogg",100
Sample,117475,0,"s_063.ogg",100
Sample,117478,0,"s_055.ogg",100
Sample,117725,0,"s_039.ogg",100
Sample,117725,0,"s_046.ogg",100
Sample,117725,0,"s_050.ogg",100
Sample,117725,0,"s_044.ogg",100
Sample,117725,0,"s_041.ogg",100
Sample,117725,0,"s_043.ogg",100
Sample,117725,0,"s_048.ogg",100
Sample,117725,0,"s_029.ogg",100
Sample,117725,0,"s_051.ogg",100
Sample,117725,0,"s_032.ogg",100
Sample,117725,0,"s_036.ogg",100
Sample,117725,0,"s_038.ogg",100
Sample,118005,0,"s_040.ogg",100
Sample,118225,0,"s_067.ogg",100
Sample,118275,0,"s_066.ogg",100
Sample,118275,0,"s_067.ogg",100
Sample,118291,0,"s_057.ogg",100
Sample,118325,0,"s_065.ogg",100
Sample,118325,0,"s_067.ogg",100
Sample,118358,0,"s_050.ogg",100
Sample,118375,0,"s_067.ogg",100
Sample,118375,0,"s_064.ogg",100
Sample,118425,0,"s_049.ogg",100
Sample,118467,0,"s_054.ogg",100
Sample,118485,0,"s_059.ogg",100
Sample,118510,0,"s_045.ogg",100
Sample,118553,0,"s_046.ogg",100
Sample,118553,0,"s_045.ogg",100
Sample,118596,0,"s_044.ogg",100
Sample,118638,0,"s_041.ogg",100
Sample,118681,0,"s_038.ogg",100
Sample,118725,0,"s_041.ogg",100
Sample,118725,0,"s_044.ogg",100
Sample,118725,0,"s_034.ogg",100
Sample,118725,0,"s_046.ogg",100
Sample,118767,0,"s_044.ogg",100
Sample,118810,0,"s_043.ogg",100
Sample,118853,0,"s_042.ogg",100
Sample,118975,0,"s_026.ogg",100
Sample,119025,0,"s_027.ogg",100
Sample,119075,0,"s_029.ogg",100
Sample,119125,0,"s_029.ogg",100
Sample,119175,0,"s_016.ogg",100
Sample,119225,0,"s_031.ogg",100
Sample,119250,0,"s_012.ogg",100
Sample,119325,0,"s_017.ogg",100
Sample,119325,0,"s_004.ogg",100
Sample,119325,0,"s_015.ogg",100
Sample,119325,0,"s_012.ogg",100
Sample,119325,0,"s_022.ogg",100
Sample,119325,0,"s_016.ogg",100
Sample,119325,0,"s_020.ogg",100
Sample,119325,0,"s_010.ogg",100
Sample,119325,0,"s_019.ogg",100
Sample,119325,0,"s_009.ogg",100
Sample,119325,0,"s_023.ogg",100
Sample,119325,0,"s_021.ogg",100
Sample,119325,0,"s_018.ogg",100
Sample,119325,0,"s_007.ogg",100

[TimingPoints]
0,300.000000000001,4,2,0,100,1,0
32850,300.000000000001,4,2,0,100,1,0
45600,300.000000000001,4,2,0,100,1,0
67125,300.000000000001,4,2,0,100,1,0

[HitObjects]
76,192,1050,5,0,0:0:0:0:s_039.ogg
128,192,1050,1,0,0:0:0:0:s_063.ogg
179,192,1050,1,0,0:0:0:0:s_051.ogg
332,192,1125,1,0,0:0:0:0:s_063.ogg
384,192,1125,1,0,0:0:0:0:s_051.ogg
435,192,1125,1,0,0:0:0:0:s_027.ogg
76,192,1200,1,0,0:0:0:0:m_039.ogg
128,192,1200,1,0,0:0:0:0:m_063.ogg
179,192,1200,1,0,0:0:0:0:m_051.ogg
76,192,1650,1,0,0:0:0:0:s_039.ogg
128,192,1650,1,0,0:0:0:0:s_063.ogg
179,192,1650,1,0,0:0:0:0:s_051.ogg
332,192,1725,1,0,0:0:0:0:s_051.ogg
384,192,1725,1,0,0:0:0:0:s_027.ogg
435,192,1725,1,0,0:0:0:0:s_063.ogg
76,192,1800,1,0,0:0:0:0:m_039.ogg
128,192,1800,1,0,0:0:0:0:m_063.ogg
179,192,1800,1,0,0:0:0:0:m_027.ogg
76,192,2250,1,0,0:0:0:0:s_039.ogg
128,192,2250,1,0,0:0:0:0:s_063.ogg
179,192,2250,1,0,0:0:0:0:s_051.ogg
332,192,2325,1,0,0:0:0:0:s_063.ogg
384,192,2325,1,0,0:0:0:0:s_051.ogg
435,192,2325,1,0,0:0:0:0:s_027.ogg
76,192,2400,1,0,0:0:0:0:s_051.ogg
128,192,2400,1,0,0:0:0:0:s_063.ogg
179,192,2400,1,0,0:0:0:0:s_039.ogg
332,192,2475,1,0,0:0:0:0:s_051.ogg
384,192,2475,1,0,0:0:0:0:s_027.ogg
435,192,2475,1,0,0:0:0:0:s_063.ogg
76,192,2550,1,0,0:0:0:0:s_055.ogg
128,192,2550,1,0,0:0:0:0:s_051.ogg
179,192,2550,1,0,0:0:0:0:s_027.ogg
25,192,2700,1,0,0:0:0:0:s_039.ogg
76,192,2700,1,0,0:0:0:0:s_015.ogg
128,192,2700,1,0,0:0:0:0:s_044.ogg
281,192,2775,1,0,0:0:0:0:s_032.ogg
332,192,2775,1,0,0:0:0:0:s_056.ogg
384,192,2775,1,0,0:0:0:0:s_051.ogg
25,192,2850,1,0,0:0:0:0:s_030.ogg
76,192,2850,1,0,0:0:0:0:s_033.ogg
128,192,2850,1,0,0:0:0:0:s_051.ogg
76,192,3000,1,0,0:0:0:0:s_015.ogg
128,192,3000,1,0,0:0:0:0:s_043.ogg
179,192,3000,1,0,0:0:0:0:s_039.ogg
332,192,3075,1,0,0:0:0:0:s_051.ogg
384,192,3075,1,0,0:0:0:0:s_058.ogg
435,192,3075,1,0,0:0:0:0:s_027.ogg
76,192,3150,1,0,0:0:0:0:s_031.ogg
128,192,3150,1,0,0:0:0:0:s_035.ogg
179,192,3150,1,0,0:0:0:0:s_051.ogg
128,192,3300,1,0,0:0:0:0:s_015.ogg
179,192,3300,1,0,0:0:0:0:s_044.ogg
230,192,3300,1,0,0:0:0:0:s_048.ogg
384,192,3375,1,0,0:0:0:0:s_063.ogg
435,192,3375,1,0,0:0:0:0:s_056.ogg
486,192,3375,1,0,0:0:0:0:s_036.ogg
128,192,3450,1,0,0:0:0:0:s_033.ogg
179,192,3450,1,0,0:0:0:0:s_027.ogg
230,192,3450,1,0,0:0:0:0:s_063.ogg
76,192,3600,1,0,0:0:0:0:m_043.ogg
128,192,3600,1,0,0:0:0:0:m_034.ogg
179,192,3600,1,0,0:0:0:0:m_015.ogg
332,192,3600,1,0,0:0:0:0:m_046.ogg
384,192,3600,1,0,0:0:0:0:m_037.ogg
435,192,3600,1,0,0:0:0:0:m_027.ogg
25,192,3975,1,0,0:0:0:0:s_040.ogg
128,192,3975,1,0,0:0:0:0:s_044.ogg
230,192,3975,1,0,0:0:0:0:s_033.ogg
76,192,4050,1,0,0:0:0:0:s_045.ogg
179,192,4050,1,0,0:0:0:0:s_025.ogg
281,192,4050,1,0,0:0:0:0:s_041.ogg
128,192,4125,1,0,0:0:0:0:s_042.ogg
230,192,4125,1,0,0:0:0:0:s_024.ogg
332,192,4125,1,0,0:0:0:0:s_046.ogg
179,192,4200,1,0,0:0:0:0:s_043.ogg
281,192,4200,1,0,0:0:0:0:s_023.ogg
384,192,4200,1,0,0:0:0:0:s_047.ogg
230,192,4275,1,0,0:0:0:0:s_044.ogg
332,192,4275,1,0,0:0:0:0:s_029.ogg
435,192,4275,1,0,0:0:0:0:s_048.ogg
179,192,4350,1,0,0:0:0:0:s_045.ogg
281,192,4350,1,0,0:0:0:0:s_021.ogg
384,192,4350,1,0,0:0:0:0:s_049.ogg
128,192,4425,1,0,0:0:0:0:s_046.ogg
230,192,4425,1,0,0:0:0:0:s_020.ogg
332,192,4425,1,0,0:0:0:0:s_050.ogg
76,192,4500,1,0,0:0:0:0:s_019.ogg
179,192,4500,1,0,0:0:0:0:s_051.ogg
281,192,4500,1,0,0:0:0:0:s_047.ogg
128,192,4575,1,0,0:0:0:0:s_048.ogg
230,192,4575,1,0,0:0:0:0:s_025.ogg
332,192,4575,1,0,0:0:0:0:s_052.ogg
179,192,4650,1,0,0:0:0:0:s_053.ogg
281,192,4650,1,0,0:0:0:0:s_024.ogg
384,192,4650,1,0,0:0:0:0:s_049.ogg
230,192,4725,1,0,0:0:0:0:s_054.ogg
332,192,4725,1,0,0:0:0:0:s_016.ogg
435,192,4725,1,0,0:0:0:0:s_050.ogg
281,192,4800,1,0,0:0:0:0:s_051.ogg
384,192,4800,1,0,0:0:0:0:s_015.ogg
486,192,4800,1,0,0:0:0:0:s_055.ogg
435,192,5850,1,0,0:0:0:0:s_053.ogg
486,192,5900,1,0,0:0:0:0:s_055.ogg
435,192,5950,1,0,0:0:0:0:s_053.ogg
25,192,6000,1,0,0:0:0:0:s_075.ogg
128,192,6000,1,0,0:0:0:0:s_051.ogg
281,192,6000,1,0,0:0:0:0:s_020.ogg
384,192,6000,1,0,0:0:0:0:s_032.ogg
179,192,6150,1,0,0:0:0:0:s_072.ogg
230,192,6150,1,0,0:0:0:0:s_046.ogg
435,192,6150,1,0,0:0:0:0:s_056.ogg
486,192,6150,1,0,0:0:0:0:s_036.ogg
25,192,6300,1,0,0:0:0:0:s_068.ogg
76,192,6300,1,0,0:0:0:0:s_044.ogg
281,192,6300,1,0,0:0:0:0:s_015.ogg
384,192,6300,1,0,0:0:0:0:s_027.ogg
179,192,6450,1,0,0:0:0:0:s_065.ogg
230,192,6450,1,0,0:0:0:0:s_063.ogg
435,192,6450,1,0,0:0:0:0:s_056.ogg
486,192,6450,1,0,0:0:0:0:s_036.ogg
25,192,6600,1,0,0:0:0:0:s_063.ogg
128,192,6600,1,0,0:0:0:0:s_039.ogg
281,192,6600,1,0,0:0:0:0:s_020.ogg
332,192,6600,1,0,0:0:0:0:s_032.ogg
179,192,6750,1,0,0:0:0:0:s_068.ogg
230,192,6750,1,0,0:0:0:0:s_051.ogg
435,192,6750,1,0,0:0:0:0:s_046.ogg
486,192,6750,1,0,0:0:0:0:s_036.ogg
25,192,6900,1,0,0:0:0:0:s_027.ogg
76,192,6900,1,0,0:0:0:0:s_041.ogg
384,192,6900,128,0,7200:0:0:0:0:m_053.ogg
332,192,6900,128,0,7200:0:0:0:0:m_065.ogg
179,192,7050,1,0,0:0:0:0:s_051.ogg
230,192,7050,1,0,0:0:0:0:s_041.ogg
25,192,7200,1,0,0:0:0:0:s_063.ogg
128,192,7200,1,0,0:0:0:0:s_039.ogg
281,192,7200,1,0,0:0:0:0:s_020.ogg
435,192,7200,1,0,0:0:0:0:s_032.ogg
179,192,7350,1,0,0:0:0:0:s_047.ogg
384,192,7350,1,0,0:0:0:0:s_071.ogg
486,192,7350,1,0,0:0:0:0:s_059.ogg
230,192,7425,1,0,0:0:0:0:s_046.ogg
25,192,7500,1,0,0:0:0:0:s_038.ogg
76,192,7500,1,0,0:0:0:0:m_065.ogg
281,192,7500,128,0,7800:0:0:0:0:m_041.ogg
435,192,7500,128,0,7800:0:0:0:0:m_053.ogg
179,192,7650,1,0,0:0:0:0:s_051.ogg
230,192,7650,1,0,0:0:0:0:s_036.ogg
25,192,7800,1,0,0:0:0:0:s_020.ogg
128,192,7800,1,0,0:0:0:0:s_037.ogg
332,192,7800,1,0,0:0:0:0:s_061.ogg
384,192,7875,1,0,0:0:0:0:s_050.ogg
179,192,7950,1,0,0:0:0:0:s_039.ogg
435,192,7950,1,0,0:0:0:0:s_063.ogg
230,192,8025,1,0,0:0:0:0:s_036.ogg
281,192,8025,1,0,0:0:0:0:s_060.ogg
25,192,8100,1,0,0:0:0:0:s_063.ogg
76,192,8100,1,0,0:0:0:0:s_039.ogg
384,192,8100,1,0,0:0:0:0:s_044.ogg
435,192,8100,1,0,0:0:0:0:s_032.ogg
179,192,8250,1,0,0:0:0:0:s_051.ogg
230,192,8250,1,0,0:0:0:0:s_036.ogg
332,192,8250,1,0,0:0:0:0:s_056.ogg
486,192,8300,1,0,0:0:0:0:s_048.ogg
332,192,8350,1,0,0:0:0:0:s_058.ogg
25,192,8400,1,0,0:0:0:0:m_037.ogg
384,192,8400,1,0,0:0:0:0:m_025.ogg
435,192,8400,1,0,0:0:0:0:s_044.ogg
128,192,8400,128,0,8850:0:0:0:0:m_013.ogg
179,192,8550,1,0,0:0:0:0:s_065.ogg
230,192,8550,1,0,0:0:0:0:s_044.ogg
281,192,8550,1,0,0:0:0:0:s_039.ogg
384,192,8550,1,0,0:0:0:0:s_029.ogg
332,192,8700,1,0,0:0:0:0:s_056.ogg
435,192,8700,1,0,0:0:0:0:s_044.ogg
76,192,8850,1,0,0:0:0:0:s_053.ogg
230,192,8850,1,0,0:0:0:0:s_061.ogg
384,192,8850,1,0,0:0:0:0:s_029.ogg
486,192,8850,1,0,0:0:0:0:s_024.ogg
128,192,9000,1,0,0:0:0:0:m_010.ogg
281,192,9000,1,0,0:0:0:0:s_044.ogg
332,192,9000,1,0,0:0:0:0:m_034.ogg
25,192,9000,128,0,9450:0:0:0:0:m_022.ogg
179,192,9150,1,0,0:0:0:0:s_077.ogg
230,192,9150,1,0,0:0:0:0:s_049.ogg
384,192,9150,1,0,0:0:0:0:s_056.ogg
435,192,9150,1,0,0:0:0:0:s_029.ogg
281,192,9300,1,0,0:0:0:0:s_044.ogg
332,192,9300,1,0,0:0:0:0:s_056.ogg
179,192,9450,1,0,0:0:0:0:s_081.ogg
230,192,9450,1,0,0:0:0:0:s_044.ogg
435,192,9450,1,0,0:0:0:0:s_061.ogg
486,192,9450,1,0,0:0:0:0:s_029.ogg
128,192,9600,1,0,0:0:0:0:s_022.ogg
281,192,9600,1,0,0:0:0:0:s_055.ogg
486,192,9600,1,0,0:0:0:0:s_015.ogg
76,192,9675,1,0,0:0:0:0:s_025.ogg
230,192,9675,1,0,0:0:0:0:s_054.ogg
435,192,9675,1,0,0:0:0:0:s_016.ogg
25,192,9750,1,0,0:0:0:0:s_053.ogg
179,192,9750,1,0,0:0:0:0:s_017.ogg
384,192,9750,1,0,0:0:0:0:s_037.ogg
128,192,9825,1,0,0:0:0:0:s_031.ogg
332,192,9825,1,0,0:0:0:0:s_041.ogg
486,192,9825,1,0,0:0:0:0:s_052.ogg
76,192,9900,1,0,0:0:0:0:s_034.ogg
281,192,9900,1,0,0:0:0:0:s_019.ogg
435,192,9900,1,0,0:0:0:0:s_051.ogg
25,192,9975,1,0,0:0:0:0:s_029.ogg
230,192,9975,1,0,0:0:0:0:s_050.ogg
384,192,9975,1,0,0:0:0:0:s_037.ogg
179,192,10050,1,0,0:0:0:0:s_049.ogg
332,192,10050,1,0,0:0:0:0:s_021.ogg
486,192,10050,1,0,0:0:0:0:s_031.ogg
128,192,10125,1,0,0:0:0:0:s_022.ogg
281,192,10125,1,0,0:0:0:0:s_043.ogg
435,192,10125,1,0,0:0:0:0:s_048.ogg
76,192,10200,1,0,0:0:0:0:s_037.ogg
230,192,10200,1,0,0:0:0:0:s_047.ogg
384,192,10200,1,0,0:0:0:0:s_046.ogg
25,192,10275,1,0,0:0:0:0:s_031.ogg
179,192,10275,1,0,0:0:0:0:s_046.ogg
332,192,10275,1,0,0:0:0:0:s_024.ogg
128,192,10350,1,0,0:0:0:0:s_034.ogg
281,192,10350,1,0,0:0:0:0:s_045.ogg
486,192,10350,1,0,0:0:0:0:s_043.ogg
76,192,10425,1,0,0:0:0:0:s_044.ogg
230,192,10425,1,0,0:0:0:0:s_026.ogg
435,192,10425,1,0,0:0:0:0:s_046.ogg
25,192,10500,1,0,0:0:0:0:s_043.ogg
179,192,10500,1,0,0:0:0:0:s_027.ogg
384,192,10500,1,0,0:0:0:0:s_039.ogg
435,192,10650,1,0,0:0:0:0:s_053.ogg
486,192,10700,1,0,0:0:0:0:s_055.ogg
435,192,10750,1,0,0:0:0:0:s_053.ogg
25,192,10800,1,0,0:0:0:0:s_075.ogg
128,192,10800,1,0,0:0:0:0:s_051.ogg
281,192,10800,1,0,0:0:0:0:s_020.ogg
384,192,10800,1,0,0:0:0:0:s_032.ogg
179,192,10950,1,0,0:0:0:0:s_072.ogg
230,192,10950,1,0,0:0:0:0:s_046.ogg
435,192,10950,1,0,0:0:0:0:s_056.ogg
486,192,10950,1,0,0:0:0:0:s_036.ogg
25,192,11100,1,0,0:0:0:0:s_068.ogg
76,192,11100,1,0,0:0:0:0:s_044.ogg
281,192,11100,1,0,0:0:0:0:s_015.ogg
384,192,11100,1,0,0:0:0:0:s_027.ogg
179,192,11250,1,0,0:0:0:0:s_065.ogg
230,192,11250,1,0,0:0:0:0:s_063.ogg
435,192,11250,1,0,0:0:0:0:s_056.ogg
486,192,11250,1,0,0:0:0:0:s_036.ogg
25,192,11400,1,0,0:0:0:0:s_063.ogg
128,192,11400,1,0,0:0:0:0:s_039.ogg
281,192,11400,1,0,0:0:0:0:s_020.ogg
332,192,11400,1,0,0:0:0:0:s_032.ogg
179,192,11550,1,0,0:0:0:0:s_068.ogg
230,192,11550,1,0,0:0:0:0:s_051.ogg
384,192,11550,1,0,0:0:0:0:s_046.ogg
486,192,11550,1,0,0:0:0:0:s_036.ogg
25,192,11700,1,0,0:0:0:0:s_027.ogg
76,192,11700,1,0,0:0:0:0:s_041.ogg
435,192,11700,128,0,12000:0:0:0:0:m_053.ogg
332,192,11700,128,0,12000:0:0:0:0:m_065.ogg
179,192,11850,1,0,0:0:0:0:s_056.ogg
230,192,11850,1,0,0:0:0:0:s_041.ogg
25,192,12000,1,0,0:0:0:0:s_032.ogg
128,192,12000,1,0,0:0:0:0:s_063.ogg
281,192,12000,1,0,0:0:0:0:s_051.ogg
332,192,12075,1,0,0:0:0:0:s_042.ogg
179,192,12150,1,0,0:0:0:0:s_056.ogg
230,192,12150,1,0,0:0:0:0:s_046.ogg
384,192,12150,1,0,0:0:0:0:s_070.ogg
435,192,12225,1,0,0:0:0:0:s_063.ogg
25,192,12300,1,0,0:0:0:0:s_065.ogg
76,192,12300,1,0,0:0:0:0:s_020.ogg
332,192,12300,1,0,0:0:0:0:s_077.ogg
384,192,12375,1,0,0:0:0:0:s_054.ogg
179,192,12450,1,0,0:0:0:0:s_056.ogg
230,192,12450,1,0,0:0:0:0:s_055.ogg
435,192,12450,1,0,0:0:0:0:s_067.ogg
486,192,12525,1,0,0:0:0:0:s_072.ogg
25,192,12600,1,0,0:0:0:0:m_037.ogg
281,192,12600,1,0,0:0:0:0:s_058.ogg
435,192,12600,1,0,0:0:0:0:m_013.ogg
128,192,12600,128,0,13050:0:0:0:0:m_025.ogg
179,192,12750,1,0,0:0:0:0:s_080.ogg
230,192,12750,1,0,0:0:0:0:s_044.ogg
332,192,12750,1,0,0:0:0:0:s_051.ogg
384,192,12750,1,0,0:0:0:0:s_036.ogg
384,192,12900,128,0,13200:0:0:0:0:m_080.ogg
332,192,12900,128,0,13200:0:0:0:0:m_068.ogg
76,192,13050,1,0,0:0:0:0:s_041.ogg
230,192,13050,1,0,0:0:0:0:s_024.ogg
128,192,13200,1,0,0:0:0:0:m_022.ogg
281,192,13200,1,0,0:0:0:0:s_073.ogg
25,192,13200,128,0,13650:0:0:0:0:m_010.ogg
332,192,13275,1,0,0:0:0:0:s_068.ogg
179,192,13350,1,0,0:0:0:0:s_080.ogg
230,192,13350,1,0,0:0:0:0:s_070.ogg
384,192,13350,1,0,0:0:0:0:s_064.ogg
281,192,13425,1,0,0:0:0:0:s_076.ogg
486,192,13500,1,0,0:0:0:0:s_073.ogg
384,192,13575,1,0,0:0:0:0:s_063.ogg
76,192,13650,1,0,0:0:0:0:s_036.ogg
435,192,13650,1,0,0:0:0:0:s_064.ogg
128,192,13725,1,0,0:0:0:0:s_037.ogg
332,192,13725,1,0,0:0:0:0:s_070.ogg
179,192,13800,1,0,0:0:0:0:m_015.ogg
281,192,13800,1,0,0:0:0:0:s_060.ogg
230,192,13800,128,0,14175:0:0:0:0:m_003.ogg
332,192,13875,1,0,0:0:0:0:s_063.ogg
25,192,13950,1,0,0:0:0:0:s_075.ogg
76,192,13950,1,0,0:0:0:0:s_068.ogg
384,192,13950,1,0,0:0:0:0:s_060.ogg
281,192,14025,1,0,0:0:0:0:s_063.ogg
486,192,14100,1,0,0:0:0:0:s_059.ogg
25,192,14175,1,0,0:0:0:0:s_029.ogg
384,192,14175,1,0,0:0:0:0:s_067.ogg
76,192,14250,1,0,0:0:0:0:s_031.ogg
435,192,14250,1,0,0:0:0:0:s_068.ogg
128,192,14325,1,0,0:0:0:0:s_032.ogg
332,192,14325,1,0,0:0:0:0:s_065.ogg
179,192,14400,1,0,0:0:0:0:s_063.ogg
230,192,14400,1,0,0:0:0:0:s_055.ogg
384,192,14400,1,0,0:0:0:0:s_049.ogg
281,192,14475,1,0,0:0:0:0:s_054.ogg
25,192,14550,1,0,0:0:0:0:s_063.ogg
76,192,14550,1,0,0:0:0:0:s_055.ogg
332,192,14550,1,0,0:0:0:0:s_046.ogg
384,192,14625,1,0,0:0:0:0:s_056.ogg
128,192,14700,1,0,0:0:0:0:s_067.ogg
179,192,14700,1,0,0:0:0:0:s_058.ogg
435,192,14700,1,0,0:0:0:0:s_049.ogg
332,192,14775,1,0,0:0:0:0:s_063.ogg
25,192,14850,1,0,0:0:0:0:s_067.ogg
76,192,14850,1,0,0:0:0:0:s_058.ogg
384,192,14850,1,0,0:0:0:0:s_039.ogg
486,192,14925,1,0,0:0:0:0:s_063.ogg
128,192,15000,1,0,0:0:0:0:s_053.ogg
230,192,15000,1,0,0:0:0:0:s_070.ogg
332,192,15000,1,0,0:0:0:0:s_020.ogg
435,192,15000,1,0,0:0:0:0:s_046.ogg
76,192,15150,1,0,0:0:0:0:s_044.ogg
179,192,15150,1,0,0:0:0:0:s_068.ogg
281,192,15150,1,0,0:0:0:0:s_060.ogg
384,192,15150,1,0,0:0:0:0:s_051.ogg
384,192,15300,1,0,0:0:0:0:s_044.ogg
435,192,15300,1,0,0:0:0:0:m_068.ogg
486,192,15300,1,0,0:0:0:0:m_060.ogg
128,192,15350,1,0,0:0:0:0:s_038.ogg
179,192,15350,1,0,0:0:0:0:s_042.ogg
230,192,15350,1,0,0:0:0:0:s_045.ogg
384,192,15400,1,0,0:0:0:0:m_044.ogg
435,192,15400,1,0,0:0:0:0:s_048.ogg
486,192,15400,1,0,0:0:0:0:s_038.ogg
128,192,15450,1,0,0:0:0:0:s_047.ogg
179,192,15450,1,0,0:0:0:0:s_037.ogg
230,192,15450,1,0,0:0:0:0:s_038.ogg
332,192,15500,1,0,0:0:0:0:s_036.ogg
384,192,15500,1,0,0:0:0:0:s_034.ogg
435,192,15500,1,0,0:0:0:0:s_043.ogg
76,192,15550,1,0,0:0:0:0:s_033.ogg
128,192,15550,1,0,0:0:0:0:s_030.ogg
179,192,15550,1,0,0:0:0:0:s_040.ogg
332,192,15600,1,0,0:0:0:0:s_030.ogg
384,192,15600,1,0,0:0:0:0:s_032.ogg
435,192,15600,1,0,0:0:0:0:s_035.ogg
76,192,15650,1,0,0:0:0:0:s_035.ogg
128,192,15650,1,0,0:0:0:0:s_029.ogg
179,192,15650,1,0,0:0:0:0:s_031.ogg
281,192,15700,1,0,0:0:0:0:s_032.ogg
332,192,15700,1,0,0:0:0:0:s_036.ogg
384,192,15700,1,0,0:0:0:0:s_031.ogg
25,192,15750,1,0,0:0:0:0:s_033.ogg
76,192,15750,1,0,0:0:0:0:s_077.ogg
128,192,15750,1,0,0:0:0:0:s_023.ogg
281,192,15800,1,0,0:0:0:0:s_024.ogg
332,192,15800,1,0,0:0:0:0:s_031.ogg
384,192,15800,1,0,0:0:0:0:s_025.ogg
25,192,15850,1,0,0:0:0:0:s_028.ogg
76,192,15850,1,0,0:0:0:0:s_030.ogg
128,192,15850,1,0,0:0:0:0:s_025.ogg
435,192,15900,1,0,0:0:0:0:s_020.ogg
486,192,15900,1,0,0:0:0:0:s_051.ogg
179,192,16050,1,0,0:0:0:0:s_072.ogg
230,192,16050,1,0,0:0:0:0:s_046.ogg
384,192,16050,1,0,0:0:0:0:s_056.ogg
486,192,16050,1,0,0:0:0:0:s_036.ogg
25,192,16200,1,0,0:0:0:0:s_068.ogg
76,192,16200,1,0,0:0:0:0:s_044.ogg
332,192,16200,1,0,0:0:0:0:s_015.ogg
435,192,16200,1,0,0:0:0:0:s_027.ogg
179,192,16350,1,0,0:0:0:0:s_065.ogg
230,192,16350,1,0,0:0:0:0:s_063.ogg
281,192,16350,1,0,0:0:0:0:s_056.ogg
384,192,16350,1,0,0:0:0:0:s_036.ogg
25,192,16500,1,0,0:0:0:0:s_063.ogg
128,192,16500,1,0,0:0:0:0:s_039.ogg
281,192,16500,1,0,0:0:0:0:s_020.ogg
332,192,16500,1,0,0:0:0:0:s_032.ogg
179,192,16650,1,0,0:0:0:0:s_068.ogg
230,192,16650,1,0,0:0:0:0:s_051.ogg
435,192,16650,1,0,0:0:0:0:s_046.ogg
486,192,16650,1,0,0:0:0:0:s_036.ogg
25,192,16800,1,0,0:0:0:0:s_027.ogg
76,192,16800,1,0,0:0:0:0:s_041.ogg
384,192,16800,128,0,17100:0:0:0:0:m_053.ogg
332,192,16800,128,0,17100:0:0:0:0:m_065.ogg
179,192,16950,1,0,0:0:0:0:s_051.ogg
230,192,16950,1,0,0:0:0:0:s_041.ogg
25,192,17100,1,0,0:0:0:0:s_063.ogg
128,192,17100,1,0,0:0:0:0:s_039.ogg
281,192,17100,1,0,0:0:0:0:s_020.ogg
435,192,17100,1,0,0:0:0:0:s_032.ogg
179,192,17250,1,0,0:0:0:0:s_047.ogg
384,192,17250,1,0,0:0:0:0:s_071.ogg
486,192,17250,1,0,0:0:0:0:s_059.ogg
230,192,17325,1,0,0:0:0:0:s_046.ogg
25,192,17400,1,0,0:0:0:0:s_038.ogg
76,192,17400,1,0,0:0:0:0:m_041.ogg
435,192,17400,128,0,17700:0:0:0:0:m_053.ogg
281,192,17400,128,0,17700:0:0:0:0:m_065.ogg
179,192,17550,1,0,0:0:0:0:s_036.ogg
230,192,17550,1,0,0:0:0:0:s_051.ogg
25,192,17700,1,0,0:0:0:0:s_008.ogg
128,192,17700,1,0,0:0:0:0:s_032.ogg
332,192,17700,1,0,0:0:0:0:s_061.ogg
384,192,17775,1,0,0:0:0:0:s_050.ogg
179,192,17850,1,0,0:0:0:0:s_039.ogg
435,192,17850,1,0,0:0:0:0:s_063.ogg
230,192,17925,1,0,0:0:0:0:s_041.ogg
281,192,17925,1,0,0:0:0:0:s_060.ogg
25,192,18000,1,0,0:0:0:0:s_039.ogg
76,192,18000,1,0,0:0:0:0:s_063.ogg
384,192,18000,1,0,0:0:0:0:s_032.ogg
435,192,18000,1,0,0:0:0:0:s_044.ogg
179,192,18150,1,0,0:0:0:0:s_056.ogg
230,192,18150,1,0,0:0:0:0:s_046.ogg
332,192,18150,1,0,0:0:0:0:s_041.ogg
486,192,18200,1,0,0:0:0:0:s_060.ogg
332,192,18250,1,0,0:0:0:0:s_046.ogg
25,192,18300,1,0,0:0:0:0:m_025.ogg
384,192,18300,1,0,0:0:0:0:m_013.ogg
435,192,18300,1,0,0:0:0:0:s_044.ogg
128,192,18300,128,0,18750:0:0:0:0:m_037.ogg
179,192,18450,1,0,0:0:0:0:s_065.ogg
230,192,18450,1,0,0:0:0:0:s_044.ogg
281,192,18450,1,0,0:0:0:0:s_039.ogg
384,192,18450,1,0,0:0:0:0:s_029.ogg
332,192,18600,1,0,0:0:0:0:s_056.ogg
435,192,18600,1,0,0:0:0:0:s_044.ogg
76,192,18750,1,0,0:0:0:0:s_036.ogg
230,192,18750,1,0,0:0:0:0:s_039.ogg
384,192,18750,1,0,0:0:0:0:s_029.ogg
486,192,18750,1,0,0:0:0:0:s_024.ogg
128,192,18900,1,0,0:0:0:0:m_022.ogg
281,192,18900,1,0,0:0:0:0:m_010.ogg
332,192,18900,1,0,0:0:0:0:s_044.ogg
25,192,18900,128,0,19350:0:0:0:0:m_034.ogg
179,192,19050,1,0,0:0:0:0:s_077.ogg
230,192,19050,1,0,0:0:0:0:s_049.ogg
384,192,19050,1,0,0:0:0:0:s_056.ogg
435,192,19050,1,0,0:0:0:0:s_029.ogg
281,192,19200,1,0,0:0:0:0:s_056.ogg
332,192,19200,1,0,0:0:0:0:s_044.ogg
179,192,19350,1,0,0:0:0:0:s_081.ogg
230,192,19350,1,0,0:0:0:0:s_044.ogg
435,192,19350,1,0,0:0:0:0:s_061.ogg
486,192,19350,1,0,0:0:0:0:s_029.ogg
128,192,19500,1,0,0:0:0:0:s_022.ogg
281,192,19500,1,0,0:0:0:0:s_055.ogg
486,192,19500,1,0,0:0:0:0:s_015.ogg
76,192,19575,1,0,0:0:0:0:s_025.ogg
230,192,19575,1,0,0:0:0:0:s_054.ogg
435,192,19575,1,0,0:0:0:0:s_034.ogg
25,192,19650,1,0,0:0:0:0:s_017.ogg
179,192,19650,1,0,0:0:0:0:s_053.ogg
384,192,19650,1,0,0:0:0:0:s_029.ogg
128,192,19725,1,0,0:0:0:0:s_052.ogg
332,192,19725,1,0,0:0:0:0:s_041.ogg
486,192,19725,1,0,0:0:0:0:s_031.ogg
76,192,19800,1,0,0:0:0:0:s_034.ogg
281,192,19800,1,0,0:0:0:0:s_043.ogg
435,192,19800,1,0,0:0:0:0:s_051.ogg
25,192,19875,1,0,0:0:0:0:s_029.ogg
230,192,19875,1,0,0:0:0:0:s_050.ogg
384,192,19875,1,0,0:0:0:0:s_020.ogg
179,192,19950,1,0,0:0:0:0:s_049.ogg
332,192,19950,1,0,0:0:0:0:s_041.ogg
486,192,19950,1,0,0:0:0:0:s_031.ogg
128,192,20025,1,0,0:0:0:0:s_048.ogg
281,192,20025,1,0,0:0:0:0:s_043.ogg
435,192,20025,1,0,0:0:0:0:s_022.ogg
76,192,20100,1,0,0:0:0:0:s_047.ogg
230,192,20100,1,0,0:0:0:0:s_037.ogg
384,192,20100,1,0,0:0:0:0:s_046.ogg
25,192,20175,1,0,0:0:0:0:s_031.ogg
179,192,20175,1,0,0:0:0:0:s_046.ogg
332,192,20175,1,0,0:0:0:0:s_024.ogg
128,192,20250,1,0,0:0:0:0:s_034.ogg
281,192,20250,1,0,0:0:0:0:s_045.ogg
486,192,20250,1,0,0:0:0:0:s_025.ogg
76,192,20325,1,0,0:0:0:0:s_044.ogg
230,192,20325,1,0,0:0:0:0:s_026.ogg
435,192,20325,1,0,0:0:0:0:s_046.ogg
25,192,20400,1,0,0:0:0:0:s_027.ogg
179,192,20400,1,0,0:0:0:0:s_043.ogg
384,192,20400,1,0,0:0:0:0:s_039.ogg
435,192,20550,1,0,0:0:0:0:s_053.ogg
486,192,20600,1,0,0:0:0:0:s_055.ogg
435,192,20650,1,0,0:0:0:0:s_053.ogg
25,192,20700,1,0,0:0:0:0:s_075.ogg
128,192,20700,1,0,0:0:0:0:s_051.ogg
281,192,20700,1,0,0:0:0:0:s_020.ogg
384,192,20700,1,0,0:0:0:0:s_032.ogg
179,192,20850,1,0,0:0:0:0:s_072.ogg
230,192,20850,1,0,0:0:0:0:s_046.ogg
435,192,20850,1,0,0:0:0:0:s_056.ogg
486,192,20850,1,0,0:0:0:0:s_036.ogg
25,192,21000,1,0,0:0:0:0:s_068.ogg
76,192,21000,1,0,0:0:0:0:s_044.ogg
281,192,21000,1,0,0:0:0:0:s_015.ogg
384,192,21000,1,0,0:0:0:0:s_027.ogg
179,192,21150,1,0,0:0:0:0:s_065.ogg
230,192,21150,1,0,0:0:0:0:s_063.ogg
435,192,21150,1,0,0:0:0:0:s_056.ogg
486,192,21150,1,0,0:0:0:0:s_036.ogg
25,192,21300,1,0,0:0:0:0:s_063.ogg
128,192,21300,1,0,0:0:0:0:s_039.ogg
281,192,21300,1,0,0:0:0:0:s_020.ogg
332,192,21300,1,0,0:0:0:0:s_032.ogg
179,192,21450,1,0,0:0:0:0:s_068.ogg
230,192,21450,1,0,0:0:0:0:s_051.ogg
384,192,21450,1,0,0:0:0:0:s_046.ogg
486,192,21450,1,0,0:0:0:0:s_036.ogg
25,192,21600,1,0,0:0:0:0:s_003.ogg
76,192,21600,1,0,0:0:0:0:s_015.ogg
435,192,21600,128,0,21900:0:0:0:0:m_053.ogg
332,192,21600,128,0,21900:0:0:0:0:m_065.ogg
179,192,21750,1,0,0:0:0:0:s_056.ogg
230,192,21750,1,0,0:0:0:0:s_041.ogg
25,192,21900,1,0,0:0:0:0:s_032.ogg
128,192,21900,1,0,0:0:0:0:s_039.ogg
281,192,21900,1,0,0:0:0:0:s_051.ogg
332,192,21975,1,0,0:0:0:0:s_042.ogg
179,192,22050,1,0,0:0:0:0:s_056.ogg
230,192,22050,1,0,0:0:0:0:s_046.ogg
384,192,22050,1,0,0:0:0:0:s_070.ogg
435,192,22125,1,0,0:0:0:0:s_051.ogg
25,192,22200,1,0,0:0:0:0:s_020.ogg
76,192,22200,1,0,0:0:0:0:s_053.ogg
332,192,22200,1,0,0:0:0:0:s_077.ogg
384,192,22275,1,0,0:0:0:0:s_054.ogg
179,192,22350,1,0,0:0:0:0:s_056.ogg
230,192,22350,1,0,0:0:0:0:s_055.ogg
435,192,22350,1,0,0:0:0:0:s_067.ogg
486,192,22425,1,0,0:0:0:0:s_072.ogg
25,192,22500,1,0,0:0:0:0:m_013.ogg
281,192,22500,1,0,0:0:0:0:m_025.ogg
435,192,22500,1,0,0:0:0:0:s_058.ogg
128,192,22500,128,0,22950:0:0:0:0:m_037.ogg
179,192,22650,1,0,0:0:0:0:s_080.ogg
230,192,22650,1,0,0:0:0:0:s_044.ogg
332,192,22650,1,0,0:0:0:0:s_051.ogg
384,192,22650,1,0,0:0:0:0:s_036.ogg
384,192,22800,128,0,23100:0:0:0:0:m_080.ogg
332,192,22800,128,0,23100:0:0:0:0:m_068.ogg
76,192,22950,1,0,0:0:0:0:s_041.ogg
230,192,22950,1,0,0:0:0:0:s_024.ogg
128,192,23100,1,0,0:0:0:0:m_010.ogg
281,192,23100,1,0,0:0:0:0:m_034.ogg
25,192,23100,128,0,23550:0:0:0:0:m_022.ogg
384,192,23175,1,0,0:0:0:0:s_068.ogg
179,192,23250,1,0,0:0:0:0:s_080.ogg
230,192,23250,1,0,0:0:0:0:s_070.ogg
332,192,23250,1,0,0:0:0:0:s_064.ogg
281,192,23325,1,0,0:0:0:0:s_068.ogg
486,192,23400,1,0,0:0:0:0:s_064.ogg
384,192,23475,1,0,0:0:0:0:s_063.ogg
76,192,23550,1,0,0:0:0:0:s_064.ogg
435,192,23550,1,0,0:0:0:0:s_073.ogg
128,192,23625,1,0,0:0:0:0:s_061.ogg
332,192,23625,1,0,0:0:0:0:s_037.ogg
179,192,23700,1,0,0:0:0:0:m_003.ogg
281,192,23700,1,0,0:0:0:0:m_027.ogg
230,192,23700,128,0,24075:0:0:0:0:s_060.ogg
384,192,23775,1,0,0:0:0:0:s_063.ogg
25,192,23850,1,0,0:0:0:0:s_075.ogg
76,192,23850,1,0,0:0:0:0:s_060.ogg
332,192,23850,1,0,0:0:0:0:s_068.ogg
281,192,23925,1,0,0:0:0:0:s_063.ogg
486,192,24000,1,0,0:0:0:0:s_068.ogg
25,192,24075,1,0,0:0:0:0:s_067.ogg
384,192,24075,1,0,0:0:0:0:s_058.ogg
76,192,24150,1,0,0:0:0:0:s_068.ogg
435,192,24150,1,0,0:0:0:0:s_059.ogg
128,192,24225,1,0,0:0:0:0:s_065.ogg
332,192,24225,1,0,0:0:0:0:s_032.ogg
179,192,24300,1,0,0:0:0:0:s_039.ogg
230,192,24300,1,0,0:0:0:0:s_049.ogg
384,192,24300,1,0,0:0:0:0:s_055.ogg
281,192,24375,1,0,0:0:0:0:s_054.ogg
25,192,24450,1,0,0:0:0:0:s_046.ogg
76,192,24450,1,0,0:0:0:0:s_027.ogg
332,192,24450,1,0,0:0:0:0:s_055.ogg
384,192,24525,1,0,0:0:0:0:s_065.ogg
128,192,24600,1,0,0:0:0:0:s_049.ogg
179,192,24600,1,0,0:0:0:0:s_051.ogg
486,192,24600,1,0,0:0:0:0:s_058.ogg
332,192,24675,1,0,0:0:0:0:s_063.ogg
25,192,24750,1,0,0:0:0:0:s_039.ogg
76,192,24750,1,0,0:0:0:0:s_049.ogg
384,192,24750,1,0,0:0:0:0:s_067.ogg
486,192,24825,1,0,0:0:0:0:s_063.ogg
128,192,24900,1,0,0:0:0:0:s_046.ogg
230,192,24900,1,0,0:0:0:0:s_070.ogg
332,192,24900,1,0,0:0:0:0:s_061.ogg
435,192,24900,1,0,0:0:0:0:s_053.ogg
76,192,25050,1,0,0:0:0:0:s_044.ogg
179,192,25050,1,0,0:0:0:0:s_068.ogg
281,192,25050,1,0,0:0:0:0:s_060.ogg
384,192,25050,1,0,0:0:0:0:s_051.ogg
25,192,25200,1,0,0:0:0:0:m_043.ogg
128,192,25210,1,0,0:0:0:0:m_045.ogg
179,192,25220,1,0,0:0:0:0:m_047.ogg
230,192,25230,1,0,0:0:0:0:m_048.ogg
281,192,25240,1,0,0:0:0:0:m_051.ogg
332,192,25250,1,0,0:0:0:0:m_052.ogg
435,192,25260,1,0,0:0:0:0:m_053.ogg
486,192,25270,1,0,0:0:0:0:m_054.ogg
76,192,25500,1,0,0:0:0:0:s_049.ogg
179,192,25500,1,0,0:0:0:0:s_041.ogg
332,192,25500,1,0,0:0:0:0:s_034.ogg
435,192,25500,1,0,0:0:0:0:s_058.ogg
25,192,25650,1,0,0:0:0:0:s_048.ogg
128,192,25650,1,0,0:0:0:0:s_039.ogg
281,192,25650,1,0,0:0:0:0:s_032.ogg
384,192,25650,1,0,0:0:0:0:s_056.ogg
25,192,25800,1,0,0:0:0:0:m_043.ogg
76,192,25810,1,0,0:0:0:0:m_044.ogg
179,192,25820,1,0,0:0:0:0:m_045.ogg
230,192,25830,1,0,0:0:0:0:m_046.ogg
332,192,25840,1,0,0:0:0:0:m_049.ogg
384,192,25850,1,0,0:0:0:0:m_050.ogg
435,192,25860,1,0,0:0:0:0:m_051.ogg
486,192,25870,1,0,0:0:0:0:m_054.ogg
25,192,26100,1,0,0:0:0:0:m_022.ogg
76,192,26100,1,0,0:0:0:0:m_012.ogg
128,192,26100,1,0,0:0:0:0:m_019.ogg
281,192,26100,1,0,0:0:0:0:m_027.ogg
332,192,26100,1,0,0:0:0:0:m_004.ogg
384,192,26100,1,0,0:0:0:0:m_008.ogg
76,192,26400,1,0,0:0:0:0:m_053.ogg
128,192,26400,1,0,0:0:0:0:m_036.ogg
179,192,26400,1,0,0:0:0:0:m_046.ogg
230,192,26400,1,0,0:0:0:0:m_041.ogg
332,192,26400,1,0,0:0:0:0:m_048.ogg
384,192,26400,1,0,0:0:0:0:m_034.ogg
435,192,26400,1,0,0:0:0:0:m_039.ogg
486,192,26400,1,0,0:0:0:0:m_032.ogg
128,192,26700,1,0,0:0:0:0:s_022.ogg
486,192,26700,1,0,0:0:0:0:s_029.ogg
76,192,26850,1,0,0:0:0:0:s_020.ogg
435,192,26850,1,0,0:0:0:0:s_027.ogg
384,192,27000,1,0,0:0:0:0:s_015.ogg
486,192,27075,1,0,0:0:0:0:s_017.ogg
435,192,27150,1,0,0:0:0:0:s_015.ogg
384,192,27225,1,0,0:0:0:0:s_013.ogg
25,192,27300,1,0,0:0:0:0:s_051.ogg
332,192,27300,1,0,0:0:0:0:s_024.ogg
76,192,27321,1,0,0:0:0:0:s_053.ogg
128,192,27342,1,0,0:0:0:0:s_055.ogg
179,192,27363,1,0,0:0:0:0:s_056.ogg
435,192,27375,1,0,0:0:0:0:s_037.ogg
230,192,27385,1,0,0:0:0:0:s_058.ogg
25,192,27406,1,0,0:0:0:0:s_060.ogg
76,192,27428,1,0,0:0:0:0:s_062.ogg
128,192,27450,1,0,0:0:0:0:s_063.ogg
384,192,27450,1,0,0:0:0:0:s_036.ogg
179,192,27471,1,0,0:0:0:0:s_065.ogg
230,192,27492,1,0,0:0:0:0:s_067.ogg
25,192,27513,1,0,0:0:0:0:s_068.ogg
332,192,27525,1,0,0:0:0:0:s_034.ogg
76,192,27535,1,0,0:0:0:0:s_070.ogg
128,192,27556,1,0,0:0:0:0:s_072.ogg
179,192,27578,1,0,0:0:0:0:s_074.ogg
230,192,27600,1,0,0:0:0:0:m_032.ogg
486,192,27600,1,0,0:0:0:0:m_008.ogg
384,192,27675,1,0,0:0:0:0:s_065.ogg
281,192,27750,1,0,0:0:0:0:s_063.ogg
332,192,27750,1,0,0:0:0:0:s_044.ogg
25,192,27825,1,0,0:0:0:0:s_024.ogg
128,192,27825,1,0,0:0:0:0:s_039.ogg
435,192,27825,1,0,0:0:0:0:s_065.ogg
76,192,27900,1,0,0:0:0:0:s_075.ogg
179,192,27900,1,0,0:0:0:0:s_027.ogg
486,192,27900,1,0,0:0:0:0:s_036.ogg
384,192,27975,1,0,0:0:0:0:s_065.ogg
128,192,28050,1,0,0:0:0:0:s_060.ogg
230,192,28050,1,0,0:0:0:0:s_041.ogg
281,192,28050,1,0,0:0:0:0:s_051.ogg
332,192,28050,1,0,0:0:0:0:s_044.ogg
435,192,28125,1,0,0:0:0:0:s_065.ogg
179,192,28200,1,0,0:0:0:0:s_033.ogg
486,192,28200,1,0,0:0:0:0:s_045.ogg
25,192,28275,1,0,0:0:0:0:s_020.ogg
384,192,28275,1,0,0:0:0:0:s_032.ogg
76,192,28350,1,0,0:0:0:0:s_056.ogg
281,192,28350,1,0,0:0:0:0:s_046.ogg
332,192,28350,1,0,0:0:0:0:s_022.ogg
128,192,28425,1,0,0:0:0:0:s_047.ogg
435,192,28425,1,0,0:0:0:0:s_035.ogg
179,192,28500,1,0,0:0:0:0:s_048.ogg
486,192,28500,1,0,0:0:0:0:s_036.ogg
76,192,28575,1,0,0:0:0:0:s_047.ogg
384,192,28575,1,0,0:0:0:0:s_035.ogg
128,192,28650,1,0,0:0:0:0:s_053.ogg
281,192,28650,1,0,0:0:0:0:s_049.ogg
332,192,28650,1,0,0:0:0:0:s_037.ogg
179,192,28725,1,0,0:0:0:0:s_050.ogg
435,192,28725,1,0,0:0:0:0:s_038.ogg
76,192,28800,1,0,0:0:0:0:m_027.ogg
230,192,28800,1,0,0:0:0:0:s_039.ogg
486,192,28800,1,0,0:0:0:0:s_051.ogg
384,192,28875,1,0,0:0:0:0:s_039.ogg
281,192,28950,1,0,0:0:0:0:s_048.ogg
332,192,28950,1,0,0:0:0:0:s_041.ogg
25,192,29025,1,0,0:0:0:0:s_053.ogg
128,192,29025,1,0,0:0:0:0:s_029.ogg
435,192,29025,1,0,0:0:0:0:s_041.ogg
76,192,29100,1,0,0:0:0:0:s_043.ogg
179,192,29100,1,0,0:0:0:0:s_055.ogg
486,192,29100,1,0,0:0:0:0:s_072.ogg
384,192,29175,1,0,0:0:0:0:s_065.ogg
128,192,29250,1,0,0:0:0:0:s_060.ogg
230,192,29250,1,0,0:0:0:0:s_053.ogg
281,192,29250,1,0,0:0:0:0:s_051.ogg
332,192,29250,1,0,0:0:0:0:s_044.ogg
435,192,29325,1,0,0:0:0:0:s_065.ogg
25,192,29400,1,0,0:0:0:0:s_075.ogg
76,192,29400,1,0,0:0:0:0:s_039.ogg
486,192,29400,1,0,0:0:0:0:s_036.ogg
384,192,29475,1,0,0:0:0:0:s_065.ogg
128,192,29550,1,0,0:0:0:0:s_060.ogg
230,192,29550,1,0,0:0:0:0:s_041.ogg
281,192,29550,1,0,0:0:0:0:s_051.ogg
332,192,29550,1,0,0:0:0:0:s_044.ogg
435,192,29625,1,0,0:0:0:0:s_065.ogg
76,192,29700,1,0,0:0:0:0:s_044.ogg
179,192,29700,1,0,0:0:0:0:s_036.ogg
486,192,29700,1,0,0:0:0:0:s_075.ogg
384,192,29775,1,0,0:0:0:0:s_065.ogg
25,192,29850,1,0,0:0:0:0:s_044.ogg
128,192,29850,1,0,0:0:0:0:s_031.ogg
281,192,29850,1,0,0:0:0:0:s_060.ogg
332,192,29850,1,0,0:0:0:0:s_043.ogg
435,192,29925,1,0,0:0:0:0:s_065.ogg
179,192,30000,1,0,0:0:0:0:m_030.ogg
230,192,30000,1,0,0:0:0:0:m_042.ogg
384,192,30000,1,0,0:0:0:0:s_033.ogg
486,192,30000,1,0,0:0:0:0:s_075.ogg
332,192,30075,1,0,0:0:0:0:s_068.ogg
281,192,30150,1,0,0:0:0:0:s_061.ogg
128,192,30225,1,0,0:0:0:0:s_029.ogg
179,192,30225,1,0,0:0:0:0:s_041.ogg
384,192,30225,1,0,0:0:0:0:s_017.ogg
25,192,30300,1,0,0:0:0:0:s_074.ogg
76,192,30300,1,0,0:0:0:0:s_033.ogg
435,192,30300,1,0,0:0:0:0:s_039.ogg
486,192,30300,1,0,0:0:0:0:s_027.ogg
332,192,30375,1,0,0:0:0:0:s_068.ogg
179,192,30450,1,0,0:0:0:0:m_030.ogg
230,192,30450,1,0,0:0:0:0:m_042.ogg
281,192,30450,1,0,0:0:0:0:s_061.ogg
384,192,30525,1,0,0:0:0:0:s_068.ogg
435,192,30600,1,0,0:0:0:0:s_075.ogg
486,192,30600,1,0,0:0:0:0:s_033.ogg
128,192,30675,1,0,0:0:0:0:s_029.ogg
179,192,30675,1,0,0:0:0:0:s_041.ogg
332,192,30675,1,0,0:0:0:0:s_017.ogg
25,192,30750,1,0,0:0:0:0:s_061.ogg
76,192,30750,1,0,0:0:0:0:s_015.ogg
281,192,30750,1,0,0:0:0:0:s_039.ogg
384,192,30825,1,0,0:0:0:0:s_045.ogg
179,192,30900,1,0,0:0:0:0:m_030.ogg
230,192,30900,1,0,0:0:0:0:m_042.ogg
435,192,30900,1,0,0:0:0:0:s_075.ogg
486,192,30900,1,0,0:0:0:0:s_033.ogg
332,192,30975,1,0,0:0:0:0:s_068.ogg
281,192,31050,1,0,0:0:0:0:s_061.ogg
128,192,31125,1,0,0:0:0:0:s_029.ogg
179,192,31125,1,0,0:0:0:0:s_041.ogg
384,192,31125,1,0,0:0:0:0:s_017.ogg
25,192,31200,1,0,0:0:0:0:s_074.ogg
76,192,31200,1,0,0:0:0:0:s_033.ogg
435,192,31200,1,0,0:0:0:0:s_039.ogg
486,192,31200,1,0,0:0:0:0:s_027.ogg
332,192,31275,1,0,0:0:0:0:s_068.ogg
179,192,31350,1,0,0:0:0:0:m_030.ogg
230,192,31350,1,0,0:0:0:0:m_042.ogg
281,192,31350,1,0,0:0:0:0:s_061.ogg
384,192,31425,1,0,0:0:0:0:s_068.ogg
435,192,31500,1,0,0:0:0:0:s_075.ogg
486,192,31500,1,0,0:0:0:0:s_033.ogg
128,192,31575,1,0,0:0:0:0:s_041.ogg
179,192,31575,1,0,0:0:0:0:s_017.ogg
332,192,31575,1,0,0:0:0:0:s_029.ogg
25,192,31650,1,0,0:0:0:0:s_039.ogg
76,192,31650,1,0,0:0:0:0:s_027.ogg
281,192,31650,1,0,0:0:0:0:s_049.ogg
384,192,31725,1,0,0:0:0:0:s_068.ogg
179,192,31800,1,0,0:0:0:0:m_030.ogg
230,192,31800,1,0,0:0:0:0:m_042.ogg
435,192,31800,1,0,0:0:0:0:s_033.ogg
486,192,31800,1,0,0:0:0:0:s_075.ogg
332,192,31875,1,0,0:0:0:0:s_068.ogg
281,192,31950,1,0,0:0:0:0:s_061.ogg
128,192,32025,1,0,0:0:0:0:s_041.ogg
179,192,32025,1,0,0:0:0:0:s_017.ogg
384,192,32025,1,0,0:0:0:0:s_029.ogg
25,192,32100,1,0,0:0:0:0:s_039.ogg
76,192,32100,1,0,0:0:0:0:s_027.ogg
435,192,32100,1,0,0:0:0:0:s_074.ogg
486,192,32100,1,0,0:0:0:0:s_033.ogg
332,192,32175,1,0,0:0:0:0:s_068.ogg
179,192,32250,1,0,0:0:0:0:m_030.ogg
230,192,32250,1,0,0:0:0:0:m_042.ogg
281,192,32250,1,0,0:0:0:0:s_061.ogg
384,192,32325,1,0,0:0:0:0:s_075.ogg
486,192,32325,1,0,0:0:0:0:s_033.ogg
332,192,32400,1,0,0:0:0:0:s_068.ogg
128,192,32475,1,0,0:0:0:0:s_029.ogg
179,192,32475,1,0,0:0:0:0:s_041.ogg
281,192,32475,1,0,0:0:0:0:s_061.ogg
25,192,32550,1,0,0:0:0:0:s_039.ogg
76,192,32550,1,0,0:0:0:0:s_027.ogg
435,192,32550,1,0,0:0:0:0:s_051.ogg
384,192,32625,1,0,0:0:0:0:s_075.ogg
486,192,32625,1,0,0:0:0:0:s_033.ogg
25,192,32700,1,0,0:0:0:0:s_045.ogg
128,192,32700,1,0,0:0:0:0:s_025.ogg
332,192,32700,1,0,0:0:0:0:s_068.ogg
281,192,32775,1,0,0:0:0:0:s_061.ogg
76,192,32850,1,0,0:0:0:0:s_036.ogg
384,192,32850,1,0,0:0:0:0:s_024.ogg
435,192,32850,1,0,0:0:0:0:s_012.ogg
128,192,32925,1,0,0:0:0:0:s_037.ogg
281,192,32925,1,0,0:0:0:0:s_013.ogg
179,192,33000,1,0,0:0:0:0:s_015.ogg
332,192,33000,1,0,0:0:0:0:s_027.ogg
230,192,33075,1,0,0:0:0:0:s_017.ogg
384,192,33075,1,0,0:0:0:0:s_029.ogg
179,192,33150,1,0,0:0:0:0:s_028.ogg
435,192,33150,1,0,0:0:0:0:s_073.ogg
486,192,33150,1,0,0:0:0:0:s_016.ogg
76,192,33225,1,0,0:0:0:0:s_038.ogg
384,192,33225,1,0,0:0:0:0:s_026.ogg
128,192,33300,1,0,0:0:0:0:s_039.ogg
332,192,33300,1,0,0:0:0:0:s_056.ogg
25,192,33375,1,0,0:0:0:0:s_025.ogg
281,192,33375,1,0,0:0:0:0:s_013.ogg
76,192,33450,1,0,0:0:0:0:s_075.ogg
384,192,33450,1,0,0:0:0:0:s_012.ogg
435,192,33450,1,0,0:0:0:0:s_024.ogg
230,192,33525,1,0,0:0:0:0:s_038.ogg
281,192,33525,1,0,0:0:0:0:s_014.ogg
179,192,33600,1,0,0:0:0:0:s_013.ogg
332,192,33600,1,0,0:0:0:0:s_025.ogg
128,192,33675,1,0,0:0:0:0:s_035.ogg
384,192,33675,1,0,0:0:0:0:s_011.ogg
76,192,33750,1,0,0:0:0:0:s_010.ogg
435,192,33750,1,0,0:0:0:0:s_034.ogg
486,192,33750,1,0,0:0:0:0:s_022.ogg
179,192,33825,1,0,0:0:0:0:s_036.ogg
384,192,33825,1,0,0:0:0:0:s_012.ogg
128,192,33900,1,0,0:0:0:0:s_035.ogg
332,192,33900,1,0,0:0:0:0:s_054.ogg
76,192,33975,1,0,0:0:0:0:s_033.ogg
281,192,33975,1,0,0:0:0:0:s_021.ogg
25,192,34050,1,0,0:0:0:0:m_020.ogg
179,192,34050,1,0,0:0:0:0:m_032.ogg
435,192,34050,1,0,0:0:0:0:s_072.ogg
486,192,34050,1,0,0:0:0:0:s_075.ogg
384,192,34125,1,0,0:0:0:0:s_065.ogg
332,192,34200,1,0,0:0:0:0:s_051.ogg
25,192,34275,1,0,0:0:0:0:s_024.ogg
128,192,34275,1,0,0:0:0:0:s_039.ogg
281,192,34275,1,0,0:0:0:0:s_065.ogg
76,192,34350,1,0,0:0:0:0:s_048.ogg
179,192,34350,1,0,0:0:0:0:s_072.ogg
384,192,34350,1,0,0:0:0:0:s_027.ogg
435,192,34350,1,0,0:0:0:0:s_044.ogg
332,192,34425,1,0,0:0:0:0:s_065.ogg
128,192,34500,1,0,0:0:0:0:s_056.ogg
230,192,34500,1,0,0:0:0:0:s_032.ogg
281,192,34500,1,0,0:0:0:0:s_044.ogg
486,192,34575,1,0,0:0:0:0:s_063.ogg
332,192,34650,1,0,0:0:0:0:s_063.ogg
384,192,34650,1,0,0:0:0:0:s_039.ogg
230,192,34650,128,0,34950:0:0:0:0:m_047.ogg
179,192,34650,128,0,34950:0:0:0:0:m_023.ogg
486,192,34725,1,0,0:0:0:0:s_061.ogg
435,192,34800,1,0,0:0:0:0:s_056.ogg
384,192,34875,1,0,0:0:0:0:s_059.ogg
76,192,34950,1,0,0:0:0:0:s_034.ogg
128,192,34950,1,0,0:0:0:0:s_046.ogg
281,192,34950,1,0,0:0:0:0:s_035.ogg
332,192,34950,1,0,0:0:0:0:s_063.ogg
435,192,35025,1,0,0:0:0:0:s_056.ogg
25,192,35100,1,0,0:0:0:0:s_048.ogg
76,192,35100,1,0,0:0:0:0:s_032.ogg
384,192,35100,1,0,0:0:0:0:s_051.ogg
332,192,35175,1,0,0:0:0:0:s_060.ogg
25,192,35250,1,0,0:0:0:0:s_048.ogg
435,192,35250,1,0,0:0:0:0:s_024.ogg
486,192,35250,1,0,0:0:0:0:s_060.ogg
76,192,35325,1,0,0:0:0:0:s_044.ogg
281,192,35325,1,0,0:0:0:0:s_049.ogg
384,192,35325,1,0,0:0:0:0:s_037.ogg
128,192,35400,1,0,0:0:0:0:s_048.ogg
435,192,35400,1,0,0:0:0:0:s_038.ogg
486,192,35400,1,0,0:0:0:0:s_050.ogg
230,192,35475,1,0,0:0:0:0:s_044.ogg
281,192,35475,1,0,0:0:0:0:s_053.ogg
384,192,35475,1,0,0:0:0:0:s_041.ogg
179,192,35550,1,0,0:0:0:0:s_044.ogg
435,192,35550,1,0,0:0:0:0:s_040.ogg
486,192,35550,1,0,0:0:0:0:s_052.ogg
128,192,35625,1,0,0:0:0:0:s_051.ogg
281,192,35625,1,0,0:0:0:0:s_053.ogg
332,192,35625,1,0,0:0:0:0:s_039.ogg
76,192,35700,1,0,0:0:0:0:s_044.ogg
435,192,35700,1,0,0:0:0:0:s_036.ogg
486,192,35700,1,0,0:0:0:0:s_048.ogg
128,192,35775,1,0,0:0:0:0:s_051.ogg
281,192,35775,1,0,0:0:0:0:s_039.ogg
332,192,35775,1,0,0:0:0:0:s_027.ogg
25,192,35850,1,0,0:0:0:0:s_029.ogg
384,192,35850,1,0,0:0:0:0:s_053.ogg
486,192,35850,1,0,0:0:0:0:s_041.ogg
76,192,35925,1,0,0:0:0:0:s_039.ogg
281,192,35925,1,0,0:0:0:0:s_042.ogg
332,192,35925,1,0,0:0:0:0:s_054.ogg
128,192,36000,1,0,0:0:0:0:s_037.ogg
384,192,36000,1,0,0:0:0:0:s_055.ogg
486,192,36000,1,0,0:0:0:0:s_043.ogg
179,192,36075,1,0,0:0:0:0:s_039.ogg
281,192,36075,1,0,0:0:0:0:s_046.ogg
332,192,36075,1,0,0:0:0:0:s_058.ogg
76,192,36150,1,0,0:0:0:0:s_032.ogg
486,192,36150,1,0,0:0:0:0:s_056.ogg
128,192,36225,1,0,0:0:0:0:s_036.ogg
435,192,36225,1,0,0:0:0:0:s_048.ogg
179,192,36300,1,0,0:0:0:0:s_062.ogg
384,192,36300,1,0,0:0:0:0:s_038.ogg
230,192,36375,1,0,0:0:0:0:s_039.ogg
332,192,36375,1,0,0:0:0:0:s_054.ogg
25,192,36450,1,0,0:0:0:0:s_051.ogg
76,192,36450,1,0,0:0:0:0:s_057.ogg
128,192,36450,1,0,0:0:0:0:s_055.ogg
281,192,36525,1,0,0:0:0:0:s_037.ogg
384,192,36525,1,0,0:0:0:0:s_053.ogg
435,192,36525,1,0,0:0:0:0:s_060.ogg
76,192,36600,1,0,0:0:0:0:s_038.ogg
128,192,36600,1,0,0:0:0:0:s_059.ogg
179,192,36600,1,0,0:0:0:0:s_061.ogg
332,192,36675,1,0,0:0:0:0:s_039.ogg
435,192,36675,1,0,0:0:0:0:s_060.ogg
486,192,36675,1,0,0:0:0:0:s_055.ogg
128,192,36750,1,0,0:0:0:0:m_024.ogg
179,192,36750,1,0,0:0:0:0:m_036.ogg
230,192,36750,1,0,0:0:0:0:m_007.ogg
25,192,37050,1,0,0:0:0:0:s_055.ogg
76,192,37050,1,0,0:0:0:0:s_043.ogg
128,192,37050,1,0,0:0:0:0:s_051.ogg
281,192,37125,1,0,0:0:0:0:s_053.ogg
332,192,37125,1,0,0:0:0:0:s_060.ogg
435,192,37125,1,0,0:0:0:0:s_037.ogg
76,192,37200,1,0,0:0:0:0:s_061.ogg
128,192,37200,1,0,0:0:0:0:s_059.ogg
179,192,37200,1,0,0:0:0:0:s_038.ogg
332,192,37275,1,0,0:0:0:0:s_039.ogg
384,192,37275,1,0,0:0:0:0:s_055.ogg
486,192,37275,1,0,0:0:0:0:s_060.ogg
128,192,37350,1,0,0:0:0:0:m_024.ogg
179,192,37350,1,0,0:0:0:0:m_036.ogg
230,192,37350,1,0,0:0:0:0:m_074.ogg
230,192,37650,1,0,0:0:0:0:s_067.ogg
435,192,37650,1,0,0:0:0:0:s_043.ogg
281,192,37725,1,0,0:0:0:0:s_068.ogg
486,192,37725,1,0,0:0:0:0:s_044.ogg
230,192,37800,1,0,0:0:0:0:s_067.ogg
435,192,37800,1,0,0:0:0:0:s_043.ogg
179,192,37875,1,0,0:0:0:0:s_065.ogg
384,192,37875,1,0,0:0:0:0:s_041.ogg
128,192,37950,1,0,0:0:0:0:s_063.ogg
332,192,37950,1,0,0:0:0:0:s_039.ogg
179,192,38025,1,0,0:0:0:0:s_065.ogg
384,192,38025,1,0,0:0:0:0:s_041.ogg
128,192,38100,1,0,0:0:0:0:s_063.ogg
332,192,38100,1,0,0:0:0:0:s_039.ogg
76,192,38175,1,0,0:0:0:0:s_062.ogg
281,192,38175,1,0,0:0:0:0:s_038.ogg
25,192,38250,1,0,0:0:0:0:s_026.ogg
230,192,38250,1,0,0:0:0:0:s_012.ogg
128,192,38250,1,0,0:0:0:0:s_049.ogg
281,192,38400,1,0,0:0:0:0:s_036.ogg
384,192,38400,1,0,0:0:0:0:s_038.ogg
486,192,38400,1,0,0:0:0:0:s_048.ogg
25,192,38475,1,0,0:0:0:0:s_043.ogg
128,192,38475,1,0,0:0:0:0:s_048.ogg
230,192,38475,1,0,0:0:0:0:s_036.ogg
281,192,38550,1,0,0:0:0:0:s_048.ogg
384,192,38550,1,0,0:0:0:0:s_036.ogg
486,192,38550,1,0,0:0:0:0:s_038.ogg
25,192,38700,1,0,0:0:0:0:s_048.ogg
128,192,38700,1,0,0:0:0:0:s_043.ogg
230,192,38700,1,0,0:0:0:0:s_038.ogg
179,192,38850,1,0,0:0:0:0:l_031.ogg
435,192,38850,1,0,0:0:0:0:m_015.ogg
332,192,38850,1,0,0:0:0:0:l_028.ogg
384,192,38850,1,0,0:0:0:0:l_033.ogg
230,192,38900,1,0,0:0:0:0:s_052.ogg
486,192,38900,1,0,0:0:0:0:s_050.ogg
25,192,38950,1,0,0:0:0:0:l_049.ogg
281,192,38950,1,0,0:0:0:0:s_053.ogg
76,192,39000,1,0,0:0:0:0:s_054.ogg
332,192,39000,1,0,0:0:0:0:s_048.ogg
384,192,39050,1,0,0:0:0:0:s_055.ogg
128,192,39050,1,0,0:0:0:0:s_047.ogg
179,192,39100,1,0,0:0:0:0:s_056.ogg
435,192,39100,1,0,0:0:0:0:s_046.ogg
230,192,39150,1,0,0:0:0:0:m_045.ogg
486,192,39150,1,0,0:0:0:0:s_057.ogg
281,192,39200,1,0,0:0:0:0:s_058.ogg
25,192,39200,1,0,0:0:0:0:s_044.ogg
76,192,39250,1,0,0:0:0:0:m_043.ogg
332,192,39250,1,0,0:0:0:0:s_059.ogg
128,192,39300,1,0,0:0:0:0:s_060.ogg
384,192,39300,1,0,0:0:0:0:s_042.ogg
179,192,39350,1,0,0:0:0:0:s_061.ogg
435,192,39350,1,0,0:0:0:0:s_041.ogg
230,192,39400,1,0,0:0:0:0:s_040.ogg
486,192,39400,1,0,0:0:0:0:s_062.ogg
128,192,39450,1,0,0:0:0:0:s_063.ogg
281,192,39450,1,0,0:0:0:0:m_039.ogg
332,192,39475,1,0,0:0:0:0:s_052.ogg
76,192,39500,1,0,0:0:0:0:s_042.ogg
384,192,39500,1,0,0:0:0:0:s_053.ogg
435,192,39525,1,0,0:0:0:0:s_054.ogg
25,192,39550,1,0,0:0:0:0:s_055.ogg
486,192,39550,1,0,0:0:0:0:s_065.ogg
281,192,39575,1,0,0:0:0:0:s_056.ogg
230,192,39600,1,0,0:0:0:0:s_066.ogg
332,192,39600,1,0,0:0:0:0:s_057.ogg
384,192,39625,1,0,0:0:0:0:s_058.ogg
179,192,39650,1,0,0:0:0:0:s_059.ogg
435,192,39650,1,0,0:0:0:0:s_067.ogg
486,192,39675,1,0,0:0:0:0:s_060.ogg
128,192,39700,1,0,0:0:0:0:s_068.ogg
281,192,39700,1,0,0:0:0:0:s_061.ogg
332,192,39725,1,0,0:0:0:0:s_062.ogg
76,192,39750,1,0,0:0:0:0:s_063.ogg
384,192,39750,1,0,0:0:0:0:s_069.ogg
435,192,39775,1,0,0:0:0:0:s_064.ogg
25,192,39800,1,0,0:0:0:0:s_070.ogg
486,192,39800,1,0,0:0:0:0:s_065.ogg
281,192,39825,1,0,0:0:0:0:s_066.ogg
230,192,39850,1,0,0:0:0:0:s_031.ogg
332,192,39850,1,0,0:0:0:0:s_067.ogg
384,192,39875,1,0,0:0:0:0:s_068.ogg
179,192,39900,1,0,0:0:0:0:s_036.ogg
435,192,39900,1,0,0:0:0:0:s_069.ogg
486,192,39925,1,0,0:0:0:0:s_070.ogg
128,192,39950,1,0,0:0:0:0:s_033.ogg
281,192,39950,1,0,0:0:0:0:s_071.ogg
332,192,39975,1,0,0:0:0:0:s_072.ogg
76,192,40000,1,0,0:0:0:0:s_030.ogg
384,192,40000,1,0,0:0:0:0:s_073.ogg
435,192,40025,1,0,0:0:0:0:s_074.ogg
25,192,40050,1,0,0:0:0:0:m_008.ogg
230,192,40050,1,0,0:0:0:0:m_020.ogg
486,192,40050,1,0,0:0:0:0:m_032.ogg
384,192,40125,1,0,0:0:0:0:s_065.ogg
281,192,40200,1,0,0:0:0:0:s_063.ogg
332,192,40200,1,0,0:0:0:0:s_044.ogg
25,192,40275,1,0,0:0:0:0:s_024.ogg
128,192,40275,1,0,0:0:0:0:s_039.ogg
435,192,40275,1,0,0:0:0:0:s_065.ogg
76,192,40350,1,0,0:0:0:0:s_075.ogg
179,192,40350,1,0,0:0:0:0:s_027.ogg
486,192,40350,1,0,0:0:0:0:s_036.ogg
384,192,40425,1,0,0:0:0:0:s_065.ogg
128,192,40500,1,0,0:0:0:0:s_060.ogg
230,192,40500,1,0,0:0:0:0:s_041.ogg
281,192,40500,1,0,0:0:0:0:s_051.ogg
332,192,40500,1,0,0:0:0:0:s_044.ogg
435,192,40575,1,0,0:0:0:0:s_065.ogg
179,192,40650,1,0,0:0:0:0:s_021.ogg
486,192,40650,1,0,0:0:0:0:s_045.ogg
25,192,40725,1,0,0:0:0:0:s_020.ogg
384,192,40725,1,0,0:0:0:0:s_032.ogg
76,192,40800,1,0,0:0:0:0:s_056.ogg
281,192,40800,1,0,0:0:0:0:s_046.ogg
332,192,40800,1,0,0:0:0:0:s_022.ogg
128,192,40875,1,0,0:0:0:0:s_047.ogg
435,192,40875,1,0,0:0:0:0:s_035.ogg
179,192,40950,1,0,0:0:0:0:s_048.ogg
486,192,40950,1,0,0:0:0:0:s_036.ogg
76,192,41025,1,0,0:0:0:0:s_047.ogg
384,192,41025,1,0,0:0:0:0:s_035.ogg
128,192,41100,1,0,0:0:0:0:s_053.ogg
281,192,41100,1,0,0:0:0:0:s_049.ogg
332,192,41100,1,0,0:0:0:0:s_037.ogg
179,192,41175,1,0,0:0:0:0:s_050.ogg
435,192,41175,1,0,0:0:0:0:s_038.ogg
76,192,41250,1,0,0:0:0:0:s_039.ogg
230,192,41250,1,0,0:0:0:0:m_027.ogg
486,192,41250,1,0,0:0:0:0:s_051.ogg
384,192,41325,1,0,0:0:0:0:s_039.ogg
281,192,41400,1,0,0:0:0:0:s_060.ogg
332,192,41400,1,0,0:0:0:0:s_048.ogg
25,192,41475,1,0,0:0:0:0:s_053.ogg
128,192,41475,1,0,0:0:0:0:s_029.ogg
435,192,41475,1,0,0:0:0:0:s_041.ogg
76,192,41550,1,0,0:0:0:0:s_043.ogg
179,192,41550,1,0,0:0:0:0:s_055.ogg
486,192,41550,1,0,0:0:0:0:s_072.ogg
384,192,41625,1,0,0:0:0:0:s_065.ogg
128,192,41700,1,0,0:0:0:0:s_060.ogg
230,192,41700,1,0,0:0:0:0:s_053.ogg
281,192,41700,1,0,0:0:0:0:s_051.ogg
332,192,41700,1,0,0:0:0:0:s_044.ogg
435,192,41775,1,0,0:0:0:0:s_065.ogg
179,192,41850,1,0,0:0:0:0:s_072.ogg
486,192,41850,1,0,0:0:0:0:s_036.ogg
128,192,41925,1,0,0:0:0:0:s_039.ogg
384,192,41925,1,0,0:0:0:0:s_065.ogg
25,192,42000,1,0,0:0:0:0:s_041.ogg
281,192,42000,1,0,0:0:0:0:s_051.ogg
332,192,42000,1,0,0:0:0:0:s_044.ogg
128,192,42075,1,0,0:0:0:0:s_039.ogg
435,192,42075,1,0,0:0:0:0:s_065.ogg
76,192,42150,1,0,0:0:0:0:s_075.ogg
179,192,42150,1,0,0:0:0:0:s_044.ogg
486,192,42150,1,0,0:0:0:0:s_036.ogg
384,192,42225,1,0,0:0:0:0:s_065.ogg
25,192,42300,1,0,0:0:0:0:s_060.ogg
128,192,42300,1,0,0:0:0:0:s_043.ogg
281,192,42300,1,0,0:0:0:0:s_051.ogg
332,192,42300,1,0,0:0:0:0:s_044.ogg
435,192,42375,1,0,0:0:0:0:s_065.ogg
179,192,42450,1,0,0:0:0:0:m_030.ogg
230,192,42450,1,0,0:0:0:0:m_042.ogg
384,192,42450,1,0,0:0:0:0:s_075.ogg
486,192,42450,1,0,0:0:0:0:s_033.ogg
332,192,42525,1,0,0:0:0:0:s_068.ogg
281,192,42600,1,0,0:0:0:0:s_061.ogg
128,192,42675,1,0,0:0:0:0:s_041.ogg
179,192,42675,1,0,0:0:0:0:s_017.ogg
384,192,42675,1,0,0:0:0:0:s_029.ogg
25,192,42750,1,0,0:0:0:0:s_039.ogg
76,192,42750,1,0,0:0:0:0:s_027.ogg
435,192,42750,1,0,0:0:0:0:s_074.ogg
486,192,42750,1,0,0:0:0:0:s_033.ogg
332,192,42825,1,0,0:0:0:0:s_068.ogg
179,192,42900,1,0,0:0:0:0:m_030.ogg
230,192,42900,1,0,0:0:0:0:m_042.ogg
281,192,42900,1,0,0:0:0:0:s_061.ogg
384,192,42975,1,0,0:0:0:0:s_075.ogg
486,192,42975,1,0,0:0:0:0:s_033.ogg
332,192,43050,1,0,0:0:0:0:s_068.ogg
128,192,43125,1,0,0:0:0:0:s_029.ogg
179,192,43125,1,0,0:0:0:0:s_041.ogg
281,192,43125,1,0,0:0:0:0:s_061.ogg
25,192,43200,1,0,0:0:0:0:s_045.ogg
76,192,43200,1,0,0:0:0:0:s_027.ogg
384,192,43200,1,0,0:0:0:0:s_068.ogg
435,192,43275,1,0,0:0:0:0:s_075.ogg
486,192,43275,1,0,0:0:0:0:s_033.ogg
179,192,43350,1,0,0:0:0:0:m_030.ogg
230,192,43350,1,0,0:0:0:0:m_042.ogg
332,192,43350,1,0,0:0:0:0:s_068.ogg
281,192,43425,1,0,0:0:0:0:s_061.ogg
384,192,43500,1,0,0:0:0:0:s_075.ogg
486,192,43500,1,0,0:0:0:0:s_033.ogg
128,192,43575,1,0,0:0:0:0:s_041.ogg
179,192,43575,1,0,0:0:0:0:s_017.ogg
332,192,43575,1,0,0:0:0:0:s_029.ogg
25,192,43650,1,0,0:0:0:0:s_039.ogg
76,192,43650,1,0,0:0:0:0:s_027.ogg
281,192,43650,1,0,0:0:0:0:s_049.ogg
384,192,43725,1,0,0:0:0:0:s_068.ogg
179,192,43800,1,0,0:0:0:0:m_030.ogg
230,192,43800,1,0,0:0:0:0:m_042.ogg
435,192,43800,1,0,0:0:0:0:s_075.ogg
486,192,43800,1,0,0:0:0:0:s_033.ogg
332,192,43875,1,0,0:0:0:0:s_068.ogg
281,192,43950,1,0,0:0:0:0:s_061.ogg
128,192,44025,1,0,0:0:0:0:s_029.ogg
179,192,44025,1,0,0:0:0:0:s_041.ogg
384,192,44025,1,0,0:0:0:0:s_075.ogg
486,192,44025,1,0,0:0:0:0:s_017.ogg
25,192,44100,1,0,0:0:0:0:s_045.ogg
76,192,44100,1,0,0:0:0:0:s_027.ogg
332,192,44100,1,0,0:0:0:0:s_068.ogg
281,192,44175,1,0,0:0:0:0:s_061.ogg
179,192,44250,1,0,0:0:0:0:m_030.ogg
230,192,44250,1,0,0:0:0:0:m_042.ogg
384,192,44250,1,0,0:0:0:0:s_068.ogg
435,192,44325,1,0,0:0:0:0:s_075.ogg
486,192,44325,1,0,0:0:0:0:s_033.ogg
332,192,44400,1,0,0:0:0:0:s_068.ogg
128,192,44475,1,0,0:0:0:0:s_029.ogg
179,192,44475,1,0,0:0:0:0:s_041.ogg
281,192,44475,1,0,0:0:0:0:s_061.ogg
25,192,44550,1,0,0:0:0:0:s_039.ogg
76,192,44550,1,0,0:0:0:0:s_027.ogg
384,192,44550,1,0,0:0:0:0:s_074.ogg
486,192,44550,1,0,0:0:0:0:s_033.ogg
332,192,44625,1,0,0:0:0:0:s_068.ogg
179,192,44700,1,0,0:0:0:0:m_030.ogg
230,192,44700,1,0,0:0:0:0:m_042.ogg
281,192,44700,1,0,0:0:0:0:s_061.ogg
384,192,44775,1,0,0:0:0:0:s_068.ogg
435,192,44850,1,0,0:0:0:0:s_075.ogg
486,192,44850,1,0,0:0:0:0:s_033.ogg
128,192,44925,1,0,0:0:0:0:s_041.ogg
179,192,44925,1,0,0:0:0:0:s_017.ogg
332,192,44925,1,0,0:0:0:0:s_029.ogg
25,192,45000,1,0,0:0:0:0:s_039.ogg
76,192,45000,1,0,0:0:0:0:s_027.ogg
281,192,45000,1,0,0:0:0:0:s_049.ogg
384,192,45075,1,0,0:0:0:0:s_075.ogg
486,192,45075,1,0,0:0:0:0:s_033.ogg
179,192,45150,1,0,0:0:0:0:m_030.ogg
230,192,45150,1,0,0:0:0:0:m_042.ogg
332,192,45150,1,0,0:0:0:0:s_068.ogg
281,192,45225,1,0,0:0:0:0:s_061.ogg
384,192,45300,1,0,0:0:0:0:s_068.ogg
128,192,45375,1,0,0:0:0:0:s_029.ogg
179,192,45375,1,0,0:0:0:0:s_041.ogg
435,192,45375,1,0,0:0:0:0:s_075.ogg
486,192,45375,1,0,0:0:0:0:s_017.ogg
25,192,45450,1,0,0:0:0:0:s_045.ogg
76,192,45450,1,0,0:0:0:0:s_027.ogg
332,192,45450,1,0,0:0:0:0:s_068.ogg
281,192,45525,1,0,0:0:0:0:s_061.ogg
179,192,45600,1,0,0:0:0:0:s_037.ogg
230,192,45600,1,0,0:0:0:0:s_073.ogg
384,192,45600,1,0,0:0:0:0:s_033.ogg
486,192,45600,1,0,0:0:0:0:s_074.ogg
128,192,45675,1,0,0:0:0:0:s_045.ogg
332,192,45675,1,0,0:0:0:0:s_029.ogg
76,192,45750,1,0,0:0:0:0:s_063.ogg
281,192,45750,1,0,0:0:0:0:s_049.ogg
179,192,45825,1,0,0:0:0:0:s_068.ogg
230,192,45825,1,0,0:0:0:0:s_045.ogg
384,192,45825,1,0,0:0:0:0:s_030.ogg
128,192,45900,1,0,0:0:0:0:s_073.ogg
435,192,45900,1,0,0:0:0:0:s_074.ogg
486,192,45900,1,0,0:0:0:0:s_033.ogg
76,192,45975,1,0,0:0:0:0:s_068.ogg
332,192,45975,1,0,0:0:0:0:s_027.ogg
179,192,46050,1,0,0:0:0:0:s_063.ogg
230,192,46050,1,0,0:0:0:0:s_050.ogg
281,192,46050,1,0,0:0:0:0:s_049.ogg
128,192,46125,1,0,0:0:0:0:s_073.ogg
384,192,46125,1,0,0:0:0:0:s_074.ogg
486,192,46125,1,0,0:0:0:0:s_033.ogg
76,192,46200,1,0,0:0:0:0:s_068.ogg
332,192,46200,1,0,0:0:0:0:s_027.ogg
179,192,46275,1,0,0:0:0:0:s_042.ogg
230,192,46275,1,0,0:0:0:0:s_030.ogg
281,192,46275,1,0,0:0:0:0:s_018.ogg
384,192,46350,1,0,0:0:0:0:s_045.ogg
128,192,46425,1,0,0:0:0:0:s_037.ogg
179,192,46425,1,0,0:0:0:0:s_073.ogg
435,192,46425,1,0,0:0:0:0:s_074.ogg
486,192,46425,1,0,0:0:0:0:s_034.ogg
25,192,46500,1,0,0:0:0:0:s_015.ogg
76,192,46500,1,0,0:0:0:0:s_039.ogg
332,192,46500,1,0,0:0:0:0:s_027.ogg
281,192,46575,1,0,0:0:0:0:s_063.ogg
179,192,46650,1,0,0:0:0:0:m_030.ogg
230,192,46650,1,0,0:0:0:0:m_042.ogg
384,192,46650,1,0,0:0:0:0:s_075.ogg
486,192,46650,1,0,0:0:0:0:s_033.ogg
332,192,46725,1,0,0:0:0:0:s_068.ogg
281,192,46800,1,0,0:0:0:0:s_061.ogg
128,192,46875,1,0,0:0:0:0:s_041.ogg
179,192,46875,1,0,0:0:0:0:s_017.ogg
384,192,46875,1,0,0:0:0:0:s_029.ogg
25,192,46950,1,0,0:0:0:0:s_039.ogg
76,192,46950,1,0,0:0:0:0:s_027.ogg
435,192,46950,1,0,0:0:0:0:s_074.ogg
486,192,46950,1,0,0:0:0:0:s_033.ogg
332,192,47025,1,0,0:0:0:0:s_068.ogg
179,192,47100,1,0,0:0:0:0:m_030.ogg
230,192,47100,1,0,0:0:0:0:m_042.ogg
281,192,47100,1,0,0:0:0:0:s_061.ogg
384,192,47175,1,0,0:0:0:0:s_033.ogg
486,192,47175,1,0,0:0:0:0:s_075.ogg
332,192,47250,1,0,0:0:0:0:s_068.ogg
128,192,47325,1,0,0:0:0:0:s_029.ogg
179,192,47325,1,0,0:0:0:0:s_017.ogg
281,192,47325,1,0,0:0:0:0:s_061.ogg
25,192,47400,1,0,0:0:0:0:s_046.ogg
76,192,47400,1,0,0:0:0:0:s_027.ogg
332,192,47400,1,0,0:0:0:0:s_068.ogg
435,192,47475,1,0,0:0:0:0:s_055.ogg
179,192,47550,1,0,0:0:0:0:s_037.ogg
230,192,47550,1,0,0:0:0:0:s_073.ogg
384,192,47550,1,0,0:0:0:0:s_074.ogg
486,192,47550,1,0,0:0:0:0:s_033.ogg
128,192,47625,1,0,0:0:0:0:s_068.ogg
332,192,47625,1,0,0:0:0:0:s_029.ogg
76,192,47700,1,0,0:0:0:0:s_061.ogg
281,192,47700,1,0,0:0:0:0:s_027.ogg
179,192,47775,1,0,0:0:0:0:s_063.ogg
230,192,47775,1,0,0:0:0:0:s_046.ogg
435,192,47775,1,0,0:0:0:0:s_042.ogg
128,192,47850,1,0,0:0:0:0:s_068.ogg
332,192,47850,1,0,0:0:0:0:s_041.ogg
76,192,47925,1,0,0:0:0:0:s_055.ogg
435,192,47925,1,0,0:0:0:0:s_027.ogg
179,192,48000,1,0,0:0:0:0:m_030.ogg
230,192,48000,1,0,0:0:0:0:m_042.ogg
384,192,48000,1,0,0:0:0:0:s_075.ogg
486,192,48000,1,0,0:0:0:0:s_033.ogg
332,192,48075,1,0,0:0:0:0:s_068.ogg
281,192,48150,1,0,0:0:0:0:s_061.ogg
128,192,48225,1,0,0:0:0:0:s_041.ogg
179,192,48225,1,0,0:0:0:0:s_017.ogg
384,192,48225,1,0,0:0:0:0:s_029.ogg
25,192,48300,1,0,0:0:0:0:s_039.ogg
76,192,48300,1,0,0:0:0:0:s_027.ogg
435,192,48300,1,0,0:0:0:0:s_074.ogg
486,192,48300,1,0,0:0:0:0:s_033.ogg
332,192,48375,1,0,0:0:0:0:s_068.ogg
128,192,48450,1,0,0:0:0:0:s_037.ogg
179,192,48450,1,0,0:0:0:0:s_025.ogg
281,192,48450,1,0,0:0:0:0:s_049.ogg
332,192,48525,1,0,0:0:0:0:s_068.ogg
76,192,48600,1,0,0:0:0:0:s_036.ogg
384,192,48600,1,0,0:0:0:0:s_024.ogg
435,192,48600,1,0,0:0:0:0:s_012.ogg
128,192,48675,1,0,0:0:0:0:s_037.ogg
281,192,48675,1,0,0:0:0:0:s_013.ogg
179,192,48750,1,0,0:0:0:0:s_015.ogg
332,192,48750,1,0,0:0:0:0:s_027.ogg
230,192,48825,1,0,0:0:0:0:s_041.ogg
384,192,48825,1,0,0:0:0:0:s_017.ogg
179,192,48900,1,0,0:0:0:0:s_016.ogg
435,192,48900,1,0,0:0:0:0:s_040.ogg
486,192,48900,1,0,0:0:0:0:s_028.ogg
76,192,48975,1,0,0:0:0:0:s_038.ogg
384,192,48975,1,0,0:0:0:0:s_014.ogg
128,192,49050,1,0,0:0:0:0:s_015.ogg
332,192,49050,1,0,0:0:0:0:s_027.ogg
25,192,49125,1,0,0:0:0:0:s_025.ogg
281,192,49125,1,0,0:0:0:0:s_013.ogg
76,192,49200,1,0,0:0:0:0:s_036.ogg
384,192,49200,1,0,0:0:0:0:s_012.ogg
435,192,49200,1,0,0:0:0:0:s_024.ogg
230,192,49275,1,0,0:0:0:0:s_038.ogg
281,192,49275,1,0,0:0:0:0:s_014.ogg
179,192,49350,1,0,0:0:0:0:s_013.ogg
332,192,49350,1,0,0:0:0:0:s_025.ogg
128,192,49425,1,0,0:0:0:0:s_035.ogg
384,192,49425,1,0,0:0:0:0:s_011.ogg
76,192,49500,1,0,0:0:0:0:s_034.ogg
435,192,49500,1,0,0:0:0:0:s_022.ogg
486,192,49500,1,0,0:0:0:0:s_010.ogg
179,192,49575,1,0,0:0:0:0:s_036.ogg
384,192,49575,1,0,0:0:0:0:s_012.ogg
128,192,49650,1,0,0:0:0:0:s_011.ogg
332,192,49650,1,0,0:0:0:0:s_023.ogg
76,192,49725,1,0,0:0:0:0:s_021.ogg
281,192,49725,1,0,0:0:0:0:s_009.ogg
25,192,49800,1,0,0:0:0:0:m_020.ogg
230,192,49800,1,0,0:0:0:0:m_032.ogg
384,192,49800,1,0,0:0:0:0:s_044.ogg
486,192,49800,1,0,0:0:0:0:m_008.ogg
435,192,49875,1,0,0:0:0:0:s_065.ogg
384,192,49950,1,0,0:0:0:0:s_054.ogg
25,192,50025,1,0,0:0:0:0:s_058.ogg
128,192,50025,1,0,0:0:0:0:s_060.ogg
332,192,50025,1,0,0:0:0:0:s_024.ogg
76,192,50100,1,0,0:0:0:0:s_068.ogg
179,192,50100,1,0,0:0:0:0:s_072.ogg
435,192,50100,1,0,0:0:0:0:s_027.ogg
486,192,50100,1,0,0:0:0:0:s_060.ogg
384,192,50175,1,0,0:0:0:0:s_065.ogg
128,192,50250,1,0,0:0:0:0:s_060.ogg
230,192,50250,1,0,0:0:0:0:s_051.ogg
332,192,50250,1,0,0:0:0:0:s_030.ogg
281,192,50325,1,0,0:0:0:0:s_058.ogg
332,192,50400,1,0,0:0:0:0:m_022.ogg
486,192,50400,1,0,0:0:0:0:s_056.ogg
230,192,50400,128,0,50700:0:0:0:0:m_046.ogg
179,192,50400,128,0,50700:0:0:0:0:m_034.ogg
435,192,50475,1,0,0:0:0:0:s_060.ogg
384,192,50550,1,0,0:0:0:0:s_058.ogg
332,192,50625,1,0,0:0:0:0:s_051.ogg
76,192,50700,1,0,0:0:0:0:s_052.ogg
128,192,50700,1,0,0:0:0:0:s_064.ogg
281,192,50700,1,0,0:0:0:0:s_045.ogg
435,192,50700,1,0,0:0:0:0:s_033.ogg
384,192,50775,1,0,0:0:0:0:s_056.ogg
25,192,50850,1,0,0:0:0:0:s_043.ogg
76,192,50850,1,0,0:0:0:0:s_051.ogg
332,192,50850,1,0,0:0:0:0:s_032.ogg
281,192,50925,1,0,0:0:0:0:s_045.ogg
230,192,51000,1,0,0:0:0:0:s_061.ogg
486,192,51000,1,0,0:0:0:0:s_041.ogg
435,192,51045,1,0,0:0:0:0:s_065.ogg
179,192,51050,1,0,0:0:0:0:s_053.ogg
332,192,51091,1,0,0:0:0:0:s_061.ogg
128,192,51100,1,0,0:0:0:0:s_049.ogg
281,192,51138,1,0,0:0:0:0:s_053.ogg
230,192,51150,1,0,0:0:0:0:s_056.ogg
384,192,51184,1,0,0:0:0:0:s_054.ogg
128,192,51200,1,0,0:0:0:0:s_049.ogg
435,192,51230,1,0,0:0:0:0:s_055.ogg
230,192,51250,1,0,0:0:0:0:s_056.ogg
486,192,51276,1,0,0:0:0:0:s_058.ogg
25,192,51300,1,0,0:0:0:0:s_053.ogg
332,192,51322,1,0,0:0:0:0:s_056.ogg
179,192,51350,1,0,0:0:0:0:s_058.ogg
384,192,51368,1,0,0:0:0:0:s_060.ogg
25,192,51400,1,0,0:0:0:0:s_053.ogg
435,192,51415,1,0,0:0:0:0:s_061.ogg
179,192,51450,1,0,0:0:0:0:s_058.ogg
486,192,51461,1,0,0:0:0:0:s_065.ogg
76,192,51500,1,0,0:0:0:0:s_056.ogg
281,192,51507,1,0,0:0:0:0:s_064.ogg
230,192,51550,1,0,0:0:0:0:s_061.ogg
435,192,51553,1,0,0:0:0:0:s_068.ogg
76,192,51600,1,0,0:0:0:0:s_065.ogg
332,192,51600,1,0,0:0:0:0:s_056.ogg
486,192,51642,1,0,0:0:0:0:s_068.ogg
230,192,51650,1,0,0:0:0:0:s_061.ogg
281,192,51685,1,0,0:0:0:0:s_069.ogg
25,192,51700,1,0,0:0:0:0:s_058.ogg
332,192,51728,1,0,0:0:0:0:s_070.ogg
128,192,51750,1,0,0:0:0:0:s_065.ogg
384,192,51771,1,0,0:0:0:0:s_071.ogg
25,192,51800,1,0,0:0:0:0:s_058.ogg
435,192,51813,1,0,0:0:0:0:s_073.ogg
128,192,51850,1,0,0:0:0:0:s_065.ogg
332,192,51856,1,0,0:0:0:0:s_072.ogg
76,192,51900,1,0,0:0:0:0:s_073.ogg
384,192,51900,1,0,0:0:0:0:s_061.ogg
435,192,51942,1,0,0:0:0:0:s_074.ogg
179,192,51950,1,0,0:0:0:0:s_068.ogg
486,192,51985,1,0,0:0:0:0:s_075.ogg
76,192,52000,1,0,0:0:0:0:s_061.ogg
281,192,52028,1,0,0:0:0:0:s_076.ogg
179,192,52050,1,0,0:0:0:0:s_068.ogg
332,192,52071,1,0,0:0:0:0:s_077.ogg
128,192,52100,1,0,0:0:0:0:s_065.ogg
384,192,52113,1,0,0:0:0:0:s_078.ogg
230,192,52150,1,0,0:0:0:0:s_070.ogg
435,192,52156,1,0,0:0:0:0:s_079.ogg
25,192,52200,1,0,0:0:0:0:s_046.ogg
76,192,52200,1,0,0:0:0:0:s_034.ogg
179,192,52200,1,0,0:0:0:0:s_029.ogg
281,192,52200,1,0,0:0:0:0:s_050.ogg
332,192,52200,1,0,0:0:0:0:s_026.ogg
486,192,52200,1,0,0:0:0:0:s_041.ogg
128,192,52350,1,0,0:0:0:0:m_046.ogg
179,192,52350,1,0,0:0:0:0:m_073.ogg
230,192,52350,1,0,0:0:0:0:m_039.ogg
384,192,52350,1,0,0:0:0:0:m_051.ogg
435,192,52350,1,0,0:0:0:0:m_056.ogg
486,192,52350,1,0,0:0:0:0:m_032.ogg
76,192,52650,1,0,0:0:0:0:s_053.ogg
128,192,52650,1,0,0:0:0:0:s_070.ogg
179,192,52650,1,0,0:0:0:0:s_038.ogg
332,192,52650,1,0,0:0:0:0:s_050.ogg
384,192,52650,1,0,0:0:0:0:s_046.ogg
435,192,52650,1,0,0:0:0:0:s_029.ogg
25,192,52800,1,0,0:0:0:0:s_046.ogg
76,192,52800,1,0,0:0:0:0:s_050.ogg
128,192,52800,1,0,0:0:0:0:s_044.ogg
281,192,52800,1,0,0:0:0:0:s_056.ogg
332,192,52800,1,0,0:0:0:0:s_034.ogg
384,192,52800,1,0,0:0:0:0:s_038.ogg
76,192,52950,1,0,0:0:0:0:m_056.ogg
128,192,52950,1,0,0:0:0:0:m_070.ogg
179,192,52950,1,0,0:0:0:0:m_048.ogg
332,192,52950,1,0,0:0:0:0:m_060.ogg
384,192,52950,1,0,0:0:0:0:m_065.ogg
435,192,52950,1,0,0:0:0:0:m_041.ogg
25,192,53250,1,0,0:0:0:0:s_062.ogg
76,192,53250,1,0,0:0:0:0:s_072.ogg
128,192,53250,1,0,0:0:0:0:s_044.ogg
281,192,53250,1,0,0:0:0:0:s_056.ogg
332,192,53250,1,0,0:0:0:0:s_038.ogg
384,192,53250,1,0,0:0:0:0:s_053.ogg
435,192,53400,1,0,0:0:0:0:s_003.ogg
486,192,53475,1,0,0:0:0:0:s_003.ogg
25,192,53550,1,0,0:0:0:0:s_056.ogg
76,192,53550,1,0,0:0:0:0:s_044.ogg
128,192,53550,1,0,0:0:0:0:s_060.ogg
281,192,53625,1,0,0:0:0:0:s_045.ogg
332,192,53625,1,0,0:0:0:0:s_061.ogg
384,192,53625,1,0,0:0:0:0:s_057.ogg
128,192,53700,1,0,0:0:0:0:s_058.ogg
179,192,53700,1,0,0:0:0:0:s_062.ogg
230,192,53700,1,0,0:0:0:0:s_046.ogg
332,192,53775,1,0,0:0:0:0:s_049.ogg
384,192,53775,1,0,0:0:0:0:s_065.ogg
435,192,53775,1,0,0:0:0:0:s_061.ogg
76,192,53850,1,0,0:0:0:0:s_063.ogg
128,192,53850,1,0,0:0:0:0:s_048.ogg
179,192,53850,1,0,0:0:0:0:s_060.ogg
25,192,54000,1,0,0:0:0:0:s_044.ogg
179,192,54000,1,0,0:0:0:0:s_060.ogg
230,192,54000,1,0,0:0:0:0:s_066.ogg
281,192,54075,1,0,0:0:0:0:s_079.ogg
435,192,54075,1,0,0:0:0:0:s_074.ogg
486,192,54075,1,0,0:0:0:0:s_044.ogg
25,192,54150,1,0,0:0:0:0:s_044.ogg
76,192,54150,1,0,0:0:0:0:s_060.ogg
128,192,54150,1,0,0:0:0:0:s_056.ogg
281,192,54225,1,0,0:0:0:0:s_045.ogg
332,192,54225,1,0,0:0:0:0:s_061.ogg
384,192,54225,1,0,0:0:0:0:s_057.ogg
128,192,54300,1,0,0:0:0:0:s_046.ogg
179,192,54300,1,0,0:0:0:0:s_062.ogg
230,192,54300,1,0,0:0:0:0:s_058.ogg
332,192,54375,1,0,0:0:0:0:s_049.ogg
384,192,54375,1,0,0:0:0:0:s_065.ogg
435,192,54375,1,0,0:0:0:0:s_061.ogg
76,192,54450,1,0,0:0:0:0:s_060.ogg
128,192,54450,1,0,0:0:0:0:s_063.ogg
179,192,54450,1,0,0:0:0:0:s_048.ogg
435,192,54600,1,0,0:0:0:0:s_003.ogg
486,192,54675,1,0,0:0:0:0:s_003.ogg
25,192,54750,1,0,0:0:0:0:s_056.ogg
76,192,54750,1,0,0:0:0:0:s_060.ogg
128,192,54750,1,0,0:0:0:0:s_044.ogg
281,192,54825,1,0,0:0:0:0:s_045.ogg
332,192,54825,1,0,0:0:0:0:s_061.ogg
384,192,54825,1,0,0:0:0:0:s_057.ogg
128,192,54900,1,0,0:0:0:0:s_058.ogg
179,192,54900,1,0,0:0:0:0:s_062.ogg
230,192,54900,1,0,0:0:0:0:s_046.ogg
332,192,54975,1,0,0:0:0:0:s_049.ogg
384,192,54975,1,0,0:0:0:0:s_065.ogg
435,192,54975,1,0,0:0:0:0:s_061.ogg
76,192,55050,1,0,0:0:0:0:s_048.ogg
128,192,55050,1,0,0:0:0:0:s_063.ogg
179,192,55050,1,0,0:0:0:0:s_060.ogg
25,192,55200,1,0,0:0:0:0:s_044.ogg
179,192,55200,1,0,0:0:0:0:s_066.ogg
230,192,55200,1,0,0:0:0:0:s_074.ogg
281,192,55275,1,0,0:0:0:0:s_060.ogg
435,192,55275,1,0,0:0:0:0:s_074.ogg
486,192,55275,1,0,0:0:0:0:s_079.ogg
25,192,55350,1,0,0:0:0:0:s_056.ogg
76,192,55350,1,0,0:0:0:0:s_060.ogg
128,192,55350,1,0,0:0:0:0:s_044.ogg
281,192,55425,1,0,0:0:0:0:s_045.ogg
332,192,55425,1,0,0:0:0:0:s_061.ogg
384,192,55425,1,0,0:0:0:0:s_057.ogg
128,192,55500,1,0,0:0:0:0:s_062.ogg
179,192,55500,1,0,0:0:0:0:s_058.ogg
230,192,55500,1,0,0:0:0:0:s_046.ogg
332,192,55575,1,0,0:0:0:0:s_061.ogg
384,192,55575,1,0,0:0:0:0:s_049.ogg
435,192,55575,1,0,0:0:0:0:s_065.ogg
76,192,55650,1,0,0:0:0:0:s_060.ogg
128,192,55650,1,0,0:0:0:0:s_063.ogg
179,192,55650,1,0,0:0:0:0:s_048.ogg
435,192,55800,1,0,0:0:0:0:s_027.ogg
486,192,55875,1,0,0:0:0:0:s_027.ogg
25,192,55950,1,0,0:0:0:0:s_056.ogg
76,192,55950,1,0,0:0:0:0:s_044.ogg
128,192,55950,1,0,0:0:0:0:s_060.ogg
281,192,56025,1,0,0:0:0:0:s_045.ogg
332,192,56025,1,0,0:0:0:0:s_061.ogg
384,192,56025,1,0,0:0:0:0:s_057.ogg
128,192,56100,1,0,0:0:0:0:s_046.ogg
179,192,56100,1,0,0:0:0:0:s_062.ogg
230,192,56100,1,0,0:0:0:0:s_058.ogg
332,192,56175,1,0,0:0:0:0:s_049.ogg
384,192,56175,1,0,0:0:0:0:s_065.ogg
435,192,56175,1,0,0:0:0:0:s_061.ogg
76,192,56250,1,0,0:0:0:0:s_063.ogg
128,192,56250,1,0,0:0:0:0:s_060.ogg
179,192,56250,1,0,0:0:0:0:s_048.ogg
25,192,56400,1,0,0:0:0:0:s_074.ogg
230,192,56400,1,0,0:0:0:0:s_060.ogg
384,192,56400,1,0,0:0:0:0:s_051.ogg
281,192,56400,1,0,0:0:0:0:s_053.ogg
486,192,56400,1,0,0:0:0:0:s_066.ogg
435,192,56550,1,0,0:0:0:0:s_027.ogg
486,192,56625,1,0,0:0:0:0:s_027.ogg
25,192,56700,1,0,0:0:0:0:s_060.ogg
76,192,56700,1,0,0:0:0:0:s_057.ogg
128,192,56700,1,0,0:0:0:0:s_045.ogg
281,192,56775,1,0,0:0:0:0:s_058.ogg
332,192,56775,1,0,0:0:0:0:s_061.ogg
384,192,56775,1,0,0:0:0:0:s_046.ogg
128,192,56850,1,0,0:0:0:0:s_047.ogg
179,192,56850,1,0,0:0:0:0:s_062.ogg
230,192,56850,1,0,0:0:0:0:s_059.ogg
332,192,56925,1,0,0:0:0:0:s_049.ogg
384,192,56925,1,0,0:0:0:0:s_065.ogg
435,192,56925,1,0,0:0:0:0:s_061.ogg
76,192,57000,1,0,0:0:0:0:s_063.ogg
128,192,57000,1,0,0:0:0:0:s_048.ogg
179,192,57000,1,0,0:0:0:0:s_060.ogg
230,192,57150,1,0,0:0:0:0:s_074.ogg
25,192,57150,1,0,0:0:0:0:s_060.ogg
281,192,57150,1,0,0:0:0:0:s_054.ogg
435,192,57150,1,0,0:0:0:0:s_079.ogg
486,192,57150,1,0,0:0:0:0:s_051.ogg
486,192,57300,1,0,0:0:0:0:s_003.ogg
435,192,57375,1,0,0:0:0:0:s_027.ogg
128,192,57450,1,0,0:0:0:0:s_043.ogg
179,192,57450,1,0,0:0:0:0:s_061.ogg
230,192,57450,1,0,0:0:0:0:s_052.ogg
281,192,57525,1,0,0:0:0:0:s_053.ogg
332,192,57525,1,0,0:0:0:0:s_062.ogg
384,192,57525,1,0,0:0:0:0:s_044.ogg
25,192,57600,1,0,0:0:0:0:s_052.ogg
76,192,57600,1,0,0:0:0:0:s_063.ogg
128,192,57600,1,0,0:0:0:0:s_054.ogg
230,192,57675,1,0,0:0:0:0:s_053.ogg
281,192,57675,1,0,0:0:0:0:s_066.ogg
332,192,57675,1,0,0:0:0:0:s_057.ogg
76,192,57750,1,0,0:0:0:0:s_054.ogg
128,192,57750,1,0,0:0:0:0:s_065.ogg
179,192,57750,1,0,0:0:0:0:s_056.ogg
281,192,57825,1,0,0:0:0:0:s_055.ogg
332,192,57825,1,0,0:0:0:0:s_068.ogg
384,192,57825,1,0,0:0:0:0:s_059.ogg
128,192,57900,1,0,0:0:0:0:s_056.ogg
179,192,57900,1,0,0:0:0:0:s_067.ogg
230,192,57900,1,0,0:0:0:0:s_058.ogg
332,192,57975,1,0,0:0:0:0:s_057.ogg
384,192,57975,1,0,0:0:0:0:s_070.ogg
435,192,57975,1,0,0:0:0:0:s_061.ogg
179,192,58050,1,0,0:0:0:0:s_058.ogg
230,192,58050,1,0,0:0:0:0:s_069.ogg
281,192,58050,1,0,0:0:0:0:s_060.ogg
384,192,58125,1,0,0:0:0:0:s_059.ogg
435,192,58125,1,0,0:0:0:0:s_072.ogg
486,192,58125,1,0,0:0:0:0:s_063.ogg
25,192,58200,1,0,0:0:0:0:s_060.ogg
76,192,58200,1,0,0:0:0:0:s_062.ogg
332,192,58200,1,0,0:0:0:0:s_071.ogg
179,192,58275,1,0,0:0:0:0:s_061.ogg
230,192,58275,1,0,0:0:0:0:s_065.ogg
435,192,58275,1,0,0:0:0:0:s_074.ogg
76,192,58350,1,0,0:0:0:0:s_062.ogg
128,192,58350,1,0,0:0:0:0:s_064.ogg
384,192,58350,1,0,0:0:0:0:s_073.ogg
179,192,58425,1,0,0:0:0:0:s_063.ogg
230,192,58425,1,0,0:0:0:0:s_067.ogg
486,192,58425,1,0,0:0:0:0:s_076.ogg
25,192,58500,1,0,0:0:0:0:s_064.ogg
281,192,58500,1,0,0:0:0:0:s_075.ogg
332,192,58500,1,0,0:0:0:0:s_048.ogg
128,192,58575,1,0,0:0:0:0:s_065.ogg
435,192,58575,1,0,0:0:0:0:s_078.ogg
486,192,58575,1,0,0:0:0:0:s_060.ogg
76,192,58650,1,0,0:0:0:0:s_066.ogg
332,192,58650,1,0,0:0:0:0:s_077.ogg
384,192,58650,1,0,0:0:0:0:s_059.ogg
179,192,58725,1,0,0:0:0:0:s_067.ogg
435,192,58725,1,0,0:0:0:0:s_080.ogg
486,192,58725,1,0,0:0:0:0:s_062.ogg
76,192,58800,1,0,0:0:0:0:s_068.ogg
230,192,58800,1,0,0:0:0:0:s_051.ogg
384,192,58800,1,0,0:0:0:0:s_070.ogg
128,192,58860,1,0,0:0:0:0:s_063.ogg
281,192,58860,1,0,0:0:0:0:s_073.ogg
435,192,58860,1,0,0:0:0:0:s_082.ogg
179,192,58920,1,0,0:0:0:0:s_067.ogg
332,192,58920,1,0,0:0:0:0:s_076.ogg
486,192,58920,1,0,0:0:0:0:s_085.ogg
128,192,58980,1,0,0:0:0:0:s_063.ogg
281,192,58980,1,0,0:0:0:0:s_073.ogg
435,192,58980,1,0,0:0:0:0:s_082.ogg
76,192,59040,1,0,0:0:0:0:s_061.ogg
230,192,59040,1,0,0:0:0:0:s_070.ogg
384,192,59040,1,0,0:0:0:0:s_079.ogg
25,192,59100,1,0,0:0:0:0:s_058.ogg
179,192,59100,1,0,0:0:0:0:s_067.ogg
332,192,59100,1,0,0:0:0:0:s_075.ogg
128,192,59160,1,0,0:0:0:0:s_055.ogg
281,192,59160,1,0,0:0:0:0:s_064.ogg
486,192,59160,1,0,0:0:0:0:s_073.ogg
76,192,59220,1,0,0:0:0:0:s_052.ogg
230,192,59220,1,0,0:0:0:0:s_061.ogg
435,192,59220,1,0,0:0:0:0:s_070.ogg
25,192,59280,1,0,0:0:0:0:s_058.ogg
179,192,59280,1,0,0:0:0:0:s_049.ogg
384,192,59280,1,0,0:0:0:0:s_067.ogg
76,192,59340,1,0,0:0:0:0:s_051.ogg
230,192,59340,1,0,0:0:0:0:s_061.ogg
435,192,59340,1,0,0:0:0:0:s_070.ogg
128,192,59400,1,0,0:0:0:0:s_046.ogg
281,192,59400,1,0,0:0:0:0:s_064.ogg
486,192,59400,1,0,0:0:0:0:s_073.ogg
76,192,59460,1,0,0:0:0:0:s_043.ogg
230,192,59460,1,0,0:0:0:0:s_061.ogg
435,192,59460,1,0,0:0:0:0:s_070.ogg
25,192,59520,1,0,0:0:0:0:s_039.ogg
179,192,59520,1,0,0:0:0:0:s_058.ogg
384,192,59520,1,0,0:0:0:0:s_067.ogg
128,192,59580,1,0,0:0:0:0:s_037.ogg
332,192,59580,1,0,0:0:0:0:s_055.ogg
486,192,59580,1,0,0:0:0:0:s_064.ogg
76,192,59640,1,0,0:0:0:0:s_034.ogg
281,192,59640,1,0,0:0:0:0:s_052.ogg
435,192,59640,1,0,0:0:0:0:s_061.ogg
25,192,59700,1,0,0:0:0:0:s_031.ogg
230,192,59700,1,0,0:0:0:0:s_058.ogg
384,192,59700,1,0,0:0:0:0:s_049.ogg
179,192,59760,1,0,0:0:0:0:s_027.ogg
332,192,59760,1,0,0:0:0:0:s_055.ogg
486,192,59760,1,0,0:0:0:0:s_046.ogg
128,192,59820,1,0,0:0:0:0:s_025.ogg
281,192,59820,1,0,0:0:0:0:s_051.ogg
435,192,59820,1,0,0:0:0:0:s_043.ogg
76,192,59880,1,0,0:0:0:0:s_022.ogg
230,192,59880,1,0,0:0:0:0:s_049.ogg
384,192,59880,1,0,0:0:0:0:s_040.ogg
25,192,59940,1,0,0:0:0:0:s_019.ogg
179,192,59940,1,0,0:0:0:0:s_046.ogg
332,192,59940,1,0,0:0:0:0:s_037.ogg
128,192,60000,1,0,0:0:0:0:s_015.ogg
281,192,60000,1,0,0:0:0:0:s_034.ogg
486,192,60000,1,0,0:0:0:0:s_043.ogg
25,192,60060,1,0,0:0:0:0:s_037.ogg
179,192,60060,1,0,0:0:0:0:s_019.ogg
332,192,60060,1,0,0:0:0:0:s_046.ogg
76,192,60120,1,0,0:0:0:0:s_022.ogg
230,192,60120,1,0,0:0:0:0:s_040.ogg
384,192,60120,1,0,0:0:0:0:s_049.ogg
25,192,60180,1,0,0:0:0:0:s_037.ogg
179,192,60180,1,0,0:0:0:0:s_019.ogg
332,192,60180,1,0,0:0:0:0:s_046.ogg
128,192,60240,1,0,0:0:0:0:s_015.ogg
281,192,60240,1,0,0:0:0:0:s_034.ogg
486,192,60240,1,0,0:0:0:0:s_043.ogg
76,192,60300,1,0,0:0:0:0:s_013.ogg
230,192,60300,1,0,0:0:0:0:s_031.ogg
435,192,60300,1,0,0:0:0:0:s_039.ogg
25,192,60360,1,0,0:0:0:0:s_028.ogg
179,192,60360,1,0,0:0:0:0:s_010.ogg
384,192,60360,1,0,0:0:0:0:s_037.ogg
128,192,60420,1,0,0:0:0:0:s_007.ogg
332,192,60420,1,0,0:0:0:0:s_025.ogg
486,192,60420,1,0,0:0:0:0:s_034.ogg
76,192,60480,1,0,0:0:0:0:s_003.ogg
281,192,60480,1,0,0:0:0:0:s_022.ogg
435,192,60480,1,0,0:0:0:0:s_031.ogg
128,192,60540,1,0,0:0:0:0:s_007.ogg
332,192,60540,1,0,0:0:0:0:s_025.ogg
486,192,60540,1,0,0:0:0:0:s_034.ogg
25,192,60600,1,0,0:0:0:0:s_010.ogg
179,192,60600,1,0,0:0:0:0:s_037.ogg
384,192,60600,1,0,0:0:0:0:s_028.ogg
76,192,60660,1,0,0:0:0:0:s_013.ogg
230,192,60660,1,0,0:0:0:0:s_039.ogg
435,192,60660,1,0,0:0:0:0:s_031.ogg
128,192,60720,1,0,0:0:0:0:s_015.ogg
281,192,60720,1,0,0:0:0:0:s_043.ogg
486,192,60720,1,0,0:0:0:0:s_034.ogg
25,192,60780,1,0,0:0:0:0:s_046.ogg
179,192,60780,1,0,0:0:0:0:s_019.ogg
332,192,60780,1,0,0:0:0:0:s_037.ogg
76,192,60840,1,0,0:0:0:0:s_022.ogg
230,192,60840,1,0,0:0:0:0:s_049.ogg
384,192,60840,1,0,0:0:0:0:s_040.ogg
128,192,60900,1,0,0:0:0:0:s_025.ogg
281,192,60900,1,0,0:0:0:0:s_043.ogg
435,192,60900,1,0,0:0:0:0:s_051.ogg
179,192,60950,1,0,0:0:0:0:s_027.ogg
332,192,60950,1,0,0:0:0:0:s_046.ogg
486,192,60950,1,0,0:0:0:0:s_055.ogg
25,192,61000,1,0,0:0:0:0:s_049.ogg
230,192,61000,1,0,0:0:0:0:s_031.ogg
384,192,61000,1,0,0:0:0:0:s_058.ogg
76,192,61050,1,0,0:0:0:0:s_034.ogg
281,192,61050,1,0,0:0:0:0:s_052.ogg
435,192,61050,1,0,0:0:0:0:s_061.ogg
128,192,61100,1,0,0:0:0:0:s_037.ogg
332,192,61100,1,0,0:0:0:0:s_063.ogg
486,192,61100,1,0,0:0:0:0:s_055.ogg
25,192,61200,1,0,0:0:0:0:s_027.ogg
179,192,61200,1,0,0:0:0:0:s_053.ogg
230,192,61200,1,0,0:0:0:0:s_046.ogg
281,192,61200,1,0,0:0:0:0:s_051.ogg
384,192,61200,1,0,0:0:0:0:s_058.ogg
435,192,61200,1,0,0:0:0:0:s_067.ogg
486,192,61350,1,0,0:0:0:0:s_058.ogg
435,192,61363,1,0,0:0:0:0:s_057.ogg
384,192,61376,1,0,0:0:0:0:s_056.ogg
332,192,61390,1,0,0:0:0:0:s_055.ogg
281,192,61404,1,0,0:0:0:0:s_054.ogg
230,192,61418,1,0,0:0:0:0:s_053.ogg
179,192,61431,1,0,0:0:0:0:s_052.ogg
128,192,61445,1,0,0:0:0:0:s_051.ogg
76,192,61458,1,0,0:0:0:0:s_050.ogg
25,192,61472,1,0,0:0:0:0:s_049.ogg
486,192,61486,1,0,0:0:0:0:s_048.ogg
435,192,61500,1,0,0:0:0:0:s_047.ogg
384,192,61513,1,0,0:0:0:0:s_046.ogg
332,192,61526,1,0,0:0:0:0:s_045.ogg
281,192,61540,1,0,0:0:0:0:s_044.ogg
230,192,61554,1,0,0:0:0:0:s_043.ogg
179,192,61568,1,0,0:0:0:0:s_042.ogg
128,192,61581,1,0,0:0:0:0:s_041.ogg
76,192,61595,1,0,0:0:0:0:s_040.ogg
25,192,61608,1,0,0:0:0:0:s_039.ogg
486,192,61622,1,0,0:0:0:0:s_038.ogg
435,192,61636,1,0,0:0:0:0:s_037.ogg
384,192,61650,1,0,0:0:0:0:s_036.ogg
332,192,61663,1,0,0:0:0:0:s_035.ogg
281,192,61676,1,0,0:0:0:0:s_034.ogg
230,192,61690,1,0,0:0:0:0:s_033.ogg
179,192,61704,1,0,0:0:0:0:s_032.ogg
128,192,61718,1,0,0:0:0:0:s_031.ogg
76,192,61731,1,0,0:0:0:0:s_030.ogg
25,192,61745,1,0,0:0:0:0:s_029.ogg
486,192,61758,1,0,0:0:0:0:s_028.ogg
435,192,61772,1,0,0:0:0:0:s_027.ogg
384,192,61786,1,0,0:0:0:0:s_026.ogg
332,192,61800,1,0,0:0:0:0:s_025.ogg
281,192,61813,1,0,0:0:0:0:s_024.ogg
230,192,61826,1,0,0:0:0:0:s_023.ogg
179,192,61840,1,0,0:0:0:0:s_022.ogg
128,192,61854,1,0,0:0:0:0:s_021.ogg
76,192,61868,1,0,0:0:0:0:s_020.ogg
25,192,61881,1,0,0:0:0:0:s_019.ogg
486,192,61895,1,0,0:0:0:0:s_018.ogg
435,192,61908,1,0,0:0:0:0:s_017.ogg
384,192,61922,1,0,0:0:0:0:s_016.ogg
332,192,61936,1,0,0:0:0:0:s_015.ogg
281,192,61950,1,0,0:0:0:0:s_014.ogg
230,192,61963,1,0,0:0:0:0:s_013.ogg
179,192,61976,1,0,0:0:0:0:s_012.ogg
128,192,61990,1,0,0:0:0:0:s_011.ogg
76,192,62004,1,0,0:0:0:0:s_010.ogg
25,192,62018,1,0,0:0:0:0:s_009.ogg
486,192,62031,1,0,0:0:0:0:s_008.ogg
435,192,62045,1,0,0:0:0:0:s_007.ogg
384,192,62058,1,0,0:0:0:0:s_006.ogg
332,192,62072,1,0,0:0:0:0:s_005.ogg
281,192,62086,1,0,0:0:0:0:s_004.ogg
230,192,62100,1,0,0:0:0:0:m_003.ogg
332,192,62250,1,0,0:0:0:0:s_053.ogg
435,192,62300,1,0,0:0:0:0:s_079.ogg
332,192,62350,1,0,0:0:0:0:s_065.ogg
25,192,62400,1,0,0:0:0:0:s_027.ogg
76,192,62422,1,0,0:0:0:0:s_028.ogg
128,192,62445,1,0,0:0:0:0:s_029.ogg
179,192,62468,1,0,0:0:0:0:s_030.ogg
230,192,62491,1,0,0:0:0:0:s_031.ogg
281,192,62515,1,0,0:0:0:0:s_032.ogg
332,192,62538,1,0,0:0:0:0:s_033.ogg
384,192,62561,1,0,0:0:0:0:s_034.ogg
435,192,62584,1,0,0:0:0:0:s_035.ogg
486,192,62607,1,0,0:0:0:0:s_036.ogg
25,192,62630,1,0,0:0:0:0:s_037.ogg
76,192,62653,1,0,0:0:0:0:s_038.ogg
128,192,62676,1,0,0:0:0:0:s_039.ogg
384,192,62700,1,0,0:0:0:0:s_003.ogg
332,192,62722,1,0,0:0:0:0:s_055.ogg
281,192,62745,1,0,0:0:0:0:s_054.ogg
230,192,62768,1,0,0:0:0:0:s_053.ogg
179,192,62791,1,0,0:0:0:0:s_052.ogg
128,192,62815,1,0,0:0:0:0:s_051.ogg
76,192,62838,1,0,0:0:0:0:s_050.ogg
25,192,62861,1,0,0:0:0:0:s_049.ogg
486,192,62884,1,0,0:0:0:0:s_048.ogg
435,192,62907,1,0,0:0:0:0:s_047.ogg
384,192,62930,1,0,0:0:0:0:s_046.ogg
332,192,62953,1,0,0:0:0:0:s_045.ogg
281,192,62976,1,0,0:0:0:0:s_044.ogg
230,192,63000,1,0,0:0:0:0:s_071.ogg
179,192,63020,1,0,0:0:0:0:s_070.ogg
128,192,63040,1,0,0:0:0:0:s_069.ogg
76,192,63060,1,0,0:0:0:0:s_068.ogg
25,192,63080,1,0,0:0:0:0:s_067.ogg
486,192,63100,1,0,0:0:0:0:s_066.ogg
435,192,63120,1,0,0:0:0:0:s_065.ogg
384,192,63140,1,0,0:0:0:0:s_064.ogg
332,192,63160,1,0,0:0:0:0:s_063.ogg
281,192,63180,1,0,0:0:0:0:s_062.ogg
230,192,63200,1,0,0:0:0:0:s_061.ogg
179,192,63220,1,0,0:0:0:0:s_060.ogg
128,192,63240,1,0,0:0:0:0:s_059.ogg
76,192,63260,1,0,0:0:0:0:s_058.ogg
25,192,63280,1,0,0:0:0:0:s_057.ogg
281,192,63300,1,0,0:0:0:0:s_032.ogg
332,192,63322,1,0,0:0:0:0:s_033.ogg
384,192,63345,1,0,0:0:0:0:s_034.ogg
435,192,63368,1,0,0:0:0:0:s_035.ogg
486,192,63391,1,0,0:0:0:0:s_036.ogg
76,192,63415,1,0,0:0:0:0:s_037.ogg
128,192,63438,1,0,0:0:0:0:s_038.ogg
179,192,63461,1,0,0:0:0:0:s_039.ogg
230,192,63484,1,0,0:0:0:0:s_040.ogg
281,192,63507,1,0,0:0:0:0:s_041.ogg
332,192,63530,1,0,0:0:0:0:s_042.ogg
384,192,63553,1,0,0:0:0:0:s_043.ogg
435,192,63576,1,0,0:0:0:0:s_044.ogg
230,192,63600,1,0,0:0:0:0:s_055.ogg
179,192,63618,1,0,0:0:0:0:s_054.ogg
128,192,63637,1,0,0:0:0:0:s_053.ogg
76,192,63656,1,0,0:0:0:0:s_052.ogg
486,192,63675,1,0,0:0:0:0:s_051.ogg
435,192,63693,1,0,0:0:0:0:s_050.ogg
384,192,63712,1,0,0:0:0:0:s_049.ogg
332,192,63731,1,0,0:0:0:0:s_048.ogg
179,192,63750,1,0,0:0:0:0:s_063.ogg
128,192,63768,1,0,0:0:0:0:s_046.ogg
76,192,63787,1,0,0:0:0:0:s_045.ogg
25,192,63806,1,0,0:0:0:0:s_044.ogg
435,192,63825,1,0,0:0:0:0:s_043.ogg
384,192,63843,1,0,0:0:0:0:s_042.ogg
332,192,63862,1,0,0:0:0:0:s_041.ogg
281,192,63881,1,0,0:0:0:0:s_040.ogg
76,192,63900,1,0,0:0:0:0:s_041.ogg
128,192,63918,1,0,0:0:0:0:s_037.ogg
179,192,63937,1,0,0:0:0:0:s_038.ogg
230,192,63956,1,0,0:0:0:0:s_039.ogg
332,192,63975,1,0,0:0:0:0:s_040.ogg
384,192,63993,1,0,0:0:0:0:m_041.ogg
435,192,64012,1,0,0:0:0:0:s_042.ogg
486,192,64031,1,0,0:0:0:0:s_043.ogg
25,192,64050,1,0,0:0:0:0:s_044.ogg
76,192,64068,1,0,0:0:0:0:s_045.ogg
128,192,64087,1,0,0:0:0:0:s_046.ogg
179,192,64106,1,0,0:0:0:0:s_047.ogg
281,192,64125,1,0,0:0:0:0:s_051.ogg
332,192,64143,1,0,0:0:0:0:s_049.ogg
384,192,64162,1,0,0:0:0:0:s_050.ogg
435,192,64181,1,0,0:0:0:0:s_051.ogg
230,192,64200,1,0,0:0:0:0:s_045.ogg
179,192,64216,1,0,0:0:0:0:s_044.ogg
128,192,64233,1,0,0:0:0:0:s_043.ogg
76,192,64250,1,0,0:0:0:0:s_042.ogg
25,192,64266,1,0,0:0:0:0:s_041.ogg
486,192,64283,1,0,0:0:0:0:s_040.ogg
435,192,64300,1,0,0:0:0:0:s_039.ogg
384,192,64316,1,0,0:0:0:0:s_038.ogg
332,192,64333,1,0,0:0:0:0:s_037.ogg
281,192,64350,1,0,0:0:0:0:s_036.ogg
230,192,64366,1,0,0:0:0:0:s_035.ogg
179,192,64383,1,0,0:0:0:0:s_034.ogg
128,192,64400,1,0,0:0:0:0:s_033.ogg
76,192,64416,1,0,0:0:0:0:s_032.ogg
486,192,64433,1,0,0:0:0:0:s_031.ogg
435,192,64450,1,0,0:0:0:0:s_030.ogg
384,192,64466,1,0,0:0:0:0:s_029.ogg
332,192,64483,1,0,0:0:0:0:s_028.ogg
25,192,64500,1,0,0:0:0:0:s_027.ogg
76,192,64518,1,0,0:0:0:0:s_028.ogg
128,192,64537,1,0,0:0:0:0:s_029.ogg
179,192,64556,1,0,0:0:0:0:s_030.ogg
281,192,64575,1,0,0:0:0:0:s_031.ogg
332,192,64593,1,0,0:0:0:0:s_032.ogg
384,192,64612,1,0,0:0:0:0:s_033.ogg
435,192,64631,1,0,0:0:0:0:s_034.ogg
76,192,64650,1,0,0:0:0:0:s_035.ogg
128,192,64668,1,0,0:0:0:0:s_036.ogg
179,192,64687,1,0,0:0:0:0:s_037.ogg
230,192,64706,1,0,0:0:0:0:s_038.ogg
332,192,64725,1,0,0:0:0:0:s_039.ogg
384,192,64743,1,0,0:0:0:0:s_040.ogg
435,192,64762,1,0,0:0:0:0:s_041.ogg
486,192,64781,1,0,0:0:0:0:s_042.ogg
25,192,64800,1,0,0:0:0:0:s_068.ogg
76,192,64825,1,0,0:0:0:0:s_042.ogg
128,192,64850,1,0,0:0:0:0:s_027.ogg
179,192,64875,1,0,0:0:0:0:s_044.ogg
230,192,64900,1,0,0:0:0:0:s_045.ogg
281,192,64925,1,0,0:0:0:0:s_046.ogg
332,192,64950,1,0,0:0:0:0:s_047.ogg
384,192,64975,1,0,0:0:0:0:s_048.ogg
435,192,65000,1,0,0:0:0:0:s_049.ogg
486,192,65025,1,0,0:0:0:0:s_050.ogg
25,192,65050,1,0,0:0:0:0:s_035.ogg
76,192,65075,1,0,0:0:0:0:s_036.ogg
128,192,65100,1,0,0:0:0:0:s_044.ogg
179,192,65125,1,0,0:0:0:0:s_038.ogg
230,192,65150,1,0,0:0:0:0:s_039.ogg
281,192,65175,1,0,0:0:0:0:s_041.ogg
332,192,65200,1,0,0:0:0:0:s_057.ogg
384,192,65225,1,0,0:0:0:0:s_042.ogg
435,192,65250,1,0,0:0:0:0:s_059.ogg
486,192,65275,1,0,0:0:0:0:s_060.ogg
25,192,65300,1,0,0:0:0:0:s_061.ogg
76,192,65325,1,0,0:0:0:0:s_062.ogg
128,192,65350,1,0,0:0:0:0:s_063.ogg
179,192,65375,1,0,0:0:0:0:s_048.ogg
281,192,65400,1,0,0:0:0:0:s_065.ogg
332,192,65425,1,0,0:0:0:0:s_050.ogg
384,192,65450,1,0,0:0:0:0:s_067.ogg
435,192,65475,1,0,0:0:0:0:s_068.ogg
76,192,65500,1,0,0:0:0:0:s_069.ogg
128,192,65525,1,0,0:0:0:0:s_054.ogg
179,192,65550,1,0,0:0:0:0:s_071.ogg
230,192,65575,1,0,0:0:0:0:s_072.ogg
332,192,65600,1,0,0:0:0:0:s_073.ogg
384,192,65625,1,0,0:0:0:0:s_074.ogg
435,192,65650,1,0,0:0:0:0:s_075.ogg
486,192,65675,1,0,0:0:0:0:s_076.ogg
25,192,65700,1,0,0:0:0:0:s_077.ogg
76,192,65737,1,0,0:0:0:0:s_078.ogg
128,192,65775,1,0,0:0:0:0:s_079.ogg
179,192,65812,1,0,0:0:0:0:s_064.ogg
230,192,65850,1,0,0:0:0:0:s_069.ogg
179,192,66000,1,0,0:0:0:0:s_022.ogg
332,192,66000,1,0,0:0:0:0:s_015.ogg
486,192,66000,1,0,0:0:0:0:s_031.ogg
128,192,66075,1,0,0:0:0:0:s_025.ogg
281,192,66075,1,0,0:0:0:0:s_016.ogg
435,192,66075,1,0,0:0:0:0:s_034.ogg
76,192,66150,1,0,0:0:0:0:s_053.ogg
230,192,66150,1,0,0:0:0:0:s_017.ogg
384,192,66150,1,0,0:0:0:0:s_037.ogg
179,192,66225,1,0,0:0:0:0:s_022.ogg
332,192,66225,1,0,0:0:0:0:s_055.ogg
486,192,66225,1,0,0:0:0:0:s_031.ogg
128,192,66300,1,0,0:0:0:0:s_034.ogg
281,192,66300,1,0,0:0:0:0:s_025.ogg
435,192,66300,1,0,0:0:0:0:s_016.ogg
76,192,66375,1,0,0:0:0:0:s_017.ogg
230,192,66375,1,0,0:0:0:0:s_037.ogg
384,192,66375,1,0,0:0:0:0:s_029.ogg
179,192,66450,1,0,0:0:0:0:s_022.ogg
332,192,66450,1,0,0:0:0:0:s_015.ogg
486,192,66450,1,0,0:0:0:0:s_031.ogg
128,192,66525,1,0,0:0:0:0:s_025.ogg
281,192,66525,1,0,0:0:0:0:s_016.ogg
435,192,66525,1,0,0:0:0:0:s_034.ogg
76,192,66600,1,0,0:0:0:0:s_053.ogg
230,192,66600,1,0,0:0:0:0:s_037.ogg
384,192,66600,1,0,0:0:0:0:s_029.ogg
179,192,66675,1,0,0:0:0:0:s_022.ogg
332,192,66675,1,0,0:0:0:0:s_055.ogg
486,192,66675,1,0,0:0:0:0:s_031.ogg
128,192,66750,1,0,0:0:0:0:s_025.ogg
281,192,66750,1,0,0:0:0:0:s_048.ogg
435,192,66750,1,0,0:0:0:0:s_034.ogg
76,192,66825,1,0,0:0:0:0:s_053.ogg
230,192,66825,1,0,0:0:0:0:s_017.ogg
384,192,66825,1,0,0:0:0:0:s_037.ogg
179,192,66900,1,0,0:0:0:0:s_015.ogg
332,192,66900,1,0,0:0:0:0:s_022.ogg
486,192,66900,1,0,0:0:0:0:s_031.ogg
128,192,66975,1,0,0:0:0:0:s_025.ogg
281,192,66975,1,0,0:0:0:0:s_016.ogg
435,192,66975,1,0,0:0:0:0:s_034.ogg
76,192,67050,1,0,0:0:0:0:s_053.ogg
230,192,67050,1,0,0:0:0:0:s_037.ogg
384,192,67050,1,0,0:0:0:0:s_029.ogg
179,192,67125,1,0,0:0:0:0:s_055.ogg
332,192,67125,1,0,0:0:0:0:s_022.ogg
486,192,67125,1,0,0:0:0:0:s_015.ogg
128,192,67200,1,0,0:0:0:0:s_048.ogg
281,192,67200,1,0,0:0:0:0:s_025.ogg
435,192,67200,1,0,0:0:0:0:s_034.ogg
76,192,67275,1,0,0:0:0:0:s_053.ogg
230,192,67275,1,0,0:0:0:0:s_017.ogg
384,192,67275,1,0,0:0:0:0:s_029.ogg
179,192,67350,1,0,0:0:0:0:s_041.ogg
332,192,67350,1,0,0:0:0:0:s_018.ogg
25,192,67350,1,0,0:0:0:0:s_052.ogg
128,192,67425,1,0,0:0:0:0:s_045.ogg
281,192,67425,1,0,0:0:0:0:s_019.ogg
486,192,67425,1,0,0:0:0:0:s_034.ogg
76,192,67500,1,0,0:0:0:0:s_029.ogg
230,192,67500,1,0,0:0:0:0:s_050.ogg
435,192,67500,1,0,0:0:0:0:s_037.ogg
179,192,67575,1,0,0:0:0:0:s_049.ogg
384,192,67575,1,0,0:0:0:0:s_021.ogg
25,192,67575,1,0,0:0:0:0:s_041.ogg
128,192,67650,1,0,0:0:0:0:s_042.ogg
332,192,67650,1,0,0:0:0:0:s_043.ogg
486,192,67650,1,0,0:0:0:0:s_022.ogg
76,192,67725,1,0,0:0:0:0:s_039.ogg
281,192,67725,1,0,0:0:0:0:s_047.ogg
435,192,67725,1,0,0:0:0:0:s_023.ogg
25,192,67800,1,0,0:0:0:0:s_024.ogg
230,192,67800,1,0,0:0:0:0:s_032.ogg
384,192,67800,1,0,0:0:0:0:s_046.ogg
179,192,67875,1,0,0:0:0:0:s_043.ogg
332,192,67875,1,0,0:0:0:0:s_039.ogg
486,192,67875,1,0,0:0:0:0:s_025.ogg
128,192,67950,1,0,0:0:0:0:s_044.ogg
281,192,67950,1,0,0:0:0:0:s_026.ogg
435,192,67950,1,0,0:0:0:0:s_046.ogg
76,192,68025,1,0,0:0:0:0:s_040.ogg
230,192,68025,1,0,0:0:0:0:s_059.ogg
384,192,68025,1,0,0:0:0:0:s_037.ogg
332,192,68175,1,0,0:0:0:0:s_077.ogg
435,192,68225,1,0,0:0:0:0:s_079.ogg
332,192,68275,1,0,0:0:0:0:s_077.ogg
25,192,68325,1,0,0:0:0:0:s_020.ogg
76,192,68347,1,0,0:0:0:0:s_028.ogg
128,192,68370,1,0,0:0:0:0:s_029.ogg
179,192,68393,1,0,0:0:0:0:s_039.ogg
230,192,68416,1,0,0:0:0:0:s_040.ogg
281,192,68440,1,0,0:0:0:0:s_032.ogg
332,192,68463,1,0,0:0:0:0:s_033.ogg
384,192,68486,1,0,0:0:0:0:s_034.ogg
435,192,68509,1,0,0:0:0:0:s_035.ogg
486,192,68532,1,0,0:0:0:0:s_036.ogg
25,192,68555,1,0,0:0:0:0:s_037.ogg
76,192,68578,1,0,0:0:0:0:s_038.ogg
128,192,68601,1,0,0:0:0:0:s_048.ogg
384,192,68625,1,0,0:0:0:0:s_059.ogg
332,192,68647,1,0,0:0:0:0:s_058.ogg
281,192,68670,1,0,0:0:0:0:s_057.ogg
230,192,68693,1,0,0:0:0:0:s_056.ogg
179,192,68716,1,0,0:0:0:0:s_055.ogg
128,192,68740,1,0,0:0:0:0:s_063.ogg
76,192,68763,1,0,0:0:0:0:s_053.ogg
25,192,68786,1,0,0:0:0:0:s_052.ogg
486,192,68809,1,0,0:0:0:0:s_051.ogg
435,192,68832,1,0,0:0:0:0:s_050.ogg
384,192,68855,1,0,0:0:0:0:s_049.ogg
332,192,68878,1,0,0:0:0:0:s_048.ogg
281,192,68901,1,0,0:0:0:0:s_047.ogg
230,192,68925,1,0,0:0:0:0:s_069.ogg
179,192,68947,1,0,0:0:0:0:s_068.ogg
128,192,68970,1,0,0:0:0:0:s_069.ogg
76,192,68993,1,0,0:0:0:0:s_068.ogg
25,192,69016,1,0,0:0:0:0:s_065.ogg
486,192,69040,1,0,0:0:0:0:s_064.ogg
435,192,69063,1,0,0:0:0:0:s_063.ogg
384,192,69086,1,0,0:0:0:0:s_064.ogg
332,192,69109,1,0,0:0:0:0:s_063.ogg
179,192,69132,1,0,0:0:0:0:s_060.ogg
128,192,69155,1,0,0:0:0:0:s_059.ogg
76,192,69178,1,0,0:0:0:0:s_058.ogg
25,192,69201,1,0,0:0:0:0:s_057.ogg
281,192,69225,1,0,0:0:0:0:s_024.ogg
332,192,69247,1,0,0:0:0:0:s_025.ogg
384,192,69270,1,0,0:0:0:0:s_034.ogg
435,192,69293,1,0,0:0:0:0:s_035.ogg
76,192,69316,1,0,0:0:0:0:s_028.ogg
128,192,69340,1,0,0:0:0:0:s_029.ogg
179,192,69363,1,0,0:0:0:0:s_038.ogg
230,192,69386,1,0,0:0:0:0:s_031.ogg
281,192,69409,1,0,0:0:0:0:s_032.ogg
332,192,69432,1,0,0:0:0:0:s_033.ogg
384,192,69455,1,0,0:0:0:0:s_034.ogg
435,192,69478,1,0,0:0:0:0:s_035.ogg
230,192,69525,1,0,0:0:0:0:s_060.ogg
179,192,69537,1,0,0:0:0:0:s_059.ogg
128,192,69550,1,0,0:0:0:0:s_072.ogg
76,192,69562,1,0,0:0:0:0:s_071.ogg
25,192,69575,1,0,0:0:0:0:s_056.ogg
486,192,69587,1,0,0:0:0:0:s_055.ogg
435,192,69600,1,0,0:0:0:0:s_068.ogg
384,192,69612,1,0,0:0:0:0:s_053.ogg
332,192,69625,1,0,0:0:0:0:s_052.ogg
281,192,69637,1,0,0:0:0:0:s_051.ogg
230,192,69650,1,0,0:0:0:0:s_050.ogg
179,192,69662,1,0,0:0:0:0:s_055.ogg
128,192,69675,1,0,0:0:0:0:s_048.ogg
76,192,69686,1,0,0:0:0:0:s_047.ogg
25,192,69697,1,0,0:0:0:0:s_060.ogg
486,192,69709,1,0,0:0:0:0:s_045.ogg
435,192,69720,1,0,0:0:0:0:s_050.ogg
384,192,69732,1,0,0:0:0:0:s_043.ogg
332,192,69743,1,0,0:0:0:0:s_042.ogg
281,192,69755,1,0,0:0:0:0:s_041.ogg
230,192,69766,1,0,0:0:0:0:s_040.ogg
179,192,69778,1,0,0:0:0:0:s_045.ogg
128,192,69790,1,0,0:0:0:0:s_038.ogg
76,192,69801,1,0,0:0:0:0:s_037.ogg
25,192,69813,1,0,0:0:0:0:s_036.ogg
230,192,69900,1,0,0:0:0:0:s_066.ogg
384,192,69900,1,0,0:0:0:0:s_046.ogg
179,192,69975,1,0,0:0:0:0:s_056.ogg
435,192,69975,1,0,0:0:0:0:s_063.ogg
128,192,70050,1,0,0:0:0:0:s_072.ogg
486,192,70050,1,0,0:0:0:0:s_039.ogg
76,192,70125,1,0,0:0:0:0:m_025.ogg
281,192,70125,1,0,0:0:0:0:s_070.ogg
435,192,70125,1,0,0:0:0:0:s_013.ogg
179,192,70200,1,0,0:0:0:0:s_041.ogg
128,192,70275,1,0,0:0:0:0:s_056.ogg
332,192,70275,1,0,0:0:0:0:s_068.ogg
384,192,70275,1,0,0:0:0:0:s_065.ogg
76,192,70350,1,0,0:0:0:0:m_037.ogg
25,192,70425,1,0,0:0:0:0:s_056.ogg
384,192,70425,128,0,70725:0:0:0:0:s_013.ogg
332,192,70425,128,0,70725:0:0:0:0:m_068.ogg
128,192,70500,1,0,0:0:0:0:s_039.ogg
76,192,70575,1,0,0:0:0:0:s_065.ogg
25,192,70650,1,0,0:0:0:0:s_036.ogg
179,192,70725,1,0,0:0:0:0:m_010.ogg
281,192,70725,1,0,0:0:0:0:s_068.ogg
435,192,70725,1,0,0:0:0:0:s_084.ogg
128,192,70800,1,0,0:0:0:0:s_033.ogg
230,192,70800,1,0,0:0:0:0:s_082.ogg
384,192,70800,1,0,0:0:0:0:s_056.ogg
76,192,70875,1,0,0:0:0:0:s_034.ogg
179,192,70875,1,0,0:0:0:0:s_080.ogg
332,192,70875,1,0,0:0:0:0:s_052.ogg
25,192,70950,1,0,0:0:0:0:s_033.ogg
128,192,70950,1,0,0:0:0:0:s_049.ogg
281,192,70950,1,0,0:0:0:0:s_077.ogg
230,192,71025,1,0,0:0:0:0:s_064.ogg
384,192,71025,1,0,0:0:0:0:s_022.ogg
486,192,71025,1,0,0:0:0:0:s_034.ogg
179,192,71100,1,0,0:0:0:0:s_070.ogg
332,192,71100,1,0,0:0:0:0:s_052.ogg
435,192,71100,1,0,0:0:0:0:s_061.ogg
128,192,71175,1,0,0:0:0:0:s_049.ogg
281,192,71175,1,0,0:0:0:0:s_024.ogg
384,192,71175,1,0,0:0:0:0:s_040.ogg
76,192,71250,1,0,0:0:0:0:s_061.ogg
230,192,71250,1,0,0:0:0:0:s_037.ogg
332,192,71250,1,0,0:0:0:0:s_046.ogg
179,192,71325,1,0,0:0:0:0:s_003.ogg
486,192,71325,1,0,0:0:0:0:s_027.ogg
128,192,71400,1,0,0:0:0:0:s_056.ogg
435,192,71400,1,0,0:0:0:0:s_048.ogg
76,192,71475,1,0,0:0:0:0:s_053.ogg
384,192,71475,1,0,0:0:0:0:s_072.ogg
25,192,71550,1,0,0:0:0:0:s_051.ogg
332,192,71550,1,0,0:0:0:0:s_068.ogg
179,192,71625,1,0,0:0:0:0:s_077.ogg
486,192,71625,1,0,0:0:0:0:s_068.ogg
128,192,71700,1,0,0:0:0:0:s_043.ogg
435,192,71700,1,0,0:0:0:0:s_065.ogg
76,192,71775,1,0,0:0:0:0:s_041.ogg
384,192,71775,1,0,0:0:0:0:s_063.ogg
25,192,71850,1,0,0:0:0:0:s_039.ogg
332,192,71850,1,0,0:0:0:0:s_060.ogg
179,192,71925,1,0,0:0:0:0:m_010.ogg
281,192,71925,1,0,0:0:0:0:s_056.ogg
435,192,71925,1,0,0:0:0:0:s_072.ogg
128,192,72000,1,0,0:0:0:0:s_061.ogg
230,192,72000,1,0,0:0:0:0:s_044.ogg
384,192,72000,1,0,0:0:0:0:s_070.ogg
76,192,72075,1,0,0:0:0:0:s_058.ogg
179,192,72075,1,0,0:0:0:0:s_040.ogg
332,192,72075,1,0,0:0:0:0:s_068.ogg
25,192,72150,1,0,0:0:0:0:s_056.ogg
128,192,72150,1,0,0:0:0:0:s_065.ogg
281,192,72150,1,0,0:0:0:0:s_037.ogg
230,192,72225,1,0,0:0:0:0:s_061.ogg
384,192,72225,1,0,0:0:0:0:s_052.ogg
486,192,72225,1,0,0:0:0:0:s_022.ogg
179,192,72300,1,0,0:0:0:0:s_049.ogg
332,192,72300,1,0,0:0:0:0:s_058.ogg
435,192,72300,1,0,0:0:0:0:s_040.ogg
128,192,72375,1,0,0:0:0:0:s_037.ogg
281,192,72375,1,0,0:0:0:0:s_024.ogg
384,192,72375,1,0,0:0:0:0:s_028.ogg
76,192,72450,1,0,0:0:0:0:s_034.ogg
230,192,72450,1,0,0:0:0:0:s_044.ogg
332,192,72450,1,0,0:0:0:0:s_025.ogg
179,192,72525,1,0,0:0:0:0:s_015.ogg
435,192,72525,1,0,0:0:0:0:s_027.ogg
128,192,72600,1,0,0:0:0:0:s_044.ogg
384,192,72600,1,0,0:0:0:0:s_036.ogg
76,192,72675,1,0,0:0:0:0:s_051.ogg
332,192,72675,1,0,0:0:0:0:s_041.ogg
25,192,72750,1,0,0:0:0:0:s_048.ogg
281,192,72750,1,0,0:0:0:0:s_039.ogg
179,192,72825,1,0,0:0:0:0:s_053.ogg
435,192,72825,1,0,0:0:0:0:s_036.ogg
128,192,72900,1,0,0:0:0:0:s_051.ogg
384,192,72900,1,0,0:0:0:0:s_032.ogg
76,192,72975,1,0,0:0:0:0:s_048.ogg
332,192,72975,1,0,0:0:0:0:s_029.ogg
25,192,73050,1,0,0:0:0:0:s_044.ogg
281,192,73050,1,0,0:0:0:0:s_027.ogg
76,192,73125,1,0,0:0:0:0:s_037.ogg
230,192,73125,1,0,0:0:0:0:s_028.ogg
332,192,73125,1,0,0:0:0:0:m_010.ogg
128,192,73200,1,0,0:0:0:0:s_049.ogg
281,192,73200,1,0,0:0:0:0:s_040.ogg
384,192,73200,1,0,0:0:0:0:m_022.ogg
179,192,73275,1,0,0:0:0:0:s_044.ogg
332,192,73275,1,0,0:0:0:0:s_034.ogg
435,192,73275,1,0,0:0:0:0:s_052.ogg
230,192,73350,1,0,0:0:0:0:s_046.ogg
384,192,73350,1,0,0:0:0:0:s_037.ogg
486,192,73350,1,0,0:0:0:0:s_054.ogg
25,192,73425,1,0,0:0:0:0:s_058.ogg
128,192,73425,1,0,0:0:0:0:s_049.ogg
281,192,73425,1,0,0:0:0:0:s_022.ogg
76,192,73500,1,0,0:0:0:0:s_052.ogg
179,192,73500,1,0,0:0:0:0:s_044.ogg
332,192,73500,1,0,0:0:0:0:s_061.ogg
128,192,73575,1,0,0:0:0:0:s_064.ogg
230,192,73575,1,0,0:0:0:0:s_024.ogg
384,192,73575,1,0,0:0:0:0:s_037.ogg
179,192,73650,1,0,0:0:0:0:s_067.ogg
281,192,73650,1,0,0:0:0:0:s_025.ogg
435,192,73650,1,0,0:0:0:0:s_040.ogg
76,192,73725,1,0,0:0:0:0:s_039.ogg
332,192,73725,1,0,0:0:0:0:l_003.ogg
230,192,73800,1,0,0:0:0:0:s_060.ogg
486,192,73800,1,0,0:0:0:0:s_068.ogg
179,192,73875,1,0,0:0:0:0:s_065.ogg
435,192,73875,1,0,0:0:0:0:s_048.ogg
128,192,73950,1,0,0:0:0:0:s_063.ogg
384,192,73950,1,0,0:0:0:0:s_044.ogg
76,192,74025,1,0,0:0:0:0:s_060.ogg
332,192,74025,1,0,0:0:0:0:s_041.ogg
179,192,74100,1,0,0:0:0:0:s_065.ogg
435,192,74100,1,0,0:0:0:0:s_075.ogg
128,192,74175,1,0,0:0:0:0:s_063.ogg
384,192,74175,1,0,0:0:0:0:s_044.ogg
76,192,74250,1,0,0:0:0:0:s_051.ogg
332,192,74250,1,0,0:0:0:0:s_060.ogg
25,192,74325,1,0,0:0:0:0:m_035.ogg
281,192,74325,1,0,0:0:0:0:s_048.ogg
230,192,74400,1,0,0:0:0:0:s_063.ogg
435,192,74400,1,0,0:0:0:0:s_053.ogg
179,192,74475,1,0,0:0:0:0:s_060.ogg
384,192,74475,1,0,0:0:0:0:s_051.ogg
128,192,74550,1,0,0:0:0:0:s_048.ogg
332,192,74550,1,0,0:0:0:0:s_065.ogg
25,192,74625,1,0,0:0:0:0:s_053.ogg
281,192,74625,1,0,0:0:0:0:s_036.ogg
179,192,74700,1,0,0:0:0:0:s_060.ogg
486,192,74700,1,0,0:0:0:0:s_051.ogg
128,192,74775,1,0,0:0:0:0:s_056.ogg
435,192,74775,1,0,0:0:0:0:s_039.ogg
76,192,74850,1,0,0:0:0:0:s_053.ogg
384,192,74850,1,0,0:0:0:0:s_044.ogg
25,192,74925,1,0,0:0:0:0:s_060.ogg
179,192,74925,1,0,0:0:0:0:s_051.ogg
332,192,74925,1,0,0:0:0:0:s_032.ogg
76,192,75000,1,0,0:0:0:0:s_063.ogg
230,192,75000,1,0,0:0:0:0:s_053.ogg
384,192,75000,1,0,0:0:0:0:s_036.ogg
128,192,75075,1,0,0:0:0:0:s_065.ogg
281,192,75075,1,0,0:0:0:0:s_056.ogg
435,192,75075,1,0,0:0:0:0:s_039.ogg
179,192,75150,1,0,0:0:0:0:s_068.ogg
332,192,75150,1,0,0:0:0:0:s_060.ogg
486,192,75150,1,0,0:0:0:0:s_041.ogg
25,192,75225,1,0,0:0:0:0:s_072.ogg
230,192,75225,1,0,0:0:0:0:s_063.ogg
384,192,75225,1,0,0:0:0:0:s_044.ogg
76,192,75300,1,0,0:0:0:0:s_075.ogg
435,192,75300,1,0,0:0:0:0:s_068.ogg
486,192,75300,1,0,0:0:0:0:s_051.ogg
128,192,75375,1,0,0:0:0:0:s_044.ogg
179,192,75375,1,0,0:0:0:0:s_048.ogg
384,192,75375,1,0,0:0:0:0:s_063.ogg
230,192,75450,1,0,0:0:0:0:s_072.ogg
435,192,75450,1,0,0:0:0:0:s_065.ogg
486,192,75450,1,0,0:0:0:0:s_051.ogg
76,192,75525,1,0,0:0:0:0:s_060.ogg
128,192,75525,1,0,0:0:0:0:s_044.ogg
332,192,75525,1,0,0:0:0:0:s_041.ogg
179,192,75600,1,0,0:0:0:0:s_068.ogg
384,192,75600,1,0,0:0:0:0:s_063.ogg
486,192,75600,1,0,0:0:0:0:s_048.ogg
76,192,75675,1,0,0:0:0:0:s_041.ogg
128,192,75675,1,0,0:0:0:0:s_039.ogg
332,192,75675,1,0,0:0:0:0:s_056.ogg
179,192,75750,1,0,0:0:0:0:s_065.ogg
384,192,75750,1,0,0:0:0:0:s_060.ogg
486,192,75750,1,0,0:0:0:0:s_044.ogg
25,192,75825,1,0,0:0:0:0:s_039.ogg
76,192,75825,1,0,0:0:0:0:s_053.ogg
281,192,75825,1,0,0:0:0:0:s_036.ogg
128,192,75900,1,0,0:0:0:0:s_063.ogg
332,192,75900,1,0,0:0:0:0:s_056.ogg
435,192,75900,1,0,0:0:0:0:s_041.ogg
25,192,75975,1,0,0:0:0:0:s_051.ogg
76,192,75975,1,0,0:0:0:0:s_036.ogg
281,192,75975,1,0,0:0:0:0:s_032.ogg
128,192,76050,1,0,0:0:0:0:s_053.ogg
332,192,76050,1,0,0:0:0:0:s_041.ogg
435,192,76050,1,0,0:0:0:0:s_060.ogg
25,192,76125,1,0,0:0:0:0:s_034.ogg
384,192,76125,1,0,0:0:0:0:s_050.ogg
128,192,76175,1,0,0:0:0:0:s_053.ogg
486,192,76175,1,0,0:0:0:0:s_038.ogg
25,192,76225,1,0,0:0:0:0:s_041.ogg
230,192,76225,1,0,0:0:0:0:s_050.ogg
384,192,76225,1,0,0:0:0:0:s_034.ogg
128,192,76275,1,0,0:0:0:0:s_038.ogg
281,192,76275,1,0,0:0:0:0:s_044.ogg
486,192,76275,1,0,0:0:0:0:s_053.ogg
25,192,76325,1,0,0:0:0:0:s_050.ogg
230,192,76325,1,0,0:0:0:0:s_041.ogg
384,192,76325,1,0,0:0:0:0:s_060.ogg
128,192,76375,1,0,0:0:0:0:s_038.ogg
281,192,76375,1,0,0:0:0:0:s_058.ogg
486,192,76375,1,0,0:0:0:0:s_053.ogg
25,192,76425,1,0,0:0:0:0:s_041.ogg
230,192,76425,1,0,0:0:0:0:s_034.ogg
384,192,76425,1,0,0:0:0:0:s_050.ogg
128,192,76475,1,0,0:0:0:0:s_062.ogg
281,192,76475,1,0,0:0:0:0:s_053.ogg
486,192,76475,1,0,0:0:0:0:s_048.ogg
25,192,76525,1,0,0:0:0:0:s_070.ogg
230,192,76525,1,0,0:0:0:0:s_034.ogg
384,192,76525,1,0,0:0:0:0:s_056.ogg
128,192,76575,1,0,0:0:0:0:s_038.ogg
281,192,76575,1,0,0:0:0:0:s_058.ogg
486,192,76575,1,0,0:0:0:0:s_068.ogg
25,192,76625,1,0,0:0:0:0:s_070.ogg
230,192,76625,1,0,0:0:0:0:s_041.ogg
384,192,76625,1,0,0:0:0:0:s_060.ogg
128,192,76675,1,0,0:0:0:0:s_038.ogg
281,192,76675,1,0,0:0:0:0:s_062.ogg
486,192,76675,1,0,0:0:0:0:s_072.ogg
76,192,76725,1,0,0:0:0:0:s_003.ogg
179,192,76725,1,0,0:0:0:0:s_027.ogg
332,192,76725,1,0,0:0:0:0:s_061.ogg
435,192,76725,1,0,0:0:0:0:s_034.ogg
128,192,78525,1,0,0:0:0:0:s_015.ogg
486,192,78525,1,0,0:0:0:0:s_027.ogg
76,192,78600,1,0,0:0:0:0:s_014.ogg
384,192,78600,1,0,0:0:0:0:s_026.ogg
25,192,78675,1,0,0:0:0:0:s_013.ogg
486,192,78675,1,0,0:0:0:0:s_027.ogg
128,192,78750,1,0,0:0:0:0:s_014.ogg
384,192,78750,1,0,0:0:0:0:s_026.ogg
230,192,78825,1,0,0:0:0:0:s_013.ogg
281,192,78825,1,0,0:0:0:0:s_027.ogg
179,192,78900,1,0,0:0:0:0:s_012.ogg
332,192,78900,1,0,0:0:0:0:s_028.ogg
128,192,78975,1,0,0:0:0:0:s_011.ogg
384,192,78975,1,0,0:0:0:0:s_029.ogg
76,192,79050,1,0,0:0:0:0:s_010.ogg
435,192,79050,1,0,0:0:0:0:s_031.ogg
25,192,79125,1,0,0:0:0:0:s_008.ogg
281,192,79125,1,0,0:0:0:0:s_032.ogg
128,192,79200,1,0,0:0:0:0:s_020.ogg
25,192,79275,1,0,0:0:0:0:s_008.ogg
128,192,79350,1,0,0:0:0:0:s_020.ogg
76,192,79425,1,0,0:0:0:0:s_012.ogg
332,192,79425,1,0,0:0:0:0:s_036.ogg
179,192,79500,1,0,0:0:0:0:s_024.ogg
76,192,79575,1,0,0:0:0:0:s_012.ogg
179,192,79650,1,0,0:0:0:0:s_024.ogg
128,192,79725,1,0,0:0:0:0:s_013.ogg
384,192,79725,1,0,0:0:0:0:s_037.ogg
230,192,79800,1,0,0:0:0:0:s_025.ogg
128,192,79875,1,0,0:0:0:0:s_013.ogg
179,192,79950,1,0,0:0:0:0:s_014.ogg
435,192,79950,1,0,0:0:0:0:s_038.ogg
230,192,80025,1,0,0:0:0:0:s_026.ogg
76,192,80100,1,0,0:0:0:0:s_015.ogg
486,192,80100,1,0,0:0:0:0:s_039.ogg
179,192,80175,1,0,0:0:0:0:s_027.ogg
76,192,80250,1,0,0:0:0:0:s_015.ogg
25,192,80325,1,0,0:0:0:0:s_008.ogg
281,192,80325,1,0,0:0:0:0:s_032.ogg
128,192,80400,1,0,0:0:0:0:s_020.ogg
25,192,80475,1,0,0:0:0:0:s_008.ogg
128,192,80550,1,0,0:0:0:0:s_020.ogg
76,192,80625,1,0,0:0:0:0:s_012.ogg
332,192,80625,1,0,0:0:0:0:s_036.ogg
179,192,80700,1,0,0:0:0:0:s_024.ogg
76,192,80775,1,0,0:0:0:0:s_012.ogg
179,192,80850,1,0,0:0:0:0:s_024.ogg
128,192,80925,1,0,0:0:0:0:s_013.ogg
384,192,80925,1,0,0:0:0:0:s_037.ogg
230,192,81000,1,0,0:0:0:0:s_025.ogg
128,192,81075,1,0,0:0:0:0:s_013.ogg
179,192,81150,1,0,0:0:0:0:s_014.ogg
435,192,81150,1,0,0:0:0:0:s_038.ogg
230,192,81225,1,0,0:0:0:0:s_026.ogg
76,192,81300,1,0,0:0:0:0:s_015.ogg
486,192,81300,1,0,0:0:0:0:s_039.ogg
179,192,81375,1,0,0:0:0:0:s_027.ogg
76,192,81450,1,0,0:0:0:0:s_015.ogg
25,192,81525,1,0,0:0:0:0:s_008.ogg
281,192,81525,1,0,0:0:0:0:s_032.ogg
128,192,81600,1,0,0:0:0:0:s_020.ogg
25,192,81675,1,0,0:0:0:0:s_008.ogg
128,192,81750,1,0,0:0:0:0:s_020.ogg
76,192,81825,1,0,0:0:0:0:s_012.ogg
332,192,81825,1,0,0:0:0:0:s_036.ogg
179,192,81900,1,0,0:0:0:0:s_024.ogg
76,192,81975,1,0,0:0:0:0:s_012.ogg
179,192,82050,1,0,0:0:0:0:s_024.ogg
128,192,82125,1,0,0:0:0:0:s_013.ogg
384,192,82125,1,0,0:0:0:0:s_037.ogg
230,192,82200,1,0,0:0:0:0:s_025.ogg
128,192,82275,1,0,0:0:0:0:s_013.ogg
179,192,82350,1,0,0:0:0:0:s_014.ogg
435,192,82350,1,0,0:0:0:0:s_038.ogg
230,192,82425,1,0,0:0:0:0:s_026.ogg
76,192,82500,1,0,0:0:0:0:s_015.ogg
486,192,82500,1,0,0:0:0:0:s_039.ogg
179,192,82575,1,0,0:0:0:0:s_027.ogg
76,192,82650,1,0,0:0:0:0:s_015.ogg
25,192,82725,1,0,0:0:0:0:s_008.ogg
128,192,82800,1,0,0:0:0:0:s_020.ogg
25,192,82875,1,0,0:0:0:0:s_008.ogg
281,192,82875,1,0,0:0:0:0:s_036.ogg
384,192,82875,1,0,0:0:0:0:s_039.ogg
435,192,82875,1,0,0:0:0:0:s_041.ogg
128,192,82950,1,0,0:0:0:0:s_020.ogg
76,192,83025,1,0,0:0:0:0:s_012.ogg
179,192,83100,1,0,0:0:0:0:s_024.ogg
76,192,83175,1,0,0:0:0:0:s_012.ogg
281,192,83175,1,0,0:0:0:0:s_039.ogg
332,192,83175,1,0,0:0:0:0:s_044.ogg
435,192,83175,1,0,0:0:0:0:s_041.ogg
179,192,83250,1,0,0:0:0:0:s_024.ogg
128,192,83325,1,0,0:0:0:0:s_013.ogg
230,192,83400,1,0,0:0:0:0:s_025.ogg
128,192,83475,1,0,0:0:0:0:s_013.ogg
332,192,83475,1,0,0:0:0:0:s_044.ogg
384,192,83475,1,0,0:0:0:0:s_034.ogg
486,192,83475,1,0,0:0:0:0:s_041.ogg
179,192,83550,1,0,0:0:0:0:s_014.ogg
230,192,83625,1,0,0:0:0:0:s_026.ogg
76,192,83700,1,0,0:0:0:0:s_015.ogg
179,192,83775,1,0,0:0:0:0:s_027.ogg
332,192,83775,1,0,0:0:0:0:s_044.ogg
435,192,83775,1,0,0:0:0:0:s_037.ogg
486,192,83775,1,0,0:0:0:0:s_034.ogg
76,192,83850,1,0,0:0:0:0:s_015.ogg
25,192,83925,1,0,0:0:0:0:s_008.ogg
128,192,84000,1,0,0:0:0:0:s_020.ogg
25,192,84075,1,0,0:0:0:0:s_008.ogg
281,192,84075,1,0,0:0:0:0:s_036.ogg
384,192,84075,1,0,0:0:0:0:s_041.ogg
435,192,84075,1,0,0:0:0:0:s_039.ogg
128,192,84150,1,0,0:0:0:0:s_020.ogg
76,192,84225,1,0,0:0:0:0:s_012.ogg
179,192,84300,1,0,0:0:0:0:s_024.ogg
76,192,84375,1,0,0:0:0:0:s_012.ogg
281,192,84375,1,0,0:0:0:0:s_039.ogg
332,192,84375,1,0,0:0:0:0:s_044.ogg
435,192,84375,1,0,0:0:0:0:s_041.ogg
179,192,84450,1,0,0:0:0:0:s_024.ogg
128,192,84525,1,0,0:0:0:0:s_013.ogg
230,192,84600,1,0,0:0:0:0:s_025.ogg
128,192,84675,1,0,0:0:0:0:s_013.ogg
332,192,84675,1,0,0:0:0:0:s_044.ogg
384,192,84675,1,0,0:0:0:0:s_034.ogg
486,192,84675,1,0,0:0:0:0:s_041.ogg
179,192,84750,1,0,0:0:0:0:s_014.ogg
230,192,84825,1,0,0:0:0:0:s_026.ogg
76,192,84900,1,0,0:0:0:0:s_015.ogg
179,192,84975,1,0,0:0:0:0:s_027.ogg
332,192,84975,1,0,0:0:0:0:s_044.ogg
435,192,84975,1,0,0:0:0:0:s_037.ogg
486,192,84975,1,0,0:0:0:0:s_034.ogg
76,192,85050,1,0,0:0:0:0:s_015.ogg
25,192,85125,1,0,0:0:0:0:s_008.ogg
128,192,85200,1,0,0:0:0:0:s_020.ogg
25,192,85275,1,0,0:0:0:0:s_008.ogg
281,192,85275,1,0,0:0:0:0:s_036.ogg
384,192,85275,1,0,0:0:0:0:s_041.ogg
435,192,85275,1,0,0:0:0:0:s_044.ogg
128,192,85350,1,0,0:0:0:0:s_020.ogg
76,192,85425,1,0,0:0:0:0:s_012.ogg
179,192,85500,1,0,0:0:0:0:s_024.ogg
76,192,85575,1,0,0:0:0:0:s_012.ogg
281,192,85575,1,0,0:0:0:0:s_039.ogg
332,192,85575,1,0,0:0:0:0:s_044.ogg
435,192,85575,1,0,0:0:0:0:s_041.ogg
179,192,85650,1,0,0:0:0:0:s_024.ogg
128,192,85725,1,0,0:0:0:0:s_013.ogg
230,192,85800,1,0,0:0:0:0:s_025.ogg
128,192,85875,1,0,0:0:0:0:s_013.ogg
332,192,85875,1,0,0:0:0:0:s_044.ogg
384,192,85875,1,0,0:0:0:0:s_034.ogg
486,192,85875,1,0,0:0:0:0:s_041.ogg
179,192,85950,1,0,0:0:0:0:s_014.ogg
230,192,86025,1,0,0:0:0:0:s_026.ogg
76,192,86100,1,0,0:0:0:0:s_015.ogg
179,192,86175,1,0,0:0:0:0:s_027.ogg
332,192,86175,1,0,0:0:0:0:s_044.ogg
435,192,86175,1,0,0:0:0:0:s_037.ogg
486,192,86175,1,0,0:0:0:0:s_034.ogg
76,192,86250,1,0,0:0:0:0:s_015.ogg
25,192,86325,1,0,0:0:0:0:s_008.ogg
128,192,86400,1,0,0:0:0:0:s_020.ogg
25,192,86475,1,0,0:0:0:0:s_036.ogg
281,192,86475,1,0,0:0:0:0:s_039.ogg
435,192,86475,1,0,0:0:0:0:s_044.ogg
128,192,86550,1,0,0:0:0:0:s_020.ogg
384,192,86550,1,0,0:0:0:0:s_040.ogg
76,192,86625,1,0,0:0:0:0:s_012.ogg
486,192,86625,1,0,0:0:0:0:s_036.ogg
179,192,86700,1,0,0:0:0:0:s_024.ogg
384,192,86700,1,0,0:0:0:0:s_040.ogg
76,192,86775,1,0,0:0:0:0:s_012.ogg
281,192,86775,1,0,0:0:0:0:s_041.ogg
486,192,86775,1,0,0:0:0:0:s_044.ogg
179,192,86850,1,0,0:0:0:0:s_024.ogg
435,192,86850,1,0,0:0:0:0:s_042.ogg
128,192,86925,1,0,0:0:0:0:s_041.ogg
332,192,86925,1,0,0:0:0:0:s_037.ogg
230,192,87000,1,0,0:0:0:0:s_025.ogg
435,192,87000,1,0,0:0:0:0:s_042.ogg
128,192,87075,1,0,0:0:0:0:s_043.ogg
384,192,87075,1,0,0:0:0:0:s_044.ogg
486,192,87075,1,0,0:0:0:0:s_013.ogg
179,192,87150,1,0,0:0:0:0:s_042.ogg
281,192,87150,1,0,0:0:0:0:s_038.ogg
230,192,87225,1,0,0:0:0:0:s_026.ogg
384,192,87225,1,0,0:0:0:0:s_043.ogg
76,192,87300,1,0,0:0:0:0:s_044.ogg
435,192,87300,1,0,0:0:0:0:s_015.ogg
179,192,87375,1,0,0:0:0:0:s_052.ogg
332,192,87375,1,0,0:0:0:0:s_044.ogg
486,192,87375,1,0,0:0:0:0:s_034.ogg
76,192,87450,1,0,0:0:0:0:s_015.ogg
25,192,87525,1,0,0:0:0:0:s_008.ogg
128,192,87600,1,0,0:0:0:0:s_020.ogg
25,192,87675,1,0,0:0:0:0:s_036.ogg
281,192,87675,1,0,0:0:0:0:s_039.ogg
435,192,87675,1,0,0:0:0:0:s_044.ogg
128,192,87750,1,0,0:0:0:0:s_020.ogg
384,192,87750,1,0,0:0:0:0:s_040.ogg
76,192,87825,1,0,0:0:0:0:s_012.ogg
486,192,87825,1,0,0:0:0:0:s_036.ogg
179,192,87900,1,0,0:0:0:0:s_024.ogg
384,192,87900,1,0,0:0:0:0:s_040.ogg
76,192,87975,1,0,0:0:0:0:s_012.ogg
281,192,87975,1,0,0:0:0:0:s_041.ogg
486,192,87975,1,0,0:0:0:0:s_044.ogg
179,192,88050,1,0,0:0:0:0:s_024.ogg
435,192,88050,1,0,0:0:0:0:s_042.ogg
128,192,88125,1,0,0:0:0:0:s_041.ogg
332,192,88125,1,0,0:0:0:0:s_037.ogg
230,192,88200,1,0,0:0:0:0:s_025.ogg
435,192,88200,1,0,0:0:0:0:s_042.ogg
128,192,88275,1,0,0:0:0:0:s_043.ogg
384,192,88275,1,0,0:0:0:0:s_044.ogg
486,192,88275,1,0,0:0:0:0:s_013.ogg
179,192,88350,1,0,0:0:0:0:s_042.ogg
281,192,88350,1,0,0:0:0:0:s_038.ogg
230,192,88425,1,0,0:0:0:0:s_026.ogg
384,192,88425,1,0,0:0:0:0:s_043.ogg
76,192,88500,1,0,0:0:0:0:s_044.ogg
435,192,88500,1,0,0:0:0:0:s_015.ogg
179,192,88575,1,0,0:0:0:0:s_052.ogg
332,192,88575,1,0,0:0:0:0:s_044.ogg
486,192,88575,1,0,0:0:0:0:s_034.ogg
76,192,88650,1,0,0:0:0:0:s_015.ogg
25,192,88725,1,0,0:0:0:0:s_008.ogg
128,192,88800,1,0,0:0:0:0:s_020.ogg
25,192,88875,1,0,0:0:0:0:s_036.ogg
281,192,88875,1,0,0:0:0:0:s_039.ogg
435,192,88875,1,0,0:0:0:0:s_044.ogg
128,192,88950,1,0,0:0:0:0:s_020.ogg
384,192,88950,1,0,0:0:0:0:s_040.ogg
76,192,89025,1,0,0:0:0:0:s_012.ogg
486,192,89025,1,0,0:0:0:0:s_036.ogg
179,192,89100,1,0,0:0:0:0:s_024.ogg
384,192,89100,1,0,0:0:0:0:s_040.ogg
76,192,89175,1,0,0:0:0:0:s_012.ogg
281,192,89175,1,0,0:0:0:0:s_041.ogg
486,192,89175,1,0,0:0:0:0:s_044.ogg
179,192,89250,1,0,0:0:0:0:s_024.ogg
435,192,89250,1,0,0:0:0:0:s_042.ogg
128,192,89325,1,0,0:0:0:0:s_041.ogg
332,192,89325,1,0,0:0:0:0:s_037.ogg
230,192,89400,1,0,0:0:0:0:s_025.ogg
435,192,89400,1,0,0:0:0:0:s_042.ogg
128,192,89475,1,0,0:0:0:0:s_043.ogg
384,192,89475,1,0,0:0:0:0:s_044.ogg
486,192,89475,1,0,0:0:0:0:s_013.ogg
179,192,89550,1,0,0:0:0:0:s_042.ogg
281,192,89550,1,0,0:0:0:0:s_038.ogg
230,192,89625,1,0,0:0:0:0:s_026.ogg
384,192,89625,1,0,0:0:0:0:s_043.ogg
76,192,89700,1,0,0:0:0:0:s_044.ogg
435,192,89700,1,0,0:0:0:0:s_015.ogg
179,192,89775,1,0,0:0:0:0:s_052.ogg
332,192,89775,1,0,0:0:0:0:s_044.ogg
486,192,89775,1,0,0:0:0:0:s_034.ogg
76,192,89850,1,0,0:0:0:0:s_015.ogg
25,192,89925,1,0,0:0:0:0:s_032.ogg
76,192,90000,1,0,0:0:0:0:s_043.ogg
128,192,90075,1,0,0:0:0:0:s_039.ogg
281,192,90075,1,0,0:0:0:0:s_041.ogg
435,192,90075,1,0,0:0:0:0:s_008.ogg
179,192,90150,1,0,0:0:0:0:s_045.ogg
384,192,90150,1,0,0:0:0:0:s_020.ogg
76,192,90225,1,0,0:0:0:0:s_036.ogg
486,192,90225,1,0,0:0:0:0:s_012.ogg
128,192,90300,1,0,0:0:0:0:s_055.ogg
384,192,90300,1,0,0:0:0:0:s_024.ogg
179,192,90375,1,0,0:0:0:0:s_044.ogg
281,192,90375,1,0,0:0:0:0:s_057.ogg
486,192,90375,1,0,0:0:0:0:s_012.ogg
230,192,90450,1,0,0:0:0:0:s_061.ogg
435,192,90450,1,0,0:0:0:0:s_024.ogg
179,192,90525,1,0,0:0:0:0:s_037.ogg
332,192,90525,1,0,0:0:0:0:s_013.ogg
128,192,90600,1,0,0:0:0:0:s_061.ogg
435,192,90600,1,0,0:0:0:0:s_025.ogg
76,192,90675,1,0,0:0:0:0:s_044.ogg
384,192,90675,1,0,0:0:0:0:s_013.ogg
486,192,90675,1,0,0:0:0:0:s_057.ogg
25,192,90750,1,0,0:0:0:0:s_038.ogg
281,192,90750,1,0,0:0:0:0:s_014.ogg
230,192,90825,1,0,0:0:0:0:s_054.ogg
384,192,90825,1,0,0:0:0:0:s_026.ogg
179,192,90900,1,0,0:0:0:0:s_015.ogg
435,192,90900,1,0,0:0:0:0:s_039.ogg
128,192,90975,1,0,0:0:0:0:s_034.ogg
332,192,90975,1,0,0:0:0:0:s_044.ogg
486,192,90975,1,0,0:0:0:0:s_027.ogg
76,192,91050,1,0,0:0:0:0:s_043.ogg
25,192,91125,1,0,0:0:0:0:s_032.ogg
76,192,91200,1,0,0:0:0:0:s_043.ogg
128,192,91275,1,0,0:0:0:0:s_039.ogg
281,192,91275,1,0,0:0:0:0:s_041.ogg
435,192,91275,1,0,0:0:0:0:s_036.ogg
179,192,91350,1,0,0:0:0:0:s_045.ogg
384,192,91350,1,0,0:0:0:0:s_020.ogg
76,192,91425,1,0,0:0:0:0:s_036.ogg
486,192,91425,1,0,0:0:0:0:s_012.ogg
128,192,91500,1,0,0:0:0:0:s_055.ogg
384,192,91500,1,0,0:0:0:0:s_024.ogg
179,192,91575,1,0,0:0:0:0:s_044.ogg
281,192,91575,1,0,0:0:0:0:s_041.ogg
486,192,91575,1,0,0:0:0:0:s_012.ogg
230,192,91650,1,0,0:0:0:0:s_061.ogg
435,192,91650,1,0,0:0:0:0:s_024.ogg
179,192,91725,1,0,0:0:0:0:s_037.ogg
332,192,91725,1,0,0:0:0:0:s_013.ogg
128,192,91800,1,0,0:0:0:0:s_061.ogg
435,192,91800,1,0,0:0:0:0:s_025.ogg
76,192,91875,1,0,0:0:0:0:s_044.ogg
384,192,91875,1,0,0:0:0:0:s_013.ogg
486,192,91875,1,0,0:0:0:0:s_057.ogg
25,192,91950,1,0,0:0:0:0:s_038.ogg
281,192,91950,1,0,0:0:0:0:s_014.ogg
230,192,92025,1,0,0:0:0:0:s_054.ogg
384,192,92025,1,0,0:0:0:0:s_026.ogg
179,192,92100,1,0,0:0:0:0:s_015.ogg
435,192,92100,1,0,0:0:0:0:s_039.ogg
128,192,92175,1,0,0:0:0:0:s_034.ogg
332,192,92175,1,0,0:0:0:0:s_044.ogg
486,192,92175,1,0,0:0:0:0:s_027.ogg
76,192,92250,1,0,0:0:0:0:s_043.ogg
25,192,92325,1,0,0:0:0:0:s_032.ogg
76,192,92400,1,0,0:0:0:0:s_043.ogg
128,192,92475,1,0,0:0:0:0:s_039.ogg
281,192,92475,1,0,0:0:0:0:s_041.ogg
435,192,92475,1,0,0:0:0:0:s_044.ogg
179,192,92550,1,0,0:0:0:0:s_045.ogg
384,192,92550,1,0,0:0:0:0:s_020.ogg
76,192,92625,1,0,0:0:0:0:s_036.ogg
486,192,92625,1,0,0:0:0:0:s_012.ogg
128,192,92700,1,0,0:0:0:0:s_055.ogg
384,192,92700,1,0,0:0:0:0:s_024.ogg
179,192,92775,1,0,0:0:0:0:s_044.ogg
281,192,92775,1,0,0:0:0:0:s_039.ogg
486,192,92775,1,0,0:0:0:0:s_012.ogg
230,192,92850,1,0,0:0:0:0:s_061.ogg
435,192,92850,1,0,0:0:0:0:s_024.ogg
179,192,92925,1,0,0:0:0:0:s_037.ogg
332,192,92925,1,0,0:0:0:0:s_013.ogg
128,192,93000,1,0,0:0:0:0:s_061.ogg
435,192,93000,1,0,0:0:0:0:s_025.ogg
76,192,93075,1,0,0:0:0:0:s_044.ogg
384,192,93075,1,0,0:0:0:0:s_013.ogg
486,192,93075,1,0,0:0:0:0:s_041.ogg
25,192,93150,1,0,0:0:0:0:s_038.ogg
281,192,93150,1,0,0:0:0:0:s_014.ogg
230,192,93225,1,0,0:0:0:0:s_054.ogg
384,192,93225,1,0,0:0:0:0:s_026.ogg
179,192,93300,1,0,0:0:0:0:s_015.ogg
435,192,93300,1,0,0:0:0:0:s_039.ogg
128,192,93375,1,0,0:0:0:0:s_034.ogg
332,192,93375,1,0,0:0:0:0:s_041.ogg
486,192,93375,1,0,0:0:0:0:s_027.ogg
25,192,93450,1,0,0:0:0:0:s_043.ogg
76,192,93525,1,0,0:0:0:0:s_008.ogg
128,192,93600,1,0,0:0:0:0:s_020.ogg
25,192,93675,1,0,0:0:0:0:s_044.ogg
179,192,93675,1,0,0:0:0:0:s_008.ogg
281,192,93675,1,0,0:0:0:0:s_036.ogg
435,192,93675,1,0,0:0:0:0:s_039.ogg
230,192,93750,1,0,0:0:0:0:s_045.ogg
384,192,93750,1,0,0:0:0:0:s_040.ogg
76,192,93825,1,0,0:0:0:0:s_012.ogg
486,192,93825,1,0,0:0:0:0:s_041.ogg
128,192,93900,1,0,0:0:0:0:s_051.ogg
384,192,93900,1,0,0:0:0:0:s_040.ogg
25,192,93975,1,0,0:0:0:0:s_044.ogg
179,192,93975,1,0,0:0:0:0:s_053.ogg
281,192,93975,1,0,0:0:0:0:s_039.ogg
486,192,93975,1,0,0:0:0:0:s_041.ogg
230,192,94050,1,0,0:0:0:0:s_042.ogg
435,192,94050,1,0,0:0:0:0:s_061.ogg
179,192,94125,1,0,0:0:0:0:s_066.ogg
332,192,94125,1,0,0:0:0:0:s_037.ogg
128,192,94200,1,0,0:0:0:0:s_053.ogg
435,192,94200,1,0,0:0:0:0:s_042.ogg
76,192,94275,1,0,0:0:0:0:s_041.ogg
230,192,94275,1,0,0:0:0:0:s_052.ogg
384,192,94275,1,0,0:0:0:0:s_044.ogg
486,192,94275,1,0,0:0:0:0:s_034.ogg
25,192,94350,1,0,0:0:0:0:s_055.ogg
281,192,94350,1,0,0:0:0:0:s_038.ogg
179,192,94425,1,0,0:0:0:0:s_043.ogg
384,192,94425,1,0,0:0:0:0:s_054.ogg
128,192,94500,1,0,0:0:0:0:s_015.ogg
435,192,94500,1,0,0:0:0:0:s_039.ogg
76,192,94575,1,0,0:0:0:0:s_052.ogg
230,192,94575,1,0,0:0:0:0:s_037.ogg
332,192,94575,1,0,0:0:0:0:s_044.ogg
486,192,94575,1,0,0:0:0:0:s_034.ogg
25,192,94650,1,0,0:0:0:0:s_015.ogg
76,192,94725,1,0,0:0:0:0:s_008.ogg
128,192,94800,1,0,0:0:0:0:s_020.ogg
25,192,94875,1,0,0:0:0:0:s_036.ogg
179,192,94875,1,0,0:0:0:0:s_044.ogg
281,192,94875,1,0,0:0:0:0:s_039.ogg
435,192,94875,1,0,0:0:0:0:s_008.ogg
230,192,94950,1,0,0:0:0:0:s_045.ogg
384,192,94950,1,0,0:0:0:0:s_040.ogg
76,192,95025,1,0,0:0:0:0:s_049.ogg
486,192,95025,1,0,0:0:0:0:s_041.ogg
128,192,95100,1,0,0:0:0:0:s_055.ogg
384,192,95100,1,0,0:0:0:0:s_040.ogg
25,192,95175,1,0,0:0:0:0:s_053.ogg
179,192,95175,1,0,0:0:0:0:s_044.ogg
281,192,95175,1,0,0:0:0:0:s_039.ogg
486,192,95175,1,0,0:0:0:0:s_041.ogg
230,192,95250,1,0,0:0:0:0:s_042.ogg
435,192,95250,1,0,0:0:0:0:s_061.ogg
179,192,95325,1,0,0:0:0:0:s_066.ogg
332,192,95325,1,0,0:0:0:0:s_037.ogg
128,192,95400,1,0,0:0:0:0:s_053.ogg
435,192,95400,1,0,0:0:0:0:s_042.ogg
76,192,95475,1,0,0:0:0:0:s_041.ogg
230,192,95475,1,0,0:0:0:0:s_052.ogg
384,192,95475,1,0,0:0:0:0:s_044.ogg
486,192,95475,1,0,0:0:0:0:s_034.ogg
25,192,95550,1,0,0:0:0:0:s_055.ogg
281,192,95550,1,0,0:0:0:0:s_038.ogg
179,192,95625,1,0,0:0:0:0:s_043.ogg
384,192,95625,1,0,0:0:0:0:s_054.ogg
128,192,95700,1,0,0:0:0:0:s_048.ogg
435,192,95700,1,0,0:0:0:0:s_039.ogg
76,192,95775,1,0,0:0:0:0:s_052.ogg
230,192,95775,1,0,0:0:0:0:s_037.ogg
332,192,95775,1,0,0:0:0:0:s_044.ogg
486,192,95775,1,0,0:0:0:0:s_034.ogg
25,192,95850,1,0,0:0:0:0:s_015.ogg
76,192,95925,1,0,0:0:0:0:s_008.ogg
128,192,96000,1,0,0:0:0:0:s_020.ogg
25,192,96075,1,0,0:0:0:0:s_008.ogg
179,192,96075,1,0,0:0:0:0:s_044.ogg
281,192,96075,1,0,0:0:0:0:s_039.ogg
435,192,96075,1,0,0:0:0:0:s_036.ogg
230,192,96150,1,0,0:0:0:0:s_045.ogg
384,192,96150,1,0,0:0:0:0:s_040.ogg
76,192,96225,1,0,0:0:0:0:s_049.ogg
486,192,96225,1,0,0:0:0:0:s_041.ogg
128,192,96300,1,0,0:0:0:0:s_051.ogg
384,192,96300,1,0,0:0:0:0:s_040.ogg
25,192,96375,1,0,0:0:0:0:s_044.ogg
179,192,96375,1,0,0:0:0:0:s_053.ogg
281,192,96375,1,0,0:0:0:0:s_041.ogg
486,192,96375,1,0,0:0:0:0:s_039.ogg
230,192,96450,1,0,0:0:0:0:s_042.ogg
435,192,96450,1,0,0:0:0:0:s_061.ogg
179,192,96525,1,0,0:0:0:0:s_066.ogg
332,192,96525,1,0,0:0:0:0:s_037.ogg
128,192,96600,1,0,0:0:0:0:s_053.ogg
435,192,96600,1,0,0:0:0:0:s_042.ogg
76,192,96675,1,0,0:0:0:0:s_041.ogg
230,192,96675,1,0,0:0:0:0:s_052.ogg
384,192,96675,1,0,0:0:0:0:s_044.ogg
486,192,96675,1,0,0:0:0:0:s_034.ogg
25,192,96750,1,0,0:0:0:0:s_055.ogg
281,192,96750,1,0,0:0:0:0:s_038.ogg
179,192,96825,1,0,0:0:0:0:s_043.ogg
384,192,96825,1,0,0:0:0:0:s_054.ogg
128,192,96900,1,0,0:0:0:0:s_015.ogg
435,192,96900,1,0,0:0:0:0:s_039.ogg
76,192,96975,1,0,0:0:0:0:s_052.ogg
230,192,96975,1,0,0:0:0:0:s_037.ogg
332,192,96975,1,0,0:0:0:0:s_044.ogg
486,192,96975,1,0,0:0:0:0:s_034.ogg
25,192,97050,1,0,0:0:0:0:s_015.ogg
76,192,97125,1,0,0:0:0:0:s_032.ogg
384,192,97125,1,0,0:0:0:0:s_051.ogg
435,192,97125,1,0,0:0:0:0:s_060.ogg
486,192,97125,1,0,0:0:0:0:s_053.ogg
128,192,97200,1,0,0:0:0:0:s_043.ogg
25,192,97275,1,0,0:0:0:0:s_039.ogg
179,192,97275,1,0,0:0:0:0:s_055.ogg
332,192,97275,1,0,0:0:0:0:s_059.ogg
384,192,97275,1,0,0:0:0:0:s_052.ogg
435,192,97275,1,0,0:0:0:0:s_050.ogg
230,192,97350,1,0,0:0:0:0:s_045.ogg
76,192,97425,1,0,0:0:0:0:s_041.ogg
281,192,97425,1,0,0:0:0:0:s_049.ogg
332,192,97425,1,0,0:0:0:0:s_058.ogg
384,192,97425,1,0,0:0:0:0:s_051.ogg
128,192,97500,1,0,0:0:0:0:s_055.ogg
25,192,97575,1,0,0:0:0:0:s_053.ogg
179,192,97575,1,0,0:0:0:0:s_057.ogg
332,192,97575,1,0,0:0:0:0:s_059.ogg
384,192,97575,1,0,0:0:0:0:s_052.ogg
435,192,97575,1,0,0:0:0:0:s_044.ogg
230,192,97650,1,0,0:0:0:0:s_061.ogg
179,192,97725,1,0,0:0:0:0:s_041.ogg
384,192,97725,1,0,0:0:0:0:s_051.ogg
435,192,97725,1,0,0:0:0:0:s_060.ogg
486,192,97725,1,0,0:0:0:0:s_056.ogg
128,192,97800,1,0,0:0:0:0:s_053.ogg
76,192,97875,1,0,0:0:0:0:s_043.ogg
230,192,97875,1,0,0:0:0:0:s_041.ogg
332,192,97875,1,0,0:0:0:0:s_055.ogg
384,192,97875,1,0,0:0:0:0:s_034.ogg
435,192,97875,1,0,0:0:0:0:s_050.ogg
25,192,97950,1,0,0:0:0:0:s_051.ogg
179,192,98025,1,0,0:0:0:0:s_043.ogg
281,192,98025,1,0,0:0:0:0:s_049.ogg
332,192,98025,1,0,0:0:0:0:s_058.ogg
384,192,98025,1,0,0:0:0:0:s_051.ogg
128,192,98100,1,0,0:0:0:0:s_044.ogg
76,192,98175,1,0,0:0:0:0:s_034.ogg
230,192,98175,1,0,0:0:0:0:s_059.ogg
332,192,98175,1,0,0:0:0:0:s_055.ogg
384,192,98175,1,0,0:0:0:0:s_050.ogg
435,192,98175,1,0,0:0:0:0:s_041.ogg
25,192,98250,1,0,0:0:0:0:s_015.ogg
76,192,98325,1,0,0:0:0:0:s_032.ogg
384,192,98325,1,0,0:0:0:0:s_051.ogg
435,192,98325,1,0,0:0:0:0:s_060.ogg
486,192,98325,1,0,0:0:0:0:s_053.ogg
128,192,98400,1,0,0:0:0:0:s_043.ogg
25,192,98475,1,0,0:0:0:0:s_044.ogg
179,192,98475,1,0,0:0:0:0:s_055.ogg
332,192,98475,1,0,0:0:0:0:s_059.ogg
384,192,98475,1,0,0:0:0:0:s_052.ogg
435,192,98475,1,0,0:0:0:0:s_050.ogg
230,192,98550,1,0,0:0:0:0:s_045.ogg
76,192,98625,1,0,0:0:0:0:s_054.ogg
281,192,98625,1,0,0:0:0:0:s_049.ogg
332,192,98625,1,0,0:0:0:0:s_058.ogg
384,192,98625,1,0,0:0:0:0:s_051.ogg
128,192,98700,1,0,0:0:0:0:s_055.ogg
25,192,98775,1,0,0:0:0:0:s_053.ogg
179,192,98775,1,0,0:0:0:0:s_057.ogg
332,192,98775,1,0,0:0:0:0:s_059.ogg
384,192,98775,1,0,0:0:0:0:s_052.ogg
435,192,98775,1,0,0:0:0:0:s_044.ogg
230,192,98850,1,0,0:0:0:0:s_042.ogg
179,192,98925,1,0,0:0:0:0:s_041.ogg
384,192,98925,1,0,0:0:0:0:s_051.ogg
435,192,98925,1,0,0:0:0:0:s_060.ogg
486,192,98925,1,0,0:0:0:0:s_056.ogg
128,192,99000,1,0,0:0:0:0:s_053.ogg
76,192,99075,1,0,0:0:0:0:s_043.ogg
230,192,99075,1,0,0:0:0:0:s_044.ogg
332,192,99075,1,0,0:0:0:0:s_055.ogg
384,192,99075,1,0,0:0:0:0:s_034.ogg
435,192,99075,1,0,0:0:0:0:s_050.ogg
25,192,99150,1,0,0:0:0:0:s_051.ogg
179,192,99225,1,0,0:0:0:0:s_054.ogg
281,192,99225,1,0,0:0:0:0:s_058.ogg
332,192,99225,1,0,0:0:0:0:s_049.ogg
384,192,99225,1,0,0:0:0:0:s_051.ogg
128,192,99300,1,0,0:0:0:0:s_044.ogg
76,192,99375,1,0,0:0:0:0:s_034.ogg
230,192,99375,1,0,0:0:0:0:s_059.ogg
332,192,99375,1,0,0:0:0:0:s_055.ogg
384,192,99375,1,0,0:0:0:0:s_050.ogg
435,192,99375,1,0,0:0:0:0:s_041.ogg
25,192,99450,1,0,0:0:0:0:s_015.ogg
76,192,99525,1,0,0:0:0:0:s_032.ogg
384,192,99525,1,0,0:0:0:0:s_051.ogg
435,192,99525,1,0,0:0:0:0:s_060.ogg
486,192,99525,1,0,0:0:0:0:s_053.ogg
128,192,99600,1,0,0:0:0:0:s_043.ogg
25,192,99675,1,0,0:0:0:0:s_039.ogg
179,192,99675,1,0,0:0:0:0:s_055.ogg
332,192,99675,1,0,0:0:0:0:s_059.ogg
384,192,99675,1,0,0:0:0:0:s_052.ogg
435,192,99675,1,0,0:0:0:0:s_050.ogg
230,192,99750,1,0,0:0:0:0:s_045.ogg
76,192,99825,1,0,0:0:0:0:s_041.ogg
281,192,99825,1,0,0:0:0:0:s_049.ogg
332,192,99825,1,0,0:0:0:0:s_058.ogg
384,192,99825,1,0,0:0:0:0:s_051.ogg
128,192,99900,1,0,0:0:0:0:s_055.ogg
25,192,99975,1,0,0:0:0:0:s_053.ogg
179,192,99975,1,0,0:0:0:0:s_057.ogg
332,192,99975,1,0,0:0:0:0:s_059.ogg
384,192,99975,1,0,0:0:0:0:s_052.ogg
435,192,99975,1,0,0:0:0:0:s_044.ogg
230,192,100050,1,0,0:0:0:0:s_061.ogg
179,192,100125,1,0,0:0:0:0:s_041.ogg
384,192,100125,1,0,0:0:0:0:s_051.ogg
435,192,100125,1,0,0:0:0:0:s_060.ogg
486,192,100125,1,0,0:0:0:0:s_056.ogg
128,192,100200,1,0,0:0:0:0:s_053.ogg
76,192,100275,1,0,0:0:0:0:s_043.ogg
230,192,100275,1,0,0:0:0:0:s_041.ogg
332,192,100275,1,0,0:0:0:0:s_055.ogg
384,192,100275,1,0,0:0:0:0:s_034.ogg
435,192,100275,1,0,0:0:0:0:s_050.ogg
25,192,100350,1,0,0:0:0:0:s_051.ogg
179,192,100425,1,0,0:0:0:0:s_043.ogg
281,192,100425,1,0,0:0:0:0:s_058.ogg
332,192,100425,1,0,0:0:0:0:s_049.ogg
384,192,100425,1,0,0:0:0:0:s_051.ogg
128,192,100500,1,0,0:0:0:0:s_044.ogg
76,192,100575,1,0,0:0:0:0:s_034.ogg
230,192,100575,1,0,0:0:0:0:s_052.ogg
332,192,100575,1,0,0:0:0:0:s_055.ogg
384,192,100575,1,0,0:0:0:0:s_050.ogg
435,192,100575,1,0,0:0:0:0:s_041.ogg
179,192,100650,1,0,0:0:0:0:s_043.ogg
25,192,100725,1,0,0:0:0:0:s_008.ogg
384,192,100725,1,0,0:0:0:0:s_051.ogg
435,192,100725,1,0,0:0:0:0:s_056.ogg
486,192,100725,1,0,0:0:0:0:s_060.ogg
76,192,100785,1,0,0:0:0:0:s_045.ogg
128,192,100845,1,0,0:0:0:0:s_042.ogg
332,192,100875,1,0,0:0:0:0:s_039.ogg
384,192,100875,1,0,0:0:0:0:s_059.ogg
435,192,100875,1,0,0:0:0:0:s_041.ogg
179,192,100905,1,0,0:0:0:0:s_043.ogg
230,192,100965,1,0,0:0:0:0:s_044.ogg
25,192,101025,1,0,0:0:0:0:s_045.ogg
281,192,101025,1,0,0:0:0:0:s_058.ogg
332,192,101025,1,0,0:0:0:0:s_036.ogg
384,192,101025,1,0,0:0:0:0:s_051.ogg
76,192,101085,1,0,0:0:0:0:s_046.ogg
128,192,101145,1,0,0:0:0:0:s_047.ogg
332,192,101175,1,0,0:0:0:0:s_039.ogg
384,192,101175,1,0,0:0:0:0:s_059.ogg
435,192,101175,1,0,0:0:0:0:s_050.ogg
179,192,101205,1,0,0:0:0:0:s_048.ogg
230,192,101265,1,0,0:0:0:0:s_049.ogg
25,192,101325,1,0,0:0:0:0:s_052.ogg
384,192,101325,1,0,0:0:0:0:s_051.ogg
435,192,101325,1,0,0:0:0:0:s_060.ogg
486,192,101325,1,0,0:0:0:0:s_037.ogg
230,192,101385,1,0,0:0:0:0:s_049.ogg
179,192,101445,1,0,0:0:0:0:s_044.ogg
332,192,101475,1,0,0:0:0:0:s_052.ogg
384,192,101475,1,0,0:0:0:0:s_050.ogg
435,192,101475,1,0,0:0:0:0:s_034.ogg
128,192,101505,1,0,0:0:0:0:s_043.ogg
76,192,101565,1,0,0:0:0:0:s_046.ogg
25,192,101625,1,0,0:0:0:0:s_045.ogg
281,192,101625,1,0,0:0:0:0:s_049.ogg
332,192,101625,1,0,0:0:0:0:s_054.ogg
384,192,101625,1,0,0:0:0:0:s_051.ogg
230,192,101685,1,0,0:0:0:0:s_044.ogg
179,192,101745,1,0,0:0:0:0:s_047.ogg
332,192,101775,1,0,0:0:0:0:s_037.ogg
384,192,101775,1,0,0:0:0:0:s_059.ogg
435,192,101775,1,0,0:0:0:0:s_050.ogg
128,192,101805,1,0,0:0:0:0:s_042.ogg
76,192,101865,1,0,0:0:0:0:s_045.ogg
25,192,101925,1,0,0:0:0:0:s_008.ogg
384,192,101925,1,0,0:0:0:0:s_051.ogg
435,192,101925,1,0,0:0:0:0:s_056.ogg
486,192,101925,1,0,0:0:0:0:s_060.ogg
76,192,101985,1,0,0:0:0:0:s_045.ogg
128,192,102045,1,0,0:0:0:0:s_042.ogg
332,192,102075,1,0,0:0:0:0:s_039.ogg
384,192,102075,1,0,0:0:0:0:s_059.ogg
435,192,102075,1,0,0:0:0:0:s_041.ogg
179,192,102105,1,0,0:0:0:0:s_043.ogg
230,192,102165,1,0,0:0:0:0:s_044.ogg
25,192,102225,1,0,0:0:0:0:s_045.ogg
281,192,102225,1,0,0:0:0:0:s_058.ogg
332,192,102225,1,0,0:0:0:0:s_036.ogg
384,192,102225,1,0,0:0:0:0:s_051.ogg
76,192,102285,1,0,0:0:0:0:s_046.ogg
128,192,102345,1,0,0:0:0:0:s_047.ogg
332,192,102375,1,0,0:0:0:0:s_039.ogg
384,192,102375,1,0,0:0:0:0:s_059.ogg
435,192,102375,1,0,0:0:0:0:s_050.ogg
179,192,102405,1,0,0:0:0:0:s_048.ogg
230,192,102465,1,0,0:0:0:0:s_049.ogg
25,192,102525,1,0,0:0:0:0:s_052.ogg
384,192,102525,1,0,0:0:0:0:s_051.ogg
435,192,102525,1,0,0:0:0:0:s_060.ogg
486,192,102525,1,0,0:0:0:0:s_037.ogg
230,192,102585,1,0,0:0:0:0:s_049.ogg
179,192,102645,1,0,0:0:0:0:s_044.ogg
332,192,102675,1,0,0:0:0:0:s_052.ogg
384,192,102675,1,0,0:0:0:0:s_050.ogg
435,192,102675,1,0,0:0:0:0:s_034.ogg
128,192,102705,1,0,0:0:0:0:s_043.ogg
76,192,102765,1,0,0:0:0:0:s_046.ogg
25,192,102825,1,0,0:0:0:0:s_045.ogg
281,192,102825,1,0,0:0:0:0:s_049.ogg
332,192,102825,1,0,0:0:0:0:s_054.ogg
384,192,102825,1,0,0:0:0:0:s_051.ogg
230,192,102885,1,0,0:0:0:0:s_044.ogg
179,192,102945,1,0,0:0:0:0:s_047.ogg
332,192,102975,1,0,0:0:0:0:s_037.ogg
384,192,102975,1,0,0:0:0:0:s_059.ogg
435,192,102975,1,0,0:0:0:0:s_050.ogg
128,192,103005,1,0,0:0:0:0:s_042.ogg
76,192,103065,1,0,0:0:0:0:s_045.ogg
25,192,103125,1,0,0:0:0:0:s_008.ogg
384,192,103125,1,0,0:0:0:0:s_051.ogg
435,192,103125,1,0,0:0:0:0:s_056.ogg
486,192,103125,1,0,0:0:0:0:s_060.ogg
76,192,103185,1,0,0:0:0:0:s_045.ogg
128,192,103245,1,0,0:0:0:0:s_042.ogg
332,192,103275,1,0,0:0:0:0:s_039.ogg
384,192,103275,1,0,0:0:0:0:s_059.ogg
435,192,103275,1,0,0:0:0:0:s_041.ogg
179,192,103305,1,0,0:0:0:0:s_043.ogg
230,192,103365,1,0,0:0:0:0:s_044.ogg
25,192,103425,1,0,0:0:0:0:s_045.ogg
281,192,103425,1,0,0:0:0:0:s_058.ogg
332,192,103425,1,0,0:0:0:0:s_036.ogg
384,192,103425,1,0,0:0:0:0:s_051.ogg
76,192,103485,1,0,0:0:0:0:s_046.ogg
128,192,103545,1,0,0:0:0:0:s_047.ogg
332,192,103575,1,0,0:0:0:0:s_039.ogg
384,192,103575,1,0,0:0:0:0:s_059.ogg
435,192,103575,1,0,0:0:0:0:s_050.ogg
179,192,103605,1,0,0:0:0:0:s_048.ogg
230,192,103665,1,0,0:0:0:0:s_049.ogg
25,192,103725,1,0,0:0:0:0:s_052.ogg
384,192,103725,1,0,0:0:0:0:s_051.ogg
435,192,103725,1,0,0:0:0:0:s_060.ogg
486,192,103725,1,0,0:0:0:0:s_037.ogg
230,192,103785,1,0,0:0:0:0:s_049.ogg
179,192,103845,1,0,0:0:0:0:s_044.ogg
332,192,103875,1,0,0:0:0:0:s_052.ogg
384,192,103875,1,0,0:0:0:0:s_050.ogg
435,192,103875,1,0,0:0:0:0:s_034.ogg
128,192,103905,1,0,0:0:0:0:s_043.ogg
76,192,103965,1,0,0:0:0:0:s_046.ogg
25,192,104025,1,0,0:0:0:0:s_045.ogg
281,192,104025,1,0,0:0:0:0:s_049.ogg
332,192,104025,1,0,0:0:0:0:s_054.ogg
384,192,104025,1,0,0:0:0:0:s_051.ogg
230,192,104085,1,0,0:0:0:0:s_044.ogg
179,192,104145,1,0,0:0:0:0:s_047.ogg
332,192,104175,1,0,0:0:0:0:s_037.ogg
384,192,104175,1,0,0:0:0:0:s_059.ogg
435,192,104175,1,0,0:0:0:0:s_050.ogg
128,192,104205,1,0,0:0:0:0:s_042.ogg
76,192,104265,1,0,0:0:0:0:s_045.ogg
25,192,104325,1,0,0:0:0:0:s_068.ogg
384,192,104325,1,0,0:0:0:0:s_056.ogg
486,192,104325,1,0,0:0:0:0:s_060.ogg
76,192,104385,1,0,0:0:0:0:s_045.ogg
332,192,104400,1,0,0:0:0:0:s_020.ogg
128,192,104445,1,0,0:0:0:0:s_042.ogg
281,192,104475,1,0,0:0:0:0:s_039.ogg
435,192,104475,1,0,0:0:0:0:s_050.ogg
179,192,104505,1,0,0:0:0:0:s_043.ogg
332,192,104550,1,0,0:0:0:0:s_045.ogg
230,192,104565,1,0,0:0:0:0:s_044.ogg
25,192,104625,1,0,0:0:0:0:s_045.ogg
384,192,104625,1,0,0:0:0:0:s_036.ogg
486,192,104625,1,0,0:0:0:0:s_051.ogg
76,192,104685,1,0,0:0:0:0:s_046.ogg
281,192,104700,1,0,0:0:0:0:s_062.ogg
128,192,104745,1,0,0:0:0:0:s_047.ogg
332,192,104775,1,0,0:0:0:0:s_059.ogg
435,192,104775,1,0,0:0:0:0:s_041.ogg
179,192,104805,1,0,0:0:0:0:s_048.ogg
486,192,104850,1,0,0:0:0:0:s_063.ogg
230,192,104865,1,0,0:0:0:0:s_049.ogg
25,192,104925,1,0,0:0:0:0:s_052.ogg
281,192,104925,1,0,0:0:0:0:s_060.ogg
384,192,104925,1,0,0:0:0:0:s_037.ogg
230,192,104985,1,0,0:0:0:0:s_049.ogg
435,192,105000,1,0,0:0:0:0:s_056.ogg
179,192,105045,1,0,0:0:0:0:s_044.ogg
332,192,105075,1,0,0:0:0:0:s_050.ogg
486,192,105075,1,0,0:0:0:0:s_041.ogg
128,192,105105,1,0,0:0:0:0:s_043.ogg
435,192,105150,1,0,0:0:0:0:s_038.ogg
76,192,105165,1,0,0:0:0:0:s_046.ogg
25,192,105225,1,0,0:0:0:0:s_045.ogg
281,192,105225,1,0,0:0:0:0:s_058.ogg
384,192,105225,1,0,0:0:0:0:s_051.ogg
230,192,105285,1,0,0:0:0:0:s_044.ogg
486,192,105300,1,0,0:0:0:0:s_058.ogg
179,192,105345,1,0,0:0:0:0:s_047.ogg
332,192,105375,1,0,0:0:0:0:s_059.ogg
435,192,105375,1,0,0:0:0:0:s_050.ogg
128,192,105405,1,0,0:0:0:0:s_046.ogg
281,192,105450,1,0,0:0:0:0:s_059.ogg
76,192,105465,1,0,0:0:0:0:s_045.ogg
25,192,105525,1,0,0:0:0:0:s_068.ogg
384,192,105525,1,0,0:0:0:0:s_056.ogg
486,192,105525,1,0,0:0:0:0:s_060.ogg
76,192,105585,1,0,0:0:0:0:s_045.ogg
332,192,105600,1,0,0:0:0:0:s_020.ogg
128,192,105645,1,0,0:0:0:0:s_042.ogg
281,192,105675,1,0,0:0:0:0:s_039.ogg
435,192,105675,1,0,0:0:0:0:s_050.ogg
179,192,105705,1,0,0:0:0:0:s_043.ogg
332,192,105750,1,0,0:0:0:0:s_045.ogg
230,192,105765,1,0,0:0:0:0:s_044.ogg
25,192,105825,1,0,0:0:0:0:s_045.ogg
384,192,105825,1,0,0:0:0:0:s_036.ogg
486,192,105825,1,0,0:0:0:0:s_051.ogg
76,192,105885,1,0,0:0:0:0:s_046.ogg
281,192,105900,1,0,0:0:0:0:s_062.ogg
128,192,105945,1,0,0:0:0:0:s_047.ogg
332,192,105975,1,0,0:0:0:0:s_059.ogg
435,192,105975,1,0,0:0:0:0:s_041.ogg
179,192,106005,1,0,0:0:0:0:s_048.ogg
486,192,106050,1,0,0:0:0:0:s_063.ogg
230,192,106065,1,0,0:0:0:0:s_049.ogg
25,192,106125,1,0,0:0:0:0:s_052.ogg
281,192,106125,1,0,0:0:0:0:s_060.ogg
384,192,106125,1,0,0:0:0:0:s_037.ogg
230,192,106185,1,0,0:0:0:0:s_049.ogg
435,192,106200,1,0,0:0:0:0:s_056.ogg
179,192,106245,1,0,0:0:0:0:s_044.ogg
332,192,106275,1,0,0:0:0:0:s_050.ogg
486,192,106275,1,0,0:0:0:0:s_041.ogg
128,192,106305,1,0,0:0:0:0:s_043.ogg
435,192,106350,1,0,0:0:0:0:s_038.ogg
76,192,106365,1,0,0:0:0:0:s_046.ogg
25,192,106425,1,0,0:0:0:0:s_045.ogg
281,192,106425,1,0,0:0:0:0:s_058.ogg
384,192,106425,1,0,0:0:0:0:s_051.ogg
230,192,106485,1,0,0:0:0:0:s_044.ogg
486,192,106500,1,0,0:0:0:0:s_058.ogg
179,192,106545,1,0,0:0:0:0:s_047.ogg
332,192,106575,1,0,0:0:0:0:s_059.ogg
435,192,106575,1,0,0:0:0:0:s_050.ogg
128,192,106605,1,0,0:0:0:0:s_046.ogg
281,192,106650,1,0,0:0:0:0:s_059.ogg
76,192,106665,1,0,0:0:0:0:s_045.ogg
25,192,106725,1,0,0:0:0:0:s_068.ogg
384,192,106725,1,0,0:0:0:0:s_056.ogg
486,192,106725,1,0,0:0:0:0:s_060.ogg
76,192,106785,1,0,0:0:0:0:s_045.ogg
332,192,106800,1,0,0:0:0:0:s_020.ogg
128,192,106845,1,0,0:0:0:0:s_042.ogg
281,192,106875,1,0,0:0:0:0:s_039.ogg
435,192,106875,1,0,0:0:0:0:s_050.ogg
179,192,106905,1,0,0:0:0:0:s_043.ogg
332,192,106950,1,0,0:0:0:0:s_045.ogg
230,192,106965,1,0,0:0:0:0:s_044.ogg
25,192,107025,1,0,0:0:0:0:s_045.ogg
384,192,107025,1,0,0:0:0:0:s_036.ogg
486,192,107025,1,0,0:0:0:0:s_051.ogg
76,192,107085,1,0,0:0:0:0:s_046.ogg
281,192,107100,1,0,0:0:0:0:s_062.ogg
128,192,107145,1,0,0:0:0:0:s_047.ogg
332,192,107175,1,0,0:0:0:0:s_059.ogg
435,192,107175,1,0,0:0:0:0:s_041.ogg
179,192,107205,1,0,0:0:0:0:s_048.ogg
486,192,107250,1,0,0:0:0:0:s_063.ogg
230,192,107265,1,0,0:0:0:0:s_049.ogg
25,192,107325,1,0,0:0:0:0:s_052.ogg
281,192,107325,1,0,0:0:0:0:s_060.ogg
384,192,107325,1,0,0:0:0:0:s_037.ogg
230,192,107385,1,0,0:0:0:0:s_049.ogg
435,192,107400,1,0,0:0:0:0:s_056.ogg
179,192,107445,1,0,0:0:0:0:s_044.ogg
332,192,107475,1,0,0:0:0:0:s_050.ogg
486,192,107475,1,0,0:0:0:0:s_041.ogg
128,192,107505,1,0,0:0:0:0:s_043.ogg
435,192,107550,1,0,0:0:0:0:s_038.ogg
76,192,107565,1,0,0:0:0:0:s_046.ogg
25,192,107625,1,0,0:0:0:0:s_045.ogg
281,192,107625,1,0,0:0:0:0:s_058.ogg
384,192,107625,1,0,0:0:0:0:s_051.ogg
230,192,107685,1,0,0:0:0:0:s_044.ogg
486,192,107700,1,0,0:0:0:0:s_058.ogg
179,192,107745,1,0,0:0:0:0:s_047.ogg
332,192,107775,1,0,0:0:0:0:s_059.ogg
435,192,107775,1,0,0:0:0:0:s_050.ogg
128,192,107805,1,0,0:0:0:0:s_046.ogg
281,192,107850,1,0,0:0:0:0:s_059.ogg
76,192,107865,1,0,0:0:0:0:s_045.ogg
128,192,107925,1,0,0:0:0:0:s_056.ogg
230,192,107925,1,0,0:0:0:0:s_032.ogg
384,192,107925,1,0,0:0:0:0:s_051.ogg
486,192,107925,1,0,0:0:0:0:s_060.ogg
25,192,108000,1,0,0:0:0:0:s_020.ogg
332,192,108000,1,0,0:0:0:0:s_070.ogg
76,192,108075,1,0,0:0:0:0:s_055.ogg
179,192,108075,1,0,0:0:0:0:s_044.ogg
281,192,108075,1,0,0:0:0:0:s_007.ogg
435,192,108075,1,0,0:0:0:0:s_050.ogg
128,192,108150,1,0,0:0:0:0:s_045.ogg
332,192,108150,1,0,0:0:0:0:s_061.ogg
25,192,108225,1,0,0:0:0:0:s_006.ogg
230,192,108225,1,0,0:0:0:0:s_049.ogg
384,192,108225,1,0,0:0:0:0:s_058.ogg
486,192,108225,1,0,0:0:0:0:s_051.ogg
76,192,108300,1,0,0:0:0:0:s_040.ogg
281,192,108300,1,0,0:0:0:0:s_062.ogg
128,192,108375,1,0,0:0:0:0:s_039.ogg
179,192,108375,1,0,0:0:0:0:s_005.ogg
332,192,108375,1,0,0:0:0:0:s_059.ogg
435,192,108375,1,0,0:0:0:0:s_052.ogg
76,192,108450,1,0,0:0:0:0:s_070.ogg
486,192,108450,1,0,0:0:0:0:s_063.ogg
25,192,108525,1,0,0:0:0:0:s_004.ogg
128,192,108525,1,0,0:0:0:0:s_060.ogg
281,192,108525,1,0,0:0:0:0:s_056.ogg
384,192,108525,1,0,0:0:0:0:s_053.ogg
179,192,108600,1,0,0:0:0:0:s_042.ogg
435,192,108600,1,0,0:0:0:0:s_056.ogg
76,192,108675,1,0,0:0:0:0:s_052.ogg
230,192,108675,1,0,0:0:0:0:s_003.ogg
332,192,108675,1,0,0:0:0:0:s_050.ogg
486,192,108675,1,0,0:0:0:0:s_034.ogg
128,192,108750,1,0,0:0:0:0:s_051.ogg
435,192,108750,1,0,0:0:0:0:s_014.ogg
25,192,108825,1,0,0:0:0:0:s_049.ogg
179,192,108825,1,0,0:0:0:0:s_054.ogg
281,192,108825,1,0,0:0:0:0:s_002.ogg
384,192,108825,1,0,0:0:0:0:s_045.ogg
76,192,108900,1,0,0:0:0:0:s_044.ogg
486,192,108900,1,0,0:0:0:0:s_058.ogg
128,192,108975,1,0,0:0:0:0:s_050.ogg
230,192,108975,1,0,0:0:0:0:s_034.ogg
332,192,108975,1,0,0:0:0:0:s_059.ogg
435,192,108975,1,0,0:0:0:0:s_037.ogg
179,192,109050,1,0,0:0:0:0:s_015.ogg
281,192,109050,1,0,0:0:0:0:s_075.ogg
128,192,109125,1,0,0:0:0:0:s_056.ogg
230,192,109125,1,0,0:0:0:0:s_032.ogg
384,192,109125,1,0,0:0:0:0:s_051.ogg
486,192,109125,1,0,0:0:0:0:s_060.ogg
25,192,109200,1,0,0:0:0:0:s_020.ogg
332,192,109200,1,0,0:0:0:0:s_070.ogg
76,192,109275,1,0,0:0:0:0:s_055.ogg
179,192,109275,1,0,0:0:0:0:s_044.ogg
281,192,109275,1,0,0:0:0:0:s_007.ogg
435,192,109275,1,0,0:0:0:0:s_050.ogg
128,192,109350,1,0,0:0:0:0:s_045.ogg
332,192,109350,1,0,0:0:0:0:s_061.ogg
25,192,109425,1,0,0:0:0:0:s_006.ogg
230,192,109425,1,0,0:0:0:0:s_049.ogg
384,192,109425,1,0,0:0:0:0:s_058.ogg
486,192,109425,1,0,0:0:0:0:s_051.ogg
76,192,109500,1,0,0:0:0:0:s_040.ogg
281,192,109500,1,0,0:0:0:0:s_062.ogg
128,192,109575,1,0,0:0:0:0:s_039.ogg
179,192,109575,1,0,0:0:0:0:s_005.ogg
332,192,109575,1,0,0:0:0:0:s_059.ogg
435,192,109575,1,0,0:0:0:0:s_052.ogg
76,192,109650,1,0,0:0:0:0:s_070.ogg
486,192,109650,1,0,0:0:0:0:s_063.ogg
25,192,109725,1,0,0:0:0:0:s_004.ogg
128,192,109725,1,0,0:0:0:0:s_060.ogg
281,192,109725,1,0,0:0:0:0:s_056.ogg
384,192,109725,1,0,0:0:0:0:s_053.ogg
179,192,109800,1,0,0:0:0:0:s_042.ogg
435,192,109800,1,0,0:0:0:0:s_056.ogg
76,192,109875,1,0,0:0:0:0:s_052.ogg
230,192,109875,1,0,0:0:0:0:s_003.ogg
332,192,109875,1,0,0:0:0:0:s_050.ogg
486,192,109875,1,0,0:0:0:0:s_034.ogg
128,192,109950,1,0,0:0:0:0:s_051.ogg
435,192,109950,1,0,0:0:0:0:s_014.ogg
25,192,110025,1,0,0:0:0:0:s_049.ogg
179,192,110025,1,0,0:0:0:0:s_054.ogg
281,192,110025,1,0,0:0:0:0:s_002.ogg
384,192,110025,1,0,0:0:0:0:s_045.ogg
76,192,110100,1,0,0:0:0:0:s_044.ogg
486,192,110100,1,0,0:0:0:0:s_058.ogg
128,192,110175,1,0,0:0:0:0:s_050.ogg
230,192,110175,1,0,0:0:0:0:s_034.ogg
332,192,110175,1,0,0:0:0:0:s_059.ogg
435,192,110175,1,0,0:0:0:0:s_037.ogg
179,192,110250,1,0,0:0:0:0:s_015.ogg
281,192,110250,1,0,0:0:0:0:s_075.ogg
128,192,110325,1,0,0:0:0:0:s_056.ogg
230,192,110325,1,0,0:0:0:0:s_032.ogg
384,192,110325,1,0,0:0:0:0:s_051.ogg
486,192,110325,1,0,0:0:0:0:s_060.ogg
25,192,110400,1,0,0:0:0:0:s_020.ogg
332,192,110400,1,0,0:0:0:0:s_070.ogg
76,192,110475,1,0,0:0:0:0:s_055.ogg
179,192,110475,1,0,0:0:0:0:s_044.ogg
281,192,110475,1,0,0:0:0:0:s_007.ogg
435,192,110475,1,0,0:0:0:0:s_050.ogg
128,192,110550,1,0,0:0:0:0:s_045.ogg
332,192,110550,1,0,0:0:0:0:s_061.ogg
25,192,110625,1,0,0:0:0:0:s_006.ogg
230,192,110625,1,0,0:0:0:0:s_049.ogg
384,192,110625,1,0,0:0:0:0:s_058.ogg
486,192,110625,1,0,0:0:0:0:s_051.ogg
76,192,110700,1,0,0:0:0:0:s_040.ogg
281,192,110700,1,0,0:0:0:0:s_062.ogg
128,192,110775,1,0,0:0:0:0:s_039.ogg
179,192,110775,1,0,0:0:0:0:s_005.ogg
332,192,110775,1,0,0:0:0:0:s_059.ogg
435,192,110775,1,0,0:0:0:0:s_052.ogg
76,192,110850,1,0,0:0:0:0:s_070.ogg
486,192,110850,1,0,0:0:0:0:s_063.ogg
25,192,110925,1,0,0:0:0:0:s_004.ogg
128,192,110925,1,0,0:0:0:0:s_060.ogg
281,192,110925,1,0,0:0:0:0:s_056.ogg
384,192,110925,1,0,0:0:0:0:s_053.ogg
179,192,111000,1,0,0:0:0:0:s_042.ogg
435,192,111000,1,0,0:0:0:0:s_056.ogg
76,192,111075,1,0,0:0:0:0:s_052.ogg
230,192,111075,1,0,0:0:0:0:s_003.ogg
332,192,111075,1,0,0:0:0:0:s_050.ogg
486,192,111075,1,0,0:0:0:0:s_034.ogg
128,192,111150,1,0,0:0:0:0:s_051.ogg
435,192,111150,1,0,0:0:0:0:s_014.ogg
25,192,111225,1,0,0:0:0:0:s_049.ogg
179,192,111225,1,0,0:0:0:0:s_054.ogg
281,192,111225,1,0,0:0:0:0:s_002.ogg
384,192,111225,1,0,0:0:0:0:s_045.ogg
76,192,111300,1,0,0:0:0:0:s_044.ogg
486,192,111300,1,0,0:0:0:0:s_058.ogg
128,192,111375,1,0,0:0:0:0:s_050.ogg
230,192,111375,1,0,0:0:0:0:s_034.ogg
332,192,111375,1,0,0:0:0:0:s_059.ogg
435,192,111375,1,0,0:0:0:0:s_037.ogg
179,192,111450,1,0,0:0:0:0:s_015.ogg
281,192,111450,1,0,0:0:0:0:s_075.ogg
128,192,111525,1,0,0:0:0:0:s_051.ogg
230,192,111525,1,0,0:0:0:0:s_060.ogg
486,192,111525,1,0,0:0:0:0:s_056.ogg
25,192,111600,1,0,0:0:0:0:s_060.ogg
435,192,111600,1,0,0:0:0:0:s_019.ogg
76,192,111675,1,0,0:0:0:0:s_044.ogg
179,192,111675,1,0,0:0:0:0:s_052.ogg
384,192,111675,1,0,0:0:0:0:s_039.ogg
128,192,111750,1,0,0:0:0:0:s_017.ogg
332,192,111750,1,0,0:0:0:0:s_025.ogg
25,192,111825,1,0,0:0:0:0:s_058.ogg
230,192,111825,1,0,0:0:0:0:s_051.ogg
435,192,111825,1,0,0:0:0:0:s_049.ogg
76,192,111900,1,0,0:0:0:0:s_015.ogg
384,192,111900,1,0,0:0:0:0:s_075.ogg
128,192,111975,1,0,0:0:0:0:s_039.ogg
179,192,111975,1,0,0:0:0:0:s_050.ogg
281,192,111975,1,0,0:0:0:0:s_041.ogg
76,192,112050,1,0,0:0:0:0:s_070.ogg
332,192,112050,1,0,0:0:0:0:s_015.ogg
25,192,112125,1,0,0:0:0:0:s_053.ogg
128,192,112125,1,0,0:0:0:0:s_056.ogg
486,192,112125,1,0,0:0:0:0:s_060.ogg
179,192,112200,1,0,0:0:0:0:s_042.ogg
435,192,112200,1,0,0:0:0:0:s_072.ogg
76,192,112275,1,0,0:0:0:0:s_041.ogg
230,192,112275,1,0,0:0:0:0:s_044.ogg
384,192,112275,1,0,0:0:0:0:s_050.ogg
128,192,112350,1,0,0:0:0:0:s_017.ogg
332,192,112350,1,0,0:0:0:0:s_025.ogg
25,192,112425,1,0,0:0:0:0:s_054.ogg
179,192,112425,1,0,0:0:0:0:s_051.ogg
435,192,112425,1,0,0:0:0:0:s_049.ogg
76,192,112500,1,0,0:0:0:0:s_044.ogg
384,192,112500,1,0,0:0:0:0:s_038.ogg
128,192,112575,1,0,0:0:0:0:s_041.ogg
230,192,112575,1,0,0:0:0:0:s_050.ogg
281,192,112575,1,0,0:0:0:0:s_044.ogg
179,192,112650,1,0,0:0:0:0:s_015.ogg
332,192,112650,1,0,0:0:0:0:s_027.ogg
128,192,112725,1,0,0:0:0:0:s_051.ogg
230,192,112725,1,0,0:0:0:0:s_060.ogg
486,192,112725,1,0,0:0:0:0:s_056.ogg
25,192,112800,1,0,0:0:0:0:s_060.ogg
435,192,112800,1,0,0:0:0:0:s_019.ogg
76,192,112875,1,0,0:0:0:0:s_044.ogg
179,192,112875,1,0,0:0:0:0:s_052.ogg
384,192,112875,1,0,0:0:0:0:s_039.ogg
128,192,112950,1,0,0:0:0:0:s_072.ogg
332,192,112950,1,0,0:0:0:0:s_017.ogg
25,192,113025,1,0,0:0:0:0:s_058.ogg
230,192,113025,1,0,0:0:0:0:s_051.ogg
435,192,113025,1,0,0:0:0:0:s_049.ogg
76,192,113100,1,0,0:0:0:0:s_015.ogg
384,192,113100,1,0,0:0:0:0:s_075.ogg
128,192,113175,1,0,0:0:0:0:s_039.ogg
179,192,113175,1,0,0:0:0:0:s_050.ogg
281,192,113175,1,0,0:0:0:0:s_041.ogg
76,192,113250,1,0,0:0:0:0:s_015.ogg
332,192,113250,1,0,0:0:0:0:s_061.ogg
25,192,113325,1,0,0:0:0:0:s_053.ogg
128,192,113325,1,0,0:0:0:0:s_056.ogg
486,192,113325,1,0,0:0:0:0:s_060.ogg
179,192,113400,1,0,0:0:0:0:s_042.ogg
435,192,113400,1,0,0:0:0:0:s_072.ogg
76,192,113475,1,0,0:0:0:0:s_044.ogg
230,192,113475,1,0,0:0:0:0:s_041.ogg
384,192,113475,1,0,0:0:0:0:s_050.ogg
128,192,113550,1,0,0:0:0:0:s_075.ogg
332,192,113550,1,0,0:0:0:0:s_017.ogg
25,192,113625,1,0,0:0:0:0:s_054.ogg
179,192,113625,1,0,0:0:0:0:s_051.ogg
435,192,113625,1,0,0:0:0:0:s_049.ogg
76,192,113700,1,0,0:0:0:0:s_044.ogg
384,192,113700,1,0,0:0:0:0:s_038.ogg
128,192,113775,1,0,0:0:0:0:s_041.ogg
230,192,113775,1,0,0:0:0:0:s_050.ogg
281,192,113775,1,0,0:0:0:0:s_044.ogg
179,192,113850,1,0,0:0:0:0:s_015.ogg
332,192,113850,1,0,0:0:0:0:s_027.ogg
25,192,113925,1,0,0:0:0:0:s_036.ogg
281,192,113925,1,0,0:0:0:0:s_044.ogg
435,192,113925,1,0,0:0:0:0:s_068.ogg
230,192,113958,1,0,0:0:0:0:s_029.ogg
332,192,113975,1,0,0:0:0:0:s_059.ogg
179,192,113991,1,0,0:0:0:0:s_032.ogg
486,192,114000,1,0,0:0:0:0:s_039.ogg
76,192,114025,1,0,0:0:0:0:s_060.ogg
384,192,114025,1,0,0:0:0:0:s_036.ogg
128,192,114058,1,0,0:0:0:0:s_039.ogg
281,192,114075,1,0,0:0:0:0:s_069.ogg
435,192,114075,1,0,0:0:0:0:s_059.ogg
25,192,114091,1,0,0:0:0:0:s_041.ogg
230,192,114125,1,0,0:0:0:0:s_060.ogg
332,192,114125,1,0,0:0:0:0:s_044.ogg
486,192,114150,1,0,0:0:0:0:s_048.ogg
179,192,114158,1,0,0:0:0:0:s_048.ogg
384,192,114175,1,0,0:0:0:0:s_055.ogg
76,192,114191,1,0,0:0:0:0:s_051.ogg
128,192,114225,1,0,0:0:0:0:s_062.ogg
281,192,114225,1,0,0:0:0:0:s_053.ogg
435,192,114225,1,0,0:0:0:0:s_056.ogg
25,192,114258,1,0,0:0:0:0:s_056.ogg
384,192,114275,1,0,0:0:0:0:s_055.ogg
230,192,114291,1,0,0:0:0:0:s_060.ogg
486,192,114300,1,0,0:0:0:0:s_015.ogg
179,192,114325,1,0,0:0:0:0:s_054.ogg
332,192,114325,1,0,0:0:0:0:s_063.ogg
76,192,114358,1,0,0:0:0:0:s_064.ogg
281,192,114375,1,0,0:0:0:0:s_053.ogg
435,192,114375,1,0,0:0:0:0:s_064.ogg
128,192,114391,1,0,0:0:0:0:s_065.ogg
25,192,114425,1,0,0:0:0:0:s_067.ogg
384,192,114425,1,0,0:0:0:0:s_068.ogg
486,192,114450,1,0,0:0:0:0:s_061.ogg
230,192,114458,1,0,0:0:0:0:s_072.ogg
332,192,114475,1,0,0:0:0:0:s_063.ogg
128,192,114525,1,0,0:0:0:0:s_044.ogg
179,192,114525,1,0,0:0:0:0:s_068.ogg
281,192,114525,1,0,0:0:0:0:s_036.ogg
435,192,114558,1,0,0:0:0:0:s_029.ogg
25,192,114575,1,0,0:0:0:0:s_059.ogg
384,192,114591,1,0,0:0:0:0:s_032.ogg
76,192,114600,1,0,0:0:0:0:s_039.ogg
230,192,114625,1,0,0:0:0:0:s_036.ogg
486,192,114625,1,0,0:0:0:0:s_060.ogg
332,192,114658,1,0,0:0:0:0:s_039.ogg
128,192,114675,1,0,0:0:0:0:s_069.ogg
179,192,114675,1,0,0:0:0:0:s_059.ogg
281,192,114691,1,0,0:0:0:0:s_041.ogg
25,192,114725,1,0,0:0:0:0:s_044.ogg
435,192,114725,1,0,0:0:0:0:s_060.ogg
76,192,114750,1,0,0:0:0:0:s_048.ogg
384,192,114758,1,0,0:0:0:0:s_048.ogg
230,192,114775,1,0,0:0:0:0:s_055.ogg
486,192,114791,1,0,0:0:0:0:s_051.ogg
128,192,114825,1,0,0:0:0:0:s_053.ogg
179,192,114825,1,0,0:0:0:0:s_056.ogg
332,192,114825,1,0,0:0:0:0:s_062.ogg
281,192,114858,1,0,0:0:0:0:s_056.ogg
230,192,114875,1,0,0:0:0:0:s_055.ogg
435,192,114891,1,0,0:0:0:0:s_060.ogg
76,192,114900,1,0,0:0:0:0:s_015.ogg
25,192,114925,1,0,0:0:0:0:s_063.ogg
384,192,114925,1,0,0:0:0:0:s_054.ogg
486,192,114958,1,0,0:0:0:0:s_064.ogg
128,192,114975,1,0,0:0:0:0:s_053.ogg
179,192,114975,1,0,0:0:0:0:s_064.ogg
332,192,114991,1,0,0:0:0:0:s_065.ogg
230,192,115025,1,0,0:0:0:0:s_068.ogg
281,192,115025,1,0,0:0:0:0:s_067.ogg
76,192,115050,1,0,0:0:0:0:s_061.ogg
435,192,115058,1,0,0:0:0:0:s_072.ogg
25,192,115075,1,0,0:0:0:0:s_063.ogg
179,192,115125,1,0,0:0:0:0:s_036.ogg
332,192,115125,1,0,0:0:0:0:s_044.ogg
384,192,115125,1,0,0:0:0:0:s_068.ogg
128,192,115158,1,0,0:0:0:0:s_029.ogg
281,192,115175,1,0,0:0:0:0:s_059.ogg
230,192,115191,1,0,0:0:0:0:s_032.ogg
486,192,115200,1,0,0:0:0:0:s_039.ogg
76,192,115225,1,0,0:0:0:0:s_060.ogg
435,192,115225,1,0,0:0:0:0:s_036.ogg
25,192,115258,1,0,0:0:0:0:s_039.ogg
332,192,115275,1,0,0:0:0:0:s_069.ogg
384,192,115275,1,0,0:0:0:0:s_059.ogg
179,192,115291,1,0,0:0:0:0:s_041.ogg
128,192,115325,1,0,0:0:0:0:s_060.ogg
281,192,115325,1,0,0:0:0:0:s_044.ogg
486,192,115350,1,0,0:0:0:0:s_048.ogg
230,192,115358,1,0,0:0:0:0:s_048.ogg
435,192,115375,1,0,0:0:0:0:s_055.ogg
76,192,115391,1,0,0:0:0:0:s_051.ogg
25,192,115425,1,0,0:0:0:0:s_062.ogg
332,192,115425,1,0,0:0:0:0:s_053.ogg
384,192,115425,1,0,0:0:0:0:s_056.ogg
179,192,115458,1,0,0:0:0:0:s_056.ogg
435,192,115475,1,0,0:0:0:0:s_055.ogg
128,192,115491,1,0,0:0:0:0:s_060.ogg
486,192,115500,1,0,0:0:0:0:s_015.ogg
230,192,115525,1,0,0:0:0:0:s_054.ogg
281,192,115525,1,0,0:0:0:0:s_063.ogg
76,192,115558,1,0,0:0:0:0:s_064.ogg
332,192,115575,1,0,0:0:0:0:s_053.ogg
384,192,115575,1,0,0:0:0:0:s_064.ogg
25,192,115591,1,0,0:0:0:0:s_065.ogg
179,192,115625,1,0,0:0:0:0:s_067.ogg
435,192,115625,1,0,0:0:0:0:s_068.ogg
486,192,115650,1,0,0:0:0:0:s_061.ogg
128,192,115658,1,0,0:0:0:0:s_072.ogg
281,192,115675,1,0,0:0:0:0:s_063.ogg
25,192,115725,1,0,0:0:0:0:s_044.ogg
230,192,115725,1,0,0:0:0:0:s_068.ogg
384,192,115725,1,0,0:0:0:0:s_036.ogg
332,192,115758,1,0,0:0:0:0:s_029.ogg
179,192,115775,1,0,0:0:0:0:s_059.ogg
435,192,115791,1,0,0:0:0:0:s_032.ogg
76,192,115800,1,0,0:0:0:0:s_039.ogg
128,192,115825,1,0,0:0:0:0:s_036.ogg
486,192,115825,1,0,0:0:0:0:s_060.ogg
281,192,115858,1,0,0:0:0:0:s_039.ogg
25,192,115875,1,0,0:0:0:0:s_069.ogg
230,192,115875,1,0,0:0:0:0:s_059.ogg
384,192,115891,1,0,0:0:0:0:s_041.ogg
179,192,115925,1,0,0:0:0:0:s_044.ogg
332,192,115925,1,0,0:0:0:0:s_060.ogg
76,192,115950,1,0,0:0:0:0:s_048.ogg
435,192,115958,1,0,0:0:0:0:s_048.ogg
128,192,115975,1,0,0:0:0:0:s_055.ogg
486,192,115991,1,0,0:0:0:0:s_051.ogg
25,192,116025,1,0,0:0:0:0:s_053.ogg
230,192,116025,1,0,0:0:0:0:s_056.ogg
281,192,116025,1,0,0:0:0:0:s_062.ogg
384,192,116058,1,0,0:0:0:0:s_056.ogg
128,192,116075,1,0,0:0:0:0:s_055.ogg
332,192,116091,1,0,0:0:0:0:s_060.ogg
76,192,116100,1,0,0:0:0:0:s_015.ogg
179,192,116125,1,0,0:0:0:0:s_063.ogg
435,192,116125,1,0,0:0:0:0:s_054.ogg
486,192,116158,1,0,0:0:0:0:s_064.ogg
25,192,116175,1,0,0:0:0:0:s_053.ogg
230,192,116175,1,0,0:0:0:0:s_064.ogg
281,192,116191,1,0,0:0:0:0:s_065.ogg
128,192,116225,1,0,0:0:0:0:s_068.ogg
384,192,116225,1,0,0:0:0:0:s_067.ogg
76,192,116250,1,0,0:0:0:0:s_061.ogg
332,192,116258,1,0,0:0:0:0:s_072.ogg
179,192,116275,1,0,0:0:0:0:s_063.ogg
230,192,116325,1,0,0:0:0:0:s_036.ogg
281,192,116325,1,0,0:0:0:0:s_044.ogg
435,192,116325,1,0,0:0:0:0:s_068.ogg
25,192,116358,1,0,0:0:0:0:s_029.ogg
384,192,116375,1,0,0:0:0:0:s_059.ogg
128,192,116391,1,0,0:0:0:0:s_032.ogg
486,192,116400,1,0,0:0:0:0:s_039.ogg
76,192,116425,1,0,0:0:0:0:s_060.ogg
332,192,116425,1,0,0:0:0:0:s_036.ogg
179,192,116458,1,0,0:0:0:0:s_039.ogg
281,192,116475,1,0,0:0:0:0:s_069.ogg
435,192,116475,1,0,0:0:0:0:s_059.ogg
230,192,116491,1,0,0:0:0:0:s_041.ogg
25,192,116525,1,0,0:0:0:0:s_060.ogg
384,192,116525,1,0,0:0:0:0:s_044.ogg
486,192,116550,1,0,0:0:0:0:s_048.ogg
128,192,116558,1,0,0:0:0:0:s_048.ogg
332,192,116575,1,0,0:0:0:0:s_055.ogg
76,192,116591,1,0,0:0:0:0:s_051.ogg
179,192,116625,1,0,0:0:0:0:s_062.ogg
281,192,116625,1,0,0:0:0:0:s_053.ogg
435,192,116625,1,0,0:0:0:0:s_056.ogg
230,192,116658,1,0,0:0:0:0:s_056.ogg
332,192,116675,1,0,0:0:0:0:s_055.ogg
25,192,116691,1,0,0:0:0:0:s_060.ogg
486,192,116700,1,0,0:0:0:0:s_015.ogg
128,192,116725,1,0,0:0:0:0:s_054.ogg
384,192,116725,1,0,0:0:0:0:s_063.ogg
76,192,116758,1,0,0:0:0:0:s_064.ogg
281,192,116775,1,0,0:0:0:0:s_053.ogg
435,192,116775,1,0,0:0:0:0:s_064.ogg
179,192,116791,1,0,0:0:0:0:s_065.ogg
230,192,116825,1,0,0:0:0:0:s_067.ogg
332,192,116825,1,0,0:0:0:0:s_068.ogg
486,192,116850,1,0,0:0:0:0:s_061.ogg
25,192,116858,1,0,0:0:0:0:s_072.ogg
384,192,116875,1,0,0:0:0:0:s_063.ogg
128,192,116925,1,0,0:0:0:0:s_044.ogg
230,192,116925,1,0,0:0:0:0:s_068.ogg
281,192,116925,1,0,0:0:0:0:s_056.ogg
332,192,116958,1,0,0:0:0:0:s_029.ogg
76,192,116985,1,0,0:0:0:0:s_039.ogg
384,192,116991,1,0,0:0:0:0:s_032.ogg
179,192,117000,1,0,0:0:0:0:s_031.ogg
435,192,117025,1,0,0:0:0:0:s_058.ogg
25,192,117045,1,0,0:0:0:0:s_046.ogg
486,192,117058,1,0,0:0:0:0:s_039.ogg
230,192,117075,1,0,0:0:0:0:s_050.ogg
281,192,117075,1,0,0:0:0:0:s_062.ogg
332,192,117100,1,0,0:0:0:0:s_051.ogg
128,192,117105,1,0,0:0:0:0:s_048.ogg
384,192,117125,1,0,0:0:0:0:s_044.ogg
179,192,117150,1,0,0:0:0:0:s_053.ogg
435,192,117150,1,0,0:0:0:0:s_065.ogg
76,192,117165,1,0,0:0:0:0:s_046.ogg
486,192,117175,1,0,0:0:0:0:s_054.ogg
281,192,117200,1,0,0:0:0:0:s_055.ogg
25,192,117225,1,0,0:0:0:0:s_056.ogg
230,192,117225,1,0,0:0:0:0:s_053.ogg
332,192,117225,1,0,0:0:0:0:s_061.ogg
384,192,117250,1,0,0:0:0:0:s_057.ogg
435,192,117275,1,0,0:0:0:0:s_058.ogg
128,192,117285,1,0,0:0:0:0:s_068.ogg
179,192,117300,1,0,0:0:0:0:s_059.ogg
486,192,117300,1,0,0:0:0:0:s_027.ogg
281,192,117325,1,0,0:0:0:0:s_078.ogg
76,192,117345,1,0,0:0:0:0:s_062.ogg
332,192,117350,1,0,0:0:0:0:s_061.ogg
230,192,117375,1,0,0:0:0:0:s_063.ogg
384,192,117375,1,0,0:0:0:0:s_062.ogg
435,192,117396,1,0,0:0:0:0:s_063.ogg
25,192,117405,1,0,0:0:0:0:s_061.ogg
486,192,117417,1,0,0:0:0:0:s_064.ogg
281,192,117438,1,0,0:0:0:0:s_065.ogg
179,192,117450,1,0,0:0:0:0:s_027.ogg
332,192,117460,1,0,0:0:0:0:s_066.ogg
128,192,117465,1,0,0:0:0:0:s_039.ogg
384,192,117481,1,0,0:0:0:0:s_067.ogg
435,192,117503,1,0,0:0:0:0:s_068.ogg
25,192,117525,1,0,0:0:0:0:s_069.ogg
486,192,117525,1,0,0:0:0:0:s_083.ogg
76,192,117567,1,0,0:0:0:0:s_075.ogg
384,192,117585,1,0,0:0:0:0:s_073.ogg
128,192,117610,1,0,0:0:0:0:s_077.ogg
332,192,117645,1,0,0:0:0:0:s_066.ogg
230,192,117653,1,0,0:0:0:0:s_086.ogg
179,192,117696,1,0,0:0:0:0:s_081.ogg
281,192,117705,1,0,0:0:0:0:s_061.ogg
25,192,117725,1,0,0:0:0:0:s_031.ogg
486,192,117725,1,0,0:0:0:0:s_034.ogg
128,192,117738,1,0,0:0:0:0:s_076.ogg
435,192,117765,1,0,0:0:0:0:s_056.ogg
76,192,117781,1,0,0:0:0:0:s_072.ogg
230,192,117825,1,0,0:0:0:0:s_068.ogg
332,192,117825,1,0,0:0:0:0:s_058.ogg
128,192,117875,1,0,0:0:0:0:s_067.ogg
384,192,117885,1,0,0:0:0:0:s_059.ogg
76,192,117925,1,0,0:0:0:0:s_063.ogg
486,192,117945,1,0,0:0:0:0:s_060.ogg
25,192,117975,1,0,0:0:0:0:s_052.ogg
435,192,118005,1,0,0:0:0:0:s_038.ogg
128,192,118025,1,0,0:0:0:0:s_053.ogg
281,192,118065,1,0,0:0:0:0:s_034.ogg
76,192,118075,1,0,0:0:0:0:s_050.ogg
230,192,118125,1,0,0:0:0:0:s_056.ogg
486,192,118125,1,0,0:0:0:0:s_064.ogg
179,192,118158,1,0,0:0:0:0:s_050.ogg
435,192,118162,1,0,0:0:0:0:s_057.ogg
25,192,118191,1,0,0:0:0:0:s_047.ogg
384,192,118200,1,0,0:0:0:0:s_054.ogg
76,192,118225,1,0,0:0:0:0:s_048.ogg
332,192,118237,1,0,0:0:0:0:s_053.ogg
128,192,118258,1,0,0:0:0:0:s_049.ogg
281,192,118275,1,0,0:0:0:0:s_051.ogg
179,192,118291,1,0,0:0:0:0:s_055.ogg
435,192,118312,1,0,0:0:0:0:s_055.ogg
25,192,118325,1,0,0:0:0:0:s_044.ogg
384,192,118350,1,0,0:0:0:0:s_054.ogg
76,192,118358,1,0,0:0:0:0:s_049.ogg
332,192,118387,1,0,0:0:0:0:s_053.ogg
230,192,118391,1,0,0:0:0:0:s_044.ogg
128,192,118425,1,0,0:0:0:0:s_043.ogg
281,192,118425,1,0,0:0:0:0:s_047.ogg
179,192,118467,1,0,0:0:0:0:s_046.ogg
486,192,118485,1,0,0:0:0:0:s_057.ogg
76,192,118510,1,0,0:0:0:0:s_042.ogg
435,192,118545,1,0,0:0:0:0:s_055.ogg
230,192,118553,1,0,0:0:0:0:s_044.ogg
25,192,118596,1,0,0:0:0:0:s_031.ogg
332,192,118605,1,0,0:0:0:0:s_040.ogg
128,192,118638,1,0,0:0:0:0:s_042.ogg
384,192,118665,1,0,0:0:0:0:s_048.ogg
76,192,118681,1,0,0:0:0:0:s_037.ogg
179,192,118725,1,0,0:0:0:0:s_043.ogg
486,192,118725,1,0,0:0:0:0:s_039.ogg
281,192,118775,1,0,0:0:0:0:s_033.ogg
230,192,118785,1,0,0:0:0:0:s_031.ogg
435,192,118825,1,0,0:0:0:0:s_043.ogg
76,192,118845,1,0,0:0:0:0:s_013.ogg
384,192,118875,1,0,0:0:0:0:s_039.ogg
128,192,118905,1,0,0:0:0:0:s_017.ogg
332,192,118925,1,0,0:0:0:0:s_028.ogg
179,192,118965,1,0,0:0:0:0:s_021.ogg
281,192,118975,1,0,0:0:0:0:s_019.ogg
25,192,119025,1,0,0:0:0:0:s_032.ogg
435,192,119025,1,0,0:0:0:0:s_038.ogg
76,192,119085,1,0,0:0:0:0:s_021.ogg
332,192,119100,1,0,0:0:0:0:s_020.ogg
128,192,119145,1,0,0:0:0:0:s_029.ogg
179,192,119175,1,0,0:0:0:0:s_029.ogg
281,192,119175,1,0,0:0:0:0:s_031.ogg
230,192,119205,1,0,0:0:0:0:s_023.ogg
384,192,119225,1,0,0:0:0:0:s_033.ogg
486,192,119225,1,0,0:0:0:0:s_029.ogg
435,192,119265,1,0,0:0:0:0:s_020.ogg
332,192,119325,128,0,119425:0:0:0:0:s_003.ogg
281,192,119325,128,0,119425:0:0:0:0:s_006.ogg
230,192,119325,128,0,119425:0:0:0:0:s_008.ogg
179,192,119325,128,0,119425:0:0:0:0:s_013.ogg
128,192,119325,128,0,119425:0:0:0:0:s_005.ogg
76,192,119325,128,0,119425:0:0:0:0:s_011.ogg
25,192,119325,128,0,119425:0:0:0:0:s_014.ogg
384,192,119525,1,0,0:0:0:0:s_045.ogg
435,192,119525,1,0,0:0:0:0:s_033.ogg
486,192,119525,1,0,0:0:0:0:s_044.ogg
128,192,119625,1,0,0:0:0:0:s_041.ogg
179,192,119625,1,0,0:0:0:0:s_037.ogg
230,192,119625,1,0,0:0:0:0:s_028.ogg
