osu file format v14

[General]
AudioFilename: virtual
AudioLeadIn: 0
PreviewTime: 0
Countdown: 0
SampleSet: Soft
StackLeniency: 0.7
Mode: 3
LetterboxInBreaks: 0
SpecialStyle: 0
WidescreenStoryboard: 1

[Editor]
DistanceSpacing: 0.8
BeatDivisor: 3
GridSize: 32
TimelineZoom: 1.600006

[Metadata]
Title:Piano Beatmap Set
TitleUnicode:Piano Beatmap Set
Artist:Collection
ArtistUnicode:Collection
Creator:CircusGalop
Version:Circus Galop - 10K BG
Source:BMS
Tags:
BeatmapID:1325320
BeatmapSetID:332673

[Difficulty]
HPDrainRate:0
CircleSize:10
OverallDifficulty:5
ApproachRate:5
SliderMultiplier:1.4
SliderTickRate:1

[Events]
//Background and Video events
0,0,"CircusGalop.jpg",0,0
//Break Periods
//Storyboard Layer 0 (Background)
//Storyboard Layer 1 (Fail)
//Storyboard Layer 2 (Pass)
//Storyboard Layer 3 (Foreground)
//Storyboard Sound Samples
Sample,1050,0,"s_015.ogg",100
Sample,1050,0,"s_039.ogg",100
Sample,1050,0,"s_027.ogg",100
Sample,1050,0,"s_051.ogg",100
Sample,1125,0,"s_015.ogg",100
Sample,1125,0,"s_039.ogg",100
Sample,1125,0,"s_051.ogg",100
Sample,1125,0,"s_027.ogg",100
Sample,1125,0,"s_063.ogg",100
Sample,1200,0,"m_027.ogg",100
Sample,1200,0,"m_051.ogg",100
Sample,1200,0,"m_063.ogg",100
Sample,1200,0,"m_039.ogg",100
Sample,1200,0,"m_015.ogg",100
Sample,1650,0,"s_051.ogg",100
Sample,1650,0,"s_039.ogg",100
Sample,1650,0,"s_015.ogg",100
Sample,1650,0,"s_027.ogg",100
Sample,1725,0,"s_015.ogg",100
Sample,1725,0,"s_063.ogg",100
Sample,1725,0,"s_051.ogg",100
Sample,1725,0,"s_027.ogg",100
Sample,1725,0,"s_039.ogg",100
Sample,1800,0,"m_051.ogg",100
Sample,1800,0,"m_015.ogg",100
Sample,1800,0,"m_063.ogg",100
Sample,1800,0,"m_027.ogg",100
Sample,1800,0,"m_039.ogg",100
Sample,2250,0,"s_027.ogg",100
Sample,2250,0,"s_051.ogg",100
Sample,2250,0,"s_039.ogg",100
Sample,2250,0,"s_015.ogg",100
Sample,2325,0,"s_063.ogg",100
Sample,2325,0,"s_051.ogg",100
Sample,2325,0,"s_015.ogg",100
Sample,2325,0,"s_027.ogg",100
Sample,2325,0,"s_039.ogg",100
Sample,2400,0,"s_015.ogg",100
Sample,2400,0,"s_039.ogg",100
Sample,2400,0,"s_063.ogg",100
Sample,2400,0,"s_051.ogg",100
Sample,2400,0,"s_027.ogg",100
Sample,2475,0,"s_027.ogg",100
Sample,2475,0,"s_063.ogg",100
Sample,2475,0,"s_051.ogg",100
Sample,2550,0,"s_063.ogg",100
Sample,2550,0,"s_051.ogg",100
Sample,2550,0,"s_015.ogg",100
Sample,2550,0,"s_043.ogg",100
Sample,2550,0,"s_027.ogg",100
Sample,2550,0,"s_055.ogg",100
Sample,2550,0,"s_039.ogg",100
Sample,2550,0,"s_031.ogg",100
Sample,2625,0,"s_043.ogg",100
Sample,2625,0,"s_039.ogg",100
Sample,2625,0,"s_015.ogg",100
Sample,2700,0,"s_032.ogg",100
Sample,2700,0,"s_044.ogg",100
Sample,2700,0,"s_053.ogg",100
Sample,2700,0,"s_029.ogg",100
Sample,2700,0,"s_051.ogg",100
Sample,2700,0,"s_041.ogg",100
Sample,2700,0,"s_027.ogg",100
Sample,2700,0,"s_056.ogg",100
Sample,2700,0,"s_063.ogg",100
Sample,2700,0,"s_039.ogg",100
Sample,2700,0,"s_015.ogg",100
Sample,2775,0,"s_032.ogg",100
Sample,2775,0,"s_027.ogg",100
Sample,2775,0,"s_029.ogg",100
Sample,2775,0,"s_053.ogg",100
Sample,2775,0,"s_056.ogg",100
Sample,2775,0,"s_063.ogg",100
Sample,2775,0,"s_051.ogg",100
Sample,2850,0,"s_051.ogg",100
Sample,2850,0,"s_042.ogg",100
Sample,2850,0,"s_015.ogg",100
Sample,2850,0,"s_063.ogg",100
Sample,2850,0,"s_033.ogg",100
Sample,2850,0,"s_045.ogg",100
Sample,2850,0,"s_057.ogg",100
Sample,2850,0,"s_027.ogg",100
Sample,2850,0,"s_030.ogg",100
Sample,2850,0,"s_039.ogg",100
Sample,2850,0,"s_054.ogg",100
Sample,2925,0,"s_042.ogg",100
Sample,2925,0,"s_015.ogg",100
Sample,2925,0,"s_039.ogg",100
Sample,2925,0,"s_045.ogg",100
Sample,3000,0,"s_034.ogg",100
Sample,3000,0,"s_043.ogg",100
Sample,3000,0,"s_046.ogg",100
Sample,3000,0,"s_051.ogg",100
Sample,3000,0,"s_063.ogg",100
Sample,3000,0,"s_058.ogg",100
Sample,3000,0,"s_055.ogg",100
Sample,3000,0,"s_039.ogg",100
Sample,3000,0,"s_015.ogg",100
Sample,3000,0,"s_027.ogg",100
Sample,3000,0,"s_031.ogg",100
Sample,3075,0,"s_034.ogg",100
Sample,3075,0,"s_051.ogg",100
Sample,3075,0,"s_058.ogg",100
Sample,3075,0,"s_055.ogg",100
Sample,3075,0,"s_063.ogg",100
Sample,3075,0,"s_027.ogg",100
Sample,3075,0,"s_031.ogg",100
Sample,3150,0,"s_039.ogg",100
Sample,3150,0,"s_059.ogg",100
Sample,3150,0,"s_015.ogg",100
Sample,3150,0,"s_031.ogg",100
Sample,3150,0,"s_063.ogg",100
Sample,3150,0,"s_043.ogg",100
Sample,3150,0,"s_027.ogg",100
Sample,3150,0,"s_047.ogg",100
Sample,3150,0,"s_055.ogg",100
Sample,3150,0,"s_051.ogg",100
Sample,3150,0,"s_035.ogg",100
Sample,3225,0,"s_047.ogg",100
Sample,3225,0,"s_015.ogg",100
Sample,3225,0,"s_039.ogg",100
Sample,3225,0,"s_043.ogg",100
Sample,3300,0,"s_060.ogg",100
Sample,3300,0,"s_039.ogg",100
Sample,3300,0,"s_036.ogg",100
Sample,3300,0,"s_051.ogg",100
Sample,3300,0,"s_032.ogg",100
Sample,3300,0,"s_044.ogg",100
Sample,3300,0,"s_056.ogg",100
Sample,3300,0,"s_048.ogg",100
Sample,3300,0,"s_027.ogg",100
Sample,3300,0,"s_063.ogg",100
Sample,3300,0,"s_015.ogg",100
Sample,3375,0,"s_027.ogg",100
Sample,3375,0,"s_032.ogg",100
Sample,3375,0,"s_036.ogg",100
Sample,3375,0,"s_056.ogg",100
Sample,3375,0,"s_051.ogg",100
Sample,3375,0,"s_063.ogg",100
Sample,3375,0,"s_060.ogg",100
Sample,3450,0,"s_048.ogg",100
Sample,3450,0,"s_036.ogg",100
Sample,3450,0,"s_033.ogg",100
Sample,3450,0,"s_060.ogg",100
Sample,3450,0,"s_051.ogg",100
Sample,3450,0,"s_045.ogg",100
Sample,3450,0,"s_063.ogg",100
Sample,3450,0,"s_027.ogg",100
Sample,3450,0,"s_015.ogg",100
Sample,3450,0,"s_057.ogg",100
Sample,3450,0,"s_039.ogg",100
Sample,3525,0,"s_015.ogg",100
Sample,3525,0,"s_039.ogg",100
Sample,3525,0,"s_045.ogg",100
Sample,3525,0,"s_048.ogg",100
Sample,3600,0,"m_037.ogg",100
Sample,3600,0,"m_039.ogg",100
Sample,3600,0,"m_063.ogg",100
Sample,3600,0,"m_015.ogg",100
Sample,3600,0,"m_055.ogg",100
Sample,3600,0,"m_061.ogg",100
Sample,3600,0,"m_034.ogg",100
Sample,3600,0,"m_046.ogg",100
Sample,3600,0,"m_051.ogg",100
Sample,3600,0,"m_027.ogg",100
Sample,3600,0,"m_058.ogg",100
Sample,3600,0,"m_043.ogg",100
Sample,3600,0,"m_049.ogg",100
Sample,3975,0,"s_026.ogg",100
Sample,3975,0,"s_038.ogg",100
Sample,3975,0,"s_052.ogg",100
Sample,3975,0,"s_044.ogg",100
Sample,3975,0,"s_056.ogg",100
Sample,3975,0,"s_042.ogg",100
Sample,3975,0,"s_040.ogg",100
Sample,3975,0,"s_050.ogg",100
Sample,3975,0,"s_059.ogg",100
Sample,3975,0,"s_014.ogg",100
Sample,3975,0,"s_036.ogg",100
Sample,3975,0,"s_047.ogg",100
Sample,3975,0,"s_033.ogg",100
Sample,3975,0,"s_062.ogg",100
Sample,4050,0,"s_065.ogg",100
Sample,4050,0,"s_045.ogg",100
Sample,4050,0,"s_060.ogg",100
Sample,4050,0,"s_041.ogg",100
Sample,4050,0,"s_032.ogg",100
Sample,4050,0,"s_025.ogg",100
Sample,4050,0,"s_013.ogg",100
Sample,4050,0,"s_057.ogg",100
Sample,4050,0,"s_051.ogg",100
Sample,4050,0,"s_063.ogg",100
Sample,4050,0,"s_035.ogg",100
Sample,4050,0,"s_053.ogg",100
Sample,4050,0,"s_037.ogg",100
Sample,4050,0,"s_048.ogg",100
Sample,4125,0,"s_049.ogg",100
Sample,4125,0,"s_024.ogg",100
Sample,4125,0,"s_066.ogg",100
Sample,4125,0,"s_061.ogg",100
Sample,4125,0,"s_052.ogg",100
Sample,4125,0,"s_042.ogg",100
Sample,4125,0,"s_046.ogg",100
Sample,4125,0,"s_031.ogg",100
Sample,4125,0,"s_034.ogg",100
Sample,4125,0,"s_058.ogg",100
Sample,4125,0,"s_040.ogg",100
Sample,4125,0,"s_012.ogg",100
Sample,4125,0,"s_054.ogg",100
Sample,4125,0,"s_036.ogg",100
Sample,4125,0,"s_064.ogg",100
Sample,4200,0,"s_047.ogg",100
Sample,4200,0,"s_035.ogg",100
Sample,4200,0,"s_039.ogg",100
Sample,4200,0,"s_023.ogg",100
Sample,4200,0,"s_033.ogg",100
Sample,4200,0,"s_059.ogg",100
Sample,4200,0,"s_062.ogg",100
Sample,4200,0,"s_053.ogg",100
Sample,4200,0,"s_043.ogg",100
Sample,4200,0,"s_067.ogg",100
Sample,4200,0,"s_055.ogg",100
Sample,4200,0,"s_050.ogg",100
Sample,4200,0,"s_011.ogg",100
Sample,4200,0,"s_030.ogg",100
Sample,4200,0,"s_065.ogg",100
Sample,4275,0,"s_054.ogg",100
Sample,4275,0,"s_056.ogg",100
Sample,4275,0,"s_068.ogg",100
Sample,4275,0,"s_066.ogg",100
Sample,4275,0,"s_029.ogg",100
Sample,4275,0,"s_048.ogg",100
Sample,4275,0,"s_051.ogg",100
Sample,4275,0,"s_010.ogg",100
Sample,4275,0,"s_022.ogg",100
Sample,4275,0,"s_034.ogg",100
Sample,4275,0,"s_060.ogg",100
Sample,4275,0,"s_032.ogg",100
Sample,4275,0,"s_038.ogg",100
Sample,4275,0,"s_063.ogg",100
Sample,4275,0,"s_044.ogg",100
Sample,4350,0,"s_033.ogg",100
Sample,4350,0,"s_052.ogg",100
Sample,4350,0,"s_049.ogg",100
Sample,4350,0,"s_028.ogg",100
Sample,4350,0,"s_064.ogg",100
Sample,4350,0,"s_067.ogg",100
Sample,4350,0,"s_021.ogg",100
Sample,4350,0,"s_009.ogg",100
Sample,4350,0,"s_055.ogg",100
Sample,4350,0,"s_031.ogg",100
Sample,4350,0,"s_057.ogg",100
Sample,4350,0,"s_037.ogg",100
Sample,4350,0,"s_069.ogg",100
Sample,4350,0,"s_045.ogg",100
Sample,4350,0,"s_061.ogg",100
Sample,4425,0,"s_050.ogg",100
Sample,4425,0,"s_046.ogg",100
Sample,4425,0,"s_032.ogg",100
Sample,4425,0,"s_030.ogg",100
Sample,4425,0,"s_058.ogg",100
Sample,4425,0,"s_020.ogg",100
Sample,4425,0,"s_008.ogg",100
Sample,4425,0,"s_027.ogg",100
Sample,4425,0,"s_065.ogg",100
Sample,4425,0,"s_056.ogg",100
Sample,4425,0,"s_036.ogg",100
Sample,4425,0,"s_070.ogg",100
Sample,4425,0,"s_053.ogg",100
Sample,4425,0,"s_062.ogg",100
Sample,4425,0,"s_068.ogg",100
Sample,4500,0,"s_059.ogg",100
Sample,4500,0,"s_029.ogg",100
Sample,4500,0,"s_063.ogg",100
Sample,4500,0,"s_035.ogg",100
Sample,4500,0,"s_019.ogg",100
Sample,4500,0,"s_071.ogg",100
Sample,4500,0,"s_051.ogg",100
Sample,4500,0,"s_031.ogg",100
Sample,4500,0,"s_047.ogg",100
Sample,4500,0,"s_057.ogg",100
Sample,4500,0,"s_069.ogg",100
Sample,4500,0,"s_066.ogg",100
Sample,4500,0,"s_026.ogg",100
Sample,4500,0,"s_007.ogg",100
Sample,4500,0,"s_054.ogg",100
Sample,4575,0,"s_025.ogg",100
Sample,4575,0,"s_070.ogg",100
Sample,4575,0,"s_028.ogg",100
Sample,4575,0,"s_060.ogg",100
Sample,4575,0,"s_018.ogg",100
Sample,4575,0,"s_058.ogg",100
Sample,4575,0,"s_030.ogg",100
Sample,4575,0,"s_064.ogg",100
Sample,4575,0,"s_055.ogg",100
Sample,4575,0,"s_072.ogg",100
Sample,4575,0,"s_034.ogg",100
Sample,4575,0,"s_067.ogg",100
Sample,4575,0,"s_052.ogg",100
Sample,4575,0,"s_048.ogg",100
Sample,4575,0,"s_006.ogg",100
Sample,4650,0,"s_027.ogg",100
Sample,4650,0,"s_049.ogg",100
Sample,4650,0,"s_059.ogg",100
Sample,4650,0,"s_056.ogg",100
Sample,4650,0,"s_053.ogg",100
Sample,4650,0,"s_073.ogg",100
Sample,4650,0,"s_005.ogg",100
Sample,4650,0,"s_071.ogg",100
Sample,4650,0,"s_017.ogg",100
Sample,4650,0,"s_029.ogg",100
Sample,4650,0,"s_068.ogg",100
Sample,4650,0,"s_061.ogg",100
Sample,4650,0,"s_065.ogg",100
Sample,4650,0,"s_024.ogg",100
Sample,4650,0,"s_033.ogg",100
Sample,4725,0,"s_023.ogg",100
Sample,4725,0,"s_032.ogg",100
Sample,4725,0,"s_074.ogg",100
Sample,4725,0,"s_060.ogg",100
Sample,4725,0,"s_062.ogg",100
Sample,4725,0,"s_028.ogg",100
Sample,4725,0,"s_016.ogg",100
Sample,4725,0,"s_050.ogg",100
Sample,4725,0,"s_054.ogg",100
Sample,4725,0,"s_004.ogg",100
Sample,4725,0,"s_057.ogg",100
Sample,4725,0,"s_066.ogg",100
Sample,4725,0,"s_072.ogg",100
Sample,4725,0,"s_026.ogg",100
Sample,4725,0,"s_069.ogg",100
Sample,4800,0,"s_075.ogg",100
Sample,4800,0,"s_067.ogg",100
Sample,4800,0,"s_061.ogg",100
Sample,4800,0,"s_003.ogg",100
Sample,4800,0,"s_070.ogg",100
Sample,4800,0,"s_022.ogg",100
Sample,4800,0,"s_025.ogg",100
Sample,4800,0,"s_063.ogg",100
Sample,4800,0,"s_031.ogg",100
Sample,4800,0,"s_058.ogg",100
Sample,4800,0,"s_073.ogg",100
Sample,4800,0,"s_055.ogg",100
Sample,4800,0,"s_051.ogg",100
Sample,4800,0,"s_015.ogg",100
Sample,4800,0,"s_027.ogg",100
Sample,5850,0,"s_077.ogg",100
Sample,5850,0,"s_053.ogg",100
Sample,5850,0,"s_065.ogg",100
Sample,5900,0,"s_067.ogg",100
Sample,5900,0,"s_055.ogg",100
Sample,5900,0,"s_079.ogg",100
Sample,5950,0,"s_077.ogg",100
Sample,5950,0,"s_053.ogg",100
Sample,5950,0,"s_065.ogg",100
Sample,6000,0,"s_020.ogg",100
Sample,6000,0,"s_051.ogg",100
Sample,6000,0,"s_075.ogg",100
Sample,6000,0,"s_063.ogg",100
Sample,6000,0,"s_008.ogg",100
Sample,6000,0,"s_032.ogg",100
Sample,6150,0,"s_060.ogg",100
Sample,6150,0,"s_041.ogg",100
Sample,6150,0,"s_072.ogg",100
Sample,6150,0,"s_046.ogg",100
Sample,6150,0,"s_063.ogg",100
Sample,6150,0,"s_036.ogg",100
Sample,6150,0,"s_056.ogg",100
Sample,6150,0,"s_048.ogg",100
Sample,6150,0,"s_051.ogg",100
Sample,6300,0,"s_068.ogg",100
Sample,6300,0,"s_056.ogg",100
Sample,6300,0,"s_015.ogg",100
Sample,6300,0,"s_027.ogg",100
Sample,6300,0,"s_003.ogg",100
Sample,6300,0,"s_044.ogg",100
Sample,6450,0,"s_053.ogg",100
Sample,6450,0,"s_036.ogg",100
Sample,6450,0,"s_063.ogg",100
Sample,6450,0,"s_046.ogg",100
Sample,6450,0,"s_065.ogg",100
Sample,6450,0,"s_051.ogg",100
Sample,6450,0,"s_056.ogg",100
Sample,6450,0,"s_041.ogg",100
Sample,6600,0,"s_032.ogg",100
Sample,6600,0,"s_051.ogg",100
Sample,6600,0,"s_039.ogg",100
Sample,6600,0,"s_020.ogg",100
Sample,6600,0,"s_008.ogg",100
Sample,6600,0,"s_063.ogg",100
Sample,6750,0,"s_063.ogg",100
Sample,6750,0,"s_041.ogg",100
Sample,6750,0,"s_056.ogg",100
Sample,6750,0,"s_046.ogg",100
Sample,6750,0,"s_051.ogg",100
Sample,6750,0,"s_044.ogg",100
Sample,6750,0,"s_036.ogg",100
Sample,6750,0,"s_068.ogg",100
Sample,6900,0,"s_027.ogg",100
Sample,6900,0,"s_041.ogg",100
Sample,6900,0,"m_053.ogg",100
Sample,6900,0,"m_065.ogg",100
Sample,6900,0,"s_003.ogg",100
Sample,6900,0,"s_015.ogg",100
Sample,7050,0,"s_051.ogg",100
Sample,7050,0,"s_046.ogg",100
Sample,7050,0,"s_041.ogg",100
Sample,7050,0,"s_063.ogg",100
Sample,7050,0,"s_056.ogg",100
Sample,7050,0,"s_036.ogg",100
Sample,7200,0,"s_039.ogg",100
Sample,7200,0,"s_051.ogg",100
Sample,7200,0,"s_032.ogg",100
Sample,7200,0,"s_020.ogg",100
Sample,7200,0,"s_008.ogg",100
Sample,7200,0,"s_063.ogg",100
Sample,7350,0,"s_059.ogg",100
Sample,7350,0,"s_051.ogg",100
Sample,7350,0,"s_063.ogg",100
Sample,7350,0,"s_046.ogg",100
Sample,7350,0,"s_041.ogg",100
Sample,7350,0,"s_036.ogg",100
Sample,7350,0,"s_071.ogg",100
Sample,7350,0,"s_056.ogg",100
Sample,7350,0,"s_047.ogg",100
Sample,7425,0,"s_063.ogg",100
Sample,7425,0,"s_056.ogg",100
Sample,7425,0,"s_051.ogg",100
Sample,7425,0,"s_041.ogg",100
Sample,7425,0,"s_036.ogg",100
Sample,7425,0,"s_046.ogg",100
Sample,7500,0,"m_065.ogg",100
Sample,7500,0,"s_038.ogg",100
Sample,7500,0,"m_041.ogg",100
Sample,7500,0,"m_053.ogg",100
Sample,7500,0,"s_014.ogg",100
Sample,7500,0,"s_026.ogg",100
Sample,7650,0,"s_051.ogg",100
Sample,7650,0,"s_056.ogg",100
Sample,7650,0,"s_036.ogg",100
Sample,7650,0,"s_063.ogg",100
Sample,7650,0,"s_046.ogg",100
Sample,7800,0,"s_008.ogg",100
Sample,7800,0,"s_032.ogg",100
Sample,7800,0,"s_037.ogg",100
Sample,7800,0,"s_020.ogg",100
Sample,7800,0,"s_061.ogg",100
Sample,7800,0,"s_049.ogg",100
Sample,7875,0,"s_050.ogg",100
Sample,7875,0,"s_038.ogg",100
Sample,7875,0,"s_062.ogg",100
Sample,7950,0,"s_027.ogg",100
Sample,7950,0,"s_039.ogg",100
Sample,7950,0,"s_046.ogg",100
Sample,7950,0,"s_056.ogg",100
Sample,7950,0,"s_063.ogg",100
Sample,7950,0,"s_041.ogg",100
Sample,7950,0,"s_051.ogg",100
Sample,8025,0,"s_046.ogg",100
Sample,8025,0,"s_048.ogg",100
Sample,8025,0,"s_060.ogg",100
Sample,8025,0,"s_056.ogg",100
Sample,8025,0,"s_036.ogg",100
Sample,8025,0,"s_041.ogg",100
Sample,8025,0,"s_027.ogg",100
Sample,8100,0,"s_044.ogg",100
Sample,8100,0,"s_051.ogg",100
Sample,8100,0,"s_063.ogg",100
Sample,8100,0,"s_039.ogg",100
Sample,8100,0,"s_020.ogg",100
Sample,8100,0,"s_032.ogg",100
Sample,8250,0,"s_041.ogg",100
Sample,8250,0,"s_051.ogg",100
Sample,8250,0,"s_058.ogg",100
Sample,8250,0,"s_036.ogg",100
Sample,8250,0,"s_070.ogg",100
Sample,8250,0,"s_056.ogg",100
Sample,8250,0,"s_046.ogg",100
Sample,8300,0,"s_060.ogg",100
Sample,8300,0,"s_072.ogg",100
Sample,8300,0,"s_048.ogg",100
Sample,8350,0,"s_046.ogg",100
Sample,8350,0,"s_058.ogg",100
Sample,8350,0,"s_070.ogg",100
Sample,8400,0,"m_025.ogg",100
Sample,8400,0,"m_013.ogg",100
Sample,8400,0,"s_068.ogg",100
Sample,8400,0,"s_056.ogg",100
Sample,8400,0,"s_044.ogg",100
Sample,8550,0,"s_034.ogg",100
Sample,8550,0,"s_065.ogg",100
Sample,8550,0,"s_049.ogg",100
Sample,8550,0,"s_041.ogg",100
Sample,8550,0,"s_044.ogg",100
Sample,8550,0,"s_029.ogg",100
Sample,8550,0,"s_053.ogg",100
Sample,8550,0,"s_039.ogg",100
Sample,8700,0,"s_068.ogg",100
Sample,8700,0,"s_044.ogg",100
Sample,8700,0,"s_056.ogg",100
Sample,8850,0,"s_039.ogg",100
Sample,8850,0,"s_029.ogg",100
Sample,8850,0,"s_012.ogg",100
Sample,8850,0,"s_053.ogg",100
Sample,8850,0,"s_073.ogg",100
Sample,8850,0,"s_034.ogg",100
Sample,8850,0,"s_044.ogg",100
Sample,8850,0,"s_049.ogg",100
Sample,8850,0,"s_024.ogg",100
Sample,8850,0,"s_061.ogg",100
Sample,9000,0,"m_010.ogg",100
Sample,9000,0,"s_056.ogg",100
Sample,9000,0,"s_068.ogg",100
Sample,9000,0,"m_022.ogg",100
Sample,9000,0,"s_044.ogg",100
Sample,9150,0,"s_039.ogg",100
Sample,9150,0,"s_056.ogg",100
Sample,9150,0,"s_044.ogg",100
Sample,9150,0,"s_065.ogg",100
Sample,9150,0,"s_049.ogg",100
Sample,9150,0,"s_029.ogg",100
Sample,9150,0,"s_053.ogg",100
Sample,9150,0,"s_077.ogg",100
Sample,9300,0,"s_044.ogg",100
Sample,9300,0,"s_056.ogg",100
Sample,9300,0,"s_068.ogg",100
Sample,9450,0,"s_061.ogg",100
Sample,9450,0,"s_039.ogg",100
Sample,9450,0,"s_029.ogg",100
Sample,9450,0,"s_044.ogg",100
Sample,9450,0,"s_057.ogg",100
Sample,9450,0,"s_081.ogg",100
Sample,9450,0,"s_053.ogg",100
Sample,9450,0,"s_049.ogg",100
Sample,9450,0,"s_069.ogg",100
Sample,9600,0,"s_003.ogg",100
Sample,9600,0,"s_067.ogg",100
Sample,9600,0,"s_022.ogg",100
Sample,9600,0,"s_027.ogg",100
Sample,9600,0,"s_015.ogg",100
Sample,9600,0,"s_052.ogg",100
Sample,9600,0,"s_059.ogg",100
Sample,9600,0,"s_049.ogg",100
Sample,9600,0,"s_061.ogg",100
Sample,9600,0,"s_055.ogg",100
Sample,9600,0,"s_031.ogg",100
Sample,9600,0,"s_064.ogg",100
Sample,9675,0,"s_054.ogg",100
Sample,9675,0,"s_016.ogg",100
Sample,9675,0,"s_004.ogg",100
Sample,9675,0,"s_060.ogg",100
Sample,9675,0,"s_051.ogg",100
Sample,9675,0,"s_058.ogg",100
Sample,9675,0,"s_048.ogg",100
Sample,9675,0,"s_025.ogg",100
Sample,9675,0,"s_028.ogg",100
Sample,9675,0,"s_034.ogg",100
Sample,9675,0,"s_066.ogg",100
Sample,9675,0,"s_070.ogg",100
Sample,9675,0,"s_063.ogg",100
Sample,9750,0,"s_029.ogg",100
Sample,9750,0,"s_059.ogg",100
Sample,9750,0,"s_017.ogg",100
Sample,9750,0,"s_047.ogg",100
Sample,9750,0,"s_037.ogg",100
Sample,9750,0,"s_057.ogg",100
Sample,9750,0,"s_053.ogg",100
Sample,9750,0,"s_069.ogg",100
Sample,9750,0,"s_062.ogg",100
Sample,9750,0,"s_065.ogg",100
Sample,9750,0,"s_050.ogg",100
Sample,9750,0,"s_005.ogg",100
Sample,9825,0,"s_041.ogg",100
Sample,9825,0,"s_006.ogg",100
Sample,9825,0,"s_046.ogg",100
Sample,9825,0,"s_052.ogg",100
Sample,9825,0,"s_068.ogg",100
Sample,9825,0,"s_031.ogg",100
Sample,9825,0,"s_049.ogg",100
Sample,9825,0,"s_030.ogg",100
Sample,9825,0,"s_064.ogg",100
Sample,9825,0,"s_058.ogg",100
Sample,9825,0,"s_061.ogg",100
Sample,9825,0,"s_056.ogg",100
Sample,9825,0,"s_018.ogg",100
Sample,9900,0,"s_019.ogg",100
Sample,9900,0,"s_051.ogg",100
Sample,9900,0,"s_055.ogg",100
Sample,9900,0,"s_060.ogg",100
Sample,9900,0,"s_057.ogg",100
Sample,9900,0,"s_048.ogg",100
Sample,9900,0,"s_034.ogg",100
Sample,9900,0,"s_063.ogg",100
Sample,9900,0,"s_031.ogg",100
Sample,9900,0,"s_043.ogg",100
Sample,9900,0,"s_045.ogg",100
Sample,9900,0,"s_067.ogg",100
Sample,9900,0,"s_007.ogg",100
Sample,9975,0,"s_037.ogg",100
Sample,9975,0,"s_047.ogg",100
Sample,9975,0,"s_066.ogg",100
Sample,9975,0,"s_062.ogg",100
Sample,9975,0,"s_059.ogg",100
Sample,9975,0,"s_020.ogg",100
Sample,9975,0,"s_044.ogg",100
Sample,9975,0,"s_054.ogg",100
Sample,9975,0,"s_008.ogg",100
Sample,9975,0,"s_056.ogg",100
Sample,9975,0,"s_029.ogg",100
Sample,9975,0,"s_050.ogg",100
Sample,9975,0,"s_032.ogg",100
Sample,10050,0,"s_055.ogg",100
Sample,10050,0,"s_033.ogg",100
Sample,10050,0,"s_065.ogg",100
Sample,10050,0,"s_043.ogg",100
Sample,10050,0,"s_021.ogg",100
Sample,10050,0,"s_058.ogg",100
Sample,10050,0,"s_061.ogg",100
Sample,10050,0,"s_009.ogg",100
Sample,10050,0,"s_031.ogg",100
Sample,10050,0,"s_041.ogg",100
Sample,10050,0,"s_049.ogg",100
Sample,10050,0,"s_053.ogg",100
Sample,10050,0,"s_046.ogg",100
Sample,10125,0,"s_043.ogg",100
Sample,10125,0,"s_048.ogg",100
Sample,10125,0,"s_064.ogg",100
Sample,10125,0,"s_010.ogg",100
Sample,10125,0,"s_057.ogg",100
Sample,10125,0,"s_060.ogg",100
Sample,10125,0,"s_054.ogg",100
Sample,10125,0,"s_022.ogg",100
Sample,10125,0,"s_045.ogg",100
Sample,10125,0,"s_052.ogg",100
Sample,10125,0,"s_034.ogg",100
Sample,10125,0,"s_042.ogg",100
Sample,10200,0,"s_046.ogg",100
Sample,10200,0,"s_053.ogg",100
Sample,10200,0,"s_037.ogg",100
Sample,10200,0,"s_047.ogg",100
Sample,10200,0,"s_051.ogg",100
Sample,10200,0,"s_056.ogg",100
Sample,10200,0,"s_063.ogg",100
Sample,10200,0,"s_044.ogg",100
Sample,10200,0,"s_041.ogg",100
Sample,10200,0,"s_035.ogg",100
Sample,10200,0,"s_059.ogg",100
Sample,10200,0,"s_023.ogg",100
Sample,10200,0,"s_011.ogg",100
Sample,10275,0,"s_046.ogg",100
Sample,10275,0,"s_050.ogg",100
Sample,10275,0,"s_058.ogg",100
Sample,10275,0,"s_036.ogg",100
Sample,10275,0,"s_040.ogg",100
Sample,10275,0,"s_031.ogg",100
Sample,10275,0,"s_062.ogg",100
Sample,10275,0,"s_012.ogg",100
Sample,10275,0,"s_043.ogg",100
Sample,10275,0,"s_041.ogg",100
Sample,10275,0,"s_024.ogg",100
Sample,10275,0,"s_055.ogg",100
Sample,10275,0,"s_052.ogg",100
Sample,10350,0,"s_043.ogg",100
Sample,10350,0,"s_051.ogg",100
Sample,10350,0,"s_049.ogg",100
Sample,10350,0,"s_025.ogg",100
Sample,10350,0,"s_042.ogg",100
Sample,10350,0,"s_045.ogg",100
Sample,10350,0,"s_034.ogg",100
Sample,10350,0,"s_061.ogg",100
Sample,10350,0,"s_013.ogg",100
Sample,10350,0,"s_057.ogg",100
Sample,10350,0,"s_039.ogg",100
Sample,10350,0,"s_054.ogg",100
Sample,10350,0,"s_037.ogg",100
Sample,10425,0,"s_048.ogg",100
Sample,10425,0,"s_014.ogg",100
Sample,10425,0,"s_037.ogg",100
Sample,10425,0,"s_044.ogg",100
Sample,10425,0,"s_060.ogg",100
Sample,10425,0,"s_050.ogg",100
Sample,10425,0,"s_038.ogg",100
Sample,10425,0,"s_041.ogg",100
Sample,10425,0,"s_026.ogg",100
Sample,10425,0,"s_053.ogg",100
Sample,10425,0,"s_056.ogg",100
Sample,10425,0,"s_046.ogg",100
Sample,10500,0,"s_040.ogg",100
Sample,10500,0,"s_055.ogg",100
Sample,10500,0,"s_039.ogg",100
Sample,10500,0,"s_047.ogg",100
Sample,10500,0,"s_043.ogg",100
Sample,10500,0,"s_015.ogg",100
Sample,10500,0,"s_049.ogg",100
Sample,10500,0,"s_027.ogg",100
Sample,10500,0,"s_059.ogg",100
Sample,10500,0,"s_037.ogg",100
Sample,10500,0,"s_052.ogg",100
Sample,10650,0,"s_065.ogg",100
Sample,10650,0,"s_053.ogg",100
Sample,10650,0,"s_077.ogg",100
Sample,10700,0,"s_055.ogg",100
Sample,10700,0,"s_067.ogg",100
Sample,10700,0,"s_079.ogg",100
Sample,10750,0,"s_077.ogg",100
Sample,10750,0,"s_053.ogg",100
Sample,10750,0,"s_065.ogg",100
Sample,10800,0,"s_020.ogg",100
Sample,10800,0,"s_051.ogg",100
Sample,10800,0,"s_075.ogg",100
Sample,10800,0,"s_063.ogg",100
Sample,10800,0,"s_008.ogg",100
Sample,10800,0,"s_032.ogg",100
Sample,10950,0,"s_063.ogg",100
Sample,10950,0,"s_046.ogg",100
Sample,10950,0,"s_048.ogg",100
Sample,10950,0,"s_072.ogg",100
Sample,10950,0,"s_060.ogg",100
Sample,10950,0,"s_056.ogg",100
Sample,10950,0,"s_036.ogg",100
Sample,10950,0,"s_041.ogg",100
Sample,10950,0,"s_051.ogg",100
Sample,11100,0,"s_068.ogg",100
Sample,11100,0,"s_056.ogg",100
Sample,11100,0,"s_044.ogg",100
Sample,11100,0,"s_027.ogg",100
Sample,11100,0,"s_003.ogg",100
Sample,11100,0,"s_015.ogg",100
Sample,11250,0,"s_046.ogg",100
Sample,11250,0,"s_053.ogg",100
Sample,11250,0,"s_036.ogg",100
Sample,11250,0,"s_063.ogg",100
Sample,11250,0,"s_041.ogg",100
Sample,11250,0,"s_051.ogg",100
Sample,11250,0,"s_056.ogg",100
Sample,11250,0,"s_065.ogg",100
Sample,11400,0,"s_051.ogg",100
Sample,11400,0,"s_008.ogg",100
Sample,11400,0,"s_039.ogg",100
Sample,11400,0,"s_063.ogg",100
Sample,11400,0,"s_020.ogg",100
Sample,11400,0,"s_032.ogg",100
Sample,11550,0,"s_051.ogg",100
Sample,11550,0,"s_036.ogg",100
Sample,11550,0,"s_041.ogg",100
Sample,11550,0,"s_056.ogg",100
Sample,11550,0,"s_063.ogg",100
Sample,11550,0,"s_044.ogg",100
Sample,11550,0,"s_046.ogg",100
Sample,11550,0,"s_068.ogg",100
Sample,11700,0,"m_065.ogg",100
Sample,11700,0,"s_027.ogg",100
Sample,11700,0,"s_003.ogg",100
Sample,11700,0,"s_041.ogg",100
Sample,11700,0,"s_015.ogg",100
Sample,11700,0,"m_053.ogg",100
Sample,11850,0,"s_046.ogg",100
Sample,11850,0,"s_036.ogg",100
Sample,11850,0,"s_056.ogg",100
Sample,11850,0,"s_051.ogg",100
Sample,11850,0,"s_041.ogg",100
Sample,12000,0,"s_020.ogg",100
Sample,12000,0,"s_032.ogg",100
Sample,12000,0,"s_044.ogg",100
Sample,12000,0,"s_063.ogg",100
Sample,12000,0,"s_039.ogg",100
Sample,12000,0,"s_051.ogg",100
Sample,12075,0,"s_054.ogg",100
Sample,12075,0,"s_066.ogg",100
Sample,12075,0,"s_042.ogg",100
Sample,12150,0,"s_063.ogg",100
Sample,12150,0,"s_046.ogg",100
Sample,12150,0,"s_070.ogg",100
Sample,12150,0,"s_042.ogg",100
Sample,12150,0,"s_056.ogg",100
Sample,12150,0,"s_051.ogg",100
Sample,12150,0,"s_058.ogg",100
Sample,12150,0,"s_036.ogg",100
Sample,12225,0,"s_063.ogg",100
Sample,12225,0,"s_075.ogg",100
Sample,12225,0,"s_051.ogg",100
Sample,12300,0,"s_053.ogg",100
Sample,12300,0,"s_020.ogg",100
Sample,12300,0,"s_008.ogg",100
Sample,12300,0,"s_065.ogg",100
Sample,12300,0,"s_032.ogg",100
Sample,12300,0,"s_077.ogg",100
Sample,12375,0,"s_078.ogg",100
Sample,12375,0,"s_066.ogg",100
Sample,12375,0,"s_054.ogg",100
Sample,12450,0,"s_063.ogg",100
Sample,12450,0,"s_036.ogg",100
Sample,12450,0,"s_055.ogg",100
Sample,12450,0,"s_051.ogg",100
Sample,12450,0,"s_056.ogg",100
Sample,12450,0,"s_046.ogg",100
Sample,12450,0,"s_067.ogg",100
Sample,12450,0,"s_042.ogg",100
Sample,12450,0,"s_079.ogg",100
Sample,12525,0,"s_084.ogg",100
Sample,12525,0,"s_060.ogg",100
Sample,12525,0,"s_072.ogg",100
Sample,12600,0,"m_013.ogg",100
Sample,12600,0,"s_070.ogg",100
Sample,12600,0,"s_082.ogg",100
Sample,12600,0,"m_025.ogg",100
Sample,12600,0,"s_058.ogg",100
Sample,12750,0,"s_049.ogg",100
Sample,12750,0,"s_036.ogg",100
Sample,12750,0,"s_061.ogg",100
Sample,12750,0,"s_041.ogg",100
Sample,12750,0,"s_068.ogg",100
Sample,12750,0,"s_056.ogg",100
Sample,12750,0,"s_044.ogg",100
Sample,12750,0,"s_051.ogg",100
Sample,12750,0,"s_080.ogg",100
Sample,12900,0,"m_056.ogg",100
Sample,12900,0,"m_068.ogg",100
Sample,12900,0,"m_080.ogg",100
Sample,13050,0,"s_049.ogg",100
Sample,13050,0,"s_012.ogg",100
Sample,13050,0,"s_061.ogg",100
Sample,13050,0,"s_041.ogg",100
Sample,13050,0,"s_044.ogg",100
Sample,13050,0,"s_051.ogg",100
Sample,13050,0,"s_024.ogg",100
Sample,13200,0,"s_056.ogg",100
Sample,13200,0,"s_049.ogg",100
Sample,13200,0,"s_064.ogg",100
Sample,13200,0,"m_022.ogg",100
Sample,13200,0,"s_073.ogg",100
Sample,13200,0,"m_010.ogg",100
Sample,13275,0,"s_076.ogg",100
Sample,13275,0,"s_052.ogg",100
Sample,13275,0,"s_061.ogg",100
Sample,13275,0,"s_068.ogg",100
Sample,13350,0,"s_044.ogg",100
Sample,13350,0,"s_040.ogg",100
Sample,13350,0,"s_070.ogg",100
Sample,13350,0,"s_064.ogg",100
Sample,13350,0,"s_056.ogg",100
Sample,13350,0,"s_080.ogg",100
Sample,13350,0,"s_037.ogg",100
Sample,13425,0,"s_068.ogg",100
Sample,13425,0,"s_061.ogg",100
Sample,13425,0,"s_076.ogg",100
Sample,13425,0,"s_052.ogg",100
Sample,13500,0,"s_064.ogg",100
Sample,13500,0,"s_073.ogg",100
Sample,13500,0,"s_056.ogg",100
Sample,13500,0,"s_049.ogg",100
Sample,13575,0,"s_055.ogg",100
Sample,13575,0,"s_072.ogg",100
Sample,13575,0,"s_063.ogg",100
Sample,13575,0,"s_048.ogg",100
Sample,13650,0,"s_073.ogg",100
Sample,13650,0,"s_036.ogg",100
Sample,13650,0,"s_056.ogg",100
Sample,13650,0,"s_049.ogg",100
Sample,13650,0,"s_064.ogg",100
Sample,13725,0,"s_037.ogg",100
Sample,13725,0,"s_061.ogg",100
Sample,13725,0,"s_070.ogg",100
Sample,13725,0,"s_046.ogg",100
Sample,13725,0,"s_052.ogg",100
Sample,13800,0,"s_060.ogg",100
Sample,13800,0,"m_003.ogg",100
Sample,13800,0,"s_044.ogg",100
Sample,13800,0,"s_053.ogg",100
Sample,13800,0,"m_015.ogg",100
Sample,13800,0,"s_068.ogg",100
Sample,13800,0,"s_039.ogg",100
Sample,13875,0,"s_056.ogg",100
Sample,13875,0,"s_063.ogg",100
Sample,13875,0,"s_072.ogg",100
Sample,13875,0,"s_048.ogg",100
Sample,13950,0,"s_044.ogg",100
Sample,13950,0,"s_039.ogg",100
Sample,13950,0,"s_036.ogg",100
Sample,13950,0,"s_075.ogg",100
Sample,13950,0,"s_051.ogg",100
Sample,13950,0,"s_068.ogg",100
Sample,13950,0,"s_060.ogg",100
Sample,14025,0,"s_063.ogg",100
Sample,14025,0,"s_072.ogg",100
Sample,14025,0,"s_056.ogg",100
Sample,14025,0,"s_048.ogg",100
Sample,14100,0,"s_044.ogg",100
Sample,14100,0,"s_053.ogg",100
Sample,14100,0,"s_059.ogg",100
Sample,14100,0,"s_068.ogg",100
Sample,14175,0,"s_029.ogg",100
Sample,14175,0,"s_067.ogg",100
Sample,14175,0,"s_052.ogg",100
Sample,14175,0,"s_058.ogg",100
Sample,14175,0,"s_043.ogg",100
Sample,14250,0,"s_059.ogg",100
Sample,14250,0,"s_031.ogg",100
Sample,14250,0,"s_044.ogg",100
Sample,14250,0,"s_068.ogg",100
Sample,14250,0,"s_053.ogg",100
Sample,14325,0,"s_056.ogg",100
Sample,14325,0,"s_032.ogg",100
Sample,14325,0,"s_065.ogg",100
Sample,14325,0,"s_041.ogg",100
Sample,14325,0,"s_050.ogg",100
Sample,14400,0,"s_046.ogg",100
Sample,14400,0,"s_034.ogg",100
Sample,14400,0,"s_055.ogg",100
Sample,14400,0,"s_063.ogg",100
Sample,14400,0,"s_039.ogg",100
Sample,14400,0,"s_049.ogg",100
Sample,14475,0,"s_062.ogg",100
Sample,14475,0,"s_038.ogg",100
Sample,14475,0,"s_045.ogg",100
Sample,14475,0,"s_054.ogg",100
Sample,14550,0,"s_027.ogg",100
Sample,14550,0,"s_063.ogg",100
Sample,14550,0,"s_039.ogg",100
Sample,14550,0,"s_015.ogg",100
Sample,14550,0,"s_046.ogg",100
Sample,14550,0,"s_055.ogg",100
Sample,14625,0,"s_048.ogg",100
Sample,14625,0,"s_041.ogg",100
Sample,14625,0,"s_056.ogg",100
Sample,14625,0,"s_065.ogg",100
Sample,14700,0,"s_049.ogg",100
Sample,14700,0,"s_039.ogg",100
Sample,14700,0,"s_058.ogg",100
Sample,14700,0,"s_043.ogg",100
Sample,14700,0,"s_051.ogg",100
Sample,14700,0,"s_067.ogg",100
Sample,14775,0,"s_039.ogg",100
Sample,14775,0,"s_046.ogg",100
Sample,14775,0,"s_055.ogg",100
Sample,14775,0,"s_063.ogg",100
Sample,14850,0,"s_039.ogg",100
Sample,14850,0,"s_049.ogg",100
Sample,14850,0,"s_043.ogg",100
Sample,14850,0,"s_067.ogg",100
Sample,14850,0,"s_027.ogg",100
Sample,14850,0,"s_058.ogg",100
Sample,14925,0,"s_063.ogg",100
Sample,14925,0,"s_072.ogg",100
Sample,14925,0,"s_055.ogg",100
Sample,14925,0,"s_048.ogg",100
Sample,15000,0,"s_070.ogg",100
Sample,15000,0,"s_053.ogg",100
Sample,15000,0,"s_046.ogg",100
Sample,15000,0,"s_020.ogg",100
Sample,15000,0,"s_032.ogg",100
Sample,15000,0,"s_061.ogg",100
Sample,15150,0,"s_044.ogg",100
Sample,15150,0,"s_060.ogg",100
Sample,15150,0,"s_068.ogg",100
Sample,15150,0,"s_051.ogg",100
Sample,15300,0,"s_044.ogg",100
Sample,15300,0,"s_039.ogg",100
Sample,15300,0,"s_050.ogg",100
Sample,15300,0,"s_043.ogg",100
Sample,15300,0,"s_046.ogg",100
Sample,15300,0,"s_048.ogg",100
Sample,15300,0,"m_060.ogg",100
Sample,15300,0,"s_041.ogg",100
Sample,15300,0,"m_068.ogg",100
Sample,15350,0,"s_043.ogg",100
Sample,15350,0,"s_038.ogg",100
Sample,15350,0,"s_042.ogg",100
Sample,15350,0,"s_049.ogg",100
Sample,15350,0,"s_047.ogg",100
Sample,15350,0,"s_045.ogg",100
Sample,15350,0,"s_040.ogg",100
Sample,15400,0,"s_048.ogg",100
Sample,15400,0,"s_038.ogg",100
Sample,15400,0,"s_041.ogg",100
Sample,15400,0,"s_046.ogg",100
Sample,15400,0,"s_043.ogg",100
Sample,15400,0,"s_039.ogg",100
Sample,15400,0,"m_044.ogg",100
Sample,15450,0,"s_038.ogg",100
Sample,15450,0,"s_037.ogg",100
Sample,15450,0,"s_040.ogg",100
Sample,15450,0,"s_045.ogg",100
Sample,15450,0,"s_042.ogg",100
Sample,15450,0,"s_047.ogg",100
Sample,15450,0,"s_043.ogg",100
Sample,15500,0,"s_036.ogg",100
Sample,15500,0,"s_038.ogg",100
Sample,15500,0,"s_041.ogg",100
Sample,15500,0,"s_032.ogg",100
Sample,15500,0,"s_034.ogg",100
Sample,15500,0,"s_043.ogg",100
Sample,15500,0,"s_039.ogg",100
Sample,15550,0,"s_035.ogg",100
Sample,15550,0,"s_038.ogg",100
Sample,15550,0,"s_033.ogg",100
Sample,15550,0,"s_031.ogg",100
Sample,15550,0,"s_037.ogg",100
Sample,15550,0,"s_040.ogg",100
Sample,15550,0,"s_030.ogg",100
Sample,15600,0,"s_038.ogg",100
Sample,15600,0,"s_039.ogg",100
Sample,15600,0,"s_029.ogg",100
Sample,15600,0,"s_030.ogg",100
Sample,15600,0,"s_034.ogg",100
Sample,15600,0,"s_032.ogg",100
Sample,15600,0,"s_035.ogg",100
Sample,15650,0,"s_031.ogg",100
Sample,15650,0,"s_038.ogg",100
Sample,15650,0,"s_035.ogg",100
Sample,15650,0,"s_029.ogg",100
Sample,15650,0,"s_033.ogg",100
Sample,15700,0,"s_031.ogg",100
Sample,15700,0,"s_034.ogg",100
Sample,15700,0,"s_032.ogg",100
Sample,15700,0,"s_036.ogg",100
Sample,15700,0,"s_026.ogg",100
Sample,15700,0,"s_027.ogg",100
Sample,15700,0,"s_029.ogg",100
Sample,15750,0,"s_023.ogg",100
Sample,15750,0,"s_025.ogg",100
Sample,15750,0,"s_033.ogg",100
Sample,15750,0,"s_030.ogg",100
Sample,15750,0,"s_065.ogg",100
Sample,15750,0,"s_028.ogg",100
Sample,15750,0,"s_077.ogg",100
Sample,15750,0,"s_053.ogg",100
Sample,15800,0,"s_024.ogg",100
Sample,15800,0,"s_079.ogg",100
Sample,15800,0,"s_029.ogg",100
Sample,15800,0,"s_055.ogg",100
Sample,15800,0,"s_022.ogg",100
Sample,15800,0,"s_031.ogg",100
Sample,15800,0,"s_032.ogg",100
Sample,15800,0,"s_025.ogg",100
Sample,15800,0,"s_067.ogg",100
Sample,15800,0,"s_027.ogg",100
Sample,15850,0,"s_025.ogg",100
Sample,15850,0,"s_053.ogg",100
Sample,15850,0,"s_028.ogg",100
Sample,15850,0,"s_021.ogg",100
Sample,15850,0,"s_030.ogg",100
Sample,15850,0,"s_065.ogg",100
Sample,15850,0,"s_023.ogg",100
Sample,15850,0,"s_077.ogg",100
Sample,15900,0,"s_008.ogg",100
Sample,15900,0,"s_051.ogg",100
Sample,15900,0,"s_063.ogg",100
Sample,15900,0,"s_075.ogg",100
Sample,15900,0,"s_020.ogg",100
Sample,15900,0,"s_032.ogg",100
Sample,16050,0,"s_063.ogg",100
Sample,16050,0,"s_056.ogg",100
Sample,16050,0,"s_060.ogg",100
Sample,16050,0,"s_046.ogg",100
Sample,16050,0,"s_036.ogg",100
Sample,16050,0,"s_041.ogg",100
Sample,16050,0,"s_072.ogg",100
Sample,16050,0,"s_051.ogg",100
Sample,16050,0,"s_048.ogg",100
Sample,16200,0,"s_027.ogg",100
Sample,16200,0,"s_003.ogg",100
Sample,16200,0,"s_044.ogg",100
Sample,16200,0,"s_056.ogg",100
Sample,16200,0,"s_068.ogg",100
Sample,16200,0,"s_015.ogg",100
Sample,16350,0,"s_056.ogg",100
Sample,16350,0,"s_036.ogg",100
Sample,16350,0,"s_051.ogg",100
Sample,16350,0,"s_041.ogg",100
Sample,16350,0,"s_063.ogg",100
Sample,16350,0,"s_053.ogg",100
Sample,16350,0,"s_046.ogg",100
Sample,16350,0,"s_065.ogg",100
Sample,16500,0,"s_063.ogg",100
Sample,16500,0,"s_032.ogg",100
Sample,16500,0,"s_039.ogg",100
Sample,16500,0,"s_020.ogg",100
Sample,16500,0,"s_051.ogg",100
Sample,16500,0,"s_008.ogg",100
Sample,16650,0,"s_063.ogg",100
Sample,16650,0,"s_036.ogg",100
Sample,16650,0,"s_046.ogg",100
Sample,16650,0,"s_041.ogg",100
Sample,16650,0,"s_044.ogg",100
Sample,16650,0,"s_056.ogg",100
Sample,16650,0,"s_068.ogg",100
Sample,16650,0,"s_051.ogg",100
Sample,16800,0,"s_041.ogg",100
Sample,16800,0,"s_015.ogg",100
Sample,16800,0,"s_027.ogg",100
Sample,16800,0,"m_065.ogg",100
Sample,16800,0,"s_003.ogg",100
Sample,16800,0,"m_053.ogg",100
Sample,16950,0,"s_036.ogg",100
Sample,16950,0,"s_056.ogg",100
Sample,16950,0,"s_051.ogg",100
Sample,16950,0,"s_063.ogg",100
Sample,16950,0,"s_041.ogg",100
Sample,16950,0,"s_046.ogg",100
Sample,17100,0,"s_020.ogg",100
Sample,17100,0,"s_051.ogg",100
Sample,17100,0,"s_032.ogg",100
Sample,17100,0,"s_039.ogg",100
Sample,17100,0,"s_008.ogg",100
Sample,17100,0,"s_063.ogg",100
Sample,17250,0,"s_071.ogg",100
Sample,17250,0,"s_046.ogg",100
Sample,17250,0,"s_059.ogg",100
Sample,17250,0,"s_063.ogg",100
Sample,17250,0,"s_051.ogg",100
Sample,17250,0,"s_036.ogg",100
Sample,17250,0,"s_047.ogg",100
Sample,17250,0,"s_056.ogg",100
Sample,17250,0,"s_041.ogg",100
Sample,17325,0,"s_056.ogg",100
Sample,17325,0,"s_041.ogg",100
Sample,17325,0,"s_036.ogg",100
Sample,17325,0,"s_051.ogg",100
Sample,17325,0,"s_063.ogg",100
Sample,17325,0,"s_046.ogg",100
Sample,17400,0,"m_053.ogg",100
Sample,17400,0,"s_038.ogg",100
Sample,17400,0,"s_014.ogg",100
Sample,17400,0,"m_065.ogg",100
Sample,17400,0,"s_026.ogg",100
Sample,17400,0,"m_041.ogg",100
Sample,17550,0,"s_056.ogg",100
Sample,17550,0,"s_063.ogg",100
Sample,17550,0,"s_046.ogg",100
Sample,17550,0,"s_036.ogg",100
Sample,17550,0,"s_051.ogg",100
Sample,17700,0,"s_008.ogg",100
Sample,17700,0,"s_061.ogg",100
Sample,17700,0,"s_049.ogg",100
Sample,17700,0,"s_020.ogg",100
Sample,17700,0,"s_037.ogg",100
Sample,17700,0,"s_032.ogg",100
Sample,17775,0,"s_050.ogg",100
Sample,17775,0,"s_038.ogg",100
Sample,17775,0,"s_062.ogg",100
Sample,17850,0,"s_039.ogg",100
Sample,17850,0,"s_056.ogg",100
Sample,17850,0,"s_063.ogg",100
Sample,17850,0,"s_027.ogg",100
Sample,17850,0,"s_051.ogg",100
Sample,17850,0,"s_046.ogg",100
Sample,17850,0,"s_041.ogg",100
Sample,17925,0,"s_041.ogg",100
Sample,17925,0,"s_056.ogg",100
Sample,17925,0,"s_048.ogg",100
Sample,17925,0,"s_036.ogg",100
Sample,17925,0,"s_060.ogg",100
Sample,17925,0,"s_027.ogg",100
Sample,17925,0,"s_046.ogg",100
Sample,18000,0,"s_039.ogg",100
Sample,18000,0,"s_063.ogg",100
Sample,18000,0,"s_044.ogg",100
Sample,18000,0,"s_032.ogg",100
Sample,18000,0,"s_051.ogg",100
Sample,18000,0,"s_020.ogg",100
Sample,18150,0,"s_041.ogg",100
Sample,18150,0,"s_070.ogg",100
Sample,18150,0,"s_046.ogg",100
Sample,18150,0,"s_036.ogg",100
Sample,18150,0,"s_056.ogg",100
Sample,18150,0,"s_058.ogg",100
Sample,18150,0,"s_051.ogg",100
Sample,18200,0,"s_048.ogg",100
Sample,18200,0,"s_072.ogg",100
Sample,18200,0,"s_060.ogg",100
Sample,18250,0,"s_058.ogg",100
Sample,18250,0,"s_046.ogg",100
Sample,18250,0,"s_070.ogg",100
Sample,18300,0,"m_025.ogg",100
Sample,18300,0,"m_013.ogg",100
Sample,18300,0,"s_056.ogg",100
Sample,18300,0,"s_068.ogg",100
Sample,18300,0,"s_044.ogg",100
Sample,18450,0,"s_039.ogg",100
Sample,18450,0,"s_041.ogg",100
Sample,18450,0,"s_049.ogg",100
Sample,18450,0,"s_044.ogg",100
Sample,18450,0,"s_053.ogg",100
Sample,18450,0,"s_065.ogg",100
Sample,18450,0,"s_034.ogg",100
Sample,18450,0,"s_029.ogg",100
Sample,18600,0,"s_068.ogg",100
Sample,18600,0,"s_056.ogg",100
Sample,18600,0,"s_044.ogg",100
Sample,18750,0,"s_044.ogg",100
Sample,18750,0,"s_061.ogg",100
Sample,18750,0,"s_012.ogg",100
Sample,18750,0,"s_049.ogg",100
Sample,18750,0,"s_053.ogg",100
Sample,18750,0,"s_039.ogg",100
Sample,18750,0,"s_034.ogg",100
Sample,18750,0,"s_029.ogg",100
Sample,18750,0,"s_024.ogg",100
Sample,18750,0,"s_073.ogg",100
Sample,18900,0,"s_056.ogg",100
Sample,18900,0,"s_068.ogg",100
Sample,18900,0,"s_044.ogg",100
Sample,18900,0,"m_022.ogg",100
Sample,18900,0,"m_010.ogg",100
Sample,19050,0,"s_039.ogg",100
Sample,19050,0,"s_044.ogg",100
Sample,19050,0,"s_065.ogg",100
Sample,19050,0,"s_056.ogg",100
Sample,19050,0,"s_053.ogg",100
Sample,19050,0,"s_029.ogg",100
Sample,19050,0,"s_049.ogg",100
Sample,19050,0,"s_077.ogg",100
Sample,19200,0,"s_044.ogg",100
Sample,19200,0,"s_056.ogg",100
Sample,19200,0,"s_068.ogg",100
Sample,19350,0,"s_061.ogg",100
Sample,19350,0,"s_069.ogg",100
Sample,19350,0,"s_039.ogg",100
Sample,19350,0,"s_053.ogg",100
Sample,19350,0,"s_049.ogg",100
Sample,19350,0,"s_057.ogg",100
Sample,19350,0,"s_029.ogg",100
Sample,19350,0,"s_044.ogg",100
Sample,19350,0,"s_081.ogg",100
Sample,19500,0,"s_022.ogg",100
Sample,19500,0,"s_064.ogg",100
Sample,19500,0,"s_027.ogg",100
Sample,19500,0,"s_061.ogg",100
Sample,19500,0,"s_015.ogg",100
Sample,19500,0,"s_003.ogg",100
Sample,19500,0,"s_055.ogg",100
Sample,19500,0,"s_059.ogg",100
Sample,19500,0,"s_067.ogg",100
Sample,19500,0,"s_049.ogg",100
Sample,19500,0,"s_031.ogg",100
Sample,19500,0,"s_052.ogg",100
Sample,19575,0,"s_004.ogg",100
Sample,19575,0,"s_016.ogg",100
Sample,19575,0,"s_025.ogg",100
Sample,19575,0,"s_051.ogg",100
Sample,19575,0,"s_063.ogg",100
Sample,19575,0,"s_028.ogg",100
Sample,19575,0,"s_060.ogg",100
Sample,19575,0,"s_070.ogg",100
Sample,19575,0,"s_058.ogg",100
Sample,19575,0,"s_034.ogg",100
Sample,19575,0,"s_054.ogg",100
Sample,19575,0,"s_066.ogg",100
Sample,19575,0,"s_048.ogg",100
Sample,19650,0,"s_029.ogg",100
Sample,19650,0,"s_047.ogg",100
Sample,19650,0,"s_069.ogg",100
Sample,19650,0,"s_057.ogg",100
Sample,19650,0,"s_037.ogg",100
Sample,19650,0,"s_062.ogg",100
Sample,19650,0,"s_053.ogg",100
Sample,19650,0,"s_050.ogg",100
Sample,19650,0,"s_059.ogg",100
Sample,19650,0,"s_017.ogg",100
Sample,19650,0,"s_065.ogg",100
Sample,19650,0,"s_005.ogg",100
Sample,19725,0,"s_041.ogg",100
Sample,19725,0,"s_061.ogg",100
Sample,19725,0,"s_068.ogg",100
Sample,19725,0,"s_046.ogg",100
Sample,19725,0,"s_064.ogg",100
Sample,19725,0,"s_052.ogg",100
Sample,19725,0,"s_030.ogg",100
Sample,19725,0,"s_058.ogg",100
Sample,19725,0,"s_031.ogg",100
Sample,19725,0,"s_006.ogg",100
Sample,19725,0,"s_056.ogg",100
Sample,19725,0,"s_049.ogg",100
Sample,19725,0,"s_018.ogg",100
Sample,19800,0,"s_019.ogg",100
Sample,19800,0,"s_045.ogg",100
Sample,19800,0,"s_031.ogg",100
Sample,19800,0,"s_055.ogg",100
Sample,19800,0,"s_051.ogg",100
Sample,19800,0,"s_034.ogg",100
Sample,19800,0,"s_060.ogg",100
Sample,19800,0,"s_067.ogg",100
Sample,19800,0,"s_007.ogg",100
Sample,19800,0,"s_043.ogg",100
Sample,19800,0,"s_063.ogg",100
Sample,19800,0,"s_057.ogg",100
Sample,19800,0,"s_048.ogg",100
Sample,19875,0,"s_037.ogg",100
Sample,19875,0,"s_029.ogg",100
Sample,19875,0,"s_056.ogg",100
Sample,19875,0,"s_047.ogg",100
Sample,19875,0,"s_062.ogg",100
Sample,19875,0,"s_050.ogg",100
Sample,19875,0,"s_066.ogg",100
Sample,19875,0,"s_054.ogg",100
Sample,19875,0,"s_008.ogg",100
Sample,19875,0,"s_059.ogg",100
Sample,19875,0,"s_032.ogg",100
Sample,19875,0,"s_044.ogg",100
Sample,19875,0,"s_020.ogg",100
Sample,19950,0,"s_061.ogg",100
Sample,19950,0,"s_058.ogg",100
Sample,19950,0,"s_046.ogg",100
Sample,19950,0,"s_033.ogg",100
Sample,19950,0,"s_049.ogg",100
Sample,19950,0,"s_031.ogg",100
Sample,19950,0,"s_043.ogg",100
Sample,19950,0,"s_053.ogg",100
Sample,19950,0,"s_009.ogg",100
Sample,19950,0,"s_041.ogg",100
Sample,19950,0,"s_055.ogg",100
Sample,19950,0,"s_021.ogg",100
Sample,19950,0,"s_065.ogg",100
Sample,20025,0,"s_064.ogg",100
Sample,20025,0,"s_057.ogg",100
Sample,20025,0,"s_043.ogg",100
Sample,20025,0,"s_048.ogg",100
Sample,20025,0,"s_034.ogg",100
Sample,20025,0,"s_060.ogg",100
Sample,20025,0,"s_010.ogg",100
Sample,20025,0,"s_022.ogg",100
Sample,20025,0,"s_045.ogg",100
Sample,20025,0,"s_052.ogg",100
Sample,20025,0,"s_054.ogg",100
Sample,20025,0,"s_042.ogg",100
Sample,20100,0,"s_046.ogg",100
Sample,20100,0,"s_053.ogg",100
Sample,20100,0,"s_041.ogg",100
Sample,20100,0,"s_059.ogg",100
Sample,20100,0,"s_063.ogg",100
Sample,20100,0,"s_011.ogg",100
Sample,20100,0,"s_037.ogg",100
Sample,20100,0,"s_035.ogg",100
Sample,20100,0,"s_056.ogg",100
Sample,20100,0,"s_051.ogg",100
Sample,20100,0,"s_047.ogg",100
Sample,20100,0,"s_023.ogg",100
Sample,20100,0,"s_044.ogg",100
Sample,20175,0,"s_062.ogg",100
Sample,20175,0,"s_031.ogg",100
Sample,20175,0,"s_012.ogg",100
Sample,20175,0,"s_058.ogg",100
Sample,20175,0,"s_036.ogg",100
Sample,20175,0,"s_040.ogg",100
Sample,20175,0,"s_050.ogg",100
Sample,20175,0,"s_043.ogg",100
Sample,20175,0,"s_046.ogg",100
Sample,20175,0,"s_041.ogg",100
Sample,20175,0,"s_024.ogg",100
Sample,20175,0,"s_052.ogg",100
Sample,20175,0,"s_055.ogg",100
Sample,20250,0,"s_043.ogg",100
Sample,20250,0,"s_051.ogg",100
Sample,20250,0,"s_054.ogg",100
Sample,20250,0,"s_025.ogg",100
Sample,20250,0,"s_057.ogg",100
Sample,20250,0,"s_045.ogg",100
Sample,20250,0,"s_034.ogg",100
Sample,20250,0,"s_037.ogg",100
Sample,20250,0,"s_061.ogg",100
Sample,20250,0,"s_042.ogg",100
Sample,20250,0,"s_049.ogg",100
Sample,20250,0,"s_013.ogg",100
Sample,20250,0,"s_039.ogg",100
Sample,20325,0,"s_038.ogg",100
Sample,20325,0,"s_041.ogg",100
Sample,20325,0,"s_053.ogg",100
Sample,20325,0,"s_044.ogg",100
Sample,20325,0,"s_014.ogg",100
Sample,20325,0,"s_026.ogg",100
Sample,20325,0,"s_060.ogg",100
Sample,20325,0,"s_037.ogg",100
Sample,20325,0,"s_050.ogg",100
Sample,20325,0,"s_056.ogg",100
Sample,20325,0,"s_046.ogg",100
Sample,20325,0,"s_048.ogg",100
Sample,20400,0,"s_049.ogg",100
Sample,20400,0,"s_027.ogg",100
Sample,20400,0,"s_059.ogg",100
Sample,20400,0,"s_039.ogg",100
Sample,20400,0,"s_037.ogg",100
Sample,20400,0,"s_052.ogg",100
Sample,20400,0,"s_055.ogg",100
Sample,20400,0,"s_040.ogg",100
Sample,20400,0,"s_047.ogg",100
Sample,20400,0,"s_015.ogg",100
Sample,20400,0,"s_043.ogg",100
Sample,20550,0,"s_053.ogg",100
Sample,20550,0,"s_077.ogg",100
Sample,20550,0,"s_065.ogg",100
Sample,20600,0,"s_055.ogg",100
Sample,20600,0,"s_079.ogg",100
Sample,20600,0,"s_067.ogg",100
Sample,20650,0,"s_065.ogg",100
Sample,20650,0,"s_053.ogg",100
Sample,20650,0,"s_077.ogg",100
Sample,20700,0,"s_008.ogg",100
Sample,20700,0,"s_020.ogg",100
Sample,20700,0,"s_075.ogg",100
Sample,20700,0,"s_032.ogg",100
Sample,20700,0,"s_063.ogg",100
Sample,20700,0,"s_051.ogg",100
Sample,20850,0,"s_060.ogg",100
Sample,20850,0,"s_041.ogg",100
Sample,20850,0,"s_072.ogg",100
Sample,20850,0,"s_048.ogg",100
Sample,20850,0,"s_051.ogg",100
Sample,20850,0,"s_056.ogg",100
Sample,20850,0,"s_063.ogg",100
Sample,20850,0,"s_036.ogg",100
Sample,20850,0,"s_046.ogg",100
Sample,21000,0,"s_068.ogg",100
Sample,21000,0,"s_015.ogg",100
Sample,21000,0,"s_044.ogg",100
Sample,21000,0,"s_056.ogg",100
Sample,21000,0,"s_027.ogg",100
Sample,21000,0,"s_003.ogg",100
Sample,21150,0,"s_051.ogg",100
Sample,21150,0,"s_041.ogg",100
Sample,21150,0,"s_065.ogg",100
Sample,21150,0,"s_063.ogg",100
Sample,21150,0,"s_046.ogg",100
Sample,21150,0,"s_036.ogg",100
Sample,21150,0,"s_053.ogg",100
Sample,21150,0,"s_056.ogg",100
Sample,21300,0,"s_008.ogg",100
Sample,21300,0,"s_032.ogg",100
Sample,21300,0,"s_020.ogg",100
Sample,21300,0,"s_051.ogg",100
Sample,21300,0,"s_039.ogg",100
Sample,21300,0,"s_063.ogg",100
Sample,21450,0,"s_051.ogg",100
Sample,21450,0,"s_041.ogg",100
Sample,21450,0,"s_068.ogg",100
Sample,21450,0,"s_063.ogg",100
Sample,21450,0,"s_056.ogg",100
Sample,21450,0,"s_046.ogg",100
Sample,21450,0,"s_036.ogg",100
Sample,21450,0,"s_044.ogg",100
Sample,21600,0,"s_015.ogg",100
Sample,21600,0,"s_003.ogg",100
Sample,21600,0,"s_027.ogg",100
Sample,21600,0,"m_065.ogg",100
Sample,21600,0,"s_041.ogg",100
Sample,21600,0,"m_053.ogg",100
Sample,21750,0,"s_056.ogg",100
Sample,21750,0,"s_046.ogg",100
Sample,21750,0,"s_041.ogg",100
Sample,21750,0,"s_051.ogg",100
Sample,21750,0,"s_036.ogg",100
Sample,21900,0,"s_044.ogg",100
Sample,21900,0,"s_032.ogg",100
Sample,21900,0,"s_051.ogg",100
Sample,21900,0,"s_039.ogg",100
Sample,21900,0,"s_020.ogg",100
Sample,21900,0,"s_063.ogg",100
Sample,21975,0,"s_066.ogg",100
Sample,21975,0,"s_042.ogg",100
Sample,21975,0,"s_054.ogg",100
Sample,22050,0,"s_042.ogg",100
Sample,22050,0,"s_046.ogg",100
Sample,22050,0,"s_056.ogg",100
Sample,22050,0,"s_036.ogg",100
Sample,22050,0,"s_058.ogg",100
Sample,22050,0,"s_070.ogg",100
Sample,22050,0,"s_051.ogg",100
Sample,22050,0,"s_063.ogg",100
Sample,22125,0,"s_051.ogg",100
Sample,22125,0,"s_063.ogg",100
Sample,22125,0,"s_075.ogg",100
Sample,22200,0,"s_065.ogg",100
Sample,22200,0,"s_008.ogg",100
Sample,22200,0,"s_020.ogg",100
Sample,22200,0,"s_053.ogg",100
Sample,22200,0,"s_032.ogg",100
Sample,22200,0,"s_077.ogg",100
Sample,22275,0,"s_054.ogg",100
Sample,22275,0,"s_078.ogg",100
Sample,22275,0,"s_066.ogg",100
Sample,22350,0,"s_055.ogg",100
Sample,22350,0,"s_079.ogg",100
Sample,22350,0,"s_063.ogg",100
Sample,22350,0,"s_036.ogg",100
Sample,22350,0,"s_056.ogg",100
Sample,22350,0,"s_051.ogg",100
Sample,22350,0,"s_046.ogg",100
Sample,22350,0,"s_067.ogg",100
Sample,22350,0,"s_042.ogg",100
Sample,22425,0,"s_072.ogg",100
Sample,22425,0,"s_060.ogg",100
Sample,22425,0,"s_084.ogg",100
Sample,22500,0,"m_025.ogg",100
Sample,22500,0,"m_013.ogg",100
Sample,22500,0,"s_082.ogg",100
Sample,22500,0,"s_058.ogg",100
Sample,22500,0,"s_070.ogg",100
Sample,22650,0,"s_049.ogg",100
Sample,22650,0,"s_044.ogg",100
Sample,22650,0,"s_056.ogg",100
Sample,22650,0,"s_080.ogg",100
Sample,22650,0,"s_068.ogg",100
Sample,22650,0,"s_041.ogg",100
Sample,22650,0,"s_051.ogg",100
Sample,22650,0,"s_036.ogg",100
Sample,22650,0,"s_061.ogg",100
Sample,22800,0,"m_056.ogg",100
Sample,22800,0,"m_080.ogg",100
Sample,22800,0,"m_068.ogg",100
Sample,22950,0,"s_049.ogg",100
Sample,22950,0,"s_061.ogg",100
Sample,22950,0,"s_051.ogg",100
Sample,22950,0,"s_044.ogg",100
Sample,22950,0,"s_012.ogg",100
Sample,22950,0,"s_024.ogg",100
Sample,22950,0,"s_041.ogg",100
Sample,23100,0,"s_064.ogg",100
Sample,23100,0,"s_073.ogg",100
Sample,23100,0,"m_010.ogg",100
Sample,23100,0,"m_022.ogg",100
Sample,23100,0,"s_056.ogg",100
Sample,23100,0,"s_049.ogg",100
Sample,23175,0,"s_068.ogg",100
Sample,23175,0,"s_052.ogg",100
Sample,23175,0,"s_061.ogg",100
Sample,23175,0,"s_076.ogg",100
Sample,23250,0,"s_070.ogg",100
Sample,23250,0,"s_044.ogg",100
Sample,23250,0,"s_080.ogg",100
Sample,23250,0,"s_064.ogg",100
Sample,23250,0,"s_040.ogg",100
Sample,23250,0,"s_056.ogg",100
Sample,23250,0,"s_037.ogg",100
Sample,23325,0,"s_052.ogg",100
Sample,23325,0,"s_061.ogg",100
Sample,23325,0,"s_068.ogg",100
Sample,23325,0,"s_076.ogg",100
Sample,23400,0,"s_056.ogg",100
Sample,23400,0,"s_073.ogg",100
Sample,23400,0,"s_049.ogg",100
Sample,23400,0,"s_064.ogg",100
Sample,23475,0,"s_055.ogg",100
Sample,23475,0,"s_063.ogg",100
Sample,23475,0,"s_048.ogg",100
Sample,23475,0,"s_072.ogg",100
Sample,23550,0,"s_049.ogg",100
Sample,23550,0,"s_064.ogg",100
Sample,23550,0,"s_073.ogg",100
Sample,23550,0,"s_056.ogg",100
Sample,23550,0,"s_036.ogg",100
Sample,23625,0,"s_070.ogg",100
Sample,23625,0,"s_037.ogg",100
Sample,23625,0,"s_061.ogg",100
Sample,23625,0,"s_046.ogg",100
Sample,23625,0,"s_052.ogg",100
Sample,23700,0,"m_003.ogg",100
Sample,23700,0,"s_039.ogg",100
Sample,23700,0,"s_068.ogg",100
Sample,23700,0,"s_053.ogg",100
Sample,23700,0,"s_060.ogg",100
Sample,23700,0,"s_044.ogg",100
Sample,23700,0,"m_015.ogg",100
Sample,23775,0,"s_048.ogg",100
Sample,23775,0,"s_063.ogg",100
Sample,23775,0,"s_072.ogg",100
Sample,23775,0,"s_056.ogg",100
Sample,23850,0,"s_075.ogg",100
Sample,23850,0,"s_068.ogg",100
Sample,23850,0,"s_039.ogg",100
Sample,23850,0,"s_060.ogg",100
Sample,23850,0,"s_051.ogg",100
Sample,23850,0,"s_036.ogg",100
Sample,23850,0,"s_044.ogg",100
Sample,23925,0,"s_063.ogg",100
Sample,23925,0,"s_048.ogg",100
Sample,23925,0,"s_072.ogg",100
Sample,23925,0,"s_056.ogg",100
Sample,24000,0,"s_053.ogg",100
Sample,24000,0,"s_044.ogg",100
Sample,24000,0,"s_068.ogg",100
Sample,24000,0,"s_059.ogg",100
Sample,24075,0,"s_029.ogg",100
Sample,24075,0,"s_052.ogg",100
Sample,24075,0,"s_067.ogg",100
Sample,24075,0,"s_058.ogg",100
Sample,24075,0,"s_043.ogg",100
Sample,24150,0,"s_068.ogg",100
Sample,24150,0,"s_059.ogg",100
Sample,24150,0,"s_044.ogg",100
Sample,24150,0,"s_031.ogg",100
Sample,24150,0,"s_053.ogg",100
Sample,24225,0,"s_032.ogg",100
Sample,24225,0,"s_041.ogg",100
Sample,24225,0,"s_065.ogg",100
Sample,24225,0,"s_050.ogg",100
Sample,24225,0,"s_056.ogg",100
Sample,24300,0,"s_046.ogg",100
Sample,24300,0,"s_039.ogg",100
Sample,24300,0,"s_034.ogg",100
Sample,24300,0,"s_063.ogg",100
Sample,24300,0,"s_049.ogg",100
Sample,24300,0,"s_055.ogg",100
Sample,24375,0,"s_038.ogg",100
Sample,24375,0,"s_054.ogg",100
Sample,24375,0,"s_062.ogg",100
Sample,24375,0,"s_045.ogg",100
Sample,24450,0,"s_027.ogg",100
Sample,24450,0,"s_063.ogg",100
Sample,24450,0,"s_055.ogg",100
Sample,24450,0,"s_046.ogg",100
Sample,24450,0,"s_015.ogg",100
Sample,24450,0,"s_039.ogg",100
Sample,24525,0,"s_065.ogg",100
Sample,24525,0,"s_056.ogg",100
Sample,24525,0,"s_041.ogg",100
Sample,24525,0,"s_048.ogg",100
Sample,24600,0,"s_067.ogg",100
Sample,24600,0,"s_049.ogg",100
Sample,24600,0,"s_039.ogg",100
Sample,24600,0,"s_043.ogg",100
Sample,24600,0,"s_051.ogg",100
Sample,24600,0,"s_058.ogg",100
Sample,24675,0,"s_039.ogg",100
Sample,24675,0,"s_046.ogg",100
Sample,24675,0,"s_063.ogg",100
Sample,24675,0,"s_055.ogg",100
Sample,24750,0,"s_067.ogg",100
Sample,24750,0,"s_049.ogg",100
Sample,24750,0,"s_058.ogg",100
Sample,24750,0,"s_043.ogg",100
Sample,24750,0,"s_027.ogg",100
Sample,24750,0,"s_039.ogg",100
Sample,24825,0,"s_048.ogg",100
Sample,24825,0,"s_055.ogg",100
Sample,24825,0,"s_063.ogg",100
Sample,24825,0,"s_072.ogg",100
Sample,24900,0,"s_061.ogg",100
Sample,24900,0,"s_053.ogg",100
Sample,24900,0,"s_070.ogg",100
Sample,24900,0,"s_046.ogg",100
Sample,25050,0,"s_060.ogg",100
Sample,25050,0,"s_051.ogg",100
Sample,25050,0,"s_068.ogg",100
Sample,25050,0,"s_044.ogg",100
Sample,25210,0,"m_045.ogg",100
Sample,25220,0,"m_047.ogg",100
Sample,25230,0,"m_048.ogg",100
Sample,25240,0,"m_051.ogg",100
Sample,25250,0,"m_052.ogg",100
Sample,25260,0,"m_053.ogg",100
Sample,25270,0,"m_054.ogg",100
Sample,25280,0,"m_055.ogg",100
Sample,25290,0,"m_057.ogg",100
Sample,25300,0,"m_059.ogg",100
Sample,25310,0,"m_060.ogg",100
Sample,25320,0,"m_062.ogg",100
Sample,25330,0,"m_063.ogg",100
Sample,25340,0,"m_064.ogg",100
Sample,25350,0,"m_066.ogg",100
Sample,25500,0,"s_058.ogg",100
Sample,25500,0,"s_041.ogg",100
Sample,25500,0,"s_049.ogg",100
Sample,25500,0,"s_034.ogg",100
Sample,25650,0,"s_032.ogg",100
Sample,25650,0,"s_056.ogg",100
Sample,25650,0,"s_048.ogg",100
Sample,25650,0,"s_039.ogg",100
Sample,25810,0,"m_044.ogg",100
Sample,25820,0,"m_045.ogg",100
Sample,25830,0,"m_046.ogg",100
Sample,25840,0,"m_049.ogg",100
Sample,25850,0,"m_050.ogg",100
Sample,25860,0,"m_051.ogg",100
Sample,25870,0,"m_054.ogg",100
Sample,25880,0,"m_055.ogg",100
Sample,25890,0,"m_056.ogg",100
Sample,25900,0,"m_060.ogg",100
Sample,25910,0,"m_061.ogg",100
Sample,25920,0,"m_063.ogg",100
Sample,25930,0,"m_064.ogg",100
Sample,25940,0,"m_067.ogg",100
Sample,26100,0,"m_015.ogg",100
Sample,26100,0,"m_019.ogg",100
Sample,26100,0,"m_004.ogg",100
Sample,26100,0,"m_022.ogg",100
Sample,26100,0,"m_027.ogg",100
Sample,26100,0,"m_008.ogg",100
Sample,26100,0,"m_012.ogg",100
Sample,26400,0,"m_037.ogg",100
Sample,26400,0,"m_039.ogg",100
Sample,26400,0,"m_049.ogg",100
Sample,26400,0,"m_034.ogg",100
Sample,26400,0,"m_032.ogg",100
Sample,26400,0,"m_043.ogg",100
Sample,26400,0,"m_051.ogg",100
Sample,26400,0,"m_036.ogg",100
Sample,26400,0,"m_053.ogg",100
Sample,26400,0,"m_056.ogg",100
Sample,26400,0,"m_031.ogg",100
Sample,26400,0,"m_055.ogg",100
Sample,26400,0,"m_044.ogg",100
Sample,26400,0,"m_048.ogg",100
Sample,26400,0,"m_046.ogg",100
Sample,26400,0,"m_041.ogg",100
Sample,26400,0,"m_058.ogg",100
Sample,26700,0,"s_037.ogg",100
Sample,26700,0,"s_022.ogg",100
Sample,26700,0,"s_046.ogg",100
Sample,26700,0,"s_029.ogg",100
Sample,26850,0,"s_044.ogg",100
Sample,26850,0,"s_020.ogg",100
Sample,26850,0,"s_036.ogg",100
Sample,26850,0,"s_027.ogg",100
Sample,27000,0,"s_015.ogg",100
Sample,27000,0,"s_039.ogg",100
Sample,27000,0,"s_027.ogg",100
Sample,27075,0,"s_017.ogg",100
Sample,27075,0,"s_029.ogg",100
Sample,27075,0,"s_041.ogg",100
Sample,27150,0,"s_027.ogg",100
Sample,27150,0,"s_015.ogg",100
Sample,27150,0,"s_039.ogg",100
Sample,27225,0,"s_037.ogg",100
Sample,27225,0,"s_025.ogg",100
Sample,27225,0,"s_013.ogg",100
Sample,27300,0,"s_024.ogg",100
Sample,27300,0,"s_012.ogg",100
Sample,27300,0,"s_036.ogg",100
Sample,27300,0,"s_051.ogg",100
Sample,27321,0,"s_053.ogg",100
Sample,27342,0,"s_055.ogg",100
Sample,27363,0,"s_056.ogg",100
Sample,27375,0,"s_025.ogg",100
Sample,27375,0,"s_013.ogg",100
Sample,27375,0,"s_037.ogg",100
Sample,27385,0,"s_058.ogg",100
Sample,27406,0,"s_060.ogg",100
Sample,27428,0,"s_062.ogg",100
Sample,27450,0,"s_012.ogg",100
Sample,27450,0,"s_063.ogg",100
Sample,27450,0,"s_036.ogg",100
Sample,27450,0,"s_024.ogg",100
Sample,27471,0,"s_065.ogg",100
Sample,27492,0,"s_067.ogg",100
Sample,27513,0,"s_068.ogg",100
Sample,27525,0,"s_022.ogg",100
Sample,27525,0,"s_010.ogg",100
Sample,27525,0,"s_034.ogg",100
Sample,27535,0,"s_070.ogg",100
Sample,27556,0,"s_072.ogg",100
Sample,27578,0,"s_074.ogg",100
Sample,27600,0,"m_020.ogg",100
Sample,27600,0,"m_008.ogg",100
Sample,27600,0,"s_075.ogg",100
Sample,27600,0,"s_036.ogg",100
Sample,27600,0,"s_072.ogg",100
Sample,27675,0,"s_039.ogg",100
Sample,27675,0,"s_065.ogg",100
Sample,27750,0,"s_053.ogg",100
Sample,27750,0,"s_048.ogg",100
Sample,27750,0,"s_063.ogg",100
Sample,27750,0,"s_041.ogg",100
Sample,27750,0,"s_051.ogg",100
Sample,27750,0,"s_056.ogg",100
Sample,27750,0,"s_060.ogg",100
Sample,27750,0,"s_044.ogg",100
Sample,27825,0,"s_024.ogg",100
Sample,27825,0,"s_036.ogg",100
Sample,27825,0,"s_039.ogg",100
Sample,27825,0,"s_065.ogg",100
Sample,27825,0,"s_012.ogg",100
Sample,27900,0,"s_027.ogg",100
Sample,27900,0,"s_015.ogg",100
Sample,27900,0,"s_075.ogg",100
Sample,27900,0,"s_039.ogg",100
Sample,27900,0,"s_036.ogg",100
Sample,27900,0,"s_072.ogg",100
Sample,27900,0,"s_032.ogg",100
Sample,27975,0,"s_065.ogg",100
Sample,27975,0,"s_039.ogg",100
Sample,28050,0,"s_032.ogg",100
Sample,28050,0,"s_056.ogg",100
Sample,28050,0,"s_020.ogg",100
Sample,28050,0,"s_063.ogg",100
Sample,28050,0,"s_060.ogg",100
Sample,28050,0,"s_044.ogg",100
Sample,28050,0,"s_051.ogg",100
Sample,28050,0,"s_041.ogg",100
Sample,28050,0,"s_053.ogg",100
Sample,28050,0,"s_048.ogg",100
Sample,28125,0,"s_065.ogg",100
Sample,28125,0,"s_039.ogg",100
Sample,28200,0,"s_032.ogg",100
Sample,28200,0,"s_075.ogg",100
Sample,28200,0,"s_045.ogg",100
Sample,28200,0,"s_036.ogg",100
Sample,28200,0,"s_033.ogg",100
Sample,28200,0,"s_072.ogg",100
Sample,28200,0,"s_021.ogg",100
Sample,28275,0,"s_020.ogg",100
Sample,28275,0,"s_032.ogg",100
Sample,28275,0,"s_044.ogg",100
Sample,28275,0,"s_039.ogg",100
Sample,28275,0,"s_065.ogg",100
Sample,28350,0,"s_034.ogg",100
Sample,28350,0,"s_060.ogg",100
Sample,28350,0,"s_022.ogg",100
Sample,28350,0,"s_041.ogg",100
Sample,28350,0,"s_044.ogg",100
Sample,28350,0,"s_046.ogg",100
Sample,28350,0,"s_063.ogg",100
Sample,28350,0,"s_048.ogg",100
Sample,28350,0,"s_051.ogg",100
Sample,28350,0,"s_053.ogg",100
Sample,28350,0,"s_056.ogg",100
Sample,28425,0,"s_035.ogg",100
Sample,28425,0,"s_065.ogg",100
Sample,28425,0,"s_047.ogg",100
Sample,28425,0,"s_039.ogg",100
Sample,28425,0,"s_023.ogg",100
Sample,28500,0,"s_024.ogg",100
Sample,28500,0,"s_036.ogg",100
Sample,28500,0,"s_048.ogg",100
Sample,28500,0,"s_032.ogg",100
Sample,28500,0,"s_075.ogg",100
Sample,28500,0,"s_072.ogg",100
Sample,28575,0,"s_047.ogg",100
Sample,28575,0,"s_023.ogg",100
Sample,28575,0,"s_039.ogg",100
Sample,28575,0,"s_035.ogg",100
Sample,28575,0,"s_065.ogg",100
Sample,28650,0,"s_063.ogg",100
Sample,28650,0,"s_041.ogg",100
Sample,28650,0,"s_037.ogg",100
Sample,28650,0,"s_053.ogg",100
Sample,28650,0,"s_044.ogg",100
Sample,28650,0,"s_048.ogg",100
Sample,28650,0,"s_025.ogg",100
Sample,28650,0,"s_056.ogg",100
Sample,28650,0,"s_051.ogg",100
Sample,28650,0,"s_049.ogg",100
Sample,28650,0,"s_060.ogg",100
Sample,28725,0,"s_038.ogg",100
Sample,28725,0,"s_065.ogg",100
Sample,28725,0,"s_050.ogg",100
Sample,28725,0,"s_026.ogg",100
Sample,28725,0,"s_039.ogg",100
Sample,28800,0,"s_072.ogg",100
Sample,28800,0,"s_051.ogg",100
Sample,28800,0,"s_039.ogg",100
Sample,28800,0,"s_032.ogg",100
Sample,28800,0,"s_036.ogg",100
Sample,28800,0,"s_075.ogg",100
Sample,28875,0,"s_039.ogg",100
Sample,28875,0,"s_065.ogg",100
Sample,28950,0,"s_048.ogg",100
Sample,28950,0,"s_053.ogg",100
Sample,28950,0,"s_060.ogg",100
Sample,28950,0,"s_056.ogg",100
Sample,28950,0,"s_041.ogg",100
Sample,28950,0,"s_051.ogg",100
Sample,28950,0,"s_044.ogg",100
Sample,28950,0,"s_063.ogg",100
Sample,29025,0,"s_053.ogg",100
Sample,29025,0,"s_041.ogg",100
Sample,29025,0,"s_065.ogg",100
Sample,29025,0,"s_039.ogg",100
Sample,29025,0,"s_029.ogg",100
Sample,29100,0,"s_031.ogg",100
Sample,29100,0,"s_043.ogg",100
Sample,29100,0,"s_032.ogg",100
Sample,29100,0,"s_036.ogg",100
Sample,29100,0,"s_055.ogg",100
Sample,29100,0,"s_072.ogg",100
Sample,29100,0,"s_075.ogg",100
Sample,29175,0,"s_065.ogg",100
Sample,29175,0,"s_039.ogg",100
Sample,29250,0,"s_044.ogg",100
Sample,29250,0,"s_041.ogg",100
Sample,29250,0,"s_048.ogg",100
Sample,29250,0,"s_056.ogg",100
Sample,29250,0,"s_063.ogg",100
Sample,29250,0,"s_051.ogg",100
Sample,29250,0,"s_053.ogg",100
Sample,29250,0,"s_060.ogg",100
Sample,29250,0,"s_032.ogg",100
Sample,29325,0,"s_039.ogg",100
Sample,29325,0,"s_065.ogg",100
Sample,29400,0,"s_039.ogg",100
Sample,29400,0,"s_051.ogg",100
Sample,29400,0,"s_075.ogg",100
Sample,29400,0,"s_032.ogg",100
Sample,29400,0,"s_027.ogg",100
Sample,29400,0,"s_072.ogg",100
Sample,29400,0,"s_036.ogg",100
Sample,29475,0,"s_065.ogg",100
Sample,29475,0,"s_039.ogg",100
Sample,29550,0,"s_048.ogg",100
Sample,29550,0,"s_041.ogg",100
Sample,29550,0,"s_024.ogg",100
Sample,29550,0,"s_063.ogg",100
Sample,29550,0,"s_053.ogg",100
Sample,29550,0,"s_060.ogg",100
Sample,29550,0,"s_036.ogg",100
Sample,29550,0,"s_051.ogg",100
Sample,29550,0,"s_044.ogg",100
Sample,29550,0,"s_056.ogg",100
Sample,29625,0,"s_039.ogg",100
Sample,29625,0,"s_065.ogg",100
Sample,29700,0,"s_020.ogg",100
Sample,29700,0,"s_044.ogg",100
Sample,29700,0,"s_075.ogg",100
Sample,29700,0,"s_032.ogg",100
Sample,29700,0,"s_036.ogg",100
Sample,29700,0,"s_072.ogg",100
Sample,29775,0,"s_039.ogg",100
Sample,29775,0,"s_065.ogg",100
Sample,29850,0,"s_051.ogg",100
Sample,29850,0,"s_053.ogg",100
Sample,29850,0,"s_056.ogg",100
Sample,29850,0,"s_031.ogg",100
Sample,29850,0,"s_063.ogg",100
Sample,29850,0,"s_041.ogg",100
Sample,29850,0,"s_044.ogg",100
Sample,29850,0,"s_060.ogg",100
Sample,29850,0,"s_048.ogg",100
Sample,29850,0,"s_043.ogg",100
Sample,29850,0,"s_019.ogg",100
Sample,29925,0,"s_065.ogg",100
Sample,29925,0,"s_039.ogg",100
Sample,30000,0,"s_074.ogg",100
Sample,30000,0,"s_033.ogg",100
Sample,30000,0,"m_030.ogg",100
Sample,30000,0,"s_073.ogg",100
Sample,30000,0,"s_075.ogg",100
Sample,30000,0,"m_018.ogg",100
Sample,30000,0,"s_038.ogg",100
Sample,30075,0,"s_068.ogg",100
Sample,30075,0,"s_045.ogg",100
Sample,30150,0,"s_051.ogg",100
Sample,30150,0,"s_049.ogg",100
Sample,30150,0,"s_063.ogg",100
Sample,30150,0,"s_061.ogg",100
Sample,30150,0,"s_050.ogg",100
Sample,30225,0,"s_017.ogg",100
Sample,30225,0,"s_068.ogg",100
Sample,30225,0,"s_029.ogg",100
Sample,30225,0,"s_041.ogg",100
Sample,30225,0,"s_045.ogg",100
Sample,30300,0,"s_038.ogg",100
Sample,30300,0,"s_015.ogg",100
Sample,30300,0,"s_039.ogg",100
Sample,30300,0,"s_074.ogg",100
Sample,30300,0,"s_073.ogg",100
Sample,30300,0,"s_027.ogg",100
Sample,30300,0,"s_075.ogg",100
Sample,30300,0,"s_033.ogg",100
Sample,30375,0,"s_068.ogg",100
Sample,30375,0,"s_045.ogg",100
Sample,30450,0,"s_063.ogg",100
Sample,30450,0,"m_018.ogg",100
Sample,30450,0,"m_042.ogg",100
Sample,30450,0,"s_051.ogg",100
Sample,30450,0,"s_061.ogg",100
Sample,30450,0,"m_030.ogg",100
Sample,30450,0,"s_049.ogg",100
Sample,30450,0,"s_050.ogg",100
Sample,30525,0,"s_045.ogg",100
Sample,30525,0,"s_068.ogg",100
Sample,30600,0,"s_033.ogg",100
Sample,30600,0,"s_074.ogg",100
Sample,30600,0,"s_073.ogg",100
Sample,30600,0,"s_075.ogg",100
Sample,30600,0,"s_038.ogg",100
Sample,30675,0,"s_045.ogg",100
Sample,30675,0,"s_068.ogg",100
Sample,30675,0,"s_029.ogg",100
Sample,30675,0,"s_041.ogg",100
Sample,30675,0,"s_017.ogg",100
Sample,30750,0,"s_049.ogg",100
Sample,30750,0,"s_050.ogg",100
Sample,30750,0,"s_027.ogg",100
Sample,30750,0,"s_061.ogg",100
Sample,30750,0,"s_051.ogg",100
Sample,30750,0,"s_039.ogg",100
Sample,30750,0,"s_015.ogg",100
Sample,30750,0,"s_063.ogg",100
Sample,30825,0,"s_068.ogg",100
Sample,30825,0,"s_045.ogg",100
Sample,30900,0,"s_073.ogg",100
Sample,30900,0,"m_018.ogg",100
Sample,30900,0,"m_030.ogg",100
Sample,30900,0,"s_074.ogg",100
Sample,30900,0,"s_038.ogg",100
Sample,30900,0,"m_042.ogg",100
Sample,30900,0,"s_033.ogg",100
Sample,30900,0,"s_075.ogg",100
Sample,30975,0,"s_045.ogg",100
Sample,30975,0,"s_068.ogg",100
Sample,31050,0,"s_050.ogg",100
Sample,31050,0,"s_061.ogg",100
Sample,31050,0,"s_051.ogg",100
Sample,31050,0,"s_063.ogg",100
Sample,31050,0,"s_049.ogg",100
Sample,31125,0,"s_045.ogg",100
Sample,31125,0,"s_041.ogg",100
Sample,31125,0,"s_068.ogg",100
Sample,31125,0,"s_029.ogg",100
Sample,31125,0,"s_017.ogg",100
Sample,31200,0,"s_073.ogg",100
Sample,31200,0,"s_038.ogg",100
Sample,31200,0,"s_075.ogg",100
Sample,31200,0,"s_074.ogg",100
Sample,31200,0,"s_039.ogg",100
Sample,31200,0,"s_033.ogg",100
Sample,31200,0,"s_015.ogg",100
Sample,31200,0,"s_027.ogg",100
Sample,31275,0,"s_068.ogg",100
Sample,31275,0,"s_045.ogg",100
Sample,31350,0,"s_061.ogg",100
Sample,31350,0,"m_018.ogg",100
Sample,31350,0,"m_042.ogg",100
Sample,31350,0,"s_049.ogg",100
Sample,31350,0,"m_030.ogg",100
Sample,31350,0,"s_051.ogg",100
Sample,31350,0,"s_063.ogg",100
Sample,31350,0,"s_050.ogg",100
Sample,31425,0,"s_068.ogg",100
Sample,31425,0,"s_045.ogg",100
Sample,31500,0,"s_074.ogg",100
Sample,31500,0,"s_038.ogg",100
Sample,31500,0,"s_073.ogg",100
Sample,31500,0,"s_033.ogg",100
Sample,31500,0,"s_075.ogg",100
Sample,31575,0,"s_017.ogg",100
Sample,31575,0,"s_041.ogg",100
Sample,31575,0,"s_045.ogg",100
Sample,31575,0,"s_068.ogg",100
Sample,31575,0,"s_029.ogg",100
Sample,31650,0,"s_063.ogg",100
Sample,31650,0,"s_015.ogg",100
Sample,31650,0,"s_061.ogg",100
Sample,31650,0,"s_051.ogg",100
Sample,31650,0,"s_050.ogg",100
Sample,31650,0,"s_027.ogg",100
Sample,31650,0,"s_049.ogg",100
Sample,31650,0,"s_039.ogg",100
Sample,31725,0,"s_045.ogg",100
Sample,31725,0,"s_068.ogg",100
Sample,31800,0,"s_033.ogg",100
Sample,31800,0,"s_075.ogg",100
Sample,31800,0,"s_074.ogg",100
Sample,31800,0,"m_018.ogg",100
Sample,31800,0,"s_073.ogg",100
Sample,31800,0,"m_042.ogg",100
Sample,31800,0,"s_038.ogg",100
Sample,31800,0,"m_030.ogg",100
Sample,31875,0,"s_045.ogg",100
Sample,31875,0,"s_068.ogg",100
Sample,31950,0,"s_063.ogg",100
Sample,31950,0,"s_049.ogg",100
Sample,31950,0,"s_050.ogg",100
Sample,31950,0,"s_051.ogg",100
Sample,31950,0,"s_061.ogg",100
Sample,32025,0,"s_017.ogg",100
Sample,32025,0,"s_029.ogg",100
Sample,32025,0,"s_045.ogg",100
Sample,32025,0,"s_041.ogg",100
Sample,32025,0,"s_068.ogg",100
Sample,32100,0,"s_015.ogg",100
Sample,32100,0,"s_039.ogg",100
Sample,32100,0,"s_027.ogg",100
Sample,32100,0,"s_038.ogg",100
Sample,32100,0,"s_073.ogg",100
Sample,32100,0,"s_074.ogg",100
Sample,32100,0,"s_033.ogg",100
Sample,32100,0,"s_075.ogg",100
Sample,32175,0,"s_068.ogg",100
Sample,32175,0,"s_045.ogg",100
Sample,32250,0,"s_061.ogg",100
Sample,32250,0,"s_063.ogg",100
Sample,32250,0,"m_042.ogg",100
Sample,32250,0,"m_018.ogg",100
Sample,32250,0,"s_051.ogg",100
Sample,32250,0,"s_049.ogg",100
Sample,32250,0,"m_030.ogg",100
Sample,32250,0,"s_050.ogg",100
Sample,32325,0,"s_074.ogg",100
Sample,32325,0,"s_037.ogg",100
Sample,32325,0,"s_075.ogg",100
Sample,32325,0,"s_033.ogg",100
Sample,32325,0,"s_073.ogg",100
Sample,32400,0,"s_045.ogg",100
Sample,32400,0,"s_068.ogg",100
Sample,32475,0,"s_017.ogg",100
Sample,32475,0,"s_029.ogg",100
Sample,32475,0,"s_051.ogg",100
Sample,32475,0,"s_050.ogg",100
Sample,32475,0,"s_041.ogg",100
Sample,32475,0,"s_063.ogg",100
Sample,32475,0,"s_049.ogg",100
Sample,32475,0,"s_061.ogg",100
Sample,32550,0,"s_027.ogg",100
Sample,32550,0,"s_049.ogg",100
Sample,32550,0,"s_039.ogg",100
Sample,32550,0,"s_061.ogg",100
Sample,32550,0,"s_015.ogg",100
Sample,32550,0,"s_063.ogg",100
Sample,32550,0,"s_050.ogg",100
Sample,32550,0,"s_051.ogg",100
Sample,32625,0,"s_033.ogg",100
Sample,32625,0,"s_037.ogg",100
Sample,32625,0,"s_074.ogg",100
Sample,32625,0,"s_075.ogg",100
Sample,32625,0,"s_073.ogg",100
Sample,32700,0,"s_037.ogg",100
Sample,32700,0,"s_013.ogg",100
Sample,32700,0,"s_068.ogg",100
Sample,32700,0,"s_025.ogg",100
Sample,32700,0,"s_045.ogg",100
Sample,32775,0,"s_051.ogg",100
Sample,32775,0,"s_049.ogg",100
Sample,32775,0,"s_061.ogg",100
Sample,32775,0,"s_050.ogg",100
Sample,32775,0,"s_063.ogg",100
Sample,32850,0,"s_036.ogg",100
Sample,32850,0,"s_072.ogg",100
Sample,32850,0,"s_032.ogg",100
Sample,32850,0,"s_024.ogg",100
Sample,32850,0,"s_075.ogg",100
Sample,32850,0,"s_012.ogg",100
Sample,32925,0,"s_037.ogg",100
Sample,32925,0,"s_013.ogg",100
Sample,32925,0,"s_044.ogg",100
Sample,32925,0,"s_025.ogg",100
Sample,32925,0,"s_068.ogg",100
Sample,33000,0,"s_027.ogg",100
Sample,33000,0,"s_048.ogg",100
Sample,33000,0,"s_051.ogg",100
Sample,33000,0,"s_015.ogg",100
Sample,33000,0,"s_053.ogg",100
Sample,33000,0,"s_063.ogg",100
Sample,33000,0,"s_039.ogg",100
Sample,33000,0,"s_060.ogg",100
Sample,33000,0,"s_056.ogg",100
Sample,33075,0,"s_044.ogg",100
Sample,33075,0,"s_041.ogg",100
Sample,33075,0,"s_068.ogg",100
Sample,33075,0,"s_017.ogg",100
Sample,33075,0,"s_029.ogg",100
Sample,33150,0,"s_036.ogg",100
Sample,33150,0,"s_016.ogg",100
Sample,33150,0,"s_032.ogg",100
Sample,33150,0,"s_073.ogg",100
Sample,33150,0,"s_078.ogg",100
Sample,33150,0,"s_028.ogg",100
Sample,33150,0,"s_040.ogg",100
Sample,33225,0,"s_044.ogg",100
Sample,33225,0,"s_026.ogg",100
Sample,33225,0,"s_038.ogg",100
Sample,33225,0,"s_068.ogg",100
Sample,33225,0,"s_014.ogg",100
Sample,33300,0,"s_039.ogg",100
Sample,33300,0,"s_056.ogg",100
Sample,33300,0,"s_048.ogg",100
Sample,33300,0,"s_051.ogg",100
Sample,33300,0,"s_046.ogg",100
Sample,33300,0,"s_015.ogg",100
Sample,33300,0,"s_027.ogg",100
Sample,33300,0,"s_061.ogg",100
Sample,33300,0,"s_066.ogg",100
Sample,33375,0,"s_025.ogg",100
Sample,33375,0,"s_044.ogg",100
Sample,33375,0,"s_068.ogg",100
Sample,33375,0,"s_013.ogg",100
Sample,33375,0,"s_037.ogg",100
Sample,33450,0,"s_071.ogg",100
Sample,33450,0,"s_039.ogg",100
Sample,33450,0,"s_012.ogg",100
Sample,33450,0,"s_075.ogg",100
Sample,33450,0,"s_024.ogg",100
Sample,33450,0,"s_036.ogg",100
Sample,33525,0,"s_038.ogg",100
Sample,33525,0,"s_042.ogg",100
Sample,33525,0,"s_026.ogg",100
Sample,33525,0,"s_068.ogg",100
Sample,33525,0,"s_014.ogg",100
Sample,33600,0,"s_037.ogg",100
Sample,33600,0,"s_025.ogg",100
Sample,33600,0,"s_051.ogg",100
Sample,33600,0,"s_056.ogg",100
Sample,33600,0,"s_066.ogg",100
Sample,33600,0,"s_059.ogg",100
Sample,33600,0,"s_047.ogg",100
Sample,33600,0,"s_013.ogg",100
Sample,33600,0,"s_063.ogg",100
Sample,33600,0,"s_044.ogg",100
Sample,33675,0,"s_068.ogg",100
Sample,33675,0,"s_011.ogg",100
Sample,33675,0,"s_023.ogg",100
Sample,33675,0,"s_035.ogg",100
Sample,33675,0,"s_042.ogg",100
Sample,33750,0,"s_075.ogg",100
Sample,33750,0,"s_022.ogg",100
Sample,33750,0,"s_034.ogg",100
Sample,33750,0,"s_039.ogg",100
Sample,33750,0,"s_073.ogg",100
Sample,33750,0,"s_078.ogg",100
Sample,33750,0,"s_010.ogg",100
Sample,33825,0,"s_068.ogg",100
Sample,33825,0,"s_036.ogg",100
Sample,33825,0,"s_024.ogg",100
Sample,33825,0,"s_012.ogg",100
Sample,33825,0,"s_044.ogg",100
Sample,33900,0,"s_035.ogg",100
Sample,33900,0,"s_061.ogg",100
Sample,33900,0,"s_011.ogg",100
Sample,33900,0,"s_047.ogg",100
Sample,33900,0,"s_054.ogg",100
Sample,33900,0,"s_063.ogg",100
Sample,33900,0,"s_023.ogg",100
Sample,33900,0,"s_049.ogg",100
Sample,33900,0,"s_066.ogg",100
Sample,33975,0,"s_033.ogg",100
Sample,33975,0,"s_044.ogg",100
Sample,33975,0,"s_068.ogg",100
Sample,33975,0,"s_021.ogg",100
Sample,33975,0,"s_009.ogg",100
Sample,34050,0,"m_020.ogg",100
Sample,34050,0,"m_008.ogg",100
Sample,34050,0,"s_072.ogg",100
Sample,34050,0,"s_036.ogg",100
Sample,34050,0,"s_075.ogg",100
Sample,34125,0,"s_039.ogg",100
Sample,34125,0,"s_065.ogg",100
Sample,34200,0,"s_056.ogg",100
Sample,34200,0,"s_063.ogg",100
Sample,34200,0,"s_048.ogg",100
Sample,34200,0,"s_041.ogg",100
Sample,34200,0,"s_060.ogg",100
Sample,34200,0,"s_051.ogg",100
Sample,34200,0,"s_044.ogg",100
Sample,34275,0,"s_012.ogg",100
Sample,34275,0,"s_024.ogg",100
Sample,34275,0,"s_036.ogg",100
Sample,34275,0,"s_039.ogg",100
Sample,34275,0,"s_065.ogg",100
Sample,34350,0,"s_072.ogg",100
Sample,34350,0,"s_068.ogg",100
Sample,34350,0,"s_027.ogg",100
Sample,34350,0,"s_048.ogg",100
Sample,34350,0,"s_044.ogg",100
Sample,34350,0,"s_039.ogg",100
Sample,34350,0,"s_015.ogg",100
Sample,34425,0,"s_051.ogg",100
Sample,34425,0,"s_065.ogg",100
Sample,34500,0,"s_060.ogg",100
Sample,34500,0,"s_020.ogg",100
Sample,34500,0,"s_056.ogg",100
Sample,34500,0,"s_044.ogg",100
Sample,34500,0,"s_032.ogg",100
Sample,34575,0,"s_051.ogg",100
Sample,34575,0,"s_063.ogg",100
Sample,34650,0,"s_068.ogg",100
Sample,34650,0,"s_044.ogg",100
Sample,34650,0,"s_039.ogg",100
Sample,34650,0,"s_063.ogg",100
Sample,34650,0,"m_035.ogg",100
Sample,34650,0,"m_023.ogg",100
Sample,34725,0,"s_061.ogg",100
Sample,34725,0,"s_049.ogg",100
Sample,34800,0,"s_051.ogg",100
Sample,34800,0,"s_056.ogg",100
Sample,34875,0,"s_059.ogg",100
Sample,34950,0,"s_035.ogg",100
Sample,34950,0,"s_063.ogg",100
Sample,34950,0,"s_059.ogg",100
Sample,34950,0,"s_022.ogg",100
Sample,34950,0,"s_034.ogg",100
Sample,34950,0,"s_046.ogg",100
Sample,35025,0,"s_044.ogg",100
Sample,35025,0,"s_056.ogg",100
Sample,35100,0,"s_032.ogg",100
Sample,35100,0,"s_020.ogg",100
Sample,35100,0,"s_044.ogg",100
Sample,35100,0,"s_048.ogg",100
Sample,35100,0,"s_051.ogg",100
Sample,35175,0,"s_060.ogg",100
Sample,35250,0,"s_046.ogg",100
Sample,35250,0,"s_048.ogg",100
Sample,35250,0,"s_058.ogg",100
Sample,35250,0,"s_024.ogg",100
Sample,35250,0,"s_036.ogg",100
Sample,35325,0,"s_043.ogg",100
Sample,35325,0,"s_044.ogg",100
Sample,35325,0,"s_056.ogg",100
Sample,35325,0,"s_055.ogg",100
Sample,35325,0,"s_049.ogg",100
Sample,35325,0,"s_037.ogg",100
Sample,35325,0,"s_025.ogg",100
Sample,35400,0,"s_058.ogg",100
Sample,35400,0,"s_048.ogg",100
Sample,35400,0,"s_038.ogg",100
Sample,35400,0,"s_046.ogg",100
Sample,35400,0,"s_050.ogg",100
Sample,35400,0,"s_026.ogg",100
Sample,35400,0,"s_060.ogg",100
Sample,35475,0,"s_053.ogg",100
Sample,35475,0,"s_055.ogg",100
Sample,35475,0,"s_044.ogg",100
Sample,35475,0,"s_029.ogg",100
Sample,35475,0,"s_056.ogg",100
Sample,35475,0,"s_041.ogg",100
Sample,35475,0,"s_043.ogg",100
Sample,35550,0,"s_052.ogg",100
Sample,35550,0,"s_044.ogg",100
Sample,35550,0,"s_040.ogg",100
Sample,35550,0,"s_042.ogg",100
Sample,35550,0,"s_054.ogg",100
Sample,35550,0,"s_056.ogg",100
Sample,35550,0,"s_028.ogg",100
Sample,35625,0,"s_051.ogg",100
Sample,35625,0,"s_039.ogg",100
Sample,35625,0,"s_027.ogg",100
Sample,35625,0,"s_041.ogg",100
Sample,35625,0,"s_053.ogg",100
Sample,35700,0,"s_056.ogg",100
Sample,35700,0,"s_048.ogg",100
Sample,35700,0,"s_042.ogg",100
Sample,35700,0,"s_054.ogg",100
Sample,35700,0,"s_044.ogg",100
Sample,35700,0,"s_036.ogg",100
Sample,35700,0,"s_024.ogg",100
Sample,35775,0,"s_027.ogg",100
Sample,35775,0,"s_041.ogg",100
Sample,35775,0,"s_053.ogg",100
Sample,35775,0,"s_051.ogg",100
Sample,35775,0,"s_039.ogg",100
Sample,35850,0,"s_037.ogg",100
Sample,35850,0,"s_029.ogg",100
Sample,35850,0,"s_041.ogg",100
Sample,35850,0,"s_048.ogg",100
Sample,35850,0,"s_036.ogg",100
Sample,35850,0,"s_053.ogg",100
Sample,35850,0,"s_049.ogg",100
Sample,35925,0,"s_039.ogg",100
Sample,35925,0,"s_050.ogg",100
Sample,35925,0,"s_051.ogg",100
Sample,35925,0,"s_030.ogg",100
Sample,35925,0,"s_054.ogg",100
Sample,35925,0,"s_042.ogg",100
Sample,35925,0,"s_038.ogg",100
Sample,36000,0,"s_036.ogg",100
Sample,36000,0,"s_055.ogg",100
Sample,36000,0,"s_043.ogg",100
Sample,36000,0,"s_031.ogg",100
Sample,36000,0,"s_048.ogg",100
Sample,36000,0,"s_037.ogg",100
Sample,36000,0,"s_049.ogg",100
Sample,36075,0,"s_034.ogg",100
Sample,36075,0,"s_038.ogg",100
Sample,36075,0,"s_051.ogg",100
Sample,36075,0,"s_058.ogg",100
Sample,36075,0,"s_050.ogg",100
Sample,36075,0,"s_046.ogg",100
Sample,36075,0,"s_039.ogg",100
Sample,36150,0,"s_032.ogg",100
Sample,36150,0,"s_044.ogg",100
Sample,36150,0,"s_056.ogg",100
Sample,36225,0,"s_048.ogg",100
Sample,36225,0,"s_060.ogg",100
Sample,36225,0,"s_036.ogg",100
Sample,36300,0,"s_038.ogg",100
Sample,36300,0,"s_062.ogg",100
Sample,36300,0,"s_050.ogg",100
Sample,36300,0,"s_055.ogg",100
Sample,36300,0,"s_043.ogg",100
Sample,36375,0,"s_051.ogg",100
Sample,36375,0,"s_054.ogg",100
Sample,36375,0,"s_042.ogg",100
Sample,36375,0,"s_039.ogg",100
Sample,36375,0,"s_063.ogg",100
Sample,36450,0,"s_036.ogg",100
Sample,36450,0,"s_059.ogg",100
Sample,36450,0,"s_039.ogg",100
Sample,36450,0,"s_052.ogg",100
Sample,36450,0,"s_064.ogg",100
Sample,36450,0,"s_043.ogg",100
Sample,36450,0,"s_031.ogg",100
Sample,36450,0,"s_057.ogg",100
Sample,36450,0,"s_055.ogg",100
Sample,36450,0,"s_051.ogg",100
Sample,36525,0,"s_044.ogg",100
Sample,36525,0,"s_065.ogg",100
Sample,36525,0,"s_040.ogg",100
Sample,36525,0,"s_060.ogg",100
Sample,36525,0,"s_058.ogg",100
Sample,36525,0,"s_053.ogg",100
Sample,36525,0,"s_037.ogg",100
Sample,36600,0,"s_061.ogg",100
Sample,36600,0,"s_045.ogg",100
Sample,36600,0,"s_066.ogg",100
Sample,36600,0,"s_041.ogg",100
Sample,36600,0,"s_059.ogg",100
Sample,36600,0,"s_054.ogg",100
Sample,36600,0,"s_038.ogg",100
Sample,36675,0,"s_043.ogg",100
Sample,36675,0,"s_048.ogg",100
Sample,36675,0,"s_039.ogg",100
Sample,36675,0,"s_055.ogg",100
Sample,36675,0,"s_060.ogg",100
Sample,36675,0,"s_067.ogg",100
Sample,36675,0,"s_062.ogg",100
Sample,36750,0,"m_074.ogg",100
Sample,36750,0,"m_036.ogg",100
Sample,36750,0,"m_007.ogg",100
Sample,36750,0,"m_019.ogg",100
Sample,36750,0,"m_024.ogg",100
Sample,36750,0,"m_072.ogg",100
Sample,36750,0,"m_031.ogg",100
Sample,36750,0,"m_027.ogg",100
Sample,37050,0,"s_055.ogg",100
Sample,37050,0,"s_052.ogg",100
Sample,37050,0,"s_031.ogg",100
Sample,37050,0,"s_051.ogg",100
Sample,37050,0,"s_057.ogg",100
Sample,37050,0,"s_064.ogg",100
Sample,37050,0,"s_059.ogg",100
Sample,37050,0,"s_039.ogg",100
Sample,37050,0,"s_036.ogg",100
Sample,37050,0,"s_043.ogg",100
Sample,37125,0,"s_044.ogg",100
Sample,37125,0,"s_037.ogg",100
Sample,37125,0,"s_060.ogg",100
Sample,37125,0,"s_065.ogg",100
Sample,37125,0,"s_040.ogg",100
Sample,37125,0,"s_058.ogg",100
Sample,37125,0,"s_053.ogg",100
Sample,37200,0,"s_061.ogg",100
Sample,37200,0,"s_041.ogg",100
Sample,37200,0,"s_059.ogg",100
Sample,37200,0,"s_066.ogg",100
Sample,37200,0,"s_045.ogg",100
Sample,37200,0,"s_038.ogg",100
Sample,37200,0,"s_054.ogg",100
Sample,37275,0,"s_048.ogg",100
Sample,37275,0,"s_060.ogg",100
Sample,37275,0,"s_067.ogg",100
Sample,37275,0,"s_055.ogg",100
Sample,37275,0,"s_062.ogg",100
Sample,37275,0,"s_039.ogg",100
Sample,37275,0,"s_043.ogg",100
Sample,37350,0,"m_031.ogg",100
Sample,37350,0,"m_036.ogg",100
Sample,37350,0,"m_027.ogg",100
Sample,37350,0,"m_024.ogg",100
Sample,37350,0,"m_007.ogg",100
Sample,37350,0,"m_072.ogg",100
Sample,37350,0,"m_019.ogg",100
Sample,37350,0,"m_074.ogg",100
Sample,37650,0,"s_019.ogg",100
Sample,37650,0,"s_033.ogg",100
Sample,37650,0,"s_043.ogg",100
Sample,37650,0,"s_067.ogg",100
Sample,37650,0,"s_048.ogg",100
Sample,37650,0,"s_062.ogg",100
Sample,37650,0,"s_057.ogg",100
Sample,37725,0,"s_058.ogg",100
Sample,37725,0,"s_068.ogg",100
Sample,37725,0,"s_034.ogg",100
Sample,37725,0,"s_020.ogg",100
Sample,37725,0,"s_049.ogg",100
Sample,37725,0,"s_044.ogg",100
Sample,37725,0,"s_063.ogg",100
Sample,37800,0,"s_019.ogg",100
Sample,37800,0,"s_057.ogg",100
Sample,37800,0,"s_043.ogg",100
Sample,37800,0,"s_067.ogg",100
Sample,37800,0,"s_048.ogg",100
Sample,37800,0,"s_062.ogg",100
Sample,37800,0,"s_033.ogg",100
Sample,37875,0,"s_060.ogg",100
Sample,37875,0,"s_046.ogg",100
Sample,37875,0,"s_055.ogg",100
Sample,37875,0,"s_031.ogg",100
Sample,37875,0,"s_017.ogg",100
Sample,37875,0,"s_041.ogg",100
Sample,37875,0,"s_065.ogg",100
Sample,37950,0,"s_015.ogg",100
Sample,37950,0,"s_063.ogg",100
Sample,37950,0,"s_039.ogg",100
Sample,37950,0,"s_029.ogg",100
Sample,37950,0,"s_044.ogg",100
Sample,37950,0,"s_053.ogg",100
Sample,37950,0,"s_058.ogg",100
Sample,38025,0,"s_031.ogg",100
Sample,38025,0,"s_055.ogg",100
Sample,38025,0,"s_065.ogg",100
Sample,38025,0,"s_046.ogg",100
Sample,38025,0,"s_060.ogg",100
Sample,38025,0,"s_041.ogg",100
Sample,38025,0,"s_017.ogg",100
Sample,38100,0,"s_063.ogg",100
Sample,38100,0,"s_044.ogg",100
Sample,38100,0,"s_039.ogg",100
Sample,38100,0,"s_053.ogg",100
Sample,38100,0,"s_058.ogg",100
Sample,38100,0,"s_015.ogg",100
Sample,38100,0,"s_029.ogg",100
Sample,38175,0,"s_014.ogg",100
Sample,38175,0,"s_057.ogg",100
Sample,38175,0,"s_028.ogg",100
Sample,38175,0,"s_043.ogg",100
Sample,38175,0,"s_062.ogg",100
Sample,38175,0,"s_038.ogg",100
Sample,38175,0,"s_052.ogg",100
Sample,38250,0,"s_012.ogg",100
Sample,38250,0,"s_043.ogg",100
Sample,38250,0,"s_019.ogg",100
Sample,38250,0,"s_048.ogg",100
Sample,38250,0,"s_055.ogg",100
Sample,38250,0,"s_049.ogg",100
Sample,38250,0,"s_024.ogg",100
Sample,38250,0,"s_026.ogg",100
Sample,38250,0,"s_060.ogg",100
Sample,38250,0,"s_036.ogg",100
Sample,38400,0,"s_039.ogg",100
Sample,38400,0,"s_031.ogg",100
Sample,38400,0,"s_036.ogg",100
Sample,38400,0,"s_043.ogg",100
Sample,38400,0,"s_048.ogg",100
Sample,38400,0,"s_038.ogg",100
Sample,38475,0,"s_031.ogg",100
Sample,38475,0,"s_048.ogg",100
Sample,38475,0,"s_038.ogg",100
Sample,38475,0,"s_043.ogg",100
Sample,38475,0,"s_036.ogg",100
Sample,38475,0,"s_039.ogg",100
Sample,38550,0,"s_043.ogg",100
Sample,38550,0,"s_048.ogg",100
Sample,38550,0,"s_036.ogg",100
Sample,38550,0,"s_039.ogg",100
Sample,38550,0,"s_031.ogg",100
Sample,38550,0,"s_038.ogg",100
Sample,38700,0,"s_031.ogg",100
Sample,38700,0,"s_036.ogg",100
Sample,38700,0,"s_039.ogg",100
Sample,38700,0,"s_048.ogg",100
Sample,38700,0,"s_043.ogg",100
Sample,38700,0,"s_038.ogg",100
Sample,38850,0,"m_045.ogg",100
Sample,38850,0,"m_015.ogg",100
Sample,38850,0,"m_040.ogg",100
Sample,38850,0,"s_049.ogg",100
Sample,38850,0,"m_043.ogg",100
Sample,38850,0,"m_027.ogg",100
Sample,38850,0,"l_028.ogg",100
Sample,38850,0,"l_031.ogg",100
Sample,38850,0,"m_039.ogg",100
Sample,38850,0,"m_051.ogg",100
Sample,38900,0,"s_052.ogg",100
Sample,38900,0,"s_050.ogg",100
Sample,38950,0,"l_049.ogg",100
Sample,38950,0,"s_053.ogg",100
Sample,39000,0,"s_054.ogg",100
Sample,39000,0,"s_048.ogg",100
Sample,39050,0,"s_047.ogg",100
Sample,39050,0,"s_055.ogg",100
Sample,39100,0,"s_056.ogg",100
Sample,39100,0,"s_046.ogg",100
Sample,39150,0,"s_057.ogg",100
Sample,39150,0,"m_045.ogg",100
Sample,39200,0,"s_044.ogg",100
Sample,39200,0,"s_058.ogg",100
Sample,39250,0,"m_043.ogg",100
Sample,39250,0,"s_059.ogg",100
Sample,39300,0,"s_060.ogg",100
Sample,39300,0,"s_042.ogg",100
Sample,39350,0,"s_041.ogg",100
Sample,39350,0,"s_061.ogg",100
Sample,39400,0,"s_062.ogg",100
Sample,39400,0,"s_040.ogg",100
Sample,39450,0,"s_063.ogg",100
Sample,39450,0,"s_015.ogg",100
Sample,39450,0,"m_039.ogg",100
Sample,39450,0,"m_051.ogg",100
Sample,39450,0,"s_027.ogg",100
Sample,39466,0,"m_040.ogg",100
Sample,39475,0,"s_052.ogg",100
Sample,39483,0,"s_041.ogg",100
Sample,39500,0,"s_053.ogg",100
Sample,39500,0,"s_042.ogg",100
Sample,39500,0,"s_038.ogg",100
Sample,39500,0,"s_064.ogg",100
Sample,39516,0,"m_043.ogg",100
Sample,39525,0,"s_054.ogg",100
Sample,39525,0,"m_015.ogg",100
Sample,39525,0,"m_027.ogg",100
Sample,39533,0,"s_044.ogg",100
Sample,39550,0,"s_065.ogg",100
Sample,39550,0,"m_045.ogg",100
Sample,39550,0,"s_037.ogg",100
Sample,39550,0,"s_055.ogg",100
Sample,39566,0,"s_046.ogg",100
Sample,39575,0,"s_056.ogg",100
Sample,39583,0,"s_047.ogg",100
Sample,39600,0,"s_066.ogg",100
Sample,39600,0,"s_048.ogg",100
Sample,39600,0,"s_036.ogg",100
Sample,39600,0,"s_057.ogg",100
Sample,39600,0,"s_026.ogg",100
Sample,39600,0,"s_014.ogg",100
Sample,39616,0,"s_049.ogg",100
Sample,39625,0,"s_058.ogg",100
Sample,39633,0,"s_050.ogg",100
Sample,39650,0,"m_051.ogg",100
Sample,39650,0,"s_067.ogg",100
Sample,39650,0,"s_035.ogg",100
Sample,39650,0,"s_059.ogg",100
Sample,39666,0,"s_050.ogg",100
Sample,39675,0,"s_025.ogg",100
Sample,39675,0,"s_060.ogg",100
Sample,39675,0,"s_013.ogg",100
Sample,39683,0,"m_049.ogg",100
Sample,39700,0,"s_068.ogg",100
Sample,39700,0,"s_061.ogg",100
Sample,39700,0,"s_034.ogg",100
Sample,39700,0,"s_048.ogg",100
Sample,39716,0,"s_047.ogg",100
Sample,39725,0,"s_062.ogg",100
Sample,39733,0,"s_046.ogg",100
Sample,39750,0,"s_012.ogg",100
Sample,39750,0,"m_033.ogg",100
Sample,39750,0,"s_024.ogg",100
Sample,39750,0,"s_069.ogg",100
Sample,39750,0,"m_045.ogg",100
Sample,39750,0,"s_063.ogg",100
Sample,39766,0,"s_044.ogg",100
Sample,39775,0,"s_064.ogg",100
Sample,39783,0,"s_043.ogg",100
Sample,39800,0,"s_042.ogg",100
Sample,39800,0,"s_032.ogg",100
Sample,39800,0,"s_065.ogg",100
Sample,39800,0,"s_070.ogg",100
Sample,39816,0,"s_041.ogg",100
Sample,39825,0,"s_023.ogg",100
Sample,39825,0,"s_066.ogg",100
Sample,39825,0,"s_011.ogg",100
Sample,39833,0,"s_040.ogg",100
Sample,39850,0,"s_067.ogg",100
Sample,39850,0,"s_071.ogg",100
Sample,39850,0,"s_039.ogg",100
Sample,39850,0,"s_031.ogg",100
Sample,39866,0,"s_038.ogg",100
Sample,39875,0,"s_068.ogg",100
Sample,39883,0,"s_037.ogg",100
Sample,39900,0,"s_022.ogg",100
Sample,39900,0,"s_069.ogg",100
Sample,39900,0,"s_010.ogg",100
Sample,39900,0,"s_030.ogg",100
Sample,39900,0,"s_072.ogg",100
Sample,39900,0,"s_036.ogg",100
Sample,39916,0,"s_035.ogg",100
Sample,39925,0,"s_070.ogg",100
Sample,39933,0,"s_034.ogg",100
Sample,39950,0,"s_029.ogg",100
Sample,39950,0,"s_073.ogg",100
Sample,39950,0,"s_033.ogg",100
Sample,39950,0,"s_071.ogg",100
Sample,39966,0,"s_032.ogg",100
Sample,39975,0,"s_021.ogg",100
Sample,39975,0,"s_009.ogg",100
Sample,39975,0,"s_072.ogg",100
Sample,39983,0,"s_031.ogg",100
Sample,40000,0,"s_073.ogg",100
Sample,40000,0,"s_028.ogg",100
Sample,40000,0,"s_074.ogg",100
Sample,40000,0,"s_030.ogg",100
Sample,40016,0,"s_029.ogg",100
Sample,40025,0,"s_074.ogg",100
Sample,40033,0,"s_028.ogg",100
Sample,40050,0,"s_072.ogg",100
Sample,40050,0,"s_036.ogg",100
Sample,40050,0,"s_027.ogg",100
Sample,40050,0,"m_008.ogg",100
Sample,40050,0,"s_075.ogg",100
Sample,40050,0,"m_020.ogg",100
Sample,40125,0,"s_065.ogg",100
Sample,40125,0,"s_039.ogg",100
Sample,40200,0,"s_051.ogg",100
Sample,40200,0,"s_041.ogg",100
Sample,40200,0,"s_048.ogg",100
Sample,40200,0,"s_060.ogg",100
Sample,40200,0,"s_056.ogg",100
Sample,40200,0,"s_063.ogg",100
Sample,40200,0,"s_053.ogg",100
Sample,40200,0,"s_044.ogg",100
Sample,40275,0,"s_065.ogg",100
Sample,40275,0,"s_036.ogg",100
Sample,40275,0,"s_012.ogg",100
Sample,40275,0,"s_024.ogg",100
Sample,40275,0,"s_039.ogg",100
Sample,40350,0,"s_032.ogg",100
Sample,40350,0,"s_015.ogg",100
Sample,40350,0,"s_072.ogg",100
Sample,40350,0,"s_027.ogg",100
Sample,40350,0,"s_036.ogg",100
Sample,40350,0,"s_039.ogg",100
Sample,40350,0,"s_075.ogg",100
Sample,40425,0,"s_065.ogg",100
Sample,40425,0,"s_039.ogg",100
Sample,40500,0,"s_041.ogg",100
Sample,40500,0,"s_044.ogg",100
Sample,40500,0,"s_056.ogg",100
Sample,40500,0,"s_051.ogg",100
Sample,40500,0,"s_048.ogg",100
Sample,40500,0,"s_020.ogg",100
Sample,40500,0,"s_053.ogg",100
Sample,40500,0,"s_060.ogg",100
Sample,40500,0,"s_063.ogg",100
Sample,40500,0,"s_032.ogg",100
Sample,40575,0,"s_039.ogg",100
Sample,40575,0,"s_065.ogg",100
Sample,40650,0,"s_033.ogg",100
Sample,40650,0,"s_036.ogg",100
Sample,40650,0,"s_075.ogg",100
Sample,40650,0,"s_021.ogg",100
Sample,40650,0,"s_045.ogg",100
Sample,40650,0,"s_032.ogg",100
Sample,40650,0,"s_072.ogg",100
Sample,40725,0,"s_044.ogg",100
Sample,40725,0,"s_065.ogg",100
Sample,40725,0,"s_039.ogg",100
Sample,40725,0,"s_032.ogg",100
Sample,40725,0,"s_020.ogg",100
Sample,40800,0,"s_053.ogg",100
Sample,40800,0,"s_051.ogg",100
Sample,40800,0,"s_034.ogg",100
Sample,40800,0,"s_044.ogg",100
Sample,40800,0,"s_048.ogg",100
Sample,40800,0,"s_046.ogg",100
Sample,40800,0,"s_056.ogg",100
Sample,40800,0,"s_022.ogg",100
Sample,40800,0,"s_063.ogg",100
Sample,40800,0,"s_060.ogg",100
Sample,40800,0,"s_041.ogg",100
Sample,40875,0,"s_035.ogg",100
Sample,40875,0,"s_039.ogg",100
Sample,40875,0,"s_047.ogg",100
Sample,40875,0,"s_065.ogg",100
Sample,40875,0,"s_023.ogg",100
Sample,40950,0,"s_024.ogg",100
Sample,40950,0,"s_075.ogg",100
Sample,40950,0,"s_036.ogg",100
Sample,40950,0,"s_072.ogg",100
Sample,40950,0,"s_032.ogg",100
Sample,40950,0,"s_048.ogg",100
Sample,41025,0,"s_023.ogg",100
Sample,41025,0,"s_035.ogg",100
Sample,41025,0,"s_039.ogg",100
Sample,41025,0,"s_065.ogg",100
Sample,41025,0,"s_047.ogg",100
Sample,41100,0,"s_048.ogg",100
Sample,41100,0,"s_044.ogg",100
Sample,41100,0,"s_053.ogg",100
Sample,41100,0,"s_049.ogg",100
Sample,41100,0,"s_025.ogg",100
Sample,41100,0,"s_037.ogg",100
Sample,41100,0,"s_056.ogg",100
Sample,41100,0,"s_051.ogg",100
Sample,41100,0,"s_060.ogg",100
Sample,41100,0,"s_063.ogg",100
Sample,41100,0,"s_041.ogg",100
Sample,41175,0,"s_050.ogg",100
Sample,41175,0,"s_039.ogg",100
Sample,41175,0,"s_026.ogg",100
Sample,41175,0,"s_065.ogg",100
Sample,41175,0,"s_038.ogg",100
Sample,41250,0,"s_032.ogg",100
Sample,41250,0,"s_075.ogg",100
Sample,41250,0,"s_036.ogg",100
Sample,41250,0,"s_051.ogg",100
Sample,41250,0,"s_039.ogg",100
Sample,41250,0,"s_072.ogg",100
Sample,41325,0,"s_065.ogg",100
Sample,41325,0,"s_039.ogg",100
Sample,41400,0,"s_044.ogg",100
Sample,41400,0,"s_063.ogg",100
Sample,41400,0,"s_041.ogg",100
Sample,41400,0,"s_053.ogg",100
Sample,41400,0,"s_060.ogg",100
Sample,41400,0,"s_051.ogg",100
Sample,41400,0,"s_048.ogg",100
Sample,41400,0,"s_056.ogg",100
Sample,41475,0,"s_053.ogg",100
Sample,41475,0,"s_029.ogg",100
Sample,41475,0,"s_039.ogg",100
Sample,41475,0,"s_065.ogg",100
Sample,41475,0,"s_041.ogg",100
Sample,41550,0,"s_032.ogg",100
Sample,41550,0,"s_031.ogg",100
Sample,41550,0,"s_036.ogg",100
Sample,41550,0,"s_055.ogg",100
Sample,41550,0,"s_043.ogg",100
Sample,41550,0,"s_075.ogg",100
Sample,41550,0,"s_072.ogg",100
Sample,41625,0,"s_039.ogg",100
Sample,41625,0,"s_065.ogg",100
Sample,41700,0,"s_060.ogg",100
Sample,41700,0,"s_041.ogg",100
Sample,41700,0,"s_051.ogg",100
Sample,41700,0,"s_032.ogg",100
Sample,41700,0,"s_048.ogg",100
Sample,41700,0,"s_056.ogg",100
Sample,41700,0,"s_063.ogg",100
Sample,41700,0,"s_044.ogg",100
Sample,41700,0,"s_053.ogg",100
Sample,41775,0,"s_039.ogg",100
Sample,41775,0,"s_065.ogg",100
Sample,41850,0,"s_032.ogg",100
Sample,41850,0,"s_036.ogg",100
Sample,41850,0,"s_075.ogg",100
Sample,41850,0,"s_039.ogg",100
Sample,41850,0,"s_027.ogg",100
Sample,41850,0,"s_072.ogg",100
Sample,41850,0,"s_051.ogg",100
Sample,41925,0,"s_036.ogg",100
Sample,41925,0,"s_048.ogg",100
Sample,41925,0,"s_065.ogg",100
Sample,41925,0,"s_039.ogg",100
Sample,41925,0,"s_024.ogg",100
Sample,42000,0,"s_048.ogg",100
Sample,42000,0,"s_036.ogg",100
Sample,42000,0,"s_060.ogg",100
Sample,42000,0,"s_024.ogg",100
Sample,42000,0,"s_063.ogg",100
Sample,42000,0,"s_051.ogg",100
Sample,42000,0,"s_041.ogg",100
Sample,42000,0,"s_056.ogg",100
Sample,42000,0,"s_044.ogg",100
Sample,42000,0,"s_053.ogg",100
Sample,42075,0,"s_065.ogg",100
Sample,42075,0,"s_036.ogg",100
Sample,42075,0,"s_039.ogg",100
Sample,42075,0,"s_048.ogg",100
Sample,42075,0,"s_024.ogg",100
Sample,42150,0,"s_044.ogg",100
Sample,42150,0,"s_072.ogg",100
Sample,42150,0,"s_036.ogg",100
Sample,42150,0,"s_020.ogg",100
Sample,42150,0,"s_032.ogg",100
Sample,42150,0,"s_075.ogg",100
Sample,42225,0,"s_039.ogg",100
Sample,42225,0,"s_065.ogg",100
Sample,42300,0,"s_053.ogg",100
Sample,42300,0,"s_043.ogg",100
Sample,42300,0,"s_051.ogg",100
Sample,42300,0,"s_041.ogg",100
Sample,42300,0,"s_031.ogg",100
Sample,42300,0,"s_063.ogg",100
Sample,42300,0,"s_044.ogg",100
Sample,42300,0,"s_060.ogg",100
Sample,42300,0,"s_056.ogg",100
Sample,42300,0,"s_019.ogg",100
Sample,42300,0,"s_048.ogg",100
Sample,42375,0,"s_065.ogg",100
Sample,42375,0,"s_039.ogg",100
Sample,42450,0,"s_073.ogg",100
Sample,42450,0,"m_018.ogg",100
Sample,42450,0,"s_033.ogg",100
Sample,42450,0,"s_075.ogg",100
Sample,42450,0,"m_030.ogg",100
Sample,42450,0,"s_037.ogg",100
Sample,42450,0,"s_074.ogg",100
Sample,42525,0,"s_068.ogg",100
Sample,42525,0,"s_045.ogg",100
Sample,42600,0,"s_063.ogg",100
Sample,42600,0,"s_051.ogg",100
Sample,42600,0,"s_061.ogg",100
Sample,42600,0,"s_050.ogg",100
Sample,42600,0,"s_049.ogg",100
Sample,42675,0,"s_029.ogg",100
Sample,42675,0,"s_068.ogg",100
Sample,42675,0,"s_017.ogg",100
Sample,42675,0,"s_045.ogg",100
Sample,42675,0,"s_041.ogg",100
Sample,42750,0,"s_027.ogg",100
Sample,42750,0,"s_074.ogg",100
Sample,42750,0,"s_075.ogg",100
Sample,42750,0,"s_073.ogg",100
Sample,42750,0,"s_015.ogg",100
Sample,42750,0,"s_039.ogg",100
Sample,42750,0,"s_037.ogg",100
Sample,42750,0,"s_033.ogg",100
Sample,42825,0,"s_045.ogg",100
Sample,42825,0,"s_068.ogg",100
Sample,42900,0,"s_061.ogg",100
Sample,42900,0,"m_042.ogg",100
Sample,42900,0,"s_063.ogg",100
Sample,42900,0,"s_050.ogg",100
Sample,42900,0,"m_018.ogg",100
Sample,42900,0,"m_030.ogg",100
Sample,42900,0,"s_051.ogg",100
Sample,42900,0,"s_049.ogg",100
Sample,42975,0,"s_033.ogg",100
Sample,42975,0,"s_074.ogg",100
Sample,42975,0,"s_073.ogg",100
Sample,42975,0,"s_037.ogg",100
Sample,42975,0,"s_075.ogg",100
Sample,43050,0,"s_045.ogg",100
Sample,43050,0,"s_068.ogg",100
Sample,43125,0,"s_029.ogg",100
Sample,43125,0,"s_051.ogg",100
Sample,43125,0,"s_050.ogg",100
Sample,43125,0,"s_061.ogg",100
Sample,43125,0,"s_063.ogg",100
Sample,43125,0,"s_041.ogg",100
Sample,43125,0,"s_049.ogg",100
Sample,43125,0,"s_017.ogg",100
Sample,43200,0,"s_039.ogg",100
Sample,43200,0,"s_068.ogg",100
Sample,43200,0,"s_027.ogg",100
Sample,43200,0,"s_015.ogg",100
Sample,43200,0,"s_045.ogg",100
Sample,43275,0,"s_037.ogg",100
Sample,43275,0,"s_075.ogg",100
Sample,43275,0,"s_073.ogg",100
Sample,43275,0,"s_033.ogg",100
Sample,43275,0,"s_074.ogg",100
Sample,43350,0,"m_030.ogg",100
Sample,43350,0,"m_018.ogg",100
Sample,43350,0,"s_068.ogg",100
Sample,43350,0,"s_045.ogg",100
Sample,43350,0,"m_042.ogg",100
Sample,43425,0,"s_050.ogg",100
Sample,43425,0,"s_049.ogg",100
Sample,43425,0,"s_051.ogg",100
Sample,43425,0,"s_063.ogg",100
Sample,43425,0,"s_061.ogg",100
Sample,43500,0,"s_033.ogg",100
Sample,43500,0,"s_074.ogg",100
Sample,43500,0,"s_073.ogg",100
Sample,43500,0,"s_075.ogg",100
Sample,43500,0,"s_037.ogg",100
Sample,43575,0,"s_017.ogg",100
Sample,43575,0,"s_068.ogg",100
Sample,43575,0,"s_029.ogg",100
Sample,43575,0,"s_041.ogg",100
Sample,43575,0,"s_045.ogg",100
Sample,43650,0,"s_050.ogg",100
Sample,43650,0,"s_039.ogg",100
Sample,43650,0,"s_049.ogg",100
Sample,43650,0,"s_061.ogg",100
Sample,43650,0,"s_027.ogg",100
Sample,43650,0,"s_051.ogg",100
Sample,43650,0,"s_063.ogg",100
Sample,43650,0,"s_015.ogg",100
Sample,43725,0,"s_068.ogg",100
Sample,43725,0,"s_045.ogg",100
Sample,43800,0,"m_042.ogg",100
Sample,43800,0,"s_037.ogg",100
Sample,43800,0,"s_075.ogg",100
Sample,43800,0,"m_030.ogg",100
Sample,43800,0,"m_018.ogg",100
Sample,43800,0,"s_033.ogg",100
Sample,43800,0,"s_073.ogg",100
Sample,43800,0,"s_074.ogg",100
Sample,43875,0,"s_045.ogg",100
Sample,43875,0,"s_068.ogg",100
Sample,43950,0,"s_063.ogg",100
Sample,43950,0,"s_050.ogg",100
Sample,43950,0,"s_061.ogg",100
Sample,43950,0,"s_051.ogg",100
Sample,43950,0,"s_049.ogg",100
Sample,44025,0,"s_041.ogg",100
Sample,44025,0,"s_029.ogg",100
Sample,44025,0,"s_074.ogg",100
Sample,44025,0,"s_037.ogg",100
Sample,44025,0,"s_075.ogg",100
Sample,44025,0,"s_033.ogg",100
Sample,44025,0,"s_073.ogg",100
Sample,44025,0,"s_017.ogg",100
Sample,44100,0,"s_015.ogg",100
Sample,44100,0,"s_045.ogg",100
Sample,44100,0,"s_068.ogg",100
Sample,44100,0,"s_039.ogg",100
Sample,44100,0,"s_027.ogg",100
Sample,44175,0,"s_049.ogg",100
Sample,44175,0,"s_051.ogg",100
Sample,44175,0,"s_063.ogg",100
Sample,44175,0,"s_061.ogg",100
Sample,44175,0,"s_050.ogg",100
Sample,44250,0,"s_068.ogg",100
Sample,44250,0,"m_030.ogg",100
Sample,44250,0,"m_018.ogg",100
Sample,44250,0,"s_045.ogg",100
Sample,44250,0,"m_042.ogg",100
Sample,44325,0,"s_074.ogg",100
Sample,44325,0,"s_033.ogg",100
Sample,44325,0,"s_037.ogg",100
Sample,44325,0,"s_075.ogg",100
Sample,44325,0,"s_073.ogg",100
Sample,44400,0,"s_045.ogg",100
Sample,44400,0,"s_068.ogg",100
Sample,44475,0,"s_051.ogg",100
Sample,44475,0,"s_041.ogg",100
Sample,44475,0,"s_063.ogg",100
Sample,44475,0,"s_017.ogg",100
Sample,44475,0,"s_050.ogg",100
Sample,44475,0,"s_029.ogg",100
Sample,44475,0,"s_049.ogg",100
Sample,44475,0,"s_061.ogg",100
Sample,44550,0,"s_027.ogg",100
Sample,44550,0,"s_033.ogg",100
Sample,44550,0,"s_074.ogg",100
Sample,44550,0,"s_073.ogg",100
Sample,44550,0,"s_015.ogg",100
Sample,44550,0,"s_075.ogg",100
Sample,44550,0,"s_039.ogg",100
Sample,44550,0,"s_037.ogg",100
Sample,44625,0,"s_068.ogg",100
Sample,44625,0,"s_045.ogg",100
Sample,44700,0,"m_018.ogg",100
Sample,44700,0,"m_042.ogg",100
Sample,44700,0,"s_051.ogg",100
Sample,44700,0,"s_061.ogg",100
Sample,44700,0,"s_049.ogg",100
Sample,44700,0,"m_030.ogg",100
Sample,44700,0,"s_050.ogg",100
Sample,44700,0,"s_063.ogg",100
Sample,44775,0,"s_045.ogg",100
Sample,44775,0,"s_068.ogg",100
Sample,44850,0,"s_073.ogg",100
Sample,44850,0,"s_033.ogg",100
Sample,44850,0,"s_074.ogg",100
Sample,44850,0,"s_037.ogg",100
Sample,44850,0,"s_075.ogg",100
Sample,44925,0,"s_045.ogg",100
Sample,44925,0,"s_017.ogg",100
Sample,44925,0,"s_029.ogg",100
Sample,44925,0,"s_068.ogg",100
Sample,44925,0,"s_041.ogg",100
Sample,45000,0,"s_027.ogg",100
Sample,45000,0,"s_049.ogg",100
Sample,45000,0,"s_061.ogg",100
Sample,45000,0,"s_063.ogg",100
Sample,45000,0,"s_039.ogg",100
Sample,45000,0,"s_050.ogg",100
Sample,45000,0,"s_015.ogg",100
Sample,45000,0,"s_051.ogg",100
Sample,45075,0,"s_033.ogg",100
Sample,45075,0,"s_073.ogg",100
Sample,45075,0,"s_037.ogg",100
Sample,45075,0,"s_074.ogg",100
Sample,45075,0,"s_075.ogg",100
Sample,45150,0,"m_018.ogg",100
Sample,45150,0,"s_068.ogg",100
Sample,45150,0,"s_045.ogg",100
Sample,45150,0,"m_030.ogg",100
Sample,45150,0,"m_042.ogg",100
Sample,45225,0,"s_063.ogg",100
Sample,45225,0,"s_050.ogg",100
Sample,45225,0,"s_061.ogg",100
Sample,45225,0,"s_051.ogg",100
Sample,45225,0,"s_049.ogg",100
Sample,45300,0,"s_045.ogg",100
Sample,45300,0,"s_068.ogg",100
Sample,45375,0,"s_041.ogg",100
Sample,45375,0,"s_074.ogg",100
Sample,45375,0,"s_075.ogg",100
Sample,45375,0,"s_033.ogg",100
Sample,45375,0,"s_029.ogg",100
Sample,45375,0,"s_073.ogg",100
Sample,45375,0,"s_017.ogg",100
Sample,45375,0,"s_037.ogg",100
Sample,45450,0,"s_068.ogg",100
Sample,45450,0,"s_039.ogg",100
Sample,45450,0,"s_015.ogg",100
Sample,45450,0,"s_045.ogg",100
Sample,45450,0,"s_027.ogg",100
Sample,45525,0,"s_051.ogg",100
Sample,45525,0,"s_063.ogg",100
Sample,45525,0,"s_049.ogg",100
Sample,45525,0,"s_050.ogg",100
Sample,45525,0,"s_061.ogg",100
Sample,45600,0,"s_075.ogg",100
Sample,45600,0,"s_037.ogg",100
Sample,45600,0,"s_030.ogg",100
Sample,45600,0,"s_074.ogg",100
Sample,45600,0,"s_033.ogg",100
Sample,45600,0,"s_073.ogg",100
Sample,45600,0,"s_042.ogg",100
Sample,45600,0,"s_018.ogg",100
Sample,45675,0,"s_041.ogg",100
Sample,45675,0,"s_029.ogg",100
Sample,45675,0,"s_017.ogg",100
Sample,45675,0,"s_045.ogg",100
Sample,45675,0,"s_068.ogg",100
Sample,45750,0,"s_049.ogg",100
Sample,45750,0,"s_063.ogg",100
Sample,45750,0,"s_027.ogg",100
Sample,45750,0,"s_050.ogg",100
Sample,45750,0,"s_051.ogg",100
Sample,45750,0,"s_015.ogg",100
Sample,45750,0,"s_061.ogg",100
Sample,45750,0,"s_039.ogg",100
Sample,45825,0,"s_045.ogg",100
Sample,45825,0,"s_042.ogg",100
Sample,45825,0,"s_030.ogg",100
Sample,45825,0,"s_068.ogg",100
Sample,45825,0,"s_018.ogg",100
Sample,45900,0,"s_033.ogg",100
Sample,45900,0,"s_041.ogg",100
Sample,45900,0,"s_075.ogg",100
Sample,45900,0,"s_037.ogg",100
Sample,45900,0,"s_017.ogg",100
Sample,45900,0,"s_073.ogg",100
Sample,45900,0,"s_029.ogg",100
Sample,45900,0,"s_074.ogg",100
Sample,45975,0,"s_039.ogg",100
Sample,45975,0,"s_068.ogg",100
Sample,45975,0,"s_015.ogg",100
Sample,45975,0,"s_027.ogg",100
Sample,45975,0,"s_045.ogg",100
Sample,46050,0,"s_049.ogg",100
Sample,46050,0,"s_063.ogg",100
Sample,46050,0,"s_050.ogg",100
Sample,46050,0,"s_042.ogg",100
Sample,46050,0,"s_018.ogg",100
Sample,46050,0,"s_051.ogg",100
Sample,46050,0,"s_030.ogg",100
Sample,46050,0,"s_061.ogg",100
Sample,46125,0,"s_041.ogg",100
Sample,46125,0,"s_029.ogg",100
Sample,46125,0,"s_017.ogg",100
Sample,46125,0,"s_075.ogg",100
Sample,46125,0,"s_037.ogg",100
Sample,46125,0,"s_073.ogg",100
Sample,46125,0,"s_074.ogg",100
Sample,46125,0,"s_033.ogg",100
Sample,46200,0,"s_068.ogg",100
Sample,46200,0,"s_015.ogg",100
Sample,46200,0,"s_045.ogg",100
Sample,46200,0,"s_027.ogg",100
Sample,46200,0,"s_039.ogg",100
Sample,46275,0,"s_030.ogg",100
Sample,46275,0,"s_042.ogg",100
Sample,46275,0,"s_061.ogg",100
Sample,46275,0,"s_063.ogg",100
Sample,46275,0,"s_050.ogg",100
Sample,46275,0,"s_018.ogg",100
Sample,46275,0,"s_051.ogg",100
Sample,46275,0,"s_049.ogg",100
Sample,46350,0,"s_045.ogg",100
Sample,46350,0,"s_068.ogg",100
Sample,46425,0,"s_037.ogg",100
Sample,46425,0,"s_074.ogg",100
Sample,46425,0,"s_029.ogg",100
Sample,46425,0,"s_017.ogg",100
Sample,46425,0,"s_041.ogg",100
Sample,46425,0,"s_073.ogg",100
Sample,46425,0,"s_034.ogg",100
Sample,46425,0,"s_075.ogg",100
Sample,46500,0,"s_027.ogg",100
Sample,46500,0,"s_068.ogg",100
Sample,46500,0,"s_045.ogg",100
Sample,46500,0,"s_015.ogg",100
Sample,46500,0,"s_039.ogg",100
Sample,46575,0,"s_051.ogg",100
Sample,46575,0,"s_063.ogg",100
Sample,46575,0,"s_049.ogg",100
Sample,46575,0,"s_061.ogg",100
Sample,46575,0,"s_050.ogg",100
Sample,46650,0,"m_042.ogg",100
Sample,46650,0,"s_073.ogg",100
Sample,46650,0,"s_075.ogg",100
Sample,46650,0,"s_074.ogg",100
Sample,46650,0,"m_030.ogg",100
Sample,46650,0,"s_037.ogg",100
Sample,46650,0,"m_018.ogg",100
Sample,46650,0,"s_033.ogg",100
Sample,46725,0,"s_045.ogg",100
Sample,46725,0,"s_068.ogg",100
Sample,46800,0,"s_051.ogg",100
Sample,46800,0,"s_061.ogg",100
Sample,46800,0,"s_063.ogg",100
Sample,46800,0,"s_049.ogg",100
Sample,46800,0,"s_050.ogg",100
Sample,46875,0,"s_029.ogg",100
Sample,46875,0,"s_045.ogg",100
Sample,46875,0,"s_017.ogg",100
Sample,46875,0,"s_068.ogg",100
Sample,46875,0,"s_041.ogg",100
Sample,46950,0,"s_015.ogg",100
Sample,46950,0,"s_039.ogg",100
Sample,46950,0,"s_027.ogg",100
Sample,46950,0,"s_075.ogg",100
Sample,46950,0,"s_033.ogg",100
Sample,46950,0,"s_037.ogg",100
Sample,46950,0,"s_073.ogg",100
Sample,46950,0,"s_074.ogg",100
Sample,47025,0,"s_068.ogg",100
Sample,47025,0,"s_045.ogg",100
Sample,47100,0,"s_051.ogg",100
Sample,47100,0,"m_030.ogg",100
Sample,47100,0,"s_063.ogg",100
Sample,47100,0,"s_049.ogg",100
Sample,47100,0,"s_050.ogg",100
Sample,47100,0,"m_042.ogg",100
Sample,47100,0,"s_061.ogg",100
Sample,47100,0,"m_018.ogg",100
Sample,47175,0,"s_037.ogg",100
Sample,47175,0,"s_033.ogg",100
Sample,47175,0,"s_075.ogg",100
Sample,47175,0,"s_074.ogg",100
Sample,47175,0,"s_073.ogg",100
Sample,47250,0,"s_068.ogg",100
Sample,47250,0,"s_045.ogg",100
Sample,47325,0,"s_041.ogg",100
Sample,47325,0,"s_029.ogg",100
Sample,47325,0,"s_063.ogg",100
Sample,47325,0,"s_017.ogg",100
Sample,47325,0,"s_061.ogg",100
Sample,47325,0,"s_049.ogg",100
Sample,47400,0,"s_068.ogg",100
Sample,47400,0,"s_027.ogg",100
Sample,47400,0,"s_039.ogg",100
Sample,47400,0,"s_046.ogg",100
Sample,47400,0,"s_015.ogg",100
Sample,47475,0,"s_051.ogg",100
Sample,47475,0,"s_055.ogg",100
Sample,47475,0,"s_050.ogg",100
Sample,47550,0,"s_042.ogg",100
Sample,47550,0,"s_018.ogg",100
Sample,47550,0,"s_033.ogg",100
Sample,47550,0,"s_030.ogg",100
Sample,47550,0,"s_074.ogg",100
Sample,47550,0,"s_073.ogg",100
Sample,47550,0,"s_037.ogg",100
Sample,47550,0,"s_075.ogg",100
Sample,47625,0,"s_068.ogg",100
Sample,47625,0,"s_017.ogg",100
Sample,47625,0,"s_029.ogg",100
Sample,47625,0,"s_045.ogg",100
Sample,47625,0,"s_041.ogg",100
Sample,47700,0,"s_039.ogg",100
Sample,47700,0,"s_061.ogg",100
Sample,47700,0,"s_027.ogg",100
Sample,47700,0,"s_015.ogg",100
Sample,47700,0,"s_049.ogg",100
Sample,47775,0,"s_046.ogg",100
Sample,47775,0,"s_030.ogg",100
Sample,47775,0,"s_042.ogg",100
Sample,47775,0,"s_018.ogg",100
Sample,47775,0,"s_063.ogg",100
Sample,47850,0,"s_041.ogg",100
Sample,47850,0,"s_068.ogg",100
Sample,47850,0,"s_029.ogg",100
Sample,47850,0,"s_050.ogg",100
Sample,47850,0,"s_017.ogg",100
Sample,47925,0,"s_039.ogg",100
Sample,47925,0,"s_027.ogg",100
Sample,47925,0,"s_015.ogg",100
Sample,47925,0,"s_051.ogg",100
Sample,47925,0,"s_055.ogg",100
Sample,48000,0,"m_042.ogg",100
Sample,48000,0,"s_074.ogg",100
Sample,48000,0,"s_075.ogg",100
Sample,48000,0,"s_073.ogg",100
Sample,48000,0,"m_018.ogg",100
Sample,48000,0,"m_030.ogg",100
Sample,48000,0,"s_033.ogg",100
Sample,48000,0,"s_037.ogg",100
Sample,48075,0,"s_045.ogg",100
Sample,48075,0,"s_068.ogg",100
Sample,48150,0,"s_063.ogg",100
Sample,48150,0,"s_061.ogg",100
Sample,48150,0,"s_051.ogg",100
Sample,48150,0,"s_049.ogg",100
Sample,48150,0,"s_050.ogg",100
Sample,48225,0,"s_045.ogg",100
Sample,48225,0,"s_068.ogg",100
Sample,48225,0,"s_041.ogg",100
Sample,48225,0,"s_029.ogg",100
Sample,48225,0,"s_017.ogg",100
Sample,48300,0,"s_073.ogg",100
Sample,48300,0,"s_075.ogg",100
Sample,48300,0,"s_039.ogg",100
Sample,48300,0,"s_033.ogg",100
Sample,48300,0,"s_015.ogg",100
Sample,48300,0,"s_027.ogg",100
Sample,48300,0,"s_074.ogg",100
Sample,48300,0,"s_037.ogg",100
Sample,48375,0,"s_068.ogg",100
Sample,48375,0,"s_045.ogg",100
Sample,48450,0,"s_063.ogg",100
Sample,48450,0,"s_061.ogg",100
Sample,48450,0,"s_037.ogg",100
Sample,48450,0,"s_013.ogg",100
Sample,48450,0,"s_050.ogg",100
Sample,48450,0,"s_025.ogg",100
Sample,48450,0,"s_051.ogg",100
Sample,48450,0,"s_049.ogg",100
Sample,48525,0,"s_045.ogg",100
Sample,48525,0,"s_068.ogg",100
Sample,48600,0,"s_036.ogg",100
Sample,48600,0,"s_024.ogg",100
Sample,48600,0,"s_012.ogg",100
Sample,48600,0,"s_032.ogg",100
Sample,48600,0,"s_072.ogg",100
Sample,48600,0,"s_075.ogg",100
Sample,48675,0,"s_068.ogg",100
Sample,48675,0,"s_013.ogg",100
Sample,48675,0,"s_044.ogg",100
Sample,48675,0,"s_037.ogg",100
Sample,48675,0,"s_025.ogg",100
Sample,48750,0,"s_056.ogg",100
Sample,48750,0,"s_039.ogg",100
Sample,48750,0,"s_048.ogg",100
Sample,48750,0,"s_027.ogg",100
Sample,48750,0,"s_063.ogg",100
Sample,48750,0,"s_060.ogg",100
Sample,48750,0,"s_051.ogg",100
Sample,48750,0,"s_015.ogg",100
Sample,48750,0,"s_053.ogg",100
Sample,48825,0,"s_029.ogg",100
Sample,48825,0,"s_017.ogg",100
Sample,48825,0,"s_044.ogg",100
Sample,48825,0,"s_068.ogg",100
Sample,48825,0,"s_041.ogg",100
Sample,48900,0,"s_036.ogg",100
Sample,48900,0,"s_073.ogg",100
Sample,48900,0,"s_032.ogg",100
Sample,48900,0,"s_040.ogg",100
Sample,48900,0,"s_028.ogg",100
Sample,48900,0,"s_016.ogg",100
Sample,48900,0,"s_078.ogg",100
Sample,48975,0,"s_038.ogg",100
Sample,48975,0,"s_026.ogg",100
Sample,48975,0,"s_068.ogg",100
Sample,48975,0,"s_014.ogg",100
Sample,48975,0,"s_044.ogg",100
Sample,49050,0,"s_047.ogg",100
Sample,49050,0,"s_027.ogg",100
Sample,49050,0,"s_054.ogg",100
Sample,49050,0,"s_061.ogg",100
Sample,49050,0,"s_049.ogg",100
Sample,49050,0,"s_039.ogg",100
Sample,49050,0,"s_015.ogg",100
Sample,49050,0,"s_066.ogg",100
Sample,49125,0,"s_037.ogg",100
Sample,49125,0,"s_013.ogg",100
Sample,49125,0,"s_025.ogg",100
Sample,49125,0,"s_068.ogg",100
Sample,49125,0,"s_044.ogg",100
Sample,49200,0,"s_075.ogg",100
Sample,49200,0,"s_024.ogg",100
Sample,49200,0,"s_012.ogg",100
Sample,49200,0,"s_071.ogg",100
Sample,49200,0,"s_039.ogg",100
Sample,49200,0,"s_036.ogg",100
Sample,49275,0,"s_038.ogg",100
Sample,49275,0,"s_026.ogg",100
Sample,49275,0,"s_014.ogg",100
Sample,49275,0,"s_042.ogg",100
Sample,49275,0,"s_068.ogg",100
Sample,49350,0,"s_044.ogg",100
Sample,49350,0,"s_051.ogg",100
Sample,49350,0,"s_013.ogg",100
Sample,49350,0,"s_056.ogg",100
Sample,49350,0,"s_066.ogg",100
Sample,49350,0,"s_059.ogg",100
Sample,49350,0,"s_063.ogg",100
Sample,49350,0,"s_047.ogg",100
Sample,49350,0,"s_025.ogg",100
Sample,49350,0,"s_037.ogg",100
Sample,49425,0,"s_042.ogg",100
Sample,49425,0,"s_023.ogg",100
Sample,49425,0,"s_011.ogg",100
Sample,49425,0,"s_035.ogg",100
Sample,49425,0,"s_068.ogg",100
Sample,49500,0,"s_073.ogg",100
Sample,49500,0,"s_010.ogg",100
Sample,49500,0,"s_034.ogg",100
Sample,49500,0,"s_039.ogg",100
Sample,49500,0,"s_022.ogg",100
Sample,49500,0,"s_078.ogg",100
Sample,49575,0,"s_012.ogg",100
Sample,49575,0,"s_036.ogg",100
Sample,49575,0,"s_024.ogg",100
Sample,49575,0,"s_068.ogg",100
Sample,49575,0,"s_044.ogg",100
Sample,49650,0,"s_063.ogg",100
Sample,49650,0,"s_023.ogg",100
Sample,49650,0,"s_049.ogg",100
Sample,49650,0,"s_011.ogg",100
Sample,49650,0,"s_066.ogg",100
Sample,49650,0,"s_035.ogg",100
Sample,49650,0,"s_054.ogg",100
Sample,49650,0,"s_047.ogg",100
Sample,49650,0,"s_061.ogg",100
Sample,49725,0,"s_044.ogg",100
Sample,49725,0,"s_009.ogg",100
Sample,49725,0,"s_021.ogg",100
Sample,49725,0,"s_068.ogg",100
Sample,49725,0,"s_033.ogg",100
Sample,49800,0,"s_072.ogg",100
Sample,49800,0,"m_020.ogg",100
Sample,49800,0,"s_075.ogg",100
Sample,49800,0,"s_048.ogg",100
Sample,49800,0,"s_051.ogg",100
Sample,49800,0,"m_008.ogg",100
Sample,49800,0,"s_063.ogg",100
Sample,49800,0,"s_044.ogg",100
Sample,49875,0,"s_068.ogg",100
Sample,49875,0,"s_056.ogg",100
Sample,49875,0,"s_065.ogg",100
Sample,49950,0,"s_063.ogg",100
Sample,49950,0,"s_054.ogg",100
Sample,50025,0,"s_012.ogg",100
Sample,50025,0,"s_060.ogg",100
Sample,50025,0,"s_024.ogg",100
Sample,50025,0,"s_058.ogg",100
Sample,50025,0,"s_036.ogg",100
Sample,50100,0,"s_027.ogg",100
Sample,50100,0,"s_015.ogg",100
Sample,50100,0,"s_039.ogg",100
Sample,50100,0,"s_060.ogg",100
Sample,50100,0,"s_068.ogg",100
Sample,50100,0,"s_072.ogg",100
Sample,50175,0,"s_063.ogg",100
Sample,50175,0,"s_065.ogg",100
Sample,50250,0,"s_042.ogg",100
Sample,50250,0,"s_051.ogg",100
Sample,50250,0,"s_030.ogg",100
Sample,50250,0,"s_018.ogg",100
Sample,50250,0,"s_060.ogg",100
Sample,50325,0,"s_058.ogg",100
Sample,50325,0,"s_054.ogg",100
Sample,50400,0,"s_065.ogg",100
Sample,50400,0,"m_022.ogg",100
Sample,50400,0,"s_068.ogg",100
Sample,50400,0,"s_056.ogg",100
Sample,50400,0,"m_034.ogg",100
Sample,50475,0,"s_060.ogg",100
Sample,50475,0,"s_063.ogg",100
Sample,50550,0,"s_058.ogg",100
Sample,50625,0,"s_054.ogg",100
Sample,50625,0,"s_051.ogg",100
Sample,50700,0,"s_064.ogg",100
Sample,50700,0,"s_045.ogg",100
Sample,50700,0,"s_052.ogg",100
Sample,50700,0,"s_021.ogg",100
Sample,50700,0,"s_033.ogg",100
Sample,50775,0,"s_056.ogg",100
Sample,50775,0,"s_062.ogg",100
Sample,50850,0,"s_020.ogg",100
Sample,50850,0,"s_051.ogg",100
Sample,50850,0,"s_044.ogg",100
Sample,50850,0,"s_043.ogg",100
Sample,50850,0,"s_032.ogg",100
Sample,50925,0,"s_045.ogg",100
Sample,50925,0,"s_049.ogg",100
Sample,51000,0,"s_013.ogg",100
Sample,51000,0,"s_025.ogg",100
Sample,51000,0,"s_036.ogg",100
Sample,51000,0,"s_041.ogg",100
Sample,51000,0,"s_043.ogg",100
Sample,51000,0,"s_049.ogg",100
Sample,51000,0,"s_046.ogg",100
Sample,51045,0,"s_065.ogg",100
Sample,51050,0,"s_053.ogg",100
Sample,51075,0,"s_044.ogg",100
Sample,51075,0,"s_042.ogg",100
Sample,51091,0,"s_061.ogg",100
Sample,51100,0,"s_049.ogg",100
Sample,51138,0,"s_053.ogg",100
Sample,51150,0,"s_043.ogg",100
Sample,51150,0,"s_045.ogg",100
Sample,51150,0,"s_056.ogg",100
Sample,51184,0,"s_054.ogg",100
Sample,51200,0,"s_049.ogg",100
Sample,51225,0,"s_046.ogg",100
Sample,51225,0,"s_044.ogg",100
Sample,51230,0,"s_055.ogg",100
Sample,51250,0,"s_056.ogg",100
Sample,51276,0,"s_058.ogg",100
Sample,51300,0,"s_053.ogg",100
Sample,51300,0,"s_047.ogg",100
Sample,51300,0,"s_045.ogg",100
Sample,51322,0,"s_056.ogg",100
Sample,51350,0,"s_058.ogg",100
Sample,51368,0,"s_060.ogg",100
Sample,51375,0,"s_046.ogg",100
Sample,51375,0,"s_048.ogg",100
Sample,51400,0,"s_053.ogg",100
Sample,51415,0,"s_061.ogg",100
Sample,51450,0,"s_047.ogg",100
Sample,51450,0,"s_049.ogg",100
Sample,51450,0,"s_058.ogg",100
Sample,51461,0,"s_065.ogg",100
Sample,51500,0,"s_056.ogg",100
Sample,51507,0,"s_064.ogg",100
Sample,51525,0,"s_050.ogg",100
Sample,51525,0,"s_048.ogg",100
Sample,51550,0,"s_061.ogg",100
Sample,51553,0,"s_068.ogg",100
Sample,51600,0,"s_051.ogg",100
Sample,51600,0,"s_065.ogg",100
Sample,51600,0,"s_056.ogg",100
Sample,51600,0,"s_049.ogg",100
Sample,51642,0,"s_068.ogg",100
Sample,51650,0,"s_061.ogg",100
Sample,51675,0,"s_050.ogg",100
Sample,51675,0,"s_052.ogg",100
Sample,51685,0,"s_069.ogg",100
Sample,51700,0,"s_058.ogg",100
Sample,51728,0,"s_070.ogg",100
Sample,51750,0,"s_051.ogg",100
Sample,51750,0,"s_065.ogg",100
Sample,51750,0,"s_053.ogg",100
Sample,51771,0,"s_071.ogg",100
Sample,51800,0,"s_058.ogg",100
Sample,51813,0,"s_073.ogg",100
Sample,51825,0,"s_054.ogg",100
Sample,51825,0,"s_052.ogg",100
Sample,51850,0,"s_065.ogg",100
Sample,51856,0,"s_072.ogg",100
Sample,51900,0,"s_073.ogg",100
Sample,51900,0,"s_055.ogg",100
Sample,51900,0,"s_053.ogg",100
Sample,51900,0,"s_061.ogg",100
Sample,51942,0,"s_074.ogg",100
Sample,51950,0,"s_068.ogg",100
Sample,51960,0,"s_054.ogg",100
Sample,51960,0,"s_052.ogg",100
Sample,51985,0,"s_075.ogg",100
Sample,52000,0,"s_061.ogg",100
Sample,52020,0,"s_053.ogg",100
Sample,52020,0,"s_055.ogg",100
Sample,52028,0,"s_076.ogg",100
Sample,52050,0,"s_068.ogg",100
Sample,52071,0,"s_077.ogg",100
Sample,52080,0,"s_054.ogg",100
Sample,52080,0,"s_056.ogg",100
Sample,52100,0,"s_065.ogg",100
Sample,52113,0,"s_078.ogg",100
Sample,52140,0,"s_057.ogg",100
Sample,52140,0,"s_055.ogg",100
Sample,52150,0,"s_070.ogg",100
Sample,52156,0,"s_079.ogg",100
Sample,52200,0,"s_038.ogg",100
Sample,52200,0,"s_070.ogg",100
Sample,52200,0,"s_050.ogg",100
Sample,52200,0,"s_046.ogg",100
Sample,52200,0,"s_014.ogg",100
Sample,52200,0,"s_041.ogg",100
Sample,52200,0,"s_034.ogg",100
Sample,52200,0,"s_075.ogg",100
Sample,52200,0,"s_029.ogg",100
Sample,52200,0,"s_053.ogg",100
Sample,52200,0,"s_068.ogg",100
Sample,52200,0,"s_026.ogg",100
Sample,52200,0,"s_080.ogg",100
Sample,52350,0,"m_051.ogg",100
Sample,52350,0,"m_084.ogg",100
Sample,52350,0,"m_046.ogg",100
Sample,52350,0,"m_073.ogg",100
Sample,52350,0,"m_039.ogg",100
Sample,52350,0,"m_056.ogg",100
Sample,52350,0,"m_079.ogg",100
Sample,52350,0,"s_034.ogg",100
Sample,52350,0,"m_072.ogg",100
Sample,52350,0,"m_032.ogg",100
Sample,52350,0,"m_044.ogg",100
Sample,52500,0,"s_034.ogg",100
Sample,52500,0,"s_022.ogg",100
Sample,52500,0,"s_010.ogg",100
Sample,52650,0,"s_075.ogg",100
Sample,52650,0,"s_068.ogg",100
Sample,52650,0,"s_038.ogg",100
Sample,52650,0,"s_053.ogg",100
Sample,52650,0,"s_029.ogg",100
Sample,52650,0,"s_050.ogg",100
Sample,52650,0,"s_046.ogg",100
Sample,52650,0,"s_070.ogg",100
Sample,52650,0,"s_034.ogg",100
Sample,52650,0,"s_041.ogg",100
Sample,52650,0,"s_080.ogg",100
Sample,52800,0,"s_062.ogg",100
Sample,52800,0,"s_044.ogg",100
Sample,52800,0,"s_072.ogg",100
Sample,52800,0,"s_038.ogg",100
Sample,52800,0,"s_050.ogg",100
Sample,52800,0,"s_056.ogg",100
Sample,52800,0,"s_065.ogg",100
Sample,52800,0,"s_077.ogg",100
Sample,52800,0,"s_046.ogg",100
Sample,52800,0,"s_034.ogg",100
Sample,52800,0,"s_022.ogg",100
Sample,52800,0,"s_053.ogg",100
Sample,52800,0,"s_041.ogg",100
Sample,52800,0,"s_067.ogg",100
Sample,52950,0,"m_053.ogg",100
Sample,52950,0,"m_060.ogg",100
Sample,52950,0,"m_065.ogg",100
Sample,52950,0,"m_044.ogg",100
Sample,52950,0,"m_041.ogg",100
Sample,52950,0,"m_080.ogg",100
Sample,52950,0,"m_056.ogg",100
Sample,52950,0,"m_048.ogg",100
Sample,52950,0,"m_070.ogg",100
Sample,52950,0,"m_068.ogg",100
Sample,52950,0,"m_075.ogg",100
Sample,53100,0,"s_010.ogg",100
Sample,53100,0,"s_034.ogg",100
Sample,53100,0,"s_022.ogg",100
Sample,53250,0,"s_067.ogg",100
Sample,53250,0,"s_053.ogg",100
Sample,53250,0,"s_044.ogg",100
Sample,53250,0,"s_062.ogg",100
Sample,53250,0,"s_077.ogg",100
Sample,53250,0,"s_056.ogg",100
Sample,53250,0,"s_050.ogg",100
Sample,53250,0,"s_065.ogg",100
Sample,53250,0,"s_038.ogg",100
Sample,53250,0,"s_072.ogg",100
Sample,53250,0,"s_041.ogg",100
Sample,53400,0,"s_003.ogg",100
Sample,53400,0,"s_015.ogg",100
Sample,53400,0,"s_027.ogg",100
Sample,53475,0,"s_003.ogg",100
Sample,53475,0,"s_027.ogg",100
Sample,53475,0,"s_015.ogg",100
Sample,53550,0,"s_060.ogg",100
Sample,53550,0,"s_036.ogg",100
Sample,53550,0,"s_044.ogg",100
Sample,53550,0,"s_056.ogg",100
Sample,53625,0,"s_061.ogg",100
Sample,53625,0,"s_045.ogg",100
Sample,53625,0,"s_057.ogg",100
Sample,53625,0,"s_037.ogg",100
Sample,53700,0,"s_038.ogg",100
Sample,53700,0,"s_046.ogg",100
Sample,53700,0,"s_058.ogg",100
Sample,53700,0,"s_062.ogg",100
Sample,53775,0,"s_061.ogg",100
Sample,53775,0,"s_065.ogg",100
Sample,53775,0,"s_041.ogg",100
Sample,53775,0,"s_049.ogg",100
Sample,53850,0,"s_039.ogg",100
Sample,53850,0,"s_048.ogg",100
Sample,53850,0,"s_060.ogg",100
Sample,53850,0,"s_063.ogg",100
Sample,53925,0,"s_027.ogg",100
Sample,54000,0,"s_066.ogg",100
Sample,54000,0,"s_044.ogg",100
Sample,54000,0,"s_051.ogg",100
Sample,54000,0,"s_074.ogg",100
Sample,54000,0,"s_053.ogg",100
Sample,54000,0,"s_060.ogg",100
Sample,54075,0,"s_066.ogg",100
Sample,54075,0,"s_060.ogg",100
Sample,54075,0,"s_051.ogg",100
Sample,54075,0,"s_053.ogg",100
Sample,54075,0,"s_074.ogg",100
Sample,54075,0,"s_044.ogg",100
Sample,54075,0,"s_079.ogg",100
Sample,54150,0,"s_044.ogg",100
Sample,54150,0,"s_036.ogg",100
Sample,54150,0,"s_060.ogg",100
Sample,54150,0,"s_056.ogg",100
Sample,54225,0,"s_045.ogg",100
Sample,54225,0,"s_061.ogg",100
Sample,54225,0,"s_037.ogg",100
Sample,54225,0,"s_057.ogg",100
Sample,54300,0,"s_038.ogg",100
Sample,54300,0,"s_062.ogg",100
Sample,54300,0,"s_058.ogg",100
Sample,54300,0,"s_046.ogg",100
Sample,54375,0,"s_065.ogg",100
Sample,54375,0,"s_041.ogg",100
Sample,54375,0,"s_049.ogg",100
Sample,54375,0,"s_061.ogg",100
Sample,54450,0,"s_060.ogg",100
Sample,54450,0,"s_063.ogg",100
Sample,54450,0,"s_039.ogg",100
Sample,54450,0,"s_048.ogg",100
Sample,54525,0,"s_032.ogg",100
Sample,54600,0,"s_027.ogg",100
Sample,54600,0,"s_003.ogg",100
Sample,54600,0,"s_015.ogg",100
Sample,54675,0,"s_015.ogg",100
Sample,54675,0,"s_003.ogg",100
Sample,54675,0,"s_027.ogg",100
Sample,54750,0,"s_060.ogg",100
Sample,54750,0,"s_036.ogg",100
Sample,54750,0,"s_044.ogg",100
Sample,54750,0,"s_056.ogg",100
Sample,54825,0,"s_057.ogg",100
Sample,54825,0,"s_037.ogg",100
Sample,54825,0,"s_045.ogg",100
Sample,54825,0,"s_061.ogg",100
Sample,54900,0,"s_058.ogg",100
Sample,54900,0,"s_062.ogg",100
Sample,54900,0,"s_038.ogg",100
Sample,54900,0,"s_046.ogg",100
Sample,54975,0,"s_041.ogg",100
Sample,54975,0,"s_049.ogg",100
Sample,54975,0,"s_065.ogg",100
Sample,54975,0,"s_061.ogg",100
Sample,55050,0,"s_039.ogg",100
Sample,55050,0,"s_060.ogg",100
Sample,55050,0,"s_063.ogg",100
Sample,55050,0,"s_048.ogg",100
Sample,55125,0,"s_027.ogg",100
Sample,55200,0,"s_074.ogg",100
Sample,55200,0,"s_051.ogg",100
Sample,55200,0,"s_060.ogg",100
Sample,55200,0,"s_066.ogg",100
Sample,55200,0,"s_044.ogg",100
Sample,55200,0,"s_053.ogg",100
Sample,55275,0,"s_051.ogg",100
Sample,55275,0,"s_066.ogg",100
Sample,55275,0,"s_053.ogg",100
Sample,55275,0,"s_060.ogg",100
Sample,55275,0,"s_074.ogg",100
Sample,55275,0,"s_044.ogg",100
Sample,55275,0,"s_079.ogg",100
Sample,55350,0,"s_044.ogg",100
Sample,55350,0,"s_056.ogg",100
Sample,55350,0,"s_036.ogg",100
Sample,55350,0,"s_060.ogg",100
Sample,55425,0,"s_061.ogg",100
Sample,55425,0,"s_037.ogg",100
Sample,55425,0,"s_045.ogg",100
Sample,55425,0,"s_057.ogg",100
Sample,55500,0,"s_058.ogg",100
Sample,55500,0,"s_046.ogg",100
Sample,55500,0,"s_062.ogg",100
Sample,55500,0,"s_038.ogg",100
Sample,55575,0,"s_049.ogg",100
Sample,55575,0,"s_061.ogg",100
Sample,55575,0,"s_065.ogg",100
Sample,55575,0,"s_041.ogg",100
Sample,55650,0,"s_063.ogg",100
Sample,55650,0,"s_048.ogg",100
Sample,55650,0,"s_039.ogg",100
Sample,55650,0,"s_060.ogg",100
Sample,55725,0,"s_032.ogg",100
Sample,55800,0,"s_003.ogg",100
Sample,55800,0,"s_015.ogg",100
Sample,55800,0,"s_027.ogg",100
Sample,55875,0,"s_027.ogg",100
Sample,55875,0,"s_015.ogg",100
Sample,55875,0,"s_003.ogg",100
Sample,55950,0,"s_044.ogg",100
Sample,55950,0,"s_056.ogg",100
Sample,55950,0,"s_060.ogg",100
Sample,55950,0,"s_036.ogg",100
Sample,56025,0,"s_045.ogg",100
Sample,56025,0,"s_061.ogg",100
Sample,56025,0,"s_057.ogg",100
Sample,56025,0,"s_037.ogg",100
Sample,56100,0,"s_038.ogg",100
Sample,56100,0,"s_062.ogg",100
Sample,56100,0,"s_058.ogg",100
Sample,56100,0,"s_046.ogg",100
Sample,56175,0,"s_041.ogg",100
Sample,56175,0,"s_049.ogg",100
Sample,56175,0,"s_065.ogg",100
Sample,56175,0,"s_061.ogg",100
Sample,56250,0,"s_060.ogg",100
Sample,56250,0,"s_063.ogg",100
Sample,56250,0,"s_039.ogg",100
Sample,56250,0,"s_048.ogg",100
Sample,56325,0,"s_027.ogg",100
Sample,56400,0,"s_074.ogg",100
Sample,56400,0,"s_051.ogg",100
Sample,56400,0,"s_053.ogg",100
Sample,56400,0,"s_066.ogg",100
Sample,56400,0,"s_060.ogg",100
Sample,56400,0,"s_044.ogg",100
Sample,56550,0,"s_003.ogg",100
Sample,56550,0,"s_015.ogg",100
Sample,56550,0,"s_027.ogg",100
Sample,56625,0,"s_003.ogg",100
Sample,56625,0,"s_015.ogg",100
Sample,56625,0,"s_027.ogg",100
Sample,56700,0,"s_060.ogg",100
Sample,56700,0,"s_057.ogg",100
Sample,56700,0,"s_045.ogg",100
Sample,56700,0,"s_036.ogg",100
Sample,56775,0,"s_058.ogg",100
Sample,56775,0,"s_046.ogg",100
Sample,56775,0,"s_037.ogg",100
Sample,56775,0,"s_061.ogg",100
Sample,56850,0,"s_062.ogg",100
Sample,56850,0,"s_059.ogg",100
Sample,56850,0,"s_038.ogg",100
Sample,56850,0,"s_047.ogg",100
Sample,56925,0,"s_041.ogg",100
Sample,56925,0,"s_061.ogg",100
Sample,56925,0,"s_065.ogg",100
Sample,56925,0,"s_049.ogg",100
Sample,57000,0,"s_060.ogg",100
Sample,57000,0,"s_039.ogg",100
Sample,57000,0,"s_048.ogg",100
Sample,57000,0,"s_063.ogg",100
Sample,57075,0,"s_027.ogg",100
Sample,57150,0,"s_074.ogg",100
Sample,57150,0,"s_045.ogg",100
Sample,57150,0,"s_054.ogg",100
Sample,57150,0,"s_066.ogg",100
Sample,57150,0,"s_060.ogg",100
Sample,57150,0,"s_051.ogg",100
Sample,57300,0,"s_003.ogg",100
Sample,57300,0,"s_015.ogg",100
Sample,57300,0,"s_027.ogg",100
Sample,57375,0,"s_027.ogg",100
Sample,57375,0,"s_003.ogg",100
Sample,57375,0,"s_015.ogg",100
Sample,57450,0,"s_034.ogg",100
Sample,57450,0,"s_050.ogg",100
Sample,57450,0,"s_061.ogg",100
Sample,57450,0,"s_052.ogg",100
Sample,57450,0,"s_043.ogg",100
Sample,57525,0,"s_053.ogg",100
Sample,57525,0,"s_044.ogg",100
Sample,57525,0,"s_062.ogg",100
Sample,57525,0,"s_051.ogg",100
Sample,57525,0,"s_035.ogg",100
Sample,57600,0,"s_063.ogg",100
Sample,57600,0,"s_054.ogg",100
Sample,57600,0,"s_052.ogg",100
Sample,57675,0,"s_066.ogg",100
Sample,57675,0,"s_057.ogg",100
Sample,57675,0,"s_053.ogg",100
Sample,57750,0,"s_056.ogg",100
Sample,57750,0,"s_065.ogg",100
Sample,57750,0,"s_054.ogg",100
Sample,57825,0,"s_055.ogg",100
Sample,57825,0,"s_068.ogg",100
Sample,57825,0,"s_059.ogg",100
Sample,57900,0,"s_056.ogg",100
Sample,57900,0,"s_067.ogg",100
Sample,57900,0,"s_058.ogg",100
Sample,57975,0,"s_070.ogg",100
Sample,57975,0,"s_061.ogg",100
Sample,57975,0,"s_057.ogg",100
Sample,58050,0,"s_060.ogg",100
Sample,58050,0,"s_069.ogg",100
Sample,58050,0,"s_058.ogg",100
Sample,58125,0,"s_059.ogg",100
Sample,58125,0,"s_063.ogg",100
Sample,58125,0,"s_072.ogg",100
Sample,58200,0,"s_062.ogg",100
Sample,58200,0,"s_053.ogg",100
Sample,58200,0,"s_071.ogg",100
Sample,58200,0,"s_060.ogg",100
Sample,58200,0,"s_044.ogg",100
Sample,58275,0,"s_061.ogg",100
Sample,58275,0,"s_048.ogg",100
Sample,58275,0,"s_074.ogg",100
Sample,58275,0,"s_056.ogg",100
Sample,58275,0,"s_065.ogg",100
Sample,58350,0,"s_073.ogg",100
Sample,58350,0,"s_055.ogg",100
Sample,58350,0,"s_064.ogg",100
Sample,58350,0,"s_062.ogg",100
Sample,58350,0,"s_046.ogg",100
Sample,58425,0,"s_067.ogg",100
Sample,58425,0,"s_049.ogg",100
Sample,58425,0,"s_063.ogg",100
Sample,58425,0,"s_058.ogg",100
Sample,58425,0,"s_076.ogg",100
Sample,58500,0,"s_057.ogg",100
Sample,58500,0,"s_064.ogg",100
Sample,58500,0,"s_066.ogg",100
Sample,58500,0,"s_075.ogg",100
Sample,58500,0,"s_048.ogg",100
Sample,58575,0,"s_078.ogg",100
Sample,58575,0,"s_060.ogg",100
Sample,58575,0,"s_051.ogg",100
Sample,58575,0,"s_069.ogg",100
Sample,58575,0,"s_065.ogg",100
Sample,58650,0,"s_068.ogg",100
Sample,58650,0,"s_050.ogg",100
Sample,58650,0,"s_077.ogg",100
Sample,58650,0,"s_066.ogg",100
Sample,58650,0,"s_059.ogg",100
Sample,58725,0,"s_067.ogg",100
Sample,58725,0,"s_062.ogg",100
Sample,58725,0,"s_051.ogg",100
Sample,58725,0,"s_071.ogg",100
Sample,58725,0,"s_080.ogg",100
Sample,58800,0,"s_068.ogg",100
Sample,58800,0,"s_061.ogg",100
Sample,58800,0,"s_051.ogg",100
Sample,58800,0,"s_070.ogg",100
Sample,58860,0,"s_073.ogg",100
Sample,58860,0,"s_082.ogg",100
Sample,58860,0,"s_063.ogg",100
Sample,58860,0,"s_055.ogg",100
Sample,58920,0,"s_076.ogg",100
Sample,58920,0,"s_085.ogg",100
Sample,58920,0,"s_058.ogg",100
Sample,58920,0,"s_067.ogg",100
Sample,58980,0,"s_055.ogg",100
Sample,58980,0,"s_082.ogg",100
Sample,58980,0,"s_063.ogg",100
Sample,58980,0,"s_073.ogg",100
Sample,59040,0,"s_070.ogg",100
Sample,59040,0,"s_079.ogg",100
Sample,59040,0,"s_051.ogg",100
Sample,59040,0,"s_061.ogg",100
Sample,59100,0,"s_075.ogg",100
Sample,59100,0,"s_049.ogg",100
Sample,59100,0,"s_067.ogg",100
Sample,59100,0,"s_058.ogg",100
Sample,59160,0,"s_064.ogg",100
Sample,59160,0,"s_046.ogg",100
Sample,59160,0,"s_073.ogg",100
Sample,59160,0,"s_055.ogg",100
Sample,59220,0,"s_070.ogg",100
Sample,59220,0,"s_043.ogg",100
Sample,59220,0,"s_052.ogg",100
Sample,59220,0,"s_061.ogg",100
Sample,59280,0,"s_049.ogg",100
Sample,59280,0,"s_039.ogg",100
Sample,59280,0,"s_058.ogg",100
Sample,59280,0,"s_067.ogg",100
Sample,59340,0,"s_061.ogg",100
Sample,59340,0,"s_070.ogg",100
Sample,59340,0,"s_051.ogg",100
Sample,59340,0,"s_043.ogg",100
Sample,59400,0,"s_064.ogg",100
Sample,59400,0,"s_073.ogg",100
Sample,59400,0,"s_055.ogg",100
Sample,59400,0,"s_046.ogg",100
Sample,59460,0,"s_070.ogg",100
Sample,59460,0,"s_052.ogg",100
Sample,59460,0,"s_061.ogg",100
Sample,59460,0,"s_043.ogg",100
Sample,59520,0,"s_039.ogg",100
Sample,59520,0,"s_067.ogg",100
Sample,59520,0,"s_049.ogg",100
Sample,59520,0,"s_058.ogg",100
Sample,59580,0,"s_064.ogg",100
Sample,59580,0,"s_046.ogg",100
Sample,59580,0,"s_037.ogg",100
Sample,59580,0,"s_055.ogg",100
Sample,59640,0,"s_052.ogg",100
Sample,59640,0,"s_043.ogg",100
Sample,59640,0,"s_034.ogg",100
Sample,59640,0,"s_061.ogg",100
Sample,59700,0,"s_058.ogg",100
Sample,59700,0,"s_040.ogg",100
Sample,59700,0,"s_031.ogg",100
Sample,59700,0,"s_049.ogg",100
Sample,59760,0,"s_027.ogg",100
Sample,59760,0,"s_046.ogg",100
Sample,59760,0,"s_037.ogg",100
Sample,59760,0,"s_055.ogg",100
Sample,59820,0,"s_034.ogg",100
Sample,59820,0,"s_043.ogg",100
Sample,59820,0,"s_051.ogg",100
Sample,59820,0,"s_025.ogg",100
Sample,59880,0,"s_022.ogg",100
Sample,59880,0,"s_031.ogg",100
Sample,59880,0,"s_040.ogg",100
Sample,59880,0,"s_049.ogg",100
Sample,59940,0,"s_028.ogg",100
Sample,59940,0,"s_037.ogg",100
Sample,59940,0,"s_046.ogg",100
Sample,59940,0,"s_019.ogg",100
Sample,60000,0,"s_015.ogg",100
Sample,60000,0,"s_025.ogg",100
Sample,60000,0,"s_034.ogg",100
Sample,60000,0,"s_043.ogg",100
Sample,60060,0,"s_019.ogg",100
Sample,60060,0,"s_028.ogg",100
Sample,60060,0,"s_037.ogg",100
Sample,60060,0,"s_046.ogg",100
Sample,60120,0,"s_022.ogg",100
Sample,60120,0,"s_049.ogg",100
Sample,60120,0,"s_031.ogg",100
Sample,60120,0,"s_040.ogg",100
Sample,60180,0,"s_046.ogg",100
Sample,60180,0,"s_028.ogg",100
Sample,60180,0,"s_037.ogg",100
Sample,60180,0,"s_019.ogg",100
Sample,60240,0,"s_034.ogg",100
Sample,60240,0,"s_043.ogg",100
Sample,60240,0,"s_024.ogg",100
Sample,60240,0,"s_015.ogg",100
Sample,60300,0,"s_039.ogg",100
Sample,60300,0,"s_022.ogg",100
Sample,60300,0,"s_013.ogg",100
Sample,60300,0,"s_031.ogg",100
Sample,60360,0,"s_028.ogg",100
Sample,60360,0,"s_037.ogg",100
Sample,60360,0,"s_019.ogg",100
Sample,60360,0,"s_010.ogg",100
Sample,60420,0,"s_016.ogg",100
Sample,60420,0,"s_034.ogg",100
Sample,60420,0,"s_007.ogg",100
Sample,60420,0,"s_025.ogg",100
Sample,60480,0,"s_022.ogg",100
Sample,60480,0,"s_031.ogg",100
Sample,60480,0,"s_003.ogg",100
Sample,60480,0,"s_013.ogg",100
Sample,60540,0,"s_007.ogg",100
Sample,60540,0,"s_034.ogg",100
Sample,60540,0,"s_025.ogg",100
Sample,60540,0,"s_016.ogg",100
Sample,60600,0,"s_010.ogg",100
Sample,60600,0,"s_019.ogg",100
Sample,60600,0,"s_028.ogg",100
Sample,60600,0,"s_037.ogg",100
Sample,60660,0,"s_031.ogg",100
Sample,60660,0,"s_022.ogg",100
Sample,60660,0,"s_039.ogg",100
Sample,60660,0,"s_013.ogg",100
Sample,60720,0,"s_043.ogg",100
Sample,60720,0,"s_025.ogg",100
Sample,60720,0,"s_015.ogg",100
Sample,60720,0,"s_034.ogg",100
Sample,60780,0,"s_046.ogg",100
Sample,60780,0,"s_028.ogg",100
Sample,60780,0,"s_019.ogg",100
Sample,60780,0,"s_037.ogg",100
Sample,60840,0,"s_049.ogg",100
Sample,60840,0,"s_031.ogg",100
Sample,60840,0,"s_022.ogg",100
Sample,60840,0,"s_040.ogg",100
Sample,60900,0,"s_025.ogg",100
Sample,60900,0,"s_034.ogg",100
Sample,60900,0,"s_043.ogg",100
Sample,60900,0,"s_051.ogg",100
Sample,60950,0,"s_046.ogg",100
Sample,60950,0,"s_055.ogg",100
Sample,60950,0,"s_027.ogg",100
Sample,60950,0,"s_037.ogg",100
Sample,61000,0,"s_031.ogg",100
Sample,61000,0,"s_058.ogg",100
Sample,61000,0,"s_049.ogg",100
Sample,61000,0,"s_040.ogg",100
Sample,61050,0,"s_034.ogg",100
Sample,61050,0,"s_061.ogg",100
Sample,61050,0,"s_052.ogg",100
Sample,61050,0,"s_043.ogg",100
Sample,61100,0,"s_055.ogg",100
Sample,61100,0,"s_046.ogg",100
Sample,61100,0,"s_037.ogg",100
Sample,61100,0,"s_063.ogg",100
Sample,61200,0,"s_058.ogg",100
Sample,61200,0,"s_041.ogg",100
Sample,61200,0,"s_037.ogg",100
Sample,61200,0,"s_053.ogg",100
Sample,61200,0,"s_049.ogg",100
Sample,61200,0,"s_034.ogg",100
Sample,61200,0,"s_043.ogg",100
Sample,61200,0,"s_051.ogg",100
Sample,61200,0,"s_046.ogg",100
Sample,61200,0,"s_067.ogg",100
Sample,61200,0,"s_027.ogg",100
Sample,61200,0,"s_015.ogg",100
Sample,61350,0,"s_084.ogg",100
Sample,61350,0,"s_064.ogg",100
Sample,61350,0,"s_077.ogg",100
Sample,61350,0,"s_071.ogg",100
Sample,61363,0,"s_083.ogg",100
Sample,61363,0,"s_076.ogg",100
Sample,61363,0,"s_070.ogg",100
Sample,61363,0,"s_063.ogg",100
Sample,61363,0,"s_057.ogg",100
Sample,61376,0,"s_082.ogg",100
Sample,61376,0,"s_075.ogg",100
Sample,61376,0,"s_069.ogg",100
Sample,61376,0,"s_062.ogg",100
Sample,61376,0,"s_056.ogg",100
Sample,61390,0,"s_081.ogg",100
Sample,61390,0,"s_074.ogg",100
Sample,61390,0,"s_055.ogg",100
Sample,61390,0,"s_068.ogg",100
Sample,61390,0,"s_061.ogg",100
Sample,61404,0,"s_067.ogg",100
Sample,61404,0,"s_080.ogg",100
Sample,61404,0,"s_073.ogg",100
Sample,61404,0,"s_060.ogg",100
Sample,61404,0,"s_054.ogg",100
Sample,61418,0,"s_072.ogg",100
Sample,61418,0,"s_059.ogg",100
Sample,61418,0,"s_066.ogg",100
Sample,61418,0,"s_079.ogg",100
Sample,61418,0,"s_053.ogg",100
Sample,61431,0,"s_065.ogg",100
Sample,61431,0,"s_078.ogg",100
Sample,61431,0,"s_071.ogg",100
Sample,61431,0,"s_058.ogg",100
Sample,61431,0,"s_052.ogg",100
Sample,61445,0,"s_064.ogg",100
Sample,61445,0,"s_077.ogg",100
Sample,61445,0,"s_070.ogg",100
Sample,61445,0,"s_057.ogg",100
Sample,61445,0,"s_051.ogg",100
Sample,61458,0,"s_069.ogg",100
Sample,61458,0,"s_063.ogg",100
Sample,61458,0,"s_056.ogg",100
Sample,61458,0,"s_050.ogg",100
Sample,61458,0,"s_076.ogg",100
Sample,61472,0,"s_062.ogg",100
Sample,61472,0,"s_075.ogg",100
Sample,61472,0,"s_049.ogg",100
Sample,61472,0,"s_068.ogg",100
Sample,61472,0,"s_055.ogg",100
Sample,61486,0,"s_048.ogg",100
Sample,61486,0,"s_074.ogg",100
Sample,61486,0,"s_054.ogg",100
Sample,61486,0,"s_061.ogg",100
Sample,61486,0,"s_067.ogg",100
Sample,61500,0,"s_047.ogg",100
Sample,61500,0,"s_060.ogg",100
Sample,61500,0,"s_066.ogg",100
Sample,61500,0,"s_073.ogg",100
Sample,61500,0,"s_053.ogg",100
Sample,61513,0,"s_072.ogg",100
Sample,61513,0,"s_052.ogg",100
Sample,61513,0,"s_059.ogg",100
Sample,61513,0,"s_046.ogg",100
Sample,61513,0,"s_065.ogg",100
Sample,61526,0,"s_058.ogg",100
Sample,61526,0,"s_064.ogg",100
Sample,61526,0,"s_051.ogg",100
Sample,61526,0,"s_045.ogg",100
Sample,61526,0,"s_071.ogg",100
Sample,61540,0,"s_070.ogg",100
Sample,61540,0,"s_063.ogg",100
Sample,61540,0,"s_044.ogg",100
Sample,61540,0,"s_057.ogg",100
Sample,61540,0,"s_050.ogg",100
Sample,61554,0,"s_056.ogg",100
Sample,61554,0,"s_049.ogg",100
Sample,61554,0,"s_069.ogg",100
Sample,61554,0,"s_043.ogg",100
Sample,61554,0,"s_062.ogg",100
Sample,61568,0,"s_061.ogg",100
Sample,61568,0,"s_068.ogg",100
Sample,61568,0,"s_042.ogg",100
Sample,61568,0,"s_048.ogg",100
Sample,61568,0,"s_055.ogg",100
Sample,61581,0,"s_054.ogg",100
Sample,61581,0,"s_067.ogg",100
Sample,61581,0,"s_060.ogg",100
Sample,61581,0,"s_041.ogg",100
Sample,61581,0,"s_047.ogg",100
Sample,61595,0,"s_059.ogg",100
Sample,61595,0,"s_040.ogg",100
Sample,61595,0,"s_053.ogg",100
Sample,61595,0,"s_046.ogg",100
Sample,61595,0,"s_066.ogg",100
Sample,61608,0,"s_045.ogg",100
Sample,61608,0,"s_052.ogg",100
Sample,61608,0,"s_065.ogg",100
Sample,61608,0,"s_039.ogg",100
Sample,61608,0,"s_058.ogg",100
Sample,61622,0,"s_038.ogg",100
Sample,61622,0,"s_057.ogg",100
Sample,61622,0,"s_051.ogg",100
Sample,61622,0,"s_064.ogg",100
Sample,61622,0,"s_044.ogg",100
Sample,61636,0,"s_043.ogg",100
Sample,61636,0,"s_050.ogg",100
Sample,61636,0,"s_063.ogg",100
Sample,61636,0,"s_037.ogg",100
Sample,61636,0,"s_056.ogg",100
Sample,61650,0,"s_036.ogg",100
Sample,61650,0,"s_042.ogg",100
Sample,61650,0,"s_062.ogg",100
Sample,61650,0,"s_049.ogg",100
Sample,61650,0,"s_055.ogg",100
Sample,61663,0,"s_054.ogg",100
Sample,61663,0,"s_035.ogg",100
Sample,61663,0,"s_048.ogg",100
Sample,61663,0,"s_041.ogg",100
Sample,61663,0,"s_061.ogg",100
Sample,61676,0,"s_060.ogg",100
Sample,61676,0,"s_040.ogg",100
Sample,61676,0,"s_047.ogg",100
Sample,61676,0,"s_034.ogg",100
Sample,61676,0,"s_053.ogg",100
Sample,61690,0,"s_052.ogg",100
Sample,61690,0,"s_033.ogg",100
Sample,61690,0,"s_039.ogg",100
Sample,61690,0,"s_046.ogg",100
Sample,61690,0,"s_059.ogg",100
Sample,61704,0,"s_045.ogg",100
Sample,61704,0,"s_051.ogg",100
Sample,61704,0,"s_058.ogg",100
Sample,61704,0,"s_038.ogg",100
Sample,61704,0,"s_032.ogg",100
Sample,61718,0,"s_044.ogg",100
Sample,61718,0,"s_050.ogg",100
Sample,61718,0,"s_031.ogg",100
Sample,61718,0,"s_037.ogg",100
Sample,61718,0,"s_057.ogg",100
Sample,61731,0,"s_049.ogg",100
Sample,61731,0,"s_036.ogg",100
Sample,61731,0,"s_056.ogg",100
Sample,61731,0,"s_030.ogg",100
Sample,61731,0,"s_043.ogg",100
Sample,61745,0,"s_055.ogg",100
Sample,61745,0,"s_042.ogg",100
Sample,61745,0,"s_035.ogg",100
Sample,61745,0,"s_048.ogg",100
Sample,61745,0,"s_029.ogg",100
Sample,61758,0,"s_028.ogg",100
Sample,61758,0,"s_054.ogg",100
Sample,61758,0,"s_034.ogg",100
Sample,61758,0,"s_041.ogg",100
Sample,61758,0,"s_047.ogg",100
Sample,61772,0,"s_046.ogg",100
Sample,61772,0,"s_033.ogg",100
Sample,61772,0,"s_040.ogg",100
Sample,61772,0,"s_053.ogg",100
Sample,61772,0,"s_027.ogg",100
Sample,61786,0,"s_039.ogg",100
Sample,61786,0,"s_032.ogg",100
Sample,61786,0,"s_052.ogg",100
Sample,61786,0,"s_045.ogg",100
Sample,61786,0,"s_026.ogg",100
Sample,61800,0,"s_025.ogg",100
Sample,61800,0,"s_038.ogg",100
Sample,61800,0,"s_051.ogg",100
Sample,61800,0,"s_044.ogg",100
Sample,61800,0,"s_031.ogg",100
Sample,61813,0,"s_030.ogg",100
Sample,61813,0,"s_050.ogg",100
Sample,61813,0,"s_043.ogg",100
Sample,61813,0,"s_037.ogg",100
Sample,61813,0,"s_024.ogg",100
Sample,61826,0,"s_023.ogg",100
Sample,61826,0,"s_036.ogg",100
Sample,61826,0,"s_042.ogg",100
Sample,61826,0,"s_029.ogg",100
Sample,61826,0,"s_049.ogg",100
Sample,61840,0,"s_035.ogg",100
Sample,61840,0,"s_041.ogg",100
Sample,61840,0,"s_028.ogg",100
Sample,61840,0,"s_048.ogg",100
Sample,61840,0,"s_022.ogg",100
Sample,61854,0,"s_040.ogg",100
Sample,61854,0,"s_021.ogg",100
Sample,61854,0,"s_047.ogg",100
Sample,61854,0,"s_034.ogg",100
Sample,61854,0,"s_027.ogg",100
Sample,61868,0,"s_046.ogg",100
Sample,61868,0,"s_026.ogg",100
Sample,61868,0,"s_033.ogg",100
Sample,61868,0,"s_039.ogg",100
Sample,61868,0,"s_020.ogg",100
Sample,61881,0,"s_032.ogg",100
Sample,61881,0,"s_019.ogg",100
Sample,61881,0,"s_038.ogg",100
Sample,61881,0,"s_045.ogg",100
Sample,61881,0,"s_025.ogg",100
Sample,61895,0,"s_044.ogg",100
Sample,61895,0,"s_018.ogg",100
Sample,61895,0,"s_031.ogg",100
Sample,61895,0,"s_037.ogg",100
Sample,61895,0,"s_024.ogg",100
Sample,61908,0,"s_036.ogg",100
Sample,61908,0,"s_023.ogg",100
Sample,61908,0,"s_043.ogg",100
Sample,61908,0,"s_017.ogg",100
Sample,61908,0,"s_030.ogg",100
Sample,61922,0,"s_029.ogg",100
Sample,61922,0,"s_035.ogg",100
Sample,61922,0,"s_016.ogg",100
Sample,61922,0,"s_022.ogg",100
Sample,61922,0,"s_042.ogg",100
Sample,61936,0,"s_041.ogg",100
Sample,61936,0,"s_028.ogg",100
Sample,61936,0,"s_015.ogg",100
Sample,61936,0,"s_034.ogg",100
Sample,61936,0,"s_021.ogg",100
Sample,61950,0,"s_040.ogg",100
Sample,61950,0,"s_020.ogg",100
Sample,61950,0,"s_027.ogg",100
Sample,61950,0,"s_033.ogg",100
Sample,61950,0,"s_014.ogg",100
Sample,61963,0,"s_013.ogg",100
Sample,61963,0,"s_032.ogg",100
Sample,61963,0,"s_039.ogg",100
Sample,61963,0,"s_019.ogg",100
Sample,61963,0,"s_026.ogg",100
Sample,61976,0,"s_018.ogg",100
Sample,61976,0,"s_031.ogg",100
Sample,61976,0,"s_012.ogg",100
Sample,61976,0,"s_038.ogg",100
Sample,61976,0,"s_025.ogg",100
Sample,61990,0,"s_037.ogg",100
Sample,61990,0,"s_017.ogg",100
Sample,61990,0,"s_030.ogg",100
Sample,61990,0,"s_011.ogg",100
Sample,61990,0,"s_024.ogg",100
Sample,62004,0,"s_023.ogg",100
Sample,62004,0,"s_029.ogg",100
Sample,62004,0,"s_010.ogg",100
Sample,62004,0,"s_016.ogg",100
Sample,62004,0,"s_036.ogg",100
Sample,62018,0,"s_009.ogg",100
Sample,62018,0,"s_022.ogg",100
Sample,62018,0,"s_035.ogg",100
Sample,62018,0,"s_028.ogg",100
Sample,62018,0,"s_015.ogg",100
Sample,62031,0,"s_014.ogg",100
Sample,62031,0,"s_008.ogg",100
Sample,62031,0,"s_034.ogg",100
Sample,62031,0,"s_021.ogg",100
Sample,62031,0,"s_027.ogg",100
Sample,62045,0,"s_007.ogg",100
Sample,62045,0,"s_026.ogg",100
Sample,62045,0,"s_013.ogg",100
Sample,62045,0,"s_033.ogg",100
Sample,62045,0,"s_020.ogg",100
Sample,62058,0,"s_006.ogg",100
Sample,62058,0,"s_025.ogg",100
Sample,62058,0,"s_012.ogg",100
Sample,62058,0,"s_032.ogg",100
Sample,62058,0,"s_019.ogg",100
Sample,62072,0,"s_031.ogg",100
Sample,62072,0,"s_024.ogg",100
Sample,62072,0,"s_005.ogg",100
Sample,62072,0,"s_011.ogg",100
Sample,62072,0,"s_018.ogg",100
Sample,62086,0,"s_010.ogg",100
Sample,62086,0,"s_004.ogg",100
Sample,62086,0,"s_030.ogg",100
Sample,62086,0,"s_017.ogg",100
Sample,62086,0,"s_023.ogg",100
Sample,62100,0,"m_015.ogg",100
Sample,62100,0,"m_027.ogg",100
Sample,62100,0,"m_003.ogg",100
Sample,62250,0,"s_053.ogg",100
Sample,62250,0,"s_065.ogg",100
Sample,62250,0,"s_077.ogg",100
Sample,62280,0,"s_004.ogg",100
Sample,62280,0,"s_016.ogg",100
Sample,62280,0,"s_028.ogg",100
Sample,62300,0,"s_079.ogg",100
Sample,62300,0,"s_055.ogg",100
Sample,62300,0,"s_067.ogg",100
Sample,62310,0,"s_029.ogg",100
Sample,62310,0,"s_017.ogg",100
Sample,62310,0,"s_005.ogg",100
Sample,62340,0,"s_030.ogg",100
Sample,62340,0,"s_018.ogg",100
Sample,62340,0,"s_006.ogg",100
Sample,62350,0,"s_077.ogg",100
Sample,62350,0,"s_065.ogg",100
Sample,62350,0,"s_053.ogg",100
Sample,62370,0,"s_031.ogg",100
Sample,62370,0,"s_007.ogg",100
Sample,62370,0,"s_019.ogg",100
Sample,62400,0,"s_036.ogg",100
Sample,62400,0,"s_063.ogg",100
Sample,62400,0,"s_020.ogg",100
Sample,62400,0,"s_075.ogg",100
Sample,62400,0,"s_032.ogg",100
Sample,62400,0,"s_051.ogg",100
Sample,62400,0,"s_027.ogg",100
Sample,62400,0,"s_008.ogg",100
Sample,62475,0,"s_039.ogg",100
Sample,62475,0,"s_031.ogg",100
Sample,62475,0,"s_041.ogg",100
Sample,62550,0,"s_060.ogg",100
Sample,62550,0,"s_063.ogg",100
Sample,62550,0,"s_048.ogg",100
Sample,62550,0,"s_072.ogg",100
Sample,62550,0,"s_032.ogg",100
Sample,62550,0,"s_056.ogg",100
Sample,62625,0,"s_035.ogg",100
Sample,62625,0,"s_051.ogg",100
Sample,62700,0,"s_027.ogg",100
Sample,62700,0,"s_003.ogg",100
Sample,62700,0,"s_044.ogg",100
Sample,62700,0,"s_056.ogg",100
Sample,62700,0,"s_015.ogg",100
Sample,62700,0,"s_036.ogg",100
Sample,62700,0,"s_068.ogg",100
Sample,62775,0,"s_041.ogg",100
Sample,62775,0,"s_039.ogg",100
Sample,62775,0,"s_037.ogg",100
Sample,62850,0,"s_041.ogg",100
Sample,62850,0,"s_038.ogg",100
Sample,62850,0,"s_063.ogg",100
Sample,62850,0,"s_065.ogg",100
Sample,62850,0,"s_056.ogg",100
Sample,62850,0,"s_053.ogg",100
Sample,62925,0,"s_051.ogg",100
Sample,62925,0,"s_039.ogg",100
Sample,63000,0,"s_020.ogg",100
Sample,63000,0,"s_063.ogg",100
Sample,63000,0,"s_051.ogg",100
Sample,63000,0,"s_032.ogg",100
Sample,63000,0,"s_036.ogg",100
Sample,63000,0,"s_008.ogg",100
Sample,63000,0,"s_039.ogg",100
Sample,63075,0,"s_039.ogg",100
Sample,63075,0,"s_041.ogg",100
Sample,63075,0,"s_048.ogg",100
Sample,63150,0,"s_063.ogg",100
Sample,63150,0,"s_068.ogg",100
Sample,63150,0,"s_044.ogg",100
Sample,63150,0,"s_039.ogg",100
Sample,63150,0,"s_056.ogg",100
Sample,63225,0,"s_036.ogg",100
Sample,63225,0,"s_051.ogg",100
Sample,63300,0,"m_065.ogg",100
Sample,63300,0,"m_053.ogg",100
Sample,63300,0,"m_041.ogg",100
Sample,63300,0,"s_015.ogg",100
Sample,63300,0,"s_027.ogg",100
Sample,63300,0,"s_035.ogg",100
Sample,63300,0,"s_003.ogg",100
Sample,63375,0,"s_046.ogg",100
Sample,63375,0,"s_037.ogg",100
Sample,63450,0,"s_063.ogg",100
Sample,63450,0,"s_035.ogg",100
Sample,63450,0,"s_056.ogg",100
Sample,63525,0,"s_033.ogg",100
Sample,63525,0,"s_051.ogg",100
Sample,63600,0,"s_008.ogg",100
Sample,63600,0,"s_039.ogg",100
Sample,63600,0,"s_032.ogg",100
Sample,63600,0,"s_020.ogg",100
Sample,63600,0,"s_063.ogg",100
Sample,63600,0,"s_051.ogg",100
Sample,63600,0,"s_036.ogg",100
Sample,63675,0,"s_037.ogg",100
Sample,63675,0,"s_046.ogg",100
Sample,63675,0,"s_041.ogg",100
Sample,63750,0,"s_059.ogg",100
Sample,63750,0,"s_056.ogg",100
Sample,63750,0,"s_039.ogg",100
Sample,63750,0,"s_071.ogg",100
Sample,63750,0,"s_063.ogg",100
Sample,63750,0,"s_047.ogg",100
Sample,63825,0,"s_040.ogg",100
Sample,63825,0,"s_051.ogg",100
Sample,63900,0,"s_036.ogg",100
Sample,63900,0,"m_053.ogg",100
Sample,63900,0,"s_026.ogg",100
Sample,63900,0,"m_065.ogg",100
Sample,63900,0,"s_014.ogg",100
Sample,63900,0,"s_038.ogg",100
Sample,63900,0,"m_041.ogg",100
Sample,63975,0,"s_046.ogg",100
Sample,63975,0,"s_042.ogg",100
Sample,63975,0,"s_039.ogg",100
Sample,64050,0,"s_043.ogg",100
Sample,64050,0,"s_063.ogg",100
Sample,64050,0,"s_056.ogg",100
Sample,64125,0,"s_044.ogg",100
Sample,64125,0,"s_051.ogg",100
Sample,64200,0,"s_048.ogg",100
Sample,64200,0,"s_036.ogg",100
Sample,64200,0,"s_061.ogg",100
Sample,64200,0,"s_020.ogg",100
Sample,64200,0,"s_008.ogg",100
Sample,64200,0,"s_049.ogg",100
Sample,64200,0,"s_032.ogg",100
Sample,64200,0,"s_037.ogg",100
Sample,64275,0,"s_050.ogg",100
Sample,64275,0,"s_046.ogg",100
Sample,64275,0,"s_038.ogg",100
Sample,64275,0,"s_053.ogg",100
Sample,64275,0,"s_041.ogg",100
Sample,64275,0,"s_062.ogg",100
Sample,64350,0,"s_056.ogg",100
Sample,64350,0,"s_063.ogg",100
Sample,64350,0,"s_051.ogg",100
Sample,64350,0,"s_039.ogg",100
Sample,64425,0,"s_036.ogg",100
Sample,64425,0,"s_048.ogg",100
Sample,64425,0,"s_060.ogg",100
Sample,64425,0,"s_051.ogg",100
Sample,64500,0,"s_036.ogg",100
Sample,64500,0,"s_051.ogg",100
Sample,64500,0,"s_032.ogg",100
Sample,64500,0,"s_044.ogg",100
Sample,64500,0,"s_063.ogg",100
Sample,64500,0,"s_020.ogg",100
Sample,64500,0,"s_039.ogg",100
Sample,64575,0,"s_039.ogg",100
Sample,64575,0,"s_046.ogg",100
Sample,64575,0,"s_043.ogg",100
Sample,64575,0,"s_041.ogg",100
Sample,64650,0,"s_056.ogg",100
Sample,64650,0,"s_063.ogg",100
Sample,64650,0,"s_042.ogg",100
Sample,64650,0,"s_058.ogg",100
Sample,64650,0,"s_070.ogg",100
Sample,64650,0,"s_046.ogg",100
Sample,64700,0,"s_060.ogg",100
Sample,64700,0,"s_072.ogg",100
Sample,64700,0,"s_048.ogg",100
Sample,64725,0,"s_051.ogg",100
Sample,64725,0,"s_043.ogg",100
Sample,64750,0,"s_070.ogg",100
Sample,64750,0,"s_058.ogg",100
Sample,64750,0,"s_046.ogg",100
Sample,64800,0,"m_025.ogg",100
Sample,64800,0,"m_013.ogg",100
Sample,64800,0,"s_044.ogg",100
Sample,64800,0,"s_068.ogg",100
Sample,64800,0,"s_056.ogg",100
Sample,64875,0,"s_044.ogg",100
Sample,64875,0,"s_041.ogg",100
Sample,64875,0,"s_047.ogg",100
Sample,64875,0,"s_048.ogg",100
Sample,64950,0,"s_051.ogg",100
Sample,64950,0,"s_058.ogg",100
Sample,64950,0,"s_041.ogg",100
Sample,64950,0,"s_048.ogg",100
Sample,64950,0,"s_053.ogg",100
Sample,64950,0,"s_065.ogg",100
Sample,65025,0,"s_053.ogg",100
Sample,65025,0,"s_049.ogg",100
Sample,65100,0,"s_053.ogg",100
Sample,65100,0,"s_044.ogg",100
Sample,65100,0,"s_037.ogg",100
Sample,65100,0,"s_068.ogg",100
Sample,65100,0,"s_056.ogg",100
Sample,65175,0,"s_048.ogg",100
Sample,65175,0,"s_044.ogg",100
Sample,65175,0,"s_041.ogg",100
Sample,65175,0,"s_054.ogg",100
Sample,65250,0,"s_061.ogg",100
Sample,65250,0,"s_058.ogg",100
Sample,65250,0,"s_049.ogg",100
Sample,65250,0,"s_024.ogg",100
Sample,65250,0,"s_055.ogg",100
Sample,65250,0,"s_012.ogg",100
Sample,65250,0,"s_073.ogg",100
Sample,65250,0,"s_051.ogg",100
Sample,65250,0,"s_065.ogg",100
Sample,65325,0,"s_053.ogg",100
Sample,65325,0,"s_056.ogg",100
Sample,65400,0,"s_037.ogg",100
Sample,65400,0,"s_068.ogg",100
Sample,65400,0,"m_010.ogg",100
Sample,65400,0,"m_022.ogg",100
Sample,65400,0,"s_056.ogg",100
Sample,65400,0,"s_044.ogg",100
Sample,65400,0,"s_061.ogg",100
Sample,65475,0,"s_041.ogg",100
Sample,65475,0,"s_058.ogg",100
Sample,65475,0,"s_044.ogg",100
Sample,65475,0,"s_048.ogg",100
Sample,65550,0,"s_077.ogg",100
Sample,65550,0,"s_058.ogg",100
Sample,65550,0,"s_053.ogg",100
Sample,65550,0,"s_051.ogg",100
Sample,65550,0,"s_065.ogg",100
Sample,65625,0,"s_053.ogg",100
Sample,65625,0,"s_055.ogg",100
Sample,65700,0,"s_037.ogg",100
Sample,65700,0,"s_044.ogg",100
Sample,65700,0,"s_068.ogg",100
Sample,65700,0,"s_056.ogg",100
Sample,65775,0,"s_044.ogg",100
Sample,65775,0,"s_061.ogg",100
Sample,65775,0,"s_048.ogg",100
Sample,65775,0,"s_041.ogg",100
Sample,65850,0,"s_057.ogg",100
Sample,65850,0,"s_058.ogg",100
Sample,65850,0,"s_081.ogg",100
Sample,65850,0,"s_069.ogg",100
Sample,65850,0,"s_051.ogg",100
Sample,65850,0,"s_065.ogg",100
Sample,65925,0,"s_068.ogg",100
Sample,65925,0,"s_053.ogg",100
Sample,66000,0,"s_022.ogg",100
Sample,66000,0,"s_027.ogg",100
Sample,66000,0,"s_055.ogg",100
Sample,66000,0,"s_031.ogg",100
Sample,66000,0,"s_015.ogg",100
Sample,66000,0,"s_049.ogg",100
Sample,66000,0,"s_067.ogg",100
Sample,66000,0,"s_064.ogg",100
Sample,66000,0,"s_059.ogg",100
Sample,66000,0,"s_052.ogg",100
Sample,66000,0,"s_003.ogg",100
Sample,66075,0,"s_028.ogg",100
Sample,66075,0,"s_060.ogg",100
Sample,66075,0,"s_058.ogg",100
Sample,66075,0,"s_066.ogg",100
Sample,66075,0,"s_070.ogg",100
Sample,66075,0,"s_054.ogg",100
Sample,66075,0,"s_063.ogg",100
Sample,66075,0,"s_025.ogg",100
Sample,66075,0,"s_004.ogg",100
Sample,66075,0,"s_051.ogg",100
Sample,66075,0,"s_048.ogg",100
Sample,66075,0,"s_016.ogg",100
Sample,66075,0,"s_034.ogg",100
Sample,66150,0,"s_050.ogg",100
Sample,66150,0,"s_059.ogg",100
Sample,66150,0,"s_053.ogg",100
Sample,66150,0,"s_037.ogg",100
Sample,66150,0,"s_017.ogg",100
Sample,66150,0,"s_029.ogg",100
Sample,66150,0,"s_057.ogg",100
Sample,66150,0,"s_069.ogg",100
Sample,66150,0,"s_065.ogg",100
Sample,66150,0,"s_047.ogg",100
Sample,66150,0,"s_005.ogg",100
Sample,66150,0,"s_062.ogg",100
Sample,66225,0,"s_003.ogg",100
Sample,66225,0,"s_061.ogg",100
Sample,66225,0,"s_055.ogg",100
Sample,66225,0,"s_052.ogg",100
Sample,66225,0,"s_027.ogg",100
Sample,66225,0,"s_071.ogg",100
Sample,66225,0,"s_059.ogg",100
Sample,66225,0,"s_022.ogg",100
Sample,66225,0,"s_064.ogg",100
Sample,66225,0,"s_067.ogg",100
Sample,66225,0,"s_049.ogg",100
Sample,66225,0,"s_015.ogg",100
Sample,66225,0,"s_031.ogg",100
Sample,66300,0,"s_028.ogg",100
Sample,66300,0,"s_025.ogg",100
Sample,66300,0,"s_004.ogg",100
Sample,66300,0,"s_016.ogg",100
Sample,66300,0,"s_048.ogg",100
Sample,66300,0,"s_066.ogg",100
Sample,66300,0,"s_060.ogg",100
Sample,66300,0,"s_063.ogg",100
Sample,66300,0,"s_054.ogg",100
Sample,66300,0,"s_051.ogg",100
Sample,66300,0,"s_070.ogg",100
Sample,66300,0,"s_058.ogg",100
Sample,66300,0,"s_034.ogg",100
Sample,66375,0,"s_057.ogg",100
Sample,66375,0,"s_005.ogg",100
Sample,66375,0,"s_017.ogg",100
Sample,66375,0,"s_065.ogg",100
Sample,66375,0,"s_062.ogg",100
Sample,66375,0,"s_029.ogg",100
Sample,66375,0,"s_050.ogg",100
Sample,66375,0,"s_069.ogg",100
Sample,66375,0,"s_047.ogg",100
Sample,66375,0,"s_059.ogg",100
Sample,66375,0,"s_053.ogg",100
Sample,66375,0,"s_037.ogg",100
Sample,66450,0,"s_064.ogg",100
Sample,66450,0,"s_061.ogg",100
Sample,66450,0,"s_022.ogg",100
Sample,66450,0,"s_027.ogg",100
Sample,66450,0,"s_049.ogg",100
Sample,66450,0,"s_071.ogg",100
Sample,66450,0,"s_055.ogg",100
Sample,66450,0,"s_067.ogg",100
Sample,66450,0,"s_052.ogg",100
Sample,66450,0,"s_059.ogg",100
Sample,66450,0,"s_015.ogg",100
Sample,66450,0,"s_003.ogg",100
Sample,66450,0,"s_031.ogg",100
Sample,66525,0,"s_025.ogg",100
Sample,66525,0,"s_028.ogg",100
Sample,66525,0,"s_048.ogg",100
Sample,66525,0,"s_054.ogg",100
Sample,66525,0,"s_063.ogg",100
Sample,66525,0,"s_066.ogg",100
Sample,66525,0,"s_004.ogg",100
Sample,66525,0,"s_060.ogg",100
Sample,66525,0,"s_070.ogg",100
Sample,66525,0,"s_058.ogg",100
Sample,66525,0,"s_051.ogg",100
Sample,66525,0,"s_016.ogg",100
Sample,66525,0,"s_034.ogg",100
Sample,66600,0,"s_053.ogg",100
Sample,66600,0,"s_047.ogg",100
Sample,66600,0,"s_029.ogg",100
Sample,66600,0,"s_017.ogg",100
Sample,66600,0,"s_062.ogg",100
Sample,66600,0,"s_059.ogg",100
Sample,66600,0,"s_057.ogg",100
Sample,66600,0,"s_069.ogg",100
Sample,66600,0,"s_050.ogg",100
Sample,66600,0,"s_065.ogg",100
Sample,66600,0,"s_005.ogg",100
Sample,66600,0,"s_037.ogg",100
Sample,66675,0,"s_049.ogg",100
Sample,66675,0,"s_027.ogg",100
Sample,66675,0,"s_055.ogg",100
Sample,66675,0,"s_052.ogg",100
Sample,66675,0,"s_022.ogg",100
Sample,66675,0,"s_067.ogg",100
Sample,66675,0,"s_064.ogg",100
Sample,66675,0,"s_071.ogg",100
Sample,66675,0,"s_003.ogg",100
Sample,66675,0,"s_061.ogg",100
Sample,66675,0,"s_059.ogg",100
Sample,66675,0,"s_015.ogg",100
Sample,66675,0,"s_031.ogg",100
Sample,66750,0,"s_060.ogg",100
Sample,66750,0,"s_070.ogg",100
Sample,66750,0,"s_016.ogg",100
Sample,66750,0,"s_048.ogg",100
Sample,66750,0,"s_063.ogg",100
Sample,66750,0,"s_058.ogg",100
Sample,66750,0,"s_025.ogg",100
Sample,66750,0,"s_066.ogg",100
Sample,66750,0,"s_028.ogg",100
Sample,66750,0,"s_054.ogg",100
Sample,66750,0,"s_051.ogg",100
Sample,66750,0,"s_004.ogg",100
Sample,66750,0,"s_034.ogg",100
Sample,66825,0,"s_017.ogg",100
Sample,66825,0,"s_057.ogg",100
Sample,66825,0,"s_005.ogg",100
Sample,66825,0,"s_059.ogg",100
Sample,66825,0,"s_050.ogg",100
Sample,66825,0,"s_047.ogg",100
Sample,66825,0,"s_065.ogg",100
Sample,66825,0,"s_069.ogg",100
Sample,66825,0,"s_029.ogg",100
Sample,66825,0,"s_053.ogg",100
Sample,66825,0,"s_062.ogg",100
Sample,66825,0,"s_037.ogg",100
Sample,66900,0,"s_061.ogg",100
Sample,66900,0,"s_052.ogg",100
Sample,66900,0,"s_064.ogg",100
Sample,66900,0,"s_003.ogg",100
Sample,66900,0,"s_027.ogg",100
Sample,66900,0,"s_071.ogg",100
Sample,66900,0,"s_022.ogg",100
Sample,66900,0,"s_067.ogg",100
Sample,66900,0,"s_049.ogg",100
Sample,66900,0,"s_059.ogg",100
Sample,66900,0,"s_055.ogg",100
Sample,66900,0,"s_031.ogg",100
Sample,66900,0,"s_015.ogg",100
Sample,66975,0,"s_051.ogg",100
Sample,66975,0,"s_004.ogg",100
Sample,66975,0,"s_054.ogg",100
Sample,66975,0,"s_034.ogg",100
Sample,66975,0,"s_060.ogg",100
Sample,66975,0,"s_066.ogg",100
Sample,66975,0,"s_058.ogg",100
Sample,66975,0,"s_025.ogg",100
Sample,66975,0,"s_070.ogg",100
Sample,66975,0,"s_063.ogg",100
Sample,66975,0,"s_028.ogg",100
Sample,66975,0,"s_048.ogg",100
Sample,66975,0,"s_016.ogg",100
Sample,67050,0,"s_059.ogg",100
Sample,67050,0,"s_062.ogg",100
Sample,67050,0,"s_017.ogg",100
Sample,67050,0,"s_037.ogg",100
Sample,67050,0,"s_047.ogg",100
Sample,67050,0,"s_053.ogg",100
Sample,67050,0,"s_057.ogg",100
Sample,67050,0,"s_050.ogg",100
Sample,67050,0,"s_069.ogg",100
Sample,67050,0,"s_005.ogg",100
Sample,67050,0,"s_029.ogg",100
Sample,67050,0,"s_065.ogg",100
Sample,67125,0,"s_067.ogg",100
Sample,67125,0,"s_022.ogg",100
Sample,67125,0,"s_049.ogg",100
Sample,67125,0,"s_027.ogg",100
Sample,67125,0,"s_059.ogg",100
Sample,67125,0,"s_061.ogg",100
Sample,67125,0,"s_003.ogg",100
Sample,67125,0,"s_055.ogg",100
Sample,67125,0,"s_052.ogg",100
Sample,67125,0,"s_015.ogg",100
Sample,67125,0,"s_064.ogg",100
Sample,67125,0,"s_031.ogg",100
Sample,67125,0,"s_071.ogg",100
Sample,67200,0,"s_025.ogg",100
Sample,67200,0,"s_058.ogg",100
Sample,67200,0,"s_051.ogg",100
Sample,67200,0,"s_034.ogg",100
Sample,67200,0,"s_016.ogg",100
Sample,67200,0,"s_048.ogg",100
Sample,67200,0,"s_028.ogg",100
Sample,67200,0,"s_063.ogg",100
Sample,67200,0,"s_066.ogg",100
Sample,67200,0,"s_070.ogg",100
Sample,67200,0,"s_054.ogg",100
Sample,67200,0,"s_060.ogg",100
Sample,67200,0,"s_004.ogg",100
Sample,67275,0,"s_062.ogg",100
Sample,67275,0,"s_050.ogg",100
Sample,67275,0,"s_065.ogg",100
Sample,67275,0,"s_005.ogg",100
Sample,67275,0,"s_029.ogg",100
Sample,67275,0,"s_047.ogg",100
Sample,67275,0,"s_053.ogg",100
Sample,67275,0,"s_069.ogg",100
Sample,67275,0,"s_059.ogg",100
Sample,67275,0,"s_057.ogg",100
Sample,67275,0,"s_017.ogg",100
Sample,67275,0,"s_037.ogg",100
Sample,67350,0,"s_064.ogg",100
Sample,67350,0,"s_046.ogg",100
Sample,67350,0,"s_058.ogg",100
Sample,67350,0,"s_030.ogg",100
Sample,67350,0,"s_068.ogg",100
Sample,67350,0,"s_041.ogg",100
Sample,67350,0,"s_061.ogg",100
Sample,67350,0,"s_049.ogg",100
Sample,67350,0,"s_056.ogg",100
Sample,67350,0,"s_006.ogg",100
Sample,67350,0,"s_052.ogg",100
Sample,67350,0,"s_031.ogg",100
Sample,67350,0,"s_018.ogg",100
Sample,67425,0,"s_007.ogg",100
Sample,67425,0,"s_031.ogg",100
Sample,67425,0,"s_060.ogg",100
Sample,67425,0,"s_043.ogg",100
Sample,67425,0,"s_051.ogg",100
Sample,67425,0,"s_057.ogg",100
Sample,67425,0,"s_063.ogg",100
Sample,67425,0,"s_048.ogg",100
Sample,67425,0,"s_067.ogg",100
Sample,67425,0,"s_034.ogg",100
Sample,67425,0,"s_055.ogg",100
Sample,67425,0,"s_045.ogg",100
Sample,67425,0,"s_019.ogg",100
Sample,67500,0,"s_062.ogg",100
Sample,67500,0,"s_044.ogg",100
Sample,67500,0,"s_054.ogg",100
Sample,67500,0,"s_029.ogg",100
Sample,67500,0,"s_047.ogg",100
Sample,67500,0,"s_059.ogg",100
Sample,67500,0,"s_066.ogg",100
Sample,67500,0,"s_032.ogg",100
Sample,67500,0,"s_008.ogg",100
Sample,67500,0,"s_020.ogg",100
Sample,67500,0,"s_050.ogg",100
Sample,67500,0,"s_037.ogg",100
Sample,67500,0,"s_056.ogg",100
Sample,67575,0,"s_009.ogg",100
Sample,67575,0,"s_043.ogg",100
Sample,67575,0,"s_058.ogg",100
Sample,67575,0,"s_031.ogg",100
Sample,67575,0,"s_033.ogg",100
Sample,67575,0,"s_065.ogg",100
Sample,67575,0,"s_046.ogg",100
Sample,67575,0,"s_049.ogg",100
Sample,67575,0,"s_055.ogg",100
Sample,67575,0,"s_053.ogg",100
Sample,67575,0,"s_041.ogg",100
Sample,67575,0,"s_021.ogg",100
Sample,67575,0,"s_061.ogg",100
Sample,67650,0,"s_034.ogg",100
Sample,67650,0,"s_052.ogg",100
Sample,67650,0,"s_048.ogg",100
Sample,67650,0,"s_060.ogg",100
Sample,67650,0,"s_043.ogg",100
Sample,67650,0,"s_022.ogg",100
Sample,67650,0,"s_045.ogg",100
Sample,67650,0,"s_054.ogg",100
Sample,67650,0,"s_064.ogg",100
Sample,67650,0,"s_057.ogg",100
Sample,67650,0,"s_042.ogg",100
Sample,67650,0,"s_010.ogg",100
Sample,67725,0,"s_044.ogg",100
Sample,67725,0,"s_059.ogg",100
Sample,67725,0,"s_039.ogg",100
Sample,67725,0,"s_051.ogg",100
Sample,67725,0,"s_056.ogg",100
Sample,67725,0,"s_053.ogg",100
Sample,67725,0,"s_011.ogg",100
Sample,67725,0,"s_023.ogg",100
Sample,67725,0,"s_063.ogg",100
Sample,67725,0,"s_035.ogg",100
Sample,67725,0,"s_047.ogg",100
Sample,67725,0,"s_046.ogg",100
Sample,67725,0,"s_041.ogg",100
Sample,67800,0,"s_036.ogg",100
Sample,67800,0,"s_043.ogg",100
Sample,67800,0,"s_062.ogg",100
Sample,67800,0,"s_041.ogg",100
Sample,67800,0,"s_040.ogg",100
Sample,67800,0,"s_032.ogg",100
Sample,67800,0,"s_046.ogg",100
Sample,67800,0,"s_012.ogg",100
Sample,67800,0,"s_055.ogg",100
Sample,67800,0,"s_050.ogg",100
Sample,67800,0,"s_058.ogg",100
Sample,67800,0,"s_052.ogg",100
Sample,67800,0,"s_024.ogg",100
Sample,67875,0,"s_061.ogg",100
Sample,67875,0,"s_037.ogg",100
Sample,67875,0,"s_039.ogg",100
Sample,67875,0,"s_013.ogg",100
Sample,67875,0,"s_051.ogg",100
Sample,67875,0,"s_049.ogg",100
Sample,67875,0,"s_057.ogg",100
Sample,67875,0,"s_045.ogg",100
Sample,67875,0,"s_042.ogg",100
Sample,67875,0,"s_043.ogg",100
Sample,67875,0,"s_054.ogg",100
Sample,67875,0,"s_034.ogg",100
Sample,67875,0,"s_025.ogg",100
Sample,67950,0,"s_056.ogg",100
Sample,67950,0,"s_026.ogg",100
Sample,67950,0,"s_046.ogg",100
Sample,67950,0,"s_060.ogg",100
Sample,67950,0,"s_048.ogg",100
Sample,67950,0,"s_053.ogg",100
Sample,67950,0,"s_038.ogg",100
Sample,67950,0,"s_044.ogg",100
Sample,67950,0,"s_041.ogg",100
Sample,67950,0,"s_037.ogg",100
Sample,67950,0,"s_014.ogg",100
Sample,67950,0,"s_050.ogg",100
Sample,68025,0,"s_043.ogg",100
Sample,68025,0,"s_052.ogg",100
Sample,68025,0,"s_040.ogg",100
Sample,68025,0,"s_059.ogg",100
Sample,68025,0,"s_047.ogg",100
Sample,68025,0,"s_027.ogg",100
Sample,68025,0,"s_049.ogg",100
Sample,68025,0,"s_039.ogg",100
Sample,68025,0,"s_015.ogg",100
Sample,68025,0,"s_055.ogg",100
Sample,68025,0,"s_037.ogg",100
Sample,68175,0,"s_053.ogg",100
Sample,68175,0,"s_065.ogg",100
Sample,68175,0,"s_077.ogg",100
Sample,68225,0,"s_067.ogg",100
Sample,68225,0,"s_079.ogg",100
Sample,68225,0,"s_055.ogg",100
Sample,68275,0,"s_053.ogg",100
Sample,68275,0,"s_065.ogg",100
Sample,68275,0,"s_077.ogg",100
Sample,68325,0,"s_036.ogg",100
Sample,68325,0,"s_008.ogg",100
Sample,68325,0,"s_063.ogg",100
Sample,68325,0,"s_075.ogg",100
Sample,68325,0,"s_032.ogg",100
Sample,68325,0,"s_051.ogg",100
Sample,68325,0,"s_027.ogg",100
Sample,68325,0,"s_020.ogg",100
Sample,68400,0,"s_041.ogg",100
Sample,68400,0,"s_031.ogg",100
Sample,68400,0,"s_039.ogg",100
Sample,68475,0,"s_072.ogg",100
Sample,68475,0,"s_048.ogg",100
Sample,68475,0,"s_063.ogg",100
Sample,68475,0,"s_060.ogg",100
Sample,68475,0,"s_032.ogg",100
Sample,68475,0,"s_056.ogg",100
Sample,68550,0,"s_035.ogg",100
Sample,68550,0,"s_051.ogg",100
Sample,68625,0,"s_068.ogg",100
Sample,68625,0,"s_027.ogg",100
Sample,68625,0,"s_003.ogg",100
Sample,68625,0,"s_056.ogg",100
Sample,68625,0,"s_044.ogg",100
Sample,68625,0,"s_036.ogg",100
Sample,68625,0,"s_015.ogg",100
Sample,68700,0,"s_041.ogg",100
Sample,68700,0,"s_039.ogg",100
Sample,68700,0,"s_037.ogg",100
Sample,68775,0,"s_053.ogg",100
Sample,68775,0,"s_065.ogg",100
Sample,68775,0,"s_063.ogg",100
Sample,68775,0,"s_041.ogg",100
Sample,68775,0,"s_038.ogg",100
Sample,68775,0,"s_056.ogg",100
Sample,68850,0,"s_051.ogg",100
Sample,68850,0,"s_041.ogg",100
Sample,68925,0,"s_039.ogg",100
Sample,68925,0,"s_036.ogg",100
Sample,68925,0,"s_051.ogg",100
Sample,68925,0,"s_032.ogg",100
Sample,68925,0,"s_008.ogg",100
Sample,68925,0,"s_020.ogg",100
Sample,68925,0,"s_063.ogg",100
Sample,69000,0,"s_044.ogg",100
Sample,69000,0,"s_041.ogg",100
Sample,69000,0,"s_039.ogg",100
Sample,69075,0,"s_044.ogg",100
Sample,69075,0,"s_063.ogg",100
Sample,69075,0,"s_056.ogg",100
Sample,69075,0,"s_068.ogg",100
Sample,69075,0,"s_039.ogg",100
Sample,69150,0,"s_036.ogg",100
Sample,69150,0,"s_051.ogg",100
Sample,69225,0,"s_035.ogg",100
Sample,69225,0,"s_027.ogg",100
Sample,69225,0,"m_053.ogg",100
Sample,69225,0,"s_015.ogg",100
Sample,69225,0,"m_065.ogg",100
Sample,69225,0,"s_003.ogg",100
Sample,69225,0,"m_041.ogg",100
Sample,69300,0,"s_037.ogg",100
Sample,69300,0,"s_046.ogg",100
Sample,69375,0,"s_056.ogg",100
Sample,69375,0,"s_063.ogg",100
Sample,69375,0,"s_035.ogg",100
Sample,69450,0,"s_051.ogg",100
Sample,69450,0,"s_033.ogg",100
Sample,69525,0,"s_063.ogg",100
Sample,69525,0,"s_020.ogg",100
Sample,69525,0,"s_032.ogg",100
Sample,69525,0,"s_036.ogg",100
Sample,69525,0,"s_008.ogg",100
Sample,69525,0,"s_039.ogg",100
Sample,69525,0,"s_051.ogg",100
Sample,69600,0,"s_054.ogg",100
Sample,69600,0,"s_039.ogg",100
Sample,69600,0,"s_046.ogg",100
Sample,69600,0,"s_066.ogg",100
Sample,69600,0,"s_042.ogg",100
Sample,69675,0,"s_063.ogg",100
Sample,69675,0,"s_058.ogg",100
Sample,69675,0,"s_070.ogg",100
Sample,69675,0,"s_056.ogg",100
Sample,69675,0,"s_044.ogg",100
Sample,69675,0,"s_046.ogg",100
Sample,69750,0,"s_051.ogg",100
Sample,69750,0,"s_075.ogg",100
Sample,69750,0,"s_045.ogg",100
Sample,69750,0,"s_063.ogg",100
Sample,69825,0,"s_065.ogg",100
Sample,69825,0,"s_014.ogg",100
Sample,69825,0,"s_048.ogg",100
Sample,69825,0,"s_077.ogg",100
Sample,69825,0,"s_036.ogg",100
Sample,69825,0,"s_038.ogg",100
Sample,69825,0,"s_053.ogg",100
Sample,69825,0,"s_026.ogg",100
Sample,69900,0,"s_042.ogg",100
Sample,69900,0,"s_039.ogg",100
Sample,69900,0,"s_046.ogg",100
Sample,69900,0,"s_078.ogg",100
Sample,69900,0,"s_066.ogg",100
Sample,69900,0,"s_054.ogg",100
Sample,69975,0,"s_079.ogg",100
Sample,69975,0,"s_056.ogg",100
Sample,69975,0,"s_042.ogg",100
Sample,69975,0,"s_063.ogg",100
Sample,69975,0,"s_067.ogg",100
Sample,69975,0,"s_055.ogg",100
Sample,70050,0,"s_039.ogg",100
Sample,70050,0,"s_060.ogg",100
Sample,70050,0,"s_072.ogg",100
Sample,70050,0,"s_084.ogg",100
Sample,70050,0,"s_051.ogg",100
Sample,70125,0,"s_082.ogg",100
Sample,70125,0,"s_070.ogg",100
Sample,70125,0,"s_058.ogg",100
Sample,70125,0,"m_025.ogg",100
Sample,70125,0,"m_013.ogg",100
Sample,70200,0,"s_041.ogg",100
Sample,70200,0,"s_044.ogg",100
Sample,70275,0,"s_056.ogg",100
Sample,70275,0,"s_080.ogg",100
Sample,70275,0,"s_068.ogg",100
Sample,70275,0,"s_065.ogg",100
Sample,70275,0,"s_039.ogg",100
Sample,70350,0,"s_053.ogg",100
Sample,70350,0,"m_037.ogg",100
Sample,70425,0,"m_080.ogg",100
Sample,70425,0,"m_068.ogg",100
Sample,70425,0,"s_056.ogg",100
Sample,70425,0,"s_036.ogg",100
Sample,70500,0,"s_041.ogg",100
Sample,70500,0,"s_044.ogg",100
Sample,70500,0,"s_039.ogg",100
Sample,70575,0,"s_065.ogg",100
Sample,70575,0,"s_037.ogg",100
Sample,70575,0,"s_012.ogg",100
Sample,70575,0,"s_024.ogg",100
Sample,70575,0,"s_056.ogg",100
Sample,70650,0,"s_036.ogg",100
Sample,70650,0,"s_053.ogg",100
Sample,70725,0,"s_068.ogg",100
Sample,70725,0,"s_022.ogg",100
Sample,70725,0,"s_058.ogg",100
Sample,70725,0,"s_084.ogg",100
Sample,70725,0,"s_034.ogg",100
Sample,70725,0,"s_076.ogg",100
Sample,70800,0,"s_033.ogg",100
Sample,70800,0,"s_021.ogg",100
Sample,70800,0,"s_073.ogg",100
Sample,70800,0,"s_064.ogg",100
Sample,70800,0,"s_082.ogg",100
Sample,70800,0,"s_056.ogg",100
Sample,70875,0,"s_080.ogg",100
Sample,70875,0,"s_022.ogg",100
Sample,70875,0,"s_052.ogg",100
Sample,70875,0,"s_034.ogg",100
Sample,70875,0,"s_070.ogg",100
Sample,70875,0,"s_061.ogg",100
Sample,70950,0,"s_058.ogg",100
Sample,70950,0,"s_077.ogg",100
Sample,70950,0,"s_068.ogg",100
Sample,70950,0,"s_021.ogg",100
Sample,70950,0,"s_033.ogg",100
Sample,70950,0,"s_049.ogg",100
Sample,71025,0,"s_046.ogg",100
Sample,71025,0,"s_022.ogg",100
Sample,71025,0,"s_034.ogg",100
Sample,71025,0,"s_064.ogg",100
Sample,71025,0,"s_056.ogg",100
Sample,71025,0,"s_073.ogg",100
Sample,71100,0,"s_052.ogg",100
Sample,71100,0,"s_070.ogg",100
Sample,71100,0,"s_044.ogg",100
Sample,71100,0,"s_061.ogg",100
Sample,71175,0,"s_068.ogg",100
Sample,71175,0,"s_058.ogg",100
Sample,71175,0,"s_049.ogg",100
Sample,71175,0,"s_024.ogg",100
Sample,71175,0,"s_012.ogg",100
Sample,71175,0,"s_040.ogg",100
Sample,71175,0,"s_036.ogg",100
Sample,71250,0,"s_046.ogg",100
Sample,71250,0,"s_037.ogg",100
Sample,71250,0,"s_061.ogg",100
Sample,71250,0,"s_056.ogg",100
Sample,71250,0,"s_025.ogg",100
Sample,71250,0,"s_013.ogg",100
Sample,71325,0,"s_068.ogg",100
Sample,71325,0,"s_051.ogg",100
Sample,71325,0,"s_039.ogg",100
Sample,71325,0,"s_060.ogg",100
Sample,71325,0,"s_003.ogg",100
Sample,71325,0,"s_077.ogg",100
Sample,71325,0,"s_015.ogg",100
Sample,71400,0,"s_065.ogg",100
Sample,71400,0,"s_056.ogg",100
Sample,71400,0,"s_075.ogg",100
Sample,71400,0,"s_048.ogg",100
Sample,71475,0,"s_063.ogg",100
Sample,71475,0,"s_053.ogg",100
Sample,71475,0,"s_072.ogg",100
Sample,71475,0,"s_044.ogg",100
Sample,71550,0,"s_068.ogg",100
Sample,71550,0,"s_041.ogg",100
Sample,71550,0,"s_051.ogg",100
Sample,71550,0,"s_060.ogg",100
Sample,71625,0,"s_048.ogg",100
Sample,71625,0,"s_068.ogg",100
Sample,71625,0,"s_039.ogg",100
Sample,71625,0,"s_077.ogg",100
Sample,71700,0,"s_065.ogg",100
Sample,71700,0,"s_043.ogg",100
Sample,71700,0,"s_036.ogg",100
Sample,71700,0,"s_075.ogg",100
Sample,71775,0,"s_032.ogg",100
Sample,71775,0,"s_072.ogg",100
Sample,71775,0,"s_063.ogg",100
Sample,71775,0,"s_041.ogg",100
Sample,71850,0,"s_060.ogg",100
Sample,71850,0,"s_039.ogg",100
Sample,71850,0,"s_068.ogg",100
Sample,71850,0,"s_029.ogg",100
Sample,71925,0,"s_056.ogg",100
Sample,71925,0,"s_046.ogg",100
Sample,71925,0,"s_072.ogg",100
Sample,71925,0,"s_022.ogg",100
Sample,71925,0,"s_064.ogg",100
Sample,72000,0,"s_070.ogg",100
Sample,72000,0,"s_061.ogg",100
Sample,72000,0,"s_052.ogg",100
Sample,72000,0,"s_021.ogg",100
Sample,72000,0,"s_044.ogg",100
Sample,72075,0,"s_022.ogg",100
Sample,72075,0,"s_040.ogg",100
Sample,72075,0,"s_049.ogg",100
Sample,72075,0,"s_068.ogg",100
Sample,72075,0,"s_058.ogg",100
Sample,72150,0,"s_046.ogg",100
Sample,72150,0,"s_021.ogg",100
Sample,72150,0,"s_065.ogg",100
Sample,72150,0,"s_056.ogg",100
Sample,72150,0,"s_037.ogg",100
Sample,72225,0,"s_052.ogg",100
Sample,72225,0,"s_022.ogg",100
Sample,72225,0,"s_044.ogg",100
Sample,72225,0,"s_061.ogg",100
Sample,72225,0,"s_034.ogg",100
Sample,72300,0,"s_032.ogg",100
Sample,72300,0,"s_058.ogg",100
Sample,72300,0,"s_049.ogg",100
Sample,72300,0,"s_040.ogg",100
Sample,72375,0,"s_046.ogg",100
Sample,72375,0,"s_037.ogg",100
Sample,72375,0,"s_028.ogg",100
Sample,72375,0,"s_012.ogg",100
Sample,72375,0,"s_024.ogg",100
Sample,72375,0,"s_056.ogg",100
Sample,72450,0,"s_044.ogg",100
Sample,72450,0,"s_025.ogg",100
Sample,72450,0,"s_013.ogg",100
Sample,72450,0,"s_034.ogg",100
Sample,72450,0,"s_049.ogg",100
Sample,72525,0,"s_056.ogg",100
Sample,72525,0,"s_048.ogg",100
Sample,72525,0,"s_065.ogg",100
Sample,72525,0,"s_039.ogg",100
Sample,72525,0,"s_015.ogg",100
Sample,72525,0,"s_003.ogg",100
Sample,72600,0,"s_036.ogg",100
Sample,72600,0,"s_063.ogg",100
Sample,72600,0,"s_044.ogg",100
Sample,72600,0,"s_053.ogg",100
Sample,72675,0,"s_041.ogg",100
Sample,72675,0,"s_060.ogg",100
Sample,72675,0,"s_051.ogg",100
Sample,72675,0,"s_032.ogg",100
Sample,72750,0,"s_029.ogg",100
Sample,72750,0,"s_048.ogg",100
Sample,72750,0,"s_056.ogg",100
Sample,72750,0,"s_039.ogg",100
Sample,72825,0,"s_044.ogg",100
Sample,72825,0,"s_053.ogg",100
Sample,72825,0,"s_027.ogg",100
Sample,72825,0,"s_036.ogg",100
Sample,72900,0,"s_041.ogg",100
Sample,72900,0,"s_032.ogg",100
Sample,72900,0,"s_024.ogg",100
Sample,72900,0,"s_051.ogg",100
Sample,72975,0,"s_048.ogg",100
Sample,72975,0,"s_039.ogg",100
Sample,72975,0,"s_020.ogg",100
Sample,72975,0,"s_029.ogg",100
Sample,73050,0,"s_036.ogg",100
Sample,73050,0,"s_027.ogg",100
Sample,73050,0,"s_017.ogg",100
Sample,73050,0,"s_044.ogg",100
Sample,73125,0,"s_037.ogg",100
Sample,73125,0,"s_046.ogg",100
Sample,73125,0,"s_020.ogg",100
Sample,73125,0,"s_028.ogg",100
Sample,73200,0,"s_049.ogg",100
Sample,73200,0,"m_022.ogg",100
Sample,73200,0,"s_040.ogg",100
Sample,73200,0,"s_032.ogg",100
Sample,73275,0,"s_034.ogg",100
Sample,73275,0,"s_052.ogg",100
Sample,73275,0,"s_025.ogg",100
Sample,73275,0,"s_044.ogg",100
Sample,73350,0,"s_028.ogg",100
Sample,73350,0,"s_054.ogg",100
Sample,73350,0,"s_046.ogg",100
Sample,73350,0,"s_037.ogg",100
Sample,73425,0,"s_032.ogg",100
Sample,73425,0,"s_049.ogg",100
Sample,73425,0,"s_058.ogg",100
Sample,73425,0,"s_022.ogg",100
Sample,73425,0,"s_040.ogg",100
Sample,73500,0,"s_061.ogg",100
Sample,73500,0,"s_052.ogg",100
Sample,73500,0,"s_044.ogg",100
Sample,73500,0,"s_034.ogg",100
Sample,73575,0,"s_024.ogg",100
Sample,73575,0,"s_037.ogg",100
Sample,73575,0,"s_046.ogg",100
Sample,73575,0,"s_056.ogg",100
Sample,73575,0,"s_064.ogg",100
Sample,73575,0,"s_012.ogg",100
Sample,73650,0,"s_049.ogg",100
Sample,73650,0,"s_013.ogg",100
Sample,73650,0,"s_058.ogg",100
Sample,73650,0,"s_025.ogg",100
Sample,73650,0,"s_067.ogg",100
Sample,73650,0,"s_040.ogg",100
Sample,73725,0,"s_039.ogg",100
Sample,73725,0,"s_048.ogg",100
Sample,73725,0,"s_056.ogg",100
Sample,73725,0,"s_063.ogg",100
Sample,73725,0,"s_027.ogg",100
Sample,73725,0,"l_015.ogg",100
Sample,73800,0,"s_051.ogg",100
Sample,73800,0,"s_077.ogg",100
Sample,73800,0,"s_060.ogg",100
Sample,73800,0,"s_068.ogg",100
Sample,73875,0,"s_065.ogg",100
Sample,73875,0,"s_020.ogg",100
Sample,73875,0,"s_048.ogg",100
Sample,73875,0,"s_075.ogg",100
Sample,73875,0,"s_056.ogg",100
Sample,73950,0,"s_024.ogg",100
Sample,73950,0,"s_063.ogg",100
Sample,73950,0,"s_053.ogg",100
Sample,73950,0,"s_072.ogg",100
Sample,73950,0,"s_044.ogg",100
Sample,74025,0,"s_060.ogg",100
Sample,74025,0,"s_051.ogg",100
Sample,74025,0,"s_027.ogg",100
Sample,74025,0,"s_041.ogg",100
Sample,74025,0,"s_068.ogg",100
Sample,74100,0,"s_065.ogg",100
Sample,74100,0,"s_056.ogg",100
Sample,74100,0,"s_048.ogg",100
Sample,74100,0,"s_075.ogg",100
Sample,74175,0,"s_053.ogg",100
Sample,74175,0,"s_044.ogg",100
Sample,74175,0,"s_032.ogg",100
Sample,74175,0,"s_072.ogg",100
Sample,74175,0,"s_063.ogg",100
Sample,74250,0,"s_051.ogg",100
Sample,74250,0,"s_060.ogg",100
Sample,74250,0,"s_068.ogg",100
Sample,74250,0,"s_041.ogg",100
Sample,74325,0,"s_056.ogg",100
Sample,74325,0,"m_035.ogg",100
Sample,74325,0,"s_039.ogg",100
Sample,74325,0,"s_063.ogg",100
Sample,74325,0,"s_048.ogg",100
Sample,74400,0,"s_063.ogg",100
Sample,74400,0,"s_053.ogg",100
Sample,74400,0,"s_044.ogg",100
Sample,74400,0,"s_072.ogg",100
Sample,74475,0,"s_051.ogg",100
Sample,74475,0,"s_060.ogg",100
Sample,74475,0,"s_041.ogg",100
Sample,74475,0,"s_068.ogg",100
Sample,74550,0,"s_065.ogg",100
Sample,74550,0,"s_048.ogg",100
Sample,74550,0,"s_056.ogg",100
Sample,74550,0,"s_039.ogg",100
Sample,74625,0,"s_063.ogg",100
Sample,74625,0,"s_036.ogg",100
Sample,74625,0,"s_044.ogg",100
Sample,74625,0,"s_034.ogg",100
Sample,74625,0,"s_053.ogg",100
Sample,74700,0,"s_041.ogg",100
Sample,74700,0,"s_060.ogg",100
Sample,74700,0,"s_068.ogg",100
Sample,74700,0,"s_051.ogg",100
Sample,74775,0,"s_056.ogg",100
Sample,74775,0,"s_039.ogg",100
Sample,74775,0,"s_065.ogg",100
Sample,74775,0,"s_048.ogg",100
Sample,74775,0,"s_032.ogg",100
Sample,74850,0,"s_053.ogg",100
Sample,74850,0,"s_063.ogg",100
Sample,74850,0,"s_036.ogg",100
Sample,74850,0,"s_044.ogg",100
Sample,74925,0,"s_041.ogg",100
Sample,74925,0,"s_060.ogg",100
Sample,74925,0,"s_051.ogg",100
Sample,74925,0,"s_032.ogg",100
Sample,74925,0,"s_024.ogg",100
Sample,75000,0,"s_036.ogg",100
Sample,75000,0,"s_044.ogg",100
Sample,75000,0,"s_025.ogg",100
Sample,75000,0,"s_063.ogg",100
Sample,75000,0,"s_053.ogg",100
Sample,75075,0,"s_048.ogg",100
Sample,75075,0,"s_065.ogg",100
Sample,75075,0,"s_056.ogg",100
Sample,75075,0,"s_026.ogg",100
Sample,75075,0,"s_039.ogg",100
Sample,75150,0,"s_051.ogg",100
Sample,75150,0,"s_041.ogg",100
Sample,75150,0,"s_068.ogg",100
Sample,75150,0,"s_029.ogg",100
Sample,75150,0,"s_060.ogg",100
Sample,75225,0,"s_027.ogg",100
Sample,75225,0,"s_072.ogg",100
Sample,75225,0,"s_063.ogg",100
Sample,75225,0,"s_044.ogg",100
Sample,75225,0,"s_053.ogg",100
Sample,75300,0,"s_028.ogg",100
Sample,75300,0,"s_056.ogg",100
Sample,75300,0,"s_075.ogg",100
Sample,75300,0,"s_068.ogg",100
Sample,75300,0,"s_051.ogg",100
Sample,75375,0,"s_044.ogg",100
Sample,75375,0,"s_048.ogg",100
Sample,75375,0,"s_063.ogg",100
Sample,75375,0,"s_029.ogg",100
Sample,75450,0,"s_053.ogg",100
Sample,75450,0,"s_051.ogg",100
Sample,75450,0,"s_032.ogg",100
Sample,75450,0,"s_065.ogg",100
Sample,75450,0,"s_072.ogg",100
Sample,75525,0,"s_044.ogg",100
Sample,75525,0,"s_029.ogg",100
Sample,75525,0,"s_060.ogg",100
Sample,75525,0,"s_041.ogg",100
Sample,75600,0,"s_031.ogg",100
Sample,75600,0,"s_051.ogg",100
Sample,75600,0,"s_068.ogg",100
Sample,75600,0,"s_063.ogg",100
Sample,75600,0,"s_048.ogg",100
Sample,75675,0,"s_032.ogg",100
Sample,75675,0,"s_056.ogg",100
Sample,75675,0,"s_041.ogg",100
Sample,75675,0,"s_039.ogg",100
Sample,75750,0,"s_065.ogg",100
Sample,75750,0,"s_044.ogg",100
Sample,75750,0,"s_036.ogg",100
Sample,75750,0,"s_048.ogg",100
Sample,75750,0,"s_060.ogg",100
Sample,75825,0,"s_031.ogg",100
Sample,75825,0,"s_039.ogg",100
Sample,75825,0,"s_036.ogg",100
Sample,75825,0,"s_053.ogg",100
Sample,75900,0,"s_044.ogg",100
Sample,75900,0,"s_063.ogg",100
Sample,75900,0,"s_032.ogg",100
Sample,75900,0,"s_056.ogg",100
Sample,75900,0,"s_041.ogg",100
Sample,75975,0,"s_051.ogg",100
Sample,75975,0,"s_036.ogg",100
Sample,75975,0,"s_032.ogg",100
Sample,76050,0,"s_039.ogg",100
Sample,76050,0,"s_060.ogg",100
Sample,76050,0,"s_053.ogg",100
Sample,76050,0,"s_041.ogg",100
Sample,76125,0,"s_050.ogg",100
Sample,76125,0,"s_003.ogg",100
Sample,76162,0,"s_015.ogg",100
Sample,76175,0,"s_053.ogg",100
Sample,76175,0,"s_038.ogg",100
Sample,76200,0,"s_003.ogg",100
Sample,76225,0,"s_034.ogg",100
Sample,76225,0,"s_041.ogg",100
Sample,76225,0,"s_050.ogg",100
Sample,76225,0,"s_056.ogg",100
Sample,76237,0,"s_015.ogg",100
Sample,76275,0,"s_044.ogg",100
Sample,76275,0,"s_058.ogg",100
Sample,76275,0,"s_053.ogg",100
Sample,76275,0,"s_003.ogg",100
Sample,76275,0,"s_038.ogg",100
Sample,76312,0,"s_015.ogg",100
Sample,76325,0,"s_041.ogg",100
Sample,76325,0,"s_046.ogg",100
Sample,76325,0,"s_050.ogg",100
Sample,76325,0,"s_056.ogg",100
Sample,76325,0,"s_034.ogg",100
Sample,76325,0,"s_060.ogg",100
Sample,76350,0,"s_003.ogg",100
Sample,76375,0,"s_038.ogg",100
Sample,76375,0,"s_053.ogg",100
Sample,76375,0,"s_062.ogg",100
Sample,76375,0,"s_048.ogg",100
Sample,76375,0,"s_058.ogg",100
Sample,76375,0,"s_044.ogg",100
Sample,76387,0,"s_015.ogg",100
Sample,76425,0,"s_060.ogg",100
Sample,76425,0,"s_046.ogg",100
Sample,76425,0,"s_003.ogg",100
Sample,76425,0,"s_041.ogg",100
Sample,76425,0,"s_056.ogg",100
Sample,76425,0,"s_034.ogg",100
Sample,76425,0,"s_050.ogg",100
Sample,76425,0,"s_065.ogg",100
Sample,76462,0,"s_015.ogg",100
Sample,76475,0,"s_048.ogg",100
Sample,76475,0,"s_068.ogg",100
Sample,76475,0,"s_053.ogg",100
Sample,76475,0,"s_062.ogg",100
Sample,76475,0,"s_058.ogg",100
Sample,76475,0,"s_038.ogg",100
Sample,76475,0,"s_044.ogg",100
Sample,76500,0,"s_003.ogg",100
Sample,76525,0,"s_034.ogg",100
Sample,76525,0,"s_046.ogg",100
Sample,76525,0,"s_065.ogg",100
Sample,76525,0,"s_060.ogg",100
Sample,76525,0,"s_056.ogg",100
Sample,76525,0,"s_050.ogg",100
Sample,76525,0,"s_070.ogg",100
Sample,76525,0,"s_041.ogg",100
Sample,76537,0,"s_015.ogg",100
Sample,76575,0,"s_053.ogg",100
Sample,76575,0,"s_003.ogg",100
Sample,76575,0,"s_058.ogg",100
Sample,76575,0,"s_068.ogg",100
Sample,76575,0,"s_062.ogg",100
Sample,76575,0,"s_044.ogg",100
Sample,76575,0,"s_048.ogg",100
Sample,76575,0,"s_038.ogg",100
Sample,76575,0,"s_072.ogg",100
Sample,76612,0,"s_015.ogg",100
Sample,76625,0,"s_034.ogg",100
Sample,76625,0,"s_041.ogg",100
Sample,76625,0,"s_065.ogg",100
Sample,76625,0,"s_050.ogg",100
Sample,76625,0,"s_060.ogg",100
Sample,76625,0,"s_074.ogg",100
Sample,76625,0,"s_070.ogg",100
Sample,76625,0,"s_046.ogg",100
Sample,76650,0,"s_003.ogg",100
Sample,76675,0,"s_048.ogg",100
Sample,76675,0,"s_038.ogg",100
Sample,76675,0,"s_068.ogg",100
Sample,76675,0,"s_077.ogg",100
Sample,76675,0,"s_053.ogg",100
Sample,76675,0,"s_072.ogg",100
Sample,76675,0,"s_044.ogg",100
Sample,76675,0,"s_062.ogg",100
Sample,76687,0,"s_015.ogg",100
Sample,76725,0,"s_037.ogg",100
Sample,76725,0,"s_077.ogg",100
Sample,76725,0,"s_015.ogg",100
Sample,76725,0,"s_049.ogg",100
Sample,76725,0,"s_048.ogg",100
Sample,76725,0,"s_041.ogg",100
Sample,76725,0,"s_073.ogg",100
Sample,76725,0,"s_067.ogg",100
Sample,76725,0,"s_034.ogg",100
Sample,76725,0,"s_027.ogg",100
Sample,76725,0,"s_061.ogg",100
Sample,76725,0,"s_055.ogg",100
Sample,76725,0,"s_003.ogg",100
Sample,76725,0,"s_043.ogg",100
Sample,78525,0,"s_015.ogg",100
Sample,78525,0,"s_027.ogg",100
Sample,78600,0,"s_026.ogg",100
Sample,78600,0,"s_014.ogg",100
Sample,78675,0,"s_013.ogg",100
Sample,78675,0,"s_027.ogg",100
Sample,78750,0,"s_026.ogg",100
Sample,78750,0,"s_014.ogg",100
Sample,78825,0,"s_013.ogg",100
Sample,78825,0,"s_027.ogg",100
Sample,78900,0,"s_028.ogg",100
Sample,78900,0,"s_012.ogg",100
Sample,78975,0,"s_011.ogg",100
Sample,78975,0,"s_029.ogg",100
Sample,79050,0,"s_031.ogg",100
Sample,79050,0,"s_010.ogg",100
Sample,79125,0,"s_008.ogg",100
Sample,79200,0,"s_020.ogg",100
Sample,79275,0,"s_008.ogg",100
Sample,79350,0,"s_020.ogg",100
Sample,79425,0,"s_012.ogg",100
Sample,79425,0,"s_036.ogg",100
Sample,79500,0,"s_024.ogg",100
Sample,79575,0,"s_012.ogg",100
Sample,79650,0,"s_024.ogg",100
Sample,79725,0,"s_037.ogg",100
Sample,79725,0,"s_013.ogg",100
Sample,79800,0,"s_025.ogg",100
Sample,79875,0,"s_013.ogg",100
Sample,79950,0,"s_014.ogg",100
Sample,79950,0,"s_038.ogg",100
Sample,80025,0,"s_026.ogg",100
Sample,80100,0,"s_039.ogg",100
Sample,80100,0,"s_015.ogg",100
Sample,80175,0,"s_027.ogg",100
Sample,80250,0,"s_015.ogg",100
Sample,80325,0,"s_008.ogg",100
Sample,80400,0,"s_020.ogg",100
Sample,80475,0,"s_008.ogg",100
Sample,80550,0,"s_020.ogg",100
Sample,80625,0,"s_012.ogg",100
Sample,80625,0,"s_036.ogg",100
Sample,80700,0,"s_024.ogg",100
Sample,80775,0,"s_012.ogg",100
Sample,80850,0,"s_024.ogg",100
Sample,80925,0,"s_037.ogg",100
Sample,80925,0,"s_013.ogg",100
Sample,81000,0,"s_025.ogg",100
Sample,81075,0,"s_013.ogg",100
Sample,81150,0,"s_014.ogg",100
Sample,81150,0,"s_038.ogg",100
Sample,81225,0,"s_026.ogg",100
Sample,81300,0,"s_039.ogg",100
Sample,81300,0,"s_015.ogg",100
Sample,81375,0,"s_027.ogg",100
Sample,81450,0,"s_015.ogg",100
Sample,81525,0,"s_008.ogg",100
Sample,81600,0,"s_020.ogg",100
Sample,81675,0,"s_008.ogg",100
Sample,81750,0,"s_020.ogg",100
Sample,81825,0,"s_012.ogg",100
Sample,81825,0,"s_036.ogg",100
Sample,81900,0,"s_024.ogg",100
Sample,81975,0,"s_012.ogg",100
Sample,82050,0,"s_024.ogg",100
Sample,82125,0,"s_037.ogg",100
Sample,82125,0,"s_013.ogg",100
Sample,82200,0,"s_025.ogg",100
Sample,82275,0,"s_013.ogg",100
Sample,82350,0,"s_014.ogg",100
Sample,82350,0,"s_038.ogg",100
Sample,82425,0,"s_026.ogg",100
Sample,82500,0,"s_039.ogg",100
Sample,82500,0,"s_015.ogg",100
Sample,82575,0,"s_027.ogg",100
Sample,82650,0,"s_015.ogg",100
Sample,82725,0,"s_008.ogg",100
Sample,82800,0,"s_020.ogg",100
Sample,82875,0,"s_008.ogg",100
Sample,82875,0,"s_039.ogg",100
Sample,82875,0,"s_041.ogg",100
Sample,82875,0,"s_036.ogg",100
Sample,82875,0,"s_044.ogg",100
Sample,82950,0,"s_020.ogg",100
Sample,83025,0,"s_012.ogg",100
Sample,83025,0,"s_036.ogg",100
Sample,83100,0,"s_024.ogg",100
Sample,83175,0,"s_044.ogg",100
Sample,83175,0,"s_039.ogg",100
Sample,83175,0,"s_041.ogg",100
Sample,83175,0,"s_012.ogg",100
Sample,83250,0,"s_024.ogg",100
Sample,83325,0,"s_037.ogg",100
Sample,83325,0,"s_013.ogg",100
Sample,83400,0,"s_025.ogg",100
Sample,83475,0,"s_041.ogg",100
Sample,83475,0,"s_034.ogg",100
Sample,83475,0,"s_013.ogg",100
Sample,83475,0,"s_044.ogg",100
Sample,83550,0,"s_038.ogg",100
Sample,83550,0,"s_014.ogg",100
Sample,83625,0,"s_026.ogg",100
Sample,83700,0,"s_039.ogg",100
Sample,83700,0,"s_015.ogg",100
Sample,83775,0,"s_037.ogg",100
Sample,83775,0,"s_034.ogg",100
Sample,83775,0,"s_041.ogg",100
Sample,83775,0,"s_044.ogg",100
Sample,83775,0,"s_027.ogg",100
Sample,83850,0,"s_015.ogg",100
Sample,83925,0,"s_008.ogg",100
Sample,84000,0,"s_020.ogg",100
Sample,84075,0,"s_041.ogg",100
Sample,84075,0,"s_008.ogg",100
Sample,84075,0,"s_036.ogg",100
Sample,84075,0,"s_039.ogg",100
Sample,84075,0,"s_044.ogg",100
Sample,84150,0,"s_020.ogg",100
Sample,84225,0,"s_012.ogg",100
Sample,84225,0,"s_036.ogg",100
Sample,84300,0,"s_024.ogg",100
Sample,84375,0,"s_041.ogg",100
Sample,84375,0,"s_039.ogg",100
Sample,84375,0,"s_044.ogg",100
Sample,84375,0,"s_012.ogg",100
Sample,84450,0,"s_024.ogg",100
Sample,84525,0,"s_037.ogg",100
Sample,84525,0,"s_013.ogg",100
Sample,84600,0,"s_025.ogg",100
Sample,84675,0,"s_041.ogg",100
Sample,84675,0,"s_044.ogg",100
Sample,84675,0,"s_013.ogg",100
Sample,84675,0,"s_034.ogg",100
Sample,84750,0,"s_014.ogg",100
Sample,84750,0,"s_038.ogg",100
Sample,84825,0,"s_026.ogg",100
Sample,84900,0,"s_039.ogg",100
Sample,84900,0,"s_015.ogg",100
Sample,84975,0,"s_037.ogg",100
Sample,84975,0,"s_034.ogg",100
Sample,84975,0,"s_041.ogg",100
Sample,84975,0,"s_044.ogg",100
Sample,84975,0,"s_027.ogg",100
Sample,85050,0,"s_015.ogg",100
Sample,85125,0,"s_008.ogg",100
Sample,85200,0,"s_020.ogg",100
Sample,85275,0,"s_036.ogg",100
Sample,85275,0,"s_008.ogg",100
Sample,85275,0,"s_039.ogg",100
Sample,85275,0,"s_041.ogg",100
Sample,85275,0,"s_044.ogg",100
Sample,85350,0,"s_020.ogg",100
Sample,85425,0,"s_036.ogg",100
Sample,85425,0,"s_012.ogg",100
Sample,85500,0,"s_024.ogg",100
Sample,85575,0,"s_041.ogg",100
Sample,85575,0,"s_039.ogg",100
Sample,85575,0,"s_044.ogg",100
Sample,85575,0,"s_012.ogg",100
Sample,85650,0,"s_024.ogg",100
Sample,85725,0,"s_037.ogg",100
Sample,85725,0,"s_013.ogg",100
Sample,85800,0,"s_025.ogg",100
Sample,85875,0,"s_041.ogg",100
Sample,85875,0,"s_044.ogg",100
Sample,85875,0,"s_013.ogg",100
Sample,85875,0,"s_034.ogg",100
Sample,85950,0,"s_014.ogg",100
Sample,85950,0,"s_038.ogg",100
Sample,86025,0,"s_026.ogg",100
Sample,86100,0,"s_039.ogg",100
Sample,86100,0,"s_015.ogg",100
Sample,86175,0,"s_037.ogg",100
Sample,86175,0,"s_034.ogg",100
Sample,86175,0,"s_027.ogg",100
Sample,86175,0,"s_041.ogg",100
Sample,86175,0,"s_044.ogg",100
Sample,86250,0,"s_015.ogg",100
Sample,86325,0,"s_008.ogg",100
Sample,86400,0,"s_020.ogg",100
Sample,86475,0,"s_039.ogg",100
Sample,86475,0,"s_041.ogg",100
Sample,86475,0,"s_008.ogg",100
Sample,86475,0,"s_036.ogg",100
Sample,86475,0,"s_044.ogg",100
Sample,86550,0,"s_040.ogg",100
Sample,86550,0,"s_020.ogg",100
Sample,86625,0,"s_036.ogg",100
Sample,86625,0,"s_012.ogg",100
Sample,86625,0,"s_041.ogg",100
Sample,86700,0,"s_040.ogg",100
Sample,86700,0,"s_024.ogg",100
Sample,86775,0,"s_041.ogg",100
Sample,86775,0,"s_044.ogg",100
Sample,86775,0,"s_039.ogg",100
Sample,86775,0,"s_012.ogg",100
Sample,86850,0,"s_024.ogg",100
Sample,86850,0,"s_042.ogg",100
Sample,86925,0,"s_041.ogg",100
Sample,86925,0,"s_013.ogg",100
Sample,86925,0,"s_037.ogg",100
Sample,87000,0,"s_025.ogg",100
Sample,87000,0,"s_042.ogg",100
Sample,87075,0,"s_043.ogg",100
Sample,87075,0,"s_041.ogg",100
Sample,87075,0,"s_044.ogg",100
Sample,87075,0,"s_013.ogg",100
Sample,87075,0,"s_034.ogg",100
Sample,87150,0,"s_042.ogg",100
Sample,87150,0,"s_038.ogg",100
Sample,87150,0,"s_014.ogg",100
Sample,87225,0,"s_043.ogg",100
Sample,87225,0,"s_026.ogg",100
Sample,87300,0,"s_015.ogg",100
Sample,87300,0,"s_044.ogg",100
Sample,87300,0,"s_039.ogg",100
Sample,87375,0,"s_041.ogg",100
Sample,87375,0,"s_037.ogg",100
Sample,87375,0,"s_027.ogg",100
Sample,87375,0,"s_044.ogg",100
Sample,87375,0,"s_052.ogg",100
Sample,87375,0,"s_034.ogg",100
Sample,87450,0,"s_015.ogg",100
Sample,87525,0,"s_008.ogg",100
Sample,87600,0,"s_020.ogg",100
Sample,87675,0,"s_008.ogg",100
Sample,87675,0,"s_036.ogg",100
Sample,87675,0,"s_039.ogg",100
Sample,87675,0,"s_041.ogg",100
Sample,87675,0,"s_044.ogg",100
Sample,87750,0,"s_040.ogg",100
Sample,87750,0,"s_020.ogg",100
Sample,87825,0,"s_041.ogg",100
Sample,87825,0,"s_012.ogg",100
Sample,87825,0,"s_036.ogg",100
Sample,87900,0,"s_024.ogg",100
Sample,87900,0,"s_040.ogg",100
Sample,87975,0,"s_044.ogg",100
Sample,87975,0,"s_039.ogg",100
Sample,87975,0,"s_012.ogg",100
Sample,87975,0,"s_041.ogg",100
Sample,88050,0,"s_024.ogg",100
Sample,88050,0,"s_042.ogg",100
Sample,88125,0,"s_013.ogg",100
Sample,88125,0,"s_041.ogg",100
Sample,88125,0,"s_037.ogg",100
Sample,88200,0,"s_025.ogg",100
Sample,88200,0,"s_042.ogg",100
Sample,88275,0,"s_043.ogg",100
Sample,88275,0,"s_044.ogg",100
Sample,88275,0,"s_013.ogg",100
Sample,88275,0,"s_034.ogg",100
Sample,88275,0,"s_041.ogg",100
Sample,88350,0,"s_038.ogg",100
Sample,88350,0,"s_042.ogg",100
Sample,88350,0,"s_014.ogg",100
Sample,88425,0,"s_026.ogg",100
Sample,88425,0,"s_043.ogg",100
Sample,88500,0,"s_039.ogg",100
Sample,88500,0,"s_044.ogg",100
Sample,88500,0,"s_015.ogg",100
Sample,88575,0,"s_044.ogg",100
Sample,88575,0,"s_052.ogg",100
Sample,88575,0,"s_034.ogg",100
Sample,88575,0,"s_041.ogg",100
Sample,88575,0,"s_037.ogg",100
Sample,88575,0,"s_027.ogg",100
Sample,88650,0,"s_015.ogg",100
Sample,88725,0,"s_008.ogg",100
Sample,88800,0,"s_020.ogg",100
Sample,88875,0,"s_041.ogg",100
Sample,88875,0,"s_044.ogg",100
Sample,88875,0,"s_039.ogg",100
Sample,88875,0,"s_008.ogg",100
Sample,88875,0,"s_036.ogg",100
Sample,88950,0,"s_020.ogg",100
Sample,88950,0,"s_040.ogg",100
Sample,89025,0,"s_036.ogg",100
Sample,89025,0,"s_012.ogg",100
Sample,89025,0,"s_041.ogg",100
Sample,89100,0,"s_024.ogg",100
Sample,89100,0,"s_040.ogg",100
Sample,89175,0,"s_039.ogg",100
Sample,89175,0,"s_012.ogg",100
Sample,89175,0,"s_041.ogg",100
Sample,89175,0,"s_044.ogg",100
Sample,89250,0,"s_024.ogg",100
Sample,89250,0,"s_042.ogg",100
Sample,89325,0,"s_037.ogg",100
Sample,89325,0,"s_041.ogg",100
Sample,89325,0,"s_013.ogg",100
Sample,89400,0,"s_042.ogg",100
Sample,89400,0,"s_025.ogg",100
Sample,89475,0,"s_034.ogg",100
Sample,89475,0,"s_041.ogg",100
Sample,89475,0,"s_013.ogg",100
Sample,89475,0,"s_043.ogg",100
Sample,89475,0,"s_044.ogg",100
Sample,89550,0,"s_042.ogg",100
Sample,89550,0,"s_014.ogg",100
Sample,89550,0,"s_038.ogg",100
Sample,89625,0,"s_043.ogg",100
Sample,89625,0,"s_026.ogg",100
Sample,89700,0,"s_015.ogg",100
Sample,89700,0,"s_044.ogg",100
Sample,89700,0,"s_039.ogg",100
Sample,89775,0,"s_052.ogg",100
Sample,89775,0,"s_037.ogg",100
Sample,89775,0,"s_034.ogg",100
Sample,89775,0,"s_044.ogg",100
Sample,89775,0,"s_041.ogg",100
Sample,89775,0,"s_027.ogg",100
Sample,89850,0,"s_015.ogg",100
Sample,89925,0,"s_040.ogg",100
Sample,89925,0,"s_008.ogg",100
Sample,90000,0,"s_043.ogg",100
Sample,90000,0,"s_020.ogg",100
Sample,90075,0,"s_044.ogg",100
Sample,90075,0,"s_008.ogg",100
Sample,90075,0,"s_039.ogg",100
Sample,90075,0,"s_036.ogg",100
Sample,90075,0,"s_041.ogg",100
Sample,90150,0,"s_020.ogg",100
Sample,90150,0,"s_040.ogg",100
Sample,90150,0,"s_045.ogg",100
Sample,90225,0,"s_012.ogg",100
Sample,90225,0,"s_036.ogg",100
Sample,90225,0,"s_041.ogg",100
Sample,90225,0,"s_049.ogg",100
Sample,90300,0,"s_055.ogg",100
Sample,90300,0,"s_024.ogg",100
Sample,90300,0,"s_040.ogg",100
Sample,90375,0,"s_041.ogg",100
Sample,90375,0,"s_044.ogg",100
Sample,90375,0,"s_039.ogg",100
Sample,90375,0,"s_057.ogg",100
Sample,90375,0,"s_012.ogg",100
Sample,90450,0,"s_024.ogg",100
Sample,90450,0,"s_061.ogg",100
Sample,90450,0,"s_042.ogg",100
Sample,90525,0,"s_041.ogg",100
Sample,90525,0,"s_066.ogg",100
Sample,90525,0,"s_037.ogg",100
Sample,90525,0,"s_013.ogg",100
Sample,90600,0,"s_025.ogg",100
Sample,90600,0,"s_061.ogg",100
Sample,90600,0,"s_042.ogg",100
Sample,90675,0,"s_057.ogg",100
Sample,90675,0,"s_013.ogg",100
Sample,90675,0,"s_043.ogg",100
Sample,90675,0,"s_041.ogg",100
Sample,90675,0,"s_034.ogg",100
Sample,90675,0,"s_044.ogg",100
Sample,90750,0,"s_055.ogg",100
Sample,90750,0,"s_014.ogg",100
Sample,90750,0,"s_038.ogg",100
Sample,90750,0,"s_042.ogg",100
Sample,90825,0,"s_054.ogg",100
Sample,90825,0,"s_043.ogg",100
Sample,90825,0,"s_026.ogg",100
Sample,90900,0,"s_044.ogg",100
Sample,90900,0,"s_049.ogg",100
Sample,90900,0,"s_039.ogg",100
Sample,90900,0,"s_015.ogg",100
Sample,90975,0,"s_041.ogg",100
Sample,90975,0,"s_027.ogg",100
Sample,90975,0,"s_037.ogg",100
Sample,90975,0,"s_034.ogg",100
Sample,90975,0,"s_052.ogg",100
Sample,90975,0,"s_045.ogg",100
Sample,90975,0,"s_044.ogg",100
Sample,91050,0,"s_015.ogg",100
Sample,91050,0,"s_043.ogg",100
Sample,91125,0,"s_040.ogg",100
Sample,91125,0,"s_008.ogg",100
Sample,91200,0,"s_043.ogg",100
Sample,91200,0,"s_020.ogg",100
Sample,91275,0,"s_036.ogg",100
Sample,91275,0,"s_039.ogg",100
Sample,91275,0,"s_041.ogg",100
Sample,91275,0,"s_044.ogg",100
Sample,91275,0,"s_008.ogg",100
Sample,91350,0,"s_020.ogg",100
Sample,91350,0,"s_045.ogg",100
Sample,91350,0,"s_040.ogg",100
Sample,91425,0,"s_012.ogg",100
Sample,91425,0,"s_041.ogg",100
Sample,91425,0,"s_049.ogg",100
Sample,91425,0,"s_036.ogg",100
Sample,91500,0,"s_040.ogg",100
Sample,91500,0,"s_024.ogg",100
Sample,91500,0,"s_055.ogg",100
Sample,91575,0,"s_012.ogg",100
Sample,91575,0,"s_039.ogg",100
Sample,91575,0,"s_041.ogg",100
Sample,91575,0,"s_057.ogg",100
Sample,91575,0,"s_044.ogg",100
Sample,91650,0,"s_042.ogg",100
Sample,91650,0,"s_024.ogg",100
Sample,91650,0,"s_061.ogg",100
Sample,91725,0,"s_037.ogg",100
Sample,91725,0,"s_066.ogg",100
Sample,91725,0,"s_013.ogg",100
Sample,91725,0,"s_041.ogg",100
Sample,91800,0,"s_042.ogg",100
Sample,91800,0,"s_061.ogg",100
Sample,91800,0,"s_025.ogg",100
Sample,91875,0,"s_041.ogg",100
Sample,91875,0,"s_044.ogg",100
Sample,91875,0,"s_013.ogg",100
Sample,91875,0,"s_057.ogg",100
Sample,91875,0,"s_043.ogg",100
Sample,91875,0,"s_034.ogg",100
Sample,91950,0,"s_038.ogg",100
Sample,91950,0,"s_055.ogg",100
Sample,91950,0,"s_042.ogg",100
Sample,91950,0,"s_014.ogg",100
Sample,92025,0,"s_043.ogg",100
Sample,92025,0,"s_054.ogg",100
Sample,92025,0,"s_026.ogg",100
Sample,92100,0,"s_044.ogg",100
Sample,92100,0,"s_049.ogg",100
Sample,92100,0,"s_039.ogg",100
Sample,92100,0,"s_015.ogg",100
Sample,92175,0,"s_041.ogg",100
Sample,92175,0,"s_027.ogg",100
Sample,92175,0,"s_037.ogg",100
Sample,92175,0,"s_034.ogg",100
Sample,92175,0,"s_052.ogg",100
Sample,92175,0,"s_045.ogg",100
Sample,92175,0,"s_044.ogg",100
Sample,92250,0,"s_015.ogg",100
Sample,92250,0,"s_043.ogg",100
Sample,92325,0,"s_040.ogg",100
Sample,92325,0,"s_008.ogg",100
Sample,92400,0,"s_020.ogg",100
Sample,92400,0,"s_043.ogg",100
Sample,92475,0,"s_036.ogg",100
Sample,92475,0,"s_039.ogg",100
Sample,92475,0,"s_008.ogg",100
Sample,92475,0,"s_044.ogg",100
Sample,92475,0,"s_041.ogg",100
Sample,92550,0,"s_040.ogg",100
Sample,92550,0,"s_045.ogg",100
Sample,92550,0,"s_020.ogg",100
Sample,92625,0,"s_012.ogg",100
Sample,92625,0,"s_041.ogg",100
Sample,92625,0,"s_049.ogg",100
Sample,92625,0,"s_036.ogg",100
Sample,92700,0,"s_040.ogg",100
Sample,92700,0,"s_024.ogg",100
Sample,92700,0,"s_055.ogg",100
Sample,92775,0,"s_012.ogg",100
Sample,92775,0,"s_039.ogg",100
Sample,92775,0,"s_041.ogg",100
Sample,92775,0,"s_057.ogg",100
Sample,92775,0,"s_044.ogg",100
Sample,92850,0,"s_042.ogg",100
Sample,92850,0,"s_024.ogg",100
Sample,92850,0,"s_061.ogg",100
Sample,92925,0,"s_037.ogg",100
Sample,92925,0,"s_066.ogg",100
Sample,92925,0,"s_013.ogg",100
Sample,92925,0,"s_041.ogg",100
Sample,93000,0,"s_042.ogg",100
Sample,93000,0,"s_061.ogg",100
Sample,93000,0,"s_025.ogg",100
Sample,93075,0,"s_041.ogg",100
Sample,93075,0,"s_044.ogg",100
Sample,93075,0,"s_013.ogg",100
Sample,93075,0,"s_057.ogg",100
Sample,93075,0,"s_043.ogg",100
Sample,93075,0,"s_034.ogg",100
Sample,93150,0,"s_038.ogg",100
Sample,93150,0,"s_014.ogg",100
Sample,93150,0,"s_042.ogg",100
Sample,93150,0,"s_055.ogg",100
Sample,93225,0,"s_043.ogg",100
Sample,93225,0,"s_054.ogg",100
Sample,93225,0,"s_026.ogg",100
Sample,93300,0,"s_044.ogg",100
Sample,93300,0,"s_015.ogg",100
Sample,93300,0,"s_039.ogg",100
Sample,93300,0,"s_049.ogg",100
Sample,93375,0,"s_037.ogg",100
Sample,93375,0,"s_052.ogg",100
Sample,93375,0,"s_044.ogg",100
Sample,93375,0,"s_041.ogg",100
Sample,93375,0,"s_045.ogg",100
Sample,93375,0,"s_034.ogg",100
Sample,93375,0,"s_027.ogg",100
Sample,93450,0,"s_015.ogg",100
Sample,93450,0,"s_043.ogg",100
Sample,93525,0,"s_008.ogg",100
Sample,93525,0,"s_040.ogg",100
Sample,93525,0,"s_039.ogg",100
Sample,93600,0,"s_043.ogg",100
Sample,93600,0,"s_020.ogg",100
Sample,93675,0,"s_041.ogg",100
Sample,93675,0,"s_036.ogg",100
Sample,93675,0,"s_039.ogg",100
Sample,93675,0,"s_044.ogg",100
Sample,93675,0,"s_008.ogg",100
Sample,93750,0,"s_020.ogg",100
Sample,93750,0,"s_045.ogg",100
Sample,93750,0,"s_048.ogg",100
Sample,93750,0,"s_040.ogg",100
Sample,93825,0,"s_036.ogg",100
Sample,93825,0,"s_041.ogg",100
Sample,93825,0,"s_012.ogg",100
Sample,93825,0,"s_049.ogg",100
Sample,93900,0,"s_040.ogg",100
Sample,93900,0,"s_024.ogg",100
Sample,93900,0,"s_055.ogg",100
Sample,93900,0,"s_051.ogg",100
Sample,93975,0,"s_041.ogg",100
Sample,93975,0,"s_053.ogg",100
Sample,93975,0,"s_057.ogg",100
Sample,93975,0,"s_012.ogg",100
Sample,93975,0,"s_044.ogg",100
Sample,93975,0,"s_039.ogg",100
Sample,94050,0,"s_042.ogg",100
Sample,94050,0,"s_024.ogg",100
Sample,94050,0,"s_061.ogg",100
Sample,94125,0,"s_041.ogg",100
Sample,94125,0,"s_056.ogg",100
Sample,94125,0,"s_013.ogg",100
Sample,94125,0,"s_066.ogg",100
Sample,94125,0,"s_037.ogg",100
Sample,94200,0,"s_061.ogg",100
Sample,94200,0,"s_042.ogg",100
Sample,94200,0,"s_025.ogg",100
Sample,94200,0,"s_053.ogg",100
Sample,94275,0,"s_052.ogg",100
Sample,94275,0,"s_044.ogg",100
Sample,94275,0,"s_043.ogg",100
Sample,94275,0,"s_057.ogg",100
Sample,94275,0,"s_034.ogg",100
Sample,94275,0,"s_013.ogg",100
Sample,94275,0,"s_041.ogg",100
Sample,94350,0,"s_038.ogg",100
Sample,94350,0,"s_042.ogg",100
Sample,94350,0,"s_014.ogg",100
Sample,94350,0,"s_051.ogg",100
Sample,94350,0,"s_055.ogg",100
Sample,94425,0,"s_043.ogg",100
Sample,94425,0,"s_026.ogg",100
Sample,94425,0,"s_054.ogg",100
Sample,94500,0,"s_048.ogg",100
Sample,94500,0,"s_015.ogg",100
Sample,94500,0,"s_049.ogg",100
Sample,94500,0,"s_044.ogg",100
Sample,94500,0,"s_039.ogg",100
Sample,94575,0,"s_045.ogg",100
Sample,94575,0,"s_044.ogg",100
Sample,94575,0,"s_034.ogg",100
Sample,94575,0,"s_041.ogg",100
Sample,94575,0,"s_027.ogg",100
Sample,94575,0,"s_052.ogg",100
Sample,94575,0,"s_037.ogg",100
Sample,94650,0,"s_015.ogg",100
Sample,94650,0,"s_043.ogg",100
Sample,94725,0,"s_039.ogg",100
Sample,94725,0,"s_040.ogg",100
Sample,94725,0,"s_008.ogg",100
Sample,94800,0,"s_020.ogg",100
Sample,94800,0,"s_043.ogg",100
Sample,94875,0,"s_044.ogg",100
Sample,94875,0,"s_039.ogg",100
Sample,94875,0,"s_036.ogg",100
Sample,94875,0,"s_008.ogg",100
Sample,94875,0,"s_041.ogg",100
Sample,94950,0,"s_045.ogg",100
Sample,94950,0,"s_048.ogg",100
Sample,94950,0,"s_020.ogg",100
Sample,94950,0,"s_040.ogg",100
Sample,95025,0,"s_041.ogg",100
Sample,95025,0,"s_036.ogg",100
Sample,95025,0,"s_012.ogg",100
Sample,95025,0,"s_049.ogg",100
Sample,95100,0,"s_051.ogg",100
Sample,95100,0,"s_055.ogg",100
Sample,95100,0,"s_024.ogg",100
Sample,95100,0,"s_040.ogg",100
Sample,95175,0,"s_039.ogg",100
Sample,95175,0,"s_044.ogg",100
Sample,95175,0,"s_012.ogg",100
Sample,95175,0,"s_041.ogg",100
Sample,95175,0,"s_057.ogg",100
Sample,95175,0,"s_053.ogg",100
Sample,95250,0,"s_061.ogg",100
Sample,95250,0,"s_042.ogg",100
Sample,95250,0,"s_024.ogg",100
Sample,95325,0,"s_013.ogg",100
Sample,95325,0,"s_037.ogg",100
Sample,95325,0,"s_056.ogg",100
Sample,95325,0,"s_066.ogg",100
Sample,95325,0,"s_041.ogg",100
Sample,95400,0,"s_053.ogg",100
Sample,95400,0,"s_061.ogg",100
Sample,95400,0,"s_025.ogg",100
Sample,95400,0,"s_042.ogg",100
Sample,95475,0,"s_043.ogg",100
Sample,95475,0,"s_034.ogg",100
Sample,95475,0,"s_052.ogg",100
Sample,95475,0,"s_044.ogg",100
Sample,95475,0,"s_013.ogg",100
Sample,95475,0,"s_041.ogg",100
Sample,95475,0,"s_057.ogg",100
Sample,95550,0,"s_042.ogg",100
Sample,95550,0,"s_055.ogg",100
Sample,95550,0,"s_014.ogg",100
Sample,95550,0,"s_038.ogg",100
Sample,95550,0,"s_051.ogg",100
Sample,95625,0,"s_026.ogg",100
Sample,95625,0,"s_043.ogg",100
Sample,95625,0,"s_054.ogg",100
Sample,95700,0,"s_044.ogg",100
Sample,95700,0,"s_039.ogg",100
Sample,95700,0,"s_049.ogg",100
Sample,95700,0,"s_048.ogg",100
Sample,95700,0,"s_015.ogg",100
Sample,95775,0,"s_044.ogg",100
Sample,95775,0,"s_027.ogg",100
Sample,95775,0,"s_045.ogg",100
Sample,95775,0,"s_034.ogg",100
Sample,95775,0,"s_041.ogg",100
Sample,95775,0,"s_037.ogg",100
Sample,95775,0,"s_052.ogg",100
Sample,95850,0,"s_043.ogg",100
Sample,95850,0,"s_015.ogg",100
Sample,95925,0,"s_008.ogg",100
Sample,95925,0,"s_040.ogg",100
Sample,95925,0,"s_039.ogg",100
Sample,96000,0,"s_020.ogg",100
Sample,96000,0,"s_043.ogg",100
Sample,96075,0,"s_041.ogg",100
Sample,96075,0,"s_008.ogg",100
Sample,96075,0,"s_036.ogg",100
Sample,96075,0,"s_044.ogg",100
Sample,96075,0,"s_039.ogg",100
Sample,96150,0,"s_020.ogg",100
Sample,96150,0,"s_040.ogg",100
Sample,96150,0,"s_045.ogg",100
Sample,96150,0,"s_048.ogg",100
Sample,96225,0,"s_012.ogg",100
Sample,96225,0,"s_049.ogg",100
Sample,96225,0,"s_041.ogg",100
Sample,96225,0,"s_036.ogg",100
Sample,96300,0,"s_055.ogg",100
Sample,96300,0,"s_051.ogg",100
Sample,96300,0,"s_024.ogg",100
Sample,96300,0,"s_040.ogg",100
Sample,96375,0,"s_041.ogg",100
Sample,96375,0,"s_012.ogg",100
Sample,96375,0,"s_057.ogg",100
Sample,96375,0,"s_039.ogg",100
Sample,96375,0,"s_044.ogg",100
Sample,96375,0,"s_053.ogg",100
Sample,96450,0,"s_042.ogg",100
Sample,96450,0,"s_024.ogg",100
Sample,96450,0,"s_061.ogg",100
Sample,96525,0,"s_066.ogg",100
Sample,96525,0,"s_013.ogg",100
Sample,96525,0,"s_056.ogg",100
Sample,96525,0,"s_041.ogg",100
Sample,96525,0,"s_037.ogg",100
Sample,96600,0,"s_025.ogg",100
Sample,96600,0,"s_042.ogg",100
Sample,96600,0,"s_053.ogg",100
Sample,96600,0,"s_061.ogg",100
Sample,96675,0,"s_052.ogg",100
Sample,96675,0,"s_043.ogg",100
Sample,96675,0,"s_044.ogg",100
Sample,96675,0,"s_057.ogg",100
Sample,96675,0,"s_034.ogg",100
Sample,96675,0,"s_013.ogg",100
Sample,96675,0,"s_041.ogg",100
Sample,96750,0,"s_038.ogg",100
Sample,96750,0,"s_014.ogg",100
Sample,96750,0,"s_051.ogg",100
Sample,96750,0,"s_042.ogg",100
Sample,96750,0,"s_055.ogg",100
Sample,96825,0,"s_054.ogg",100
Sample,96825,0,"s_043.ogg",100
Sample,96825,0,"s_026.ogg",100
Sample,96900,0,"s_015.ogg",100
Sample,96900,0,"s_039.ogg",100
Sample,96900,0,"s_048.ogg",100
Sample,96900,0,"s_049.ogg",100
Sample,96900,0,"s_044.ogg",100
Sample,96975,0,"s_045.ogg",100
Sample,96975,0,"s_034.ogg",100
Sample,96975,0,"s_037.ogg",100
Sample,96975,0,"s_052.ogg",100
Sample,96975,0,"s_027.ogg",100
Sample,96975,0,"s_044.ogg",100
Sample,96975,0,"s_041.ogg",100
Sample,97050,0,"s_043.ogg",100
Sample,97050,0,"s_015.ogg",100
Sample,97125,0,"s_060.ogg",100
Sample,97125,0,"s_039.ogg",100
Sample,97125,0,"s_008.ogg",100
Sample,97125,0,"s_053.ogg",100
Sample,97125,0,"s_051.ogg",100
Sample,97125,0,"s_056.ogg",100
Sample,97125,0,"s_040.ogg",100
Sample,97200,0,"s_043.ogg",100
Sample,97200,0,"s_020.ogg",100
Sample,97275,0,"s_039.ogg",100
Sample,97275,0,"s_044.ogg",100
Sample,97275,0,"s_055.ogg",100
Sample,97275,0,"s_036.ogg",100
Sample,97275,0,"s_052.ogg",100
Sample,97275,0,"s_059.ogg",100
Sample,97275,0,"s_050.ogg",100
Sample,97275,0,"s_041.ogg",100
Sample,97275,0,"s_008.ogg",100
Sample,97350,0,"s_048.ogg",100
Sample,97350,0,"s_045.ogg",100
Sample,97350,0,"s_040.ogg",100
Sample,97350,0,"s_020.ogg",100
Sample,97425,0,"s_041.ogg",100
Sample,97425,0,"s_036.ogg",100
Sample,97425,0,"s_051.ogg",100
Sample,97425,0,"s_058.ogg",100
Sample,97425,0,"s_049.ogg",100
Sample,97425,0,"s_054.ogg",100
Sample,97425,0,"s_012.ogg",100
Sample,97500,0,"s_040.ogg",100
Sample,97500,0,"s_051.ogg",100
Sample,97500,0,"s_024.ogg",100
Sample,97500,0,"s_055.ogg",100
Sample,97575,0,"s_041.ogg",100
Sample,97575,0,"s_057.ogg",100
Sample,97575,0,"s_055.ogg",100
Sample,97575,0,"s_039.ogg",100
Sample,97575,0,"s_052.ogg",100
Sample,97575,0,"s_059.ogg",100
Sample,97575,0,"s_012.ogg",100
Sample,97575,0,"s_050.ogg",100
Sample,97575,0,"s_053.ogg",100
Sample,97575,0,"s_044.ogg",100
Sample,97650,0,"s_042.ogg",100
Sample,97650,0,"s_061.ogg",100
Sample,97650,0,"s_024.ogg",100
Sample,97725,0,"s_037.ogg",100
Sample,97725,0,"s_051.ogg",100
Sample,97725,0,"s_066.ogg",100
Sample,97725,0,"s_013.ogg",100
Sample,97725,0,"s_056.ogg",100
Sample,97725,0,"s_060.ogg",100
Sample,97725,0,"s_053.ogg",100
Sample,97725,0,"s_041.ogg",100
Sample,97800,0,"s_042.ogg",100
Sample,97800,0,"s_025.ogg",100
Sample,97800,0,"s_053.ogg",100
Sample,97800,0,"s_061.ogg",100
Sample,97875,0,"s_057.ogg",100
Sample,97875,0,"s_034.ogg",100
Sample,97875,0,"s_043.ogg",100
Sample,97875,0,"s_050.ogg",100
Sample,97875,0,"s_044.ogg",100
Sample,97875,0,"s_052.ogg",100
Sample,97875,0,"s_055.ogg",100
Sample,97875,0,"s_013.ogg",100
Sample,97875,0,"s_041.ogg",100
Sample,97875,0,"s_059.ogg",100
Sample,97950,0,"s_014.ogg",100
Sample,97950,0,"s_051.ogg",100
Sample,97950,0,"s_042.ogg",100
Sample,97950,0,"s_055.ogg",100
Sample,97950,0,"s_038.ogg",100
Sample,98025,0,"s_049.ogg",100
Sample,98025,0,"s_054.ogg",100
Sample,98025,0,"s_051.ogg",100
Sample,98025,0,"s_026.ogg",100
Sample,98025,0,"s_058.ogg",100
Sample,98025,0,"s_043.ogg",100
Sample,98100,0,"s_049.ogg",100
Sample,98100,0,"s_044.ogg",100
Sample,98100,0,"s_048.ogg",100
Sample,98100,0,"s_015.ogg",100
Sample,98100,0,"s_039.ogg",100
Sample,98175,0,"s_027.ogg",100
Sample,98175,0,"s_034.ogg",100
Sample,98175,0,"s_055.ogg",100
Sample,98175,0,"s_050.ogg",100
Sample,98175,0,"s_041.ogg",100
Sample,98175,0,"s_052.ogg",100
Sample,98175,0,"s_037.ogg",100
Sample,98175,0,"s_059.ogg",100
Sample,98175,0,"s_044.ogg",100
Sample,98175,0,"s_045.ogg",100
Sample,98250,0,"s_015.ogg",100
Sample,98250,0,"s_043.ogg",100
Sample,98325,0,"s_056.ogg",100
Sample,98325,0,"s_040.ogg",100
Sample,98325,0,"s_008.ogg",100
Sample,98325,0,"s_053.ogg",100
Sample,98325,0,"s_039.ogg",100
Sample,98325,0,"s_051.ogg",100
Sample,98325,0,"s_060.ogg",100
Sample,98400,0,"s_020.ogg",100
Sample,98400,0,"s_043.ogg",100
Sample,98475,0,"s_059.ogg",100
Sample,98475,0,"s_055.ogg",100
Sample,98475,0,"s_039.ogg",100
Sample,98475,0,"s_050.ogg",100
Sample,98475,0,"s_052.ogg",100
Sample,98475,0,"s_008.ogg",100
Sample,98475,0,"s_041.ogg",100
Sample,98475,0,"s_036.ogg",100
Sample,98475,0,"s_044.ogg",100
Sample,98550,0,"s_048.ogg",100
Sample,98550,0,"s_040.ogg",100
Sample,98550,0,"s_045.ogg",100
Sample,98550,0,"s_020.ogg",100
Sample,98625,0,"s_041.ogg",100
Sample,98625,0,"s_058.ogg",100
Sample,98625,0,"s_036.ogg",100
Sample,98625,0,"s_012.ogg",100
Sample,98625,0,"s_054.ogg",100
Sample,98625,0,"s_051.ogg",100
Sample,98625,0,"s_049.ogg",100
Sample,98700,0,"s_055.ogg",100
Sample,98700,0,"s_051.ogg",100
Sample,98700,0,"s_024.ogg",100
Sample,98700,0,"s_040.ogg",100
Sample,98775,0,"s_012.ogg",100
Sample,98775,0,"s_059.ogg",100
Sample,98775,0,"s_053.ogg",100
Sample,98775,0,"s_052.ogg",100
Sample,98775,0,"s_041.ogg",100
Sample,98775,0,"s_057.ogg",100
Sample,98775,0,"s_050.ogg",100
Sample,98775,0,"s_039.ogg",100
Sample,98775,0,"s_055.ogg",100
Sample,98775,0,"s_044.ogg",100
Sample,98850,0,"s_061.ogg",100
Sample,98850,0,"s_024.ogg",100
Sample,98850,0,"s_042.ogg",100
Sample,98925,0,"s_041.ogg",100
Sample,98925,0,"s_060.ogg",100
Sample,98925,0,"s_037.ogg",100
Sample,98925,0,"s_051.ogg",100
Sample,98925,0,"s_066.ogg",100
Sample,98925,0,"s_013.ogg",100
Sample,98925,0,"s_056.ogg",100
Sample,98925,0,"s_053.ogg",100
Sample,99000,0,"s_061.ogg",100
Sample,99000,0,"s_053.ogg",100
Sample,99000,0,"s_025.ogg",100
Sample,99000,0,"s_042.ogg",100
Sample,99075,0,"s_044.ogg",100
Sample,99075,0,"s_057.ogg",100
Sample,99075,0,"s_041.ogg",100
Sample,99075,0,"s_050.ogg",100
Sample,99075,0,"s_013.ogg",100
Sample,99075,0,"s_052.ogg",100
Sample,99075,0,"s_043.ogg",100
Sample,99075,0,"s_059.ogg",100
Sample,99075,0,"s_034.ogg",100
Sample,99075,0,"s_055.ogg",100
Sample,99150,0,"s_038.ogg",100
Sample,99150,0,"s_055.ogg",100
Sample,99150,0,"s_042.ogg",100
Sample,99150,0,"s_051.ogg",100
Sample,99150,0,"s_014.ogg",100
Sample,99225,0,"s_051.ogg",100
Sample,99225,0,"s_054.ogg",100
Sample,99225,0,"s_058.ogg",100
Sample,99225,0,"s_026.ogg",100
Sample,99225,0,"s_043.ogg",100
Sample,99225,0,"s_049.ogg",100
Sample,99300,0,"s_049.ogg",100
Sample,99300,0,"s_044.ogg",100
Sample,99300,0,"s_048.ogg",100
Sample,99300,0,"s_015.ogg",100
Sample,99300,0,"s_039.ogg",100
Sample,99375,0,"s_027.ogg",100
Sample,99375,0,"s_034.ogg",100
Sample,99375,0,"s_055.ogg",100
Sample,99375,0,"s_050.ogg",100
Sample,99375,0,"s_041.ogg",100
Sample,99375,0,"s_052.ogg",100
Sample,99375,0,"s_037.ogg",100
Sample,99375,0,"s_059.ogg",100
Sample,99375,0,"s_044.ogg",100
Sample,99375,0,"s_045.ogg",100
Sample,99450,0,"s_015.ogg",100
Sample,99450,0,"s_043.ogg",100
Sample,99525,0,"s_056.ogg",100
Sample,99525,0,"s_040.ogg",100
Sample,99525,0,"s_008.ogg",100
Sample,99525,0,"s_053.ogg",100
Sample,99525,0,"s_039.ogg",100
Sample,99525,0,"s_051.ogg",100
Sample,99525,0,"s_060.ogg",100
Sample,99600,0,"s_020.ogg",100
Sample,99600,0,"s_043.ogg",100
Sample,99675,0,"s_036.ogg",100
Sample,99675,0,"s_055.ogg",100
Sample,99675,0,"s_050.ogg",100
Sample,99675,0,"s_041.ogg",100
Sample,99675,0,"s_052.ogg",100
Sample,99675,0,"s_039.ogg",100
Sample,99675,0,"s_044.ogg",100
Sample,99675,0,"s_008.ogg",100
Sample,99675,0,"s_059.ogg",100
Sample,99750,0,"s_048.ogg",100
Sample,99750,0,"s_040.ogg",100
Sample,99750,0,"s_045.ogg",100
Sample,99750,0,"s_020.ogg",100
Sample,99825,0,"s_058.ogg",100
Sample,99825,0,"s_012.ogg",100
Sample,99825,0,"s_054.ogg",100
Sample,99825,0,"s_049.ogg",100
Sample,99825,0,"s_036.ogg",100
Sample,99825,0,"s_041.ogg",100
Sample,99825,0,"s_051.ogg",100
Sample,99900,0,"s_055.ogg",100
Sample,99900,0,"s_051.ogg",100
Sample,99900,0,"s_040.ogg",100
Sample,99900,0,"s_024.ogg",100
Sample,99975,0,"s_012.ogg",100
Sample,99975,0,"s_059.ogg",100
Sample,99975,0,"s_055.ogg",100
Sample,99975,0,"s_052.ogg",100
Sample,99975,0,"s_041.ogg",100
Sample,99975,0,"s_057.ogg",100
Sample,99975,0,"s_050.ogg",100
Sample,99975,0,"s_039.ogg",100
Sample,99975,0,"s_053.ogg",100
Sample,99975,0,"s_044.ogg",100
Sample,100050,0,"s_061.ogg",100
Sample,100050,0,"s_042.ogg",100
Sample,100050,0,"s_024.ogg",100
Sample,100125,0,"s_013.ogg",100
Sample,100125,0,"s_060.ogg",100
Sample,100125,0,"s_053.ogg",100
Sample,100125,0,"s_037.ogg",100
Sample,100125,0,"s_051.ogg",100
Sample,100125,0,"s_041.ogg",100
Sample,100125,0,"s_056.ogg",100
Sample,100125,0,"s_066.ogg",100
Sample,100200,0,"s_061.ogg",100
Sample,100200,0,"s_053.ogg",100
Sample,100200,0,"s_025.ogg",100
Sample,100200,0,"s_042.ogg",100
Sample,100275,0,"s_044.ogg",100
Sample,100275,0,"s_057.ogg",100
Sample,100275,0,"s_041.ogg",100
Sample,100275,0,"s_050.ogg",100
Sample,100275,0,"s_013.ogg",100
Sample,100275,0,"s_052.ogg",100
Sample,100275,0,"s_043.ogg",100
Sample,100275,0,"s_059.ogg",100
Sample,100275,0,"s_034.ogg",100
Sample,100275,0,"s_055.ogg",100
Sample,100350,0,"s_014.ogg",100
Sample,100350,0,"s_042.ogg",100
Sample,100350,0,"s_055.ogg",100
Sample,100350,0,"s_051.ogg",100
Sample,100350,0,"s_038.ogg",100
Sample,100425,0,"s_058.ogg",100
Sample,100425,0,"s_026.ogg",100
Sample,100425,0,"s_049.ogg",100
Sample,100425,0,"s_043.ogg",100
Sample,100425,0,"s_054.ogg",100
Sample,100425,0,"s_051.ogg",100
Sample,100500,0,"s_049.ogg",100
Sample,100500,0,"s_015.ogg",100
Sample,100500,0,"s_048.ogg",100
Sample,100500,0,"s_044.ogg",100
Sample,100500,0,"s_039.ogg",100
Sample,100575,0,"s_052.ogg",100
Sample,100575,0,"s_034.ogg",100
Sample,100575,0,"s_059.ogg",100
Sample,100575,0,"s_050.ogg",100
Sample,100575,0,"s_055.ogg",100
Sample,100575,0,"s_044.ogg",100
Sample,100575,0,"s_045.ogg",100
Sample,100575,0,"s_041.ogg",100
Sample,100575,0,"s_037.ogg",100
Sample,100575,0,"s_027.ogg",100
Sample,100650,0,"s_015.ogg",100
Sample,100650,0,"s_043.ogg",100
Sample,100725,0,"s_056.ogg",100
Sample,100725,0,"s_032.ogg",100
Sample,100725,0,"s_039.ogg",100
Sample,100725,0,"s_051.ogg",100
Sample,100725,0,"s_008.ogg",100
Sample,100725,0,"s_053.ogg",100
Sample,100725,0,"s_040.ogg",100
Sample,100785,0,"s_045.ogg",100
Sample,100785,0,"s_041.ogg",100
Sample,100800,0,"s_020.ogg",100
Sample,100800,0,"s_043.ogg",100
Sample,100845,0,"s_042.ogg",100
Sample,100875,0,"s_050.ogg",100
Sample,100875,0,"s_036.ogg",100
Sample,100875,0,"s_041.ogg",100
Sample,100875,0,"s_039.ogg",100
Sample,100875,0,"s_052.ogg",100
Sample,100875,0,"s_008.ogg",100
Sample,100875,0,"s_044.ogg",100
Sample,100875,0,"s_055.ogg",100
Sample,100875,0,"s_059.ogg",100
Sample,100905,0,"s_047.ogg",100
Sample,100905,0,"s_043.ogg",100
Sample,100950,0,"s_045.ogg",100
Sample,100950,0,"s_048.ogg",100
Sample,100950,0,"s_020.ogg",100
Sample,100950,0,"s_040.ogg",100
Sample,100965,0,"s_044.ogg",100
Sample,100965,0,"s_048.ogg",100
Sample,101025,0,"s_036.ogg",100
Sample,101025,0,"s_045.ogg",100
Sample,101025,0,"s_054.ogg",100
Sample,101025,0,"s_012.ogg",100
Sample,101025,0,"s_058.ogg",100
Sample,101025,0,"s_049.ogg",100
Sample,101025,0,"s_051.ogg",100
Sample,101025,0,"s_041.ogg",100
Sample,101085,0,"s_046.ogg",100
Sample,101085,0,"s_042.ogg",100
Sample,101100,0,"s_051.ogg",100
Sample,101100,0,"s_040.ogg",100
Sample,101100,0,"s_055.ogg",100
Sample,101100,0,"s_024.ogg",100
Sample,101145,0,"s_047.ogg",100
Sample,101145,0,"s_043.ogg",100
Sample,101175,0,"s_053.ogg",100
Sample,101175,0,"s_044.ogg",100
Sample,101175,0,"s_039.ogg",100
Sample,101175,0,"s_050.ogg",100
Sample,101175,0,"s_057.ogg",100
Sample,101175,0,"s_059.ogg",100
Sample,101175,0,"s_012.ogg",100
Sample,101175,0,"s_041.ogg",100
Sample,101175,0,"s_055.ogg",100
Sample,101175,0,"s_052.ogg",100
Sample,101205,0,"s_044.ogg",100
Sample,101205,0,"s_048.ogg",100
Sample,101250,0,"s_061.ogg",100
Sample,101250,0,"s_042.ogg",100
Sample,101250,0,"s_024.ogg",100
Sample,101265,0,"s_049.ogg",100
Sample,101265,0,"s_045.ogg",100
Sample,101325,0,"s_041.ogg",100
Sample,101325,0,"s_013.ogg",100
Sample,101325,0,"s_060.ogg",100
Sample,101325,0,"s_053.ogg",100
Sample,101325,0,"s_066.ogg",100
Sample,101325,0,"s_048.ogg",100
Sample,101325,0,"s_052.ogg",100
Sample,101325,0,"s_056.ogg",100
Sample,101325,0,"s_051.ogg",100
Sample,101325,0,"s_037.ogg",100
Sample,101385,0,"s_049.ogg",100
Sample,101385,0,"s_045.ogg",100
Sample,101400,0,"s_042.ogg",100
Sample,101400,0,"s_025.ogg",100
Sample,101400,0,"s_061.ogg",100
Sample,101400,0,"s_053.ogg",100
Sample,101445,0,"s_044.ogg",100
Sample,101445,0,"s_048.ogg",100
Sample,101475,0,"s_013.ogg",100
Sample,101475,0,"s_055.ogg",100
Sample,101475,0,"s_050.ogg",100
Sample,101475,0,"s_041.ogg",100
Sample,101475,0,"s_057.ogg",100
Sample,101475,0,"s_043.ogg",100
Sample,101475,0,"s_044.ogg",100
Sample,101475,0,"s_059.ogg",100
Sample,101475,0,"s_052.ogg",100
Sample,101475,0,"s_034.ogg",100
Sample,101505,0,"s_043.ogg",100
Sample,101505,0,"s_047.ogg",100
Sample,101550,0,"s_051.ogg",100
Sample,101550,0,"s_038.ogg",100
Sample,101550,0,"s_014.ogg",100
Sample,101550,0,"s_055.ogg",100
Sample,101550,0,"s_042.ogg",100
Sample,101565,0,"s_046.ogg",100
Sample,101565,0,"s_042.ogg",100
Sample,101625,0,"s_054.ogg",100
Sample,101625,0,"s_041.ogg",100
Sample,101625,0,"s_058.ogg",100
Sample,101625,0,"s_043.ogg",100
Sample,101625,0,"s_049.ogg",100
Sample,101625,0,"s_045.ogg",100
Sample,101625,0,"s_051.ogg",100
Sample,101625,0,"s_026.ogg",100
Sample,101685,0,"s_044.ogg",100
Sample,101685,0,"s_048.ogg",100
Sample,101700,0,"s_039.ogg",100
Sample,101700,0,"s_049.ogg",100
Sample,101700,0,"s_048.ogg",100
Sample,101700,0,"s_044.ogg",100
Sample,101700,0,"s_015.ogg",100
Sample,101745,0,"s_043.ogg",100
Sample,101745,0,"s_047.ogg",100
Sample,101775,0,"s_055.ogg",100
Sample,101775,0,"s_034.ogg",100
Sample,101775,0,"s_059.ogg",100
Sample,101775,0,"s_041.ogg",100
Sample,101775,0,"s_052.ogg",100
Sample,101775,0,"s_045.ogg",100
Sample,101775,0,"s_027.ogg",100
Sample,101775,0,"s_044.ogg",100
Sample,101775,0,"s_037.ogg",100
Sample,101775,0,"s_050.ogg",100
Sample,101805,0,"s_042.ogg",100
Sample,101805,0,"s_046.ogg",100
Sample,101850,0,"s_043.ogg",100
Sample,101850,0,"s_015.ogg",100
Sample,101865,0,"s_045.ogg",100
Sample,101865,0,"s_041.ogg",100
Sample,101925,0,"s_032.ogg",100
Sample,101925,0,"s_053.ogg",100
Sample,101925,0,"s_040.ogg",100
Sample,101925,0,"s_051.ogg",100
Sample,101925,0,"s_008.ogg",100
Sample,101925,0,"s_056.ogg",100
Sample,101925,0,"s_039.ogg",100
Sample,101985,0,"s_041.ogg",100
Sample,101985,0,"s_045.ogg",100
Sample,102000,0,"s_020.ogg",100
Sample,102000,0,"s_043.ogg",100
Sample,102045,0,"s_042.ogg",100
Sample,102075,0,"s_050.ogg",100
Sample,102075,0,"s_036.ogg",100
Sample,102075,0,"s_041.ogg",100
Sample,102075,0,"s_039.ogg",100
Sample,102075,0,"s_052.ogg",100
Sample,102075,0,"s_008.ogg",100
Sample,102075,0,"s_044.ogg",100
Sample,102075,0,"s_055.ogg",100
Sample,102075,0,"s_059.ogg",100
Sample,102105,0,"s_047.ogg",100
Sample,102105,0,"s_043.ogg",100
Sample,102150,0,"s_045.ogg",100
Sample,102150,0,"s_048.ogg",100
Sample,102150,0,"s_020.ogg",100
Sample,102150,0,"s_040.ogg",100
Sample,102165,0,"s_044.ogg",100
Sample,102165,0,"s_048.ogg",100
Sample,102225,0,"s_036.ogg",100
Sample,102225,0,"s_045.ogg",100
Sample,102225,0,"s_054.ogg",100
Sample,102225,0,"s_012.ogg",100
Sample,102225,0,"s_058.ogg",100
Sample,102225,0,"s_049.ogg",100
Sample,102225,0,"s_051.ogg",100
Sample,102225,0,"s_041.ogg",100
Sample,102285,0,"s_046.ogg",100
Sample,102285,0,"s_042.ogg",100
Sample,102300,0,"s_051.ogg",100
Sample,102300,0,"s_040.ogg",100
Sample,102300,0,"s_055.ogg",100
Sample,102300,0,"s_024.ogg",100
Sample,102345,0,"s_047.ogg",100
Sample,102345,0,"s_043.ogg",100
Sample,102375,0,"s_053.ogg",100
Sample,102375,0,"s_044.ogg",100
Sample,102375,0,"s_039.ogg",100
Sample,102375,0,"s_050.ogg",100
Sample,102375,0,"s_057.ogg",100
Sample,102375,0,"s_059.ogg",100
Sample,102375,0,"s_012.ogg",100
Sample,102375,0,"s_041.ogg",100
Sample,102375,0,"s_055.ogg",100
Sample,102375,0,"s_052.ogg",100
Sample,102405,0,"s_044.ogg",100
Sample,102405,0,"s_048.ogg",100
Sample,102450,0,"s_061.ogg",100
Sample,102450,0,"s_042.ogg",100
Sample,102450,0,"s_024.ogg",100
Sample,102465,0,"s_049.ogg",100
Sample,102465,0,"s_045.ogg",100
Sample,102525,0,"s_041.ogg",100
Sample,102525,0,"s_013.ogg",100
Sample,102525,0,"s_060.ogg",100
Sample,102525,0,"s_053.ogg",100
Sample,102525,0,"s_066.ogg",100
Sample,102525,0,"s_048.ogg",100
Sample,102525,0,"s_052.ogg",100
Sample,102525,0,"s_056.ogg",100
Sample,102525,0,"s_051.ogg",100
Sample,102525,0,"s_037.ogg",100
Sample,102585,0,"s_049.ogg",100
Sample,102585,0,"s_045.ogg",100
Sample,102600,0,"s_042.ogg",100
Sample,102600,0,"s_025.ogg",100
Sample,102600,0,"s_061.ogg",100
Sample,102600,0,"s_053.ogg",100
Sample,102645,0,"s_044.ogg",100
Sample,102645,0,"s_048.ogg",100
Sample,102675,0,"s_013.ogg",100
Sample,102675,0,"s_055.ogg",100
Sample,102675,0,"s_050.ogg",100
Sample,102675,0,"s_041.ogg",100
Sample,102675,0,"s_057.ogg",100
Sample,102675,0,"s_043.ogg",100
Sample,102675,0,"s_044.ogg",100
Sample,102675,0,"s_059.ogg",100
Sample,102675,0,"s_052.ogg",100
Sample,102675,0,"s_034.ogg",100
Sample,102705,0,"s_043.ogg",100
Sample,102705,0,"s_047.ogg",100
Sample,102750,0,"s_051.ogg",100
Sample,102750,0,"s_038.ogg",100
Sample,102750,0,"s_014.ogg",100
Sample,102750,0,"s_055.ogg",100
Sample,102750,0,"s_042.ogg",100
Sample,102765,0,"s_046.ogg",100
Sample,102765,0,"s_042.ogg",100
Sample,102825,0,"s_054.ogg",100
Sample,102825,0,"s_041.ogg",100
Sample,102825,0,"s_058.ogg",100
Sample,102825,0,"s_043.ogg",100
Sample,102825,0,"s_049.ogg",100
Sample,102825,0,"s_045.ogg",100
Sample,102825,0,"s_051.ogg",100
Sample,102825,0,"s_026.ogg",100
Sample,102885,0,"s_044.ogg",100
Sample,102885,0,"s_048.ogg",100
Sample,102900,0,"s_039.ogg",100
Sample,102900,0,"s_049.ogg",100
Sample,102900,0,"s_048.ogg",100
Sample,102900,0,"s_044.ogg",100
Sample,102900,0,"s_015.ogg",100
Sample,102945,0,"s_043.ogg",100
Sample,102945,0,"s_047.ogg",100
Sample,102975,0,"s_055.ogg",100
Sample,102975,0,"s_034.ogg",100
Sample,102975,0,"s_059.ogg",100
Sample,102975,0,"s_041.ogg",100
Sample,102975,0,"s_052.ogg",100
Sample,102975,0,"s_045.ogg",100
Sample,102975,0,"s_027.ogg",100
Sample,102975,0,"s_044.ogg",100
Sample,102975,0,"s_037.ogg",100
Sample,102975,0,"s_050.ogg",100
Sample,103005,0,"s_042.ogg",100
Sample,103005,0,"s_046.ogg",100
Sample,103050,0,"s_043.ogg",100
Sample,103050,0,"s_015.ogg",100
Sample,103065,0,"s_045.ogg",100
Sample,103065,0,"s_041.ogg",100
Sample,103125,0,"s_032.ogg",100
Sample,103125,0,"s_053.ogg",100
Sample,103125,0,"s_040.ogg",100
Sample,103125,0,"s_051.ogg",100
Sample,103125,0,"s_008.ogg",100
Sample,103125,0,"s_056.ogg",100
Sample,103125,0,"s_039.ogg",100
Sample,103185,0,"s_041.ogg",100
Sample,103185,0,"s_045.ogg",100
Sample,103200,0,"s_020.ogg",100
Sample,103200,0,"s_043.ogg",100
Sample,103245,0,"s_042.ogg",100
Sample,103275,0,"s_050.ogg",100
Sample,103275,0,"s_036.ogg",100
Sample,103275,0,"s_041.ogg",100
Sample,103275,0,"s_039.ogg",100
Sample,103275,0,"s_052.ogg",100
Sample,103275,0,"s_008.ogg",100
Sample,103275,0,"s_044.ogg",100
Sample,103275,0,"s_055.ogg",100
Sample,103275,0,"s_059.ogg",100
Sample,103305,0,"s_047.ogg",100
Sample,103305,0,"s_043.ogg",100
Sample,103350,0,"s_045.ogg",100
Sample,103350,0,"s_048.ogg",100
Sample,103350,0,"s_020.ogg",100
Sample,103350,0,"s_040.ogg",100
Sample,103365,0,"s_044.ogg",100
Sample,103365,0,"s_048.ogg",100
Sample,103425,0,"s_036.ogg",100
Sample,103425,0,"s_045.ogg",100
Sample,103425,0,"s_054.ogg",100
Sample,103425,0,"s_012.ogg",100
Sample,103425,0,"s_058.ogg",100
Sample,103425,0,"s_049.ogg",100
Sample,103425,0,"s_051.ogg",100
Sample,103425,0,"s_041.ogg",100
Sample,103485,0,"s_046.ogg",100
Sample,103485,0,"s_042.ogg",100
Sample,103500,0,"s_051.ogg",100
Sample,103500,0,"s_040.ogg",100
Sample,103500,0,"s_055.ogg",100
Sample,103500,0,"s_024.ogg",100
Sample,103545,0,"s_047.ogg",100
Sample,103545,0,"s_043.ogg",100
Sample,103575,0,"s_053.ogg",100
Sample,103575,0,"s_044.ogg",100
Sample,103575,0,"s_039.ogg",100
Sample,103575,0,"s_050.ogg",100
Sample,103575,0,"s_057.ogg",100
Sample,103575,0,"s_059.ogg",100
Sample,103575,0,"s_012.ogg",100
Sample,103575,0,"s_041.ogg",100
Sample,103575,0,"s_055.ogg",100
Sample,103575,0,"s_052.ogg",100
Sample,103605,0,"s_044.ogg",100
Sample,103605,0,"s_048.ogg",100
Sample,103650,0,"s_061.ogg",100
Sample,103650,0,"s_042.ogg",100
Sample,103650,0,"s_024.ogg",100
Sample,103665,0,"s_049.ogg",100
Sample,103665,0,"s_045.ogg",100
Sample,103725,0,"s_041.ogg",100
Sample,103725,0,"s_013.ogg",100
Sample,103725,0,"s_060.ogg",100
Sample,103725,0,"s_053.ogg",100
Sample,103725,0,"s_066.ogg",100
Sample,103725,0,"s_048.ogg",100
Sample,103725,0,"s_052.ogg",100
Sample,103725,0,"s_056.ogg",100
Sample,103725,0,"s_051.ogg",100
Sample,103725,0,"s_037.ogg",100
Sample,103785,0,"s_049.ogg",100
Sample,103785,0,"s_045.ogg",100
Sample,103800,0,"s_042.ogg",100
Sample,103800,0,"s_025.ogg",100
Sample,103800,0,"s_061.ogg",100
Sample,103800,0,"s_053.ogg",100
Sample,103845,0,"s_044.ogg",100
Sample,103845,0,"s_048.ogg",100
Sample,103875,0,"s_013.ogg",100
Sample,103875,0,"s_055.ogg",100
Sample,103875,0,"s_050.ogg",100
Sample,103875,0,"s_041.ogg",100
Sample,103875,0,"s_057.ogg",100
Sample,103875,0,"s_043.ogg",100
Sample,103875,0,"s_044.ogg",100
Sample,103875,0,"s_059.ogg",100
Sample,103875,0,"s_052.ogg",100
Sample,103875,0,"s_034.ogg",100
Sample,103905,0,"s_043.ogg",100
Sample,103905,0,"s_047.ogg",100
Sample,103950,0,"s_051.ogg",100
Sample,103950,0,"s_038.ogg",100
Sample,103950,0,"s_014.ogg",100
Sample,103950,0,"s_055.ogg",100
Sample,103950,0,"s_042.ogg",100
Sample,103965,0,"s_042.ogg",100
Sample,103965,0,"s_046.ogg",100
Sample,104025,0,"s_051.ogg",100
Sample,104025,0,"s_043.ogg",100
Sample,104025,0,"s_049.ogg",100
Sample,104025,0,"s_026.ogg",100
Sample,104025,0,"s_054.ogg",100
Sample,104025,0,"s_041.ogg",100
Sample,104025,0,"s_045.ogg",100
Sample,104025,0,"s_058.ogg",100
Sample,104085,0,"s_044.ogg",100
Sample,104085,0,"s_048.ogg",100
Sample,104100,0,"s_039.ogg",100
Sample,104100,0,"s_049.ogg",100
Sample,104100,0,"s_048.ogg",100
Sample,104100,0,"s_044.ogg",100
Sample,104100,0,"s_015.ogg",100
Sample,104145,0,"s_043.ogg",100
Sample,104145,0,"s_047.ogg",100
Sample,104175,0,"s_055.ogg",100
Sample,104175,0,"s_034.ogg",100
Sample,104175,0,"s_059.ogg",100
Sample,104175,0,"s_041.ogg",100
Sample,104175,0,"s_052.ogg",100
Sample,104175,0,"s_045.ogg",100
Sample,104175,0,"s_027.ogg",100
Sample,104175,0,"s_044.ogg",100
Sample,104175,0,"s_037.ogg",100
Sample,104175,0,"s_050.ogg",100
Sample,104205,0,"s_042.ogg",100
Sample,104205,0,"s_046.ogg",100
Sample,104250,0,"s_043.ogg",100
Sample,104250,0,"s_015.ogg",100
Sample,104265,0,"s_045.ogg",100
Sample,104265,0,"s_041.ogg",100
Sample,104325,0,"s_053.ogg",100
Sample,104325,0,"s_032.ogg",100
Sample,104325,0,"s_040.ogg",100
Sample,104325,0,"s_008.ogg",100
Sample,104325,0,"s_051.ogg",100
Sample,104325,0,"s_060.ogg",100
Sample,104325,0,"s_039.ogg",100
Sample,104325,0,"s_056.ogg",100
Sample,104385,0,"s_041.ogg",100
Sample,104385,0,"s_045.ogg",100
Sample,104400,0,"s_043.ogg",100
Sample,104400,0,"s_020.ogg",100
Sample,104400,0,"s_060.ogg",100
Sample,104445,0,"s_042.ogg",100
Sample,104475,0,"s_008.ogg",100
Sample,104475,0,"s_036.ogg",100
Sample,104475,0,"s_050.ogg",100
Sample,104475,0,"s_055.ogg",100
Sample,104475,0,"s_059.ogg",100
Sample,104475,0,"s_071.ogg",100
Sample,104475,0,"s_041.ogg",100
Sample,104475,0,"s_052.ogg",100
Sample,104475,0,"s_044.ogg",100
Sample,104475,0,"s_039.ogg",100
Sample,104505,0,"s_043.ogg",100
Sample,104505,0,"s_047.ogg",100
Sample,104550,0,"s_061.ogg",100
Sample,104550,0,"s_045.ogg",100
Sample,104550,0,"s_040.ogg",100
Sample,104550,0,"s_020.ogg",100
Sample,104550,0,"s_048.ogg",100
Sample,104565,0,"s_044.ogg",100
Sample,104565,0,"s_048.ogg",100
Sample,104625,0,"s_058.ogg",100
Sample,104625,0,"s_070.ogg",100
Sample,104625,0,"s_049.ogg",100
Sample,104625,0,"s_012.ogg",100
Sample,104625,0,"s_054.ogg",100
Sample,104625,0,"s_045.ogg",100
Sample,104625,0,"s_036.ogg",100
Sample,104625,0,"s_041.ogg",100
Sample,104625,0,"s_051.ogg",100
Sample,104685,0,"s_042.ogg",100
Sample,104685,0,"s_046.ogg",100
Sample,104700,0,"s_040.ogg",100
Sample,104700,0,"s_062.ogg",100
Sample,104700,0,"s_055.ogg",100
Sample,104700,0,"s_024.ogg",100
Sample,104700,0,"s_051.ogg",100
Sample,104745,0,"s_047.ogg",100
Sample,104745,0,"s_043.ogg",100
Sample,104775,0,"s_044.ogg",100
Sample,104775,0,"s_012.ogg",100
Sample,104775,0,"s_050.ogg",100
Sample,104775,0,"s_059.ogg",100
Sample,104775,0,"s_069.ogg",100
Sample,104775,0,"s_039.ogg",100
Sample,104775,0,"s_057.ogg",100
Sample,104775,0,"s_055.ogg",100
Sample,104775,0,"s_053.ogg",100
Sample,104775,0,"s_052.ogg",100
Sample,104775,0,"s_041.ogg",100
Sample,104805,0,"s_048.ogg",100
Sample,104805,0,"s_044.ogg",100
Sample,104850,0,"s_042.ogg",100
Sample,104850,0,"s_061.ogg",100
Sample,104850,0,"s_024.ogg",100
Sample,104850,0,"s_063.ogg",100
Sample,104865,0,"s_049.ogg",100
Sample,104865,0,"s_045.ogg",100
Sample,104925,0,"s_068.ogg",100
Sample,104925,0,"s_066.ogg",100
Sample,104925,0,"s_013.ogg",100
Sample,104925,0,"s_060.ogg",100
Sample,104925,0,"s_053.ogg",100
Sample,104925,0,"s_052.ogg",100
Sample,104925,0,"s_048.ogg",100
Sample,104925,0,"s_051.ogg",100
Sample,104925,0,"s_041.ogg",100
Sample,104925,0,"s_056.ogg",100
Sample,104925,0,"s_037.ogg",100
Sample,104985,0,"s_049.ogg",100
Sample,104985,0,"s_045.ogg",100
Sample,105000,0,"s_061.ogg",100
Sample,105000,0,"s_042.ogg",100
Sample,105000,0,"s_056.ogg",100
Sample,105000,0,"s_053.ogg",100
Sample,105000,0,"s_025.ogg",100
Sample,105045,0,"s_044.ogg",100
Sample,105045,0,"s_048.ogg",100
Sample,105075,0,"s_034.ogg",100
Sample,105075,0,"s_013.ogg",100
Sample,105075,0,"s_063.ogg",100
Sample,105075,0,"s_041.ogg",100
Sample,105075,0,"s_052.ogg",100
Sample,105075,0,"s_044.ogg",100
Sample,105075,0,"s_043.ogg",100
Sample,105075,0,"s_057.ogg",100
Sample,105075,0,"s_055.ogg",100
Sample,105075,0,"s_059.ogg",100
Sample,105075,0,"s_050.ogg",100
Sample,105105,0,"s_047.ogg",100
Sample,105105,0,"s_043.ogg",100
Sample,105150,0,"s_055.ogg",100
Sample,105150,0,"s_042.ogg",100
Sample,105150,0,"s_057.ogg",100
Sample,105150,0,"s_051.ogg",100
Sample,105150,0,"s_014.ogg",100
Sample,105150,0,"s_038.ogg",100
Sample,105165,0,"s_046.ogg",100
Sample,105165,0,"s_042.ogg",100
Sample,105225,0,"s_049.ogg",100
Sample,105225,0,"s_026.ogg",100
Sample,105225,0,"s_064.ogg",100
Sample,105225,0,"s_045.ogg",100
Sample,105225,0,"s_054.ogg",100
Sample,105225,0,"s_043.ogg",100
Sample,105225,0,"s_058.ogg",100
Sample,105225,0,"s_041.ogg",100
Sample,105225,0,"s_051.ogg",100
Sample,105285,0,"s_048.ogg",100
Sample,105285,0,"s_044.ogg",100
Sample,105300,0,"s_049.ogg",100
Sample,105300,0,"s_044.ogg",100
Sample,105300,0,"s_058.ogg",100
Sample,105300,0,"s_039.ogg",100
Sample,105300,0,"s_015.ogg",100
Sample,105300,0,"s_048.ogg",100
Sample,105345,0,"s_043.ogg",100
Sample,105345,0,"s_047.ogg",100
Sample,105375,0,"s_034.ogg",100
Sample,105375,0,"s_027.ogg",100
Sample,105375,0,"s_045.ogg",100
Sample,105375,0,"s_050.ogg",100
Sample,105375,0,"s_044.ogg",100
Sample,105375,0,"s_065.ogg",100
Sample,105375,0,"s_052.ogg",100
Sample,105375,0,"s_055.ogg",100
Sample,105375,0,"s_037.ogg",100
Sample,105375,0,"s_041.ogg",100
Sample,105375,0,"s_059.ogg",100
Sample,105405,0,"s_042.ogg",100
Sample,105405,0,"s_046.ogg",100
Sample,105450,0,"s_043.ogg",100
Sample,105450,0,"s_015.ogg",100
Sample,105450,0,"s_059.ogg",100
Sample,105465,0,"s_045.ogg",100
Sample,105465,0,"s_041.ogg",100
Sample,105525,0,"s_053.ogg",100
Sample,105525,0,"s_032.ogg",100
Sample,105525,0,"s_040.ogg",100
Sample,105525,0,"s_008.ogg",100
Sample,105525,0,"s_051.ogg",100
Sample,105525,0,"s_060.ogg",100
Sample,105525,0,"s_039.ogg",100
Sample,105525,0,"s_056.ogg",100
Sample,105585,0,"s_045.ogg",100
Sample,105585,0,"s_041.ogg",100
Sample,105600,0,"s_043.ogg",100
Sample,105600,0,"s_020.ogg",100
Sample,105600,0,"s_060.ogg",100
Sample,105645,0,"s_042.ogg",100
Sample,105675,0,"s_008.ogg",100
Sample,105675,0,"s_036.ogg",100
Sample,105675,0,"s_050.ogg",100
Sample,105675,0,"s_055.ogg",100
Sample,105675,0,"s_059.ogg",100
Sample,105675,0,"s_071.ogg",100
Sample,105675,0,"s_041.ogg",100
Sample,105675,0,"s_052.ogg",100
Sample,105675,0,"s_044.ogg",100
Sample,105675,0,"s_039.ogg",100
Sample,105705,0,"s_043.ogg",100
Sample,105705,0,"s_047.ogg",100
Sample,105750,0,"s_045.ogg",100
Sample,105750,0,"s_020.ogg",100
Sample,105750,0,"s_061.ogg",100
Sample,105750,0,"s_040.ogg",100
Sample,105750,0,"s_048.ogg",100
Sample,105765,0,"s_044.ogg",100
Sample,105765,0,"s_048.ogg",100
Sample,105825,0,"s_058.ogg",100
Sample,105825,0,"s_070.ogg",100
Sample,105825,0,"s_049.ogg",100
Sample,105825,0,"s_012.ogg",100
Sample,105825,0,"s_054.ogg",100
Sample,105825,0,"s_045.ogg",100
Sample,105825,0,"s_036.ogg",100
Sample,105825,0,"s_041.ogg",100
Sample,105825,0,"s_051.ogg",100
Sample,105885,0,"s_042.ogg",100
Sample,105885,0,"s_046.ogg",100
Sample,105900,0,"s_040.ogg",100
Sample,105900,0,"s_062.ogg",100
Sample,105900,0,"s_055.ogg",100
Sample,105900,0,"s_024.ogg",100
Sample,105900,0,"s_051.ogg",100
Sample,105945,0,"s_047.ogg",100
Sample,105945,0,"s_043.ogg",100
Sample,105975,0,"s_044.ogg",100
Sample,105975,0,"s_012.ogg",100
Sample,105975,0,"s_050.ogg",100
Sample,105975,0,"s_059.ogg",100
Sample,105975,0,"s_069.ogg",100
Sample,105975,0,"s_039.ogg",100
Sample,105975,0,"s_057.ogg",100
Sample,105975,0,"s_055.ogg",100
Sample,105975,0,"s_053.ogg",100
Sample,105975,0,"s_052.ogg",100
Sample,105975,0,"s_041.ogg",100
Sample,106005,0,"s_048.ogg",100
Sample,106005,0,"s_044.ogg",100
Sample,106050,0,"s_042.ogg",100
Sample,106050,0,"s_061.ogg",100
Sample,106050,0,"s_024.ogg",100
Sample,106050,0,"s_063.ogg",100
Sample,106065,0,"s_049.ogg",100
Sample,106065,0,"s_045.ogg",100
Sample,106125,0,"s_068.ogg",100
Sample,106125,0,"s_066.ogg",100
Sample,106125,0,"s_013.ogg",100
Sample,106125,0,"s_060.ogg",100
Sample,106125,0,"s_053.ogg",100
Sample,106125,0,"s_052.ogg",100
Sample,106125,0,"s_048.ogg",100
Sample,106125,0,"s_051.ogg",100
Sample,106125,0,"s_041.ogg",100
Sample,106125,0,"s_056.ogg",100
Sample,106125,0,"s_037.ogg",100
Sample,106185,0,"s_049.ogg",100
Sample,106185,0,"s_045.ogg",100
Sample,106200,0,"s_061.ogg",100
Sample,106200,0,"s_042.ogg",100
Sample,106200,0,"s_056.ogg",100
Sample,106200,0,"s_053.ogg",100
Sample,106200,0,"s_025.ogg",100
Sample,106245,0,"s_044.ogg",100
Sample,106245,0,"s_048.ogg",100
Sample,106275,0,"s_034.ogg",100
Sample,106275,0,"s_013.ogg",100
Sample,106275,0,"s_063.ogg",100
Sample,106275,0,"s_041.ogg",100
Sample,106275,0,"s_052.ogg",100
Sample,106275,0,"s_044.ogg",100
Sample,106275,0,"s_043.ogg",100
Sample,106275,0,"s_057.ogg",100
Sample,106275,0,"s_055.ogg",100
Sample,106275,0,"s_059.ogg",100
Sample,106275,0,"s_050.ogg",100
Sample,106305,0,"s_047.ogg",100
Sample,106305,0,"s_043.ogg",100
Sample,106350,0,"s_055.ogg",100
Sample,106350,0,"s_042.ogg",100
Sample,106350,0,"s_057.ogg",100
Sample,106350,0,"s_051.ogg",100
Sample,106350,0,"s_014.ogg",100
Sample,106350,0,"s_038.ogg",100
Sample,106365,0,"s_046.ogg",100
Sample,106365,0,"s_042.ogg",100
Sample,106425,0,"s_058.ogg",100
Sample,106425,0,"s_054.ogg",100
Sample,106425,0,"s_043.ogg",100
Sample,106425,0,"s_041.ogg",100
Sample,106425,0,"s_049.ogg",100
Sample,106425,0,"s_026.ogg",100
Sample,106425,0,"s_051.ogg",100
Sample,106425,0,"s_064.ogg",100
Sample,106425,0,"s_045.ogg",100
Sample,106485,0,"s_044.ogg",100
Sample,106485,0,"s_048.ogg",100
Sample,106500,0,"s_049.ogg",100
Sample,106500,0,"s_044.ogg",100
Sample,106500,0,"s_058.ogg",100
Sample,106500,0,"s_039.ogg",100
Sample,106500,0,"s_015.ogg",100
Sample,106500,0,"s_048.ogg",100
Sample,106545,0,"s_043.ogg",100
Sample,106545,0,"s_047.ogg",100
Sample,106575,0,"s_034.ogg",100
Sample,106575,0,"s_027.ogg",100
Sample,106575,0,"s_045.ogg",100
Sample,106575,0,"s_050.ogg",100
Sample,106575,0,"s_044.ogg",100
Sample,106575,0,"s_065.ogg",100
Sample,106575,0,"s_052.ogg",100
Sample,106575,0,"s_055.ogg",100
Sample,106575,0,"s_037.ogg",100
Sample,106575,0,"s_041.ogg",100
Sample,106575,0,"s_059.ogg",100
Sample,106605,0,"s_042.ogg",100
Sample,106605,0,"s_046.ogg",100
Sample,106650,0,"s_043.ogg",100
Sample,106650,0,"s_015.ogg",100
Sample,106650,0,"s_059.ogg",100
Sample,106665,0,"s_045.ogg",100
Sample,106665,0,"s_041.ogg",100
Sample,106725,0,"s_053.ogg",100
Sample,106725,0,"s_032.ogg",100
Sample,106725,0,"s_040.ogg",100
Sample,106725,0,"s_008.ogg",100
Sample,106725,0,"s_051.ogg",100
Sample,106725,0,"s_060.ogg",100
Sample,106725,0,"s_039.ogg",100
Sample,106725,0,"s_056.ogg",100
Sample,106785,0,"s_045.ogg",100
Sample,106785,0,"s_041.ogg",100
Sample,106800,0,"s_043.ogg",100
Sample,106800,0,"s_020.ogg",100
Sample,106800,0,"s_060.ogg",100
Sample,106845,0,"s_042.ogg",100
Sample,106875,0,"s_008.ogg",100
Sample,106875,0,"s_036.ogg",100
Sample,106875,0,"s_050.ogg",100
Sample,106875,0,"s_055.ogg",100
Sample,106875,0,"s_059.ogg",100
Sample,106875,0,"s_071.ogg",100
Sample,106875,0,"s_041.ogg",100
Sample,106875,0,"s_052.ogg",100
Sample,106875,0,"s_044.ogg",100
Sample,106875,0,"s_039.ogg",100
Sample,106905,0,"s_043.ogg",100
Sample,106905,0,"s_047.ogg",100
Sample,106950,0,"s_045.ogg",100
Sample,106950,0,"s_020.ogg",100
Sample,106950,0,"s_061.ogg",100
Sample,106950,0,"s_040.ogg",100
Sample,106950,0,"s_048.ogg",100
Sample,106965,0,"s_044.ogg",100
Sample,106965,0,"s_048.ogg",100
Sample,107025,0,"s_058.ogg",100
Sample,107025,0,"s_070.ogg",100
Sample,107025,0,"s_049.ogg",100
Sample,107025,0,"s_012.ogg",100
Sample,107025,0,"s_054.ogg",100
Sample,107025,0,"s_045.ogg",100
Sample,107025,0,"s_036.ogg",100
Sample,107025,0,"s_041.ogg",100
Sample,107025,0,"s_051.ogg",100
Sample,107085,0,"s_042.ogg",100
Sample,107085,0,"s_046.ogg",100
Sample,107100,0,"s_040.ogg",100
Sample,107100,0,"s_062.ogg",100
Sample,107100,0,"s_055.ogg",100
Sample,107100,0,"s_024.ogg",100
Sample,107100,0,"s_051.ogg",100
Sample,107145,0,"s_047.ogg",100
Sample,107145,0,"s_043.ogg",100
Sample,107175,0,"s_044.ogg",100
Sample,107175,0,"s_012.ogg",100
Sample,107175,0,"s_050.ogg",100
Sample,107175,0,"s_059.ogg",100
Sample,107175,0,"s_069.ogg",100
Sample,107175,0,"s_039.ogg",100
Sample,107175,0,"s_057.ogg",100
Sample,107175,0,"s_055.ogg",100
Sample,107175,0,"s_053.ogg",100
Sample,107175,0,"s_052.ogg",100
Sample,107175,0,"s_041.ogg",100
Sample,107205,0,"s_048.ogg",100
Sample,107205,0,"s_044.ogg",100
Sample,107250,0,"s_024.ogg",100
Sample,107250,0,"s_063.ogg",100
Sample,107250,0,"s_042.ogg",100
Sample,107250,0,"s_061.ogg",100
Sample,107265,0,"s_049.ogg",100
Sample,107265,0,"s_045.ogg",100
Sample,107325,0,"s_068.ogg",100
Sample,107325,0,"s_066.ogg",100
Sample,107325,0,"s_013.ogg",100
Sample,107325,0,"s_060.ogg",100
Sample,107325,0,"s_053.ogg",100
Sample,107325,0,"s_052.ogg",100
Sample,107325,0,"s_048.ogg",100
Sample,107325,0,"s_051.ogg",100
Sample,107325,0,"s_041.ogg",100
Sample,107325,0,"s_056.ogg",100
Sample,107325,0,"s_037.ogg",100
Sample,107385,0,"s_049.ogg",100
Sample,107385,0,"s_045.ogg",100
Sample,107400,0,"s_061.ogg",100
Sample,107400,0,"s_042.ogg",100
Sample,107400,0,"s_056.ogg",100
Sample,107400,0,"s_053.ogg",100
Sample,107400,0,"s_025.ogg",100
Sample,107445,0,"s_044.ogg",100
Sample,107445,0,"s_048.ogg",100
Sample,107475,0,"s_034.ogg",100
Sample,107475,0,"s_013.ogg",100
Sample,107475,0,"s_063.ogg",100
Sample,107475,0,"s_041.ogg",100
Sample,107475,0,"s_052.ogg",100
Sample,107475,0,"s_044.ogg",100
Sample,107475,0,"s_043.ogg",100
Sample,107475,0,"s_057.ogg",100
Sample,107475,0,"s_055.ogg",100
Sample,107475,0,"s_059.ogg",100
Sample,107475,0,"s_050.ogg",100
Sample,107505,0,"s_047.ogg",100
Sample,107505,0,"s_043.ogg",100
Sample,107550,0,"s_055.ogg",100
Sample,107550,0,"s_042.ogg",100
Sample,107550,0,"s_057.ogg",100
Sample,107550,0,"s_051.ogg",100
Sample,107550,0,"s_014.ogg",100
Sample,107550,0,"s_038.ogg",100
Sample,107565,0,"s_046.ogg",100
Sample,107565,0,"s_042.ogg",100
Sample,107625,0,"s_049.ogg",100
Sample,107625,0,"s_026.ogg",100
Sample,107625,0,"s_064.ogg",100
Sample,107625,0,"s_045.ogg",100
Sample,107625,0,"s_054.ogg",100
Sample,107625,0,"s_043.ogg",100
Sample,107625,0,"s_058.ogg",100
Sample,107625,0,"s_041.ogg",100
Sample,107625,0,"s_051.ogg",100
Sample,107685,0,"s_048.ogg",100
Sample,107685,0,"s_044.ogg",100
Sample,107700,0,"s_049.ogg",100
Sample,107700,0,"s_044.ogg",100
Sample,107700,0,"s_058.ogg",100
Sample,107700,0,"s_039.ogg",100
Sample,107700,0,"s_015.ogg",100
Sample,107700,0,"s_048.ogg",100
Sample,107745,0,"s_043.ogg",100
Sample,107745,0,"s_047.ogg",100
Sample,107775,0,"s_034.ogg",100
Sample,107775,0,"s_027.ogg",100
Sample,107775,0,"s_045.ogg",100
Sample,107775,0,"s_050.ogg",100
Sample,107775,0,"s_044.ogg",100
Sample,107775,0,"s_065.ogg",100
Sample,107775,0,"s_052.ogg",100
Sample,107775,0,"s_055.ogg",100
Sample,107775,0,"s_037.ogg",100
Sample,107775,0,"s_041.ogg",100
Sample,107775,0,"s_059.ogg",100
Sample,107805,0,"s_042.ogg",100
Sample,107805,0,"s_046.ogg",100
Sample,107850,0,"s_043.ogg",100
Sample,107850,0,"s_015.ogg",100
Sample,107850,0,"s_059.ogg",100
Sample,107865,0,"s_045.ogg",100
Sample,107865,0,"s_041.ogg",100
Sample,107925,0,"s_039.ogg",100
Sample,107925,0,"s_008.ogg",100
Sample,107925,0,"s_060.ogg",100
Sample,107925,0,"s_032.ogg",100
Sample,107925,0,"s_068.ogg",100
Sample,107925,0,"s_040.ogg",100
Sample,107925,0,"s_053.ogg",100
Sample,107925,0,"s_056.ogg",100
Sample,107925,0,"s_051.ogg",100
Sample,107985,0,"s_045.ogg",100
Sample,107985,0,"s_041.ogg",100
Sample,108000,0,"s_020.ogg",100
Sample,108000,0,"s_043.ogg",100
Sample,108000,0,"s_060.ogg",100
Sample,108000,0,"s_070.ogg",100
Sample,108045,0,"s_042.ogg",100
Sample,108075,0,"s_044.ogg",100
Sample,108075,0,"s_008.ogg",100
Sample,108075,0,"s_039.ogg",100
Sample,108075,0,"s_007.ogg",100
Sample,108075,0,"s_052.ogg",100
Sample,108075,0,"s_041.ogg",100
Sample,108075,0,"s_071.ogg",100
Sample,108075,0,"s_059.ogg",100
Sample,108075,0,"s_036.ogg",100
Sample,108075,0,"s_055.ogg",100
Sample,108075,0,"s_050.ogg",100
Sample,108105,0,"s_047.ogg",100
Sample,108105,0,"s_043.ogg",100
Sample,108150,0,"s_040.ogg",100
Sample,108150,0,"s_048.ogg",100
Sample,108150,0,"s_072.ogg",100
Sample,108150,0,"s_020.ogg",100
Sample,108150,0,"s_045.ogg",100
Sample,108150,0,"s_061.ogg",100
Sample,108165,0,"s_044.ogg",100
Sample,108165,0,"s_048.ogg",100
Sample,108225,0,"s_012.ogg",100
Sample,108225,0,"s_070.ogg",100
Sample,108225,0,"s_006.ogg",100
Sample,108225,0,"s_058.ogg",100
Sample,108225,0,"s_072.ogg",100
Sample,108225,0,"s_049.ogg",100
Sample,108225,0,"s_045.ogg",100
Sample,108225,0,"s_054.ogg",100
Sample,108225,0,"s_041.ogg",100
Sample,108225,0,"s_036.ogg",100
Sample,108225,0,"s_051.ogg",100
Sample,108285,0,"s_042.ogg",100
Sample,108285,0,"s_046.ogg",100
Sample,108300,0,"s_051.ogg",100
Sample,108300,0,"s_040.ogg",100
Sample,108300,0,"s_062.ogg",100
Sample,108300,0,"s_055.ogg",100
Sample,108300,0,"s_024.ogg",100
Sample,108300,0,"s_075.ogg",100
Sample,108345,0,"s_043.ogg",100
Sample,108345,0,"s_047.ogg",100
Sample,108375,0,"s_044.ogg",100
Sample,108375,0,"s_069.ogg",100
Sample,108375,0,"s_012.ogg",100
Sample,108375,0,"s_053.ogg",100
Sample,108375,0,"s_057.ogg",100
Sample,108375,0,"s_077.ogg",100
Sample,108375,0,"s_041.ogg",100
Sample,108375,0,"s_055.ogg",100
Sample,108375,0,"s_050.ogg",100
Sample,108375,0,"s_005.ogg",100
Sample,108375,0,"s_039.ogg",100
Sample,108375,0,"s_059.ogg",100
Sample,108375,0,"s_052.ogg",100
Sample,108405,0,"s_044.ogg",100
Sample,108405,0,"s_048.ogg",100
Sample,108450,0,"s_042.ogg",100
Sample,108450,0,"s_070.ogg",100
Sample,108450,0,"s_061.ogg",100
Sample,108450,0,"s_024.ogg",100
Sample,108450,0,"s_063.ogg",100
Sample,108465,0,"s_049.ogg",100
Sample,108465,0,"s_045.ogg",100
Sample,108525,0,"s_068.ogg",100
Sample,108525,0,"s_048.ogg",100
Sample,108525,0,"s_071.ogg",100
Sample,108525,0,"s_052.ogg",100
Sample,108525,0,"s_041.ogg",100
Sample,108525,0,"s_066.ogg",100
Sample,108525,0,"s_013.ogg",100
Sample,108525,0,"s_037.ogg",100
Sample,108525,0,"s_051.ogg",100
Sample,108525,0,"s_004.ogg",100
Sample,108525,0,"s_060.ogg",100
Sample,108525,0,"s_056.ogg",100
Sample,108525,0,"s_053.ogg",100
Sample,108585,0,"s_049.ogg",100
Sample,108585,0,"s_045.ogg",100
Sample,108600,0,"s_072.ogg",100
Sample,108600,0,"s_061.ogg",100
Sample,108600,0,"s_042.ogg",100
Sample,108600,0,"s_053.ogg",100
Sample,108600,0,"s_025.ogg",100
Sample,108600,0,"s_056.ogg",100
Sample,108645,0,"s_048.ogg",100
Sample,108645,0,"s_044.ogg",100
Sample,108675,0,"s_059.ogg",100
Sample,108675,0,"s_072.ogg",100
Sample,108675,0,"s_043.ogg",100
Sample,108675,0,"s_050.ogg",100
Sample,108675,0,"s_003.ogg",100
Sample,108675,0,"s_055.ogg",100
Sample,108675,0,"s_013.ogg",100
Sample,108675,0,"s_057.ogg",100
Sample,108675,0,"s_041.ogg",100
Sample,108675,0,"s_063.ogg",100
Sample,108675,0,"s_044.ogg",100
Sample,108675,0,"s_052.ogg",100
Sample,108675,0,"s_034.ogg",100
Sample,108705,0,"s_047.ogg",100
Sample,108705,0,"s_043.ogg",100
Sample,108750,0,"s_042.ogg",100
Sample,108750,0,"s_055.ogg",100
Sample,108750,0,"s_057.ogg",100
Sample,108750,0,"s_038.ogg",100
Sample,108750,0,"s_075.ogg",100
Sample,108750,0,"s_014.ogg",100
Sample,108750,0,"s_051.ogg",100
Sample,108765,0,"s_046.ogg",100
Sample,108765,0,"s_042.ogg",100
Sample,108825,0,"s_043.ogg",100
Sample,108825,0,"s_077.ogg",100
Sample,108825,0,"s_049.ogg",100
Sample,108825,0,"s_002.ogg",100
Sample,108825,0,"s_041.ogg",100
Sample,108825,0,"s_054.ogg",100
Sample,108825,0,"s_026.ogg",100
Sample,108825,0,"s_064.ogg",100
Sample,108825,0,"s_051.ogg",100
Sample,108825,0,"s_058.ogg",100
Sample,108825,0,"s_045.ogg",100
Sample,108885,0,"s_044.ogg",100
Sample,108885,0,"s_048.ogg",100
Sample,108900,0,"s_048.ogg",100
Sample,108900,0,"s_049.ogg",100
Sample,108900,0,"s_070.ogg",100
Sample,108900,0,"s_039.ogg",100
Sample,108900,0,"s_015.ogg",100
Sample,108900,0,"s_058.ogg",100
Sample,108900,0,"s_044.ogg",100
Sample,108945,0,"s_047.ogg",100
Sample,108945,0,"s_043.ogg",100
Sample,108975,0,"s_065.ogg",100
Sample,108975,0,"s_045.ogg",100
Sample,108975,0,"s_072.ogg",100
Sample,108975,0,"s_059.ogg",100
Sample,108975,0,"s_034.ogg",100
Sample,108975,0,"s_003.ogg",100
Sample,108975,0,"s_027.ogg",100
Sample,108975,0,"s_044.ogg",100
Sample,108975,0,"s_041.ogg",100
Sample,108975,0,"s_055.ogg",100
Sample,108975,0,"s_052.ogg",100
Sample,108975,0,"s_050.ogg",100
Sample,108975,0,"s_037.ogg",100
Sample,109005,0,"s_046.ogg",100
Sample,109005,0,"s_042.ogg",100
Sample,109050,0,"s_015.ogg",100
Sample,109050,0,"s_043.ogg",100
Sample,109050,0,"s_059.ogg",100
Sample,109050,0,"s_075.ogg",100
Sample,109065,0,"s_045.ogg",100
Sample,109065,0,"s_041.ogg",100
Sample,109125,0,"s_039.ogg",100
Sample,109125,0,"s_008.ogg",100
Sample,109125,0,"s_060.ogg",100
Sample,109125,0,"s_032.ogg",100
Sample,109125,0,"s_068.ogg",100
Sample,109125,0,"s_040.ogg",100
Sample,109125,0,"s_053.ogg",100
Sample,109125,0,"s_056.ogg",100
Sample,109125,0,"s_051.ogg",100
Sample,109185,0,"s_045.ogg",100
Sample,109185,0,"s_041.ogg",100
Sample,109200,0,"s_020.ogg",100
Sample,109200,0,"s_043.ogg",100
Sample,109200,0,"s_060.ogg",100
Sample,109200,0,"s_070.ogg",100
Sample,109245,0,"s_042.ogg",100
Sample,109275,0,"s_044.ogg",100
Sample,109275,0,"s_008.ogg",100
Sample,109275,0,"s_039.ogg",100
Sample,109275,0,"s_007.ogg",100
Sample,109275,0,"s_052.ogg",100
Sample,109275,0,"s_041.ogg",100
Sample,109275,0,"s_071.ogg",100
Sample,109275,0,"s_059.ogg",100
Sample,109275,0,"s_036.ogg",100
Sample,109275,0,"s_055.ogg",100
Sample,109275,0,"s_050.ogg",100
Sample,109305,0,"s_047.ogg",100
Sample,109305,0,"s_043.ogg",100
Sample,109350,0,"s_040.ogg",100
Sample,109350,0,"s_048.ogg",100
Sample,109350,0,"s_072.ogg",100
Sample,109350,0,"s_020.ogg",100
Sample,109350,0,"s_045.ogg",100
Sample,109350,0,"s_061.ogg",100
Sample,109365,0,"s_044.ogg",100
Sample,109365,0,"s_048.ogg",100
Sample,109425,0,"s_012.ogg",100
Sample,109425,0,"s_070.ogg",100
Sample,109425,0,"s_006.ogg",100
Sample,109425,0,"s_058.ogg",100
Sample,109425,0,"s_072.ogg",100
Sample,109425,0,"s_049.ogg",100
Sample,109425,0,"s_045.ogg",100
Sample,109425,0,"s_054.ogg",100
Sample,109425,0,"s_041.ogg",100
Sample,109425,0,"s_036.ogg",100
Sample,109425,0,"s_051.ogg",100
Sample,109485,0,"s_042.ogg",100
Sample,109485,0,"s_046.ogg",100
Sample,109500,0,"s_051.ogg",100
Sample,109500,0,"s_040.ogg",100
Sample,109500,0,"s_062.ogg",100
Sample,109500,0,"s_055.ogg",100
Sample,109500,0,"s_024.ogg",100
Sample,109500,0,"s_075.ogg",100
Sample,109545,0,"s_043.ogg",100
Sample,109545,0,"s_047.ogg",100
Sample,109575,0,"s_044.ogg",100
Sample,109575,0,"s_069.ogg",100
Sample,109575,0,"s_012.ogg",100
Sample,109575,0,"s_053.ogg",100
Sample,109575,0,"s_057.ogg",100
Sample,109575,0,"s_077.ogg",100
Sample,109575,0,"s_041.ogg",100
Sample,109575,0,"s_055.ogg",100
Sample,109575,0,"s_050.ogg",100
Sample,109575,0,"s_005.ogg",100
Sample,109575,0,"s_039.ogg",100
Sample,109575,0,"s_059.ogg",100
Sample,109575,0,"s_052.ogg",100
Sample,109605,0,"s_044.ogg",100
Sample,109605,0,"s_048.ogg",100
Sample,109650,0,"s_063.ogg",100
Sample,109650,0,"s_061.ogg",100
Sample,109650,0,"s_024.ogg",100
Sample,109650,0,"s_042.ogg",100
Sample,109650,0,"s_070.ogg",100
Sample,109665,0,"s_045.ogg",100
Sample,109665,0,"s_049.ogg",100
Sample,109725,0,"s_068.ogg",100
Sample,109725,0,"s_048.ogg",100
Sample,109725,0,"s_071.ogg",100
Sample,109725,0,"s_052.ogg",100
Sample,109725,0,"s_041.ogg",100
Sample,109725,0,"s_066.ogg",100
Sample,109725,0,"s_013.ogg",100
Sample,109725,0,"s_037.ogg",100
Sample,109725,0,"s_051.ogg",100
Sample,109725,0,"s_004.ogg",100
Sample,109725,0,"s_060.ogg",100
Sample,109725,0,"s_056.ogg",100
Sample,109725,0,"s_053.ogg",100
Sample,109785,0,"s_049.ogg",100
Sample,109785,0,"s_045.ogg",100
Sample,109800,0,"s_072.ogg",100
Sample,109800,0,"s_061.ogg",100
Sample,109800,0,"s_042.ogg",100
Sample,109800,0,"s_053.ogg",100
Sample,109800,0,"s_025.ogg",100
Sample,109800,0,"s_056.ogg",100
Sample,109845,0,"s_048.ogg",100
Sample,109845,0,"s_044.ogg",100
Sample,109875,0,"s_059.ogg",100
Sample,109875,0,"s_072.ogg",100
Sample,109875,0,"s_043.ogg",100
Sample,109875,0,"s_050.ogg",100
Sample,109875,0,"s_003.ogg",100
Sample,109875,0,"s_055.ogg",100
Sample,109875,0,"s_013.ogg",100
Sample,109875,0,"s_057.ogg",100
Sample,109875,0,"s_041.ogg",100
Sample,109875,0,"s_063.ogg",100
Sample,109875,0,"s_044.ogg",100
Sample,109875,0,"s_052.ogg",100
Sample,109875,0,"s_034.ogg",100
Sample,109905,0,"s_047.ogg",100
Sample,109905,0,"s_043.ogg",100
Sample,109950,0,"s_042.ogg",100
Sample,109950,0,"s_055.ogg",100
Sample,109950,0,"s_057.ogg",100
Sample,109950,0,"s_038.ogg",100
Sample,109950,0,"s_075.ogg",100
Sample,109950,0,"s_014.ogg",100
Sample,109950,0,"s_051.ogg",100
Sample,109965,0,"s_046.ogg",100
Sample,109965,0,"s_042.ogg",100
Sample,110025,0,"s_043.ogg",100
Sample,110025,0,"s_077.ogg",100
Sample,110025,0,"s_049.ogg",100
Sample,110025,0,"s_002.ogg",100
Sample,110025,0,"s_041.ogg",100
Sample,110025,0,"s_054.ogg",100
Sample,110025,0,"s_026.ogg",100
Sample,110025,0,"s_064.ogg",100
Sample,110025,0,"s_051.ogg",100
Sample,110025,0,"s_058.ogg",100
Sample,110025,0,"s_045.ogg",100
Sample,110085,0,"s_044.ogg",100
Sample,110085,0,"s_048.ogg",100
Sample,110100,0,"s_048.ogg",100
Sample,110100,0,"s_049.ogg",100
Sample,110100,0,"s_070.ogg",100
Sample,110100,0,"s_039.ogg",100
Sample,110100,0,"s_015.ogg",100
Sample,110100,0,"s_058.ogg",100
Sample,110100,0,"s_044.ogg",100
Sample,110145,0,"s_047.ogg",100
Sample,110145,0,"s_043.ogg",100
Sample,110175,0,"s_065.ogg",100
Sample,110175,0,"s_045.ogg",100
Sample,110175,0,"s_072.ogg",100
Sample,110175,0,"s_059.ogg",100
Sample,110175,0,"s_034.ogg",100
Sample,110175,0,"s_003.ogg",100
Sample,110175,0,"s_027.ogg",100
Sample,110175,0,"s_044.ogg",100
Sample,110175,0,"s_041.ogg",100
Sample,110175,0,"s_055.ogg",100
Sample,110175,0,"s_052.ogg",100
Sample,110175,0,"s_050.ogg",100
Sample,110175,0,"s_037.ogg",100
Sample,110205,0,"s_046.ogg",100
Sample,110205,0,"s_042.ogg",100
Sample,110250,0,"s_015.ogg",100
Sample,110250,0,"s_043.ogg",100
Sample,110250,0,"s_059.ogg",100
Sample,110250,0,"s_075.ogg",100
Sample,110265,0,"s_045.ogg",100
Sample,110265,0,"s_041.ogg",100
Sample,110325,0,"s_039.ogg",100
Sample,110325,0,"s_008.ogg",100
Sample,110325,0,"s_060.ogg",100
Sample,110325,0,"s_032.ogg",100
Sample,110325,0,"s_068.ogg",100
Sample,110325,0,"s_040.ogg",100
Sample,110325,0,"s_053.ogg",100
Sample,110325,0,"s_056.ogg",100
Sample,110325,0,"s_051.ogg",100
Sample,110385,0,"s_045.ogg",100
Sample,110385,0,"s_041.ogg",100
Sample,110400,0,"s_020.ogg",100
Sample,110400,0,"s_043.ogg",100
Sample,110400,0,"s_060.ogg",100
Sample,110400,0,"s_070.ogg",100
Sample,110445,0,"s_042.ogg",100
Sample,110475,0,"s_044.ogg",100
Sample,110475,0,"s_008.ogg",100
Sample,110475,0,"s_039.ogg",100
Sample,110475,0,"s_007.ogg",100
Sample,110475,0,"s_052.ogg",100
Sample,110475,0,"s_041.ogg",100
Sample,110475,0,"s_071.ogg",100
Sample,110475,0,"s_059.ogg",100
Sample,110475,0,"s_036.ogg",100
Sample,110475,0,"s_055.ogg",100
Sample,110475,0,"s_050.ogg",100
Sample,110505,0,"s_047.ogg",100
Sample,110505,0,"s_043.ogg",100
Sample,110550,0,"s_040.ogg",100
Sample,110550,0,"s_048.ogg",100
Sample,110550,0,"s_072.ogg",100
Sample,110550,0,"s_020.ogg",100
Sample,110550,0,"s_045.ogg",100
Sample,110550,0,"s_061.ogg",100
Sample,110565,0,"s_044.ogg",100
Sample,110565,0,"s_048.ogg",100
Sample,110625,0,"s_012.ogg",100
Sample,110625,0,"s_070.ogg",100
Sample,110625,0,"s_006.ogg",100
Sample,110625,0,"s_058.ogg",100
Sample,110625,0,"s_072.ogg",100
Sample,110625,0,"s_049.ogg",100
Sample,110625,0,"s_045.ogg",100
Sample,110625,0,"s_054.ogg",100
Sample,110625,0,"s_041.ogg",100
Sample,110625,0,"s_036.ogg",100
Sample,110625,0,"s_051.ogg",100
Sample,110685,0,"s_042.ogg",100
Sample,110685,0,"s_046.ogg",100
Sample,110700,0,"s_051.ogg",100
Sample,110700,0,"s_040.ogg",100
Sample,110700,0,"s_062.ogg",100
Sample,110700,0,"s_055.ogg",100
Sample,110700,0,"s_024.ogg",100
Sample,110700,0,"s_075.ogg",100
Sample,110745,0,"s_043.ogg",100
Sample,110745,0,"s_047.ogg",100
Sample,110775,0,"s_044.ogg",100
Sample,110775,0,"s_069.ogg",100
Sample,110775,0,"s_012.ogg",100
Sample,110775,0,"s_053.ogg",100
Sample,110775,0,"s_057.ogg",100
Sample,110775,0,"s_077.ogg",100
Sample,110775,0,"s_041.ogg",100
Sample,110775,0,"s_055.ogg",100
Sample,110775,0,"s_050.ogg",100
Sample,110775,0,"s_005.ogg",100
Sample,110775,0,"s_039.ogg",100
Sample,110775,0,"s_059.ogg",100
Sample,110775,0,"s_052.ogg",100
Sample,110805,0,"s_044.ogg",100
Sample,110805,0,"s_048.ogg",100
Sample,110850,0,"s_042.ogg",100
Sample,110850,0,"s_070.ogg",100
Sample,110850,0,"s_061.ogg",100
Sample,110850,0,"s_024.ogg",100
Sample,110850,0,"s_063.ogg",100
Sample,110865,0,"s_049.ogg",100
Sample,110865,0,"s_045.ogg",100
Sample,110925,0,"s_068.ogg",100
Sample,110925,0,"s_048.ogg",100
Sample,110925,0,"s_071.ogg",100
Sample,110925,0,"s_052.ogg",100
Sample,110925,0,"s_041.ogg",100
Sample,110925,0,"s_066.ogg",100
Sample,110925,0,"s_013.ogg",100
Sample,110925,0,"s_037.ogg",100
Sample,110925,0,"s_051.ogg",100
Sample,110925,0,"s_004.ogg",100
Sample,110925,0,"s_060.ogg",100
Sample,110925,0,"s_056.ogg",100
Sample,110925,0,"s_053.ogg",100
Sample,110985,0,"s_049.ogg",100
Sample,110985,0,"s_045.ogg",100
Sample,111000,0,"s_072.ogg",100
Sample,111000,0,"s_061.ogg",100
Sample,111000,0,"s_042.ogg",100
Sample,111000,0,"s_053.ogg",100
Sample,111000,0,"s_025.ogg",100
Sample,111000,0,"s_056.ogg",100
Sample,111045,0,"s_048.ogg",100
Sample,111045,0,"s_044.ogg",100
Sample,111075,0,"s_059.ogg",100
Sample,111075,0,"s_072.ogg",100
Sample,111075,0,"s_043.ogg",100
Sample,111075,0,"s_050.ogg",100
Sample,111075,0,"s_003.ogg",100
Sample,111075,0,"s_055.ogg",100
Sample,111075,0,"s_013.ogg",100
Sample,111075,0,"s_057.ogg",100
Sample,111075,0,"s_041.ogg",100
Sample,111075,0,"s_063.ogg",100
Sample,111075,0,"s_044.ogg",100
Sample,111075,0,"s_052.ogg",100
Sample,111075,0,"s_034.ogg",100
Sample,111105,0,"s_047.ogg",100
Sample,111105,0,"s_043.ogg",100
Sample,111150,0,"s_042.ogg",100
Sample,111150,0,"s_055.ogg",100
Sample,111150,0,"s_057.ogg",100
Sample,111150,0,"s_038.ogg",100
Sample,111150,0,"s_075.ogg",100
Sample,111150,0,"s_014.ogg",100
Sample,111150,0,"s_051.ogg",100
Sample,111165,0,"s_046.ogg",100
Sample,111165,0,"s_042.ogg",100
Sample,111225,0,"s_043.ogg",100
Sample,111225,0,"s_077.ogg",100
Sample,111225,0,"s_049.ogg",100
Sample,111225,0,"s_002.ogg",100
Sample,111225,0,"s_041.ogg",100
Sample,111225,0,"s_054.ogg",100
Sample,111225,0,"s_026.ogg",100
Sample,111225,0,"s_064.ogg",100
Sample,111225,0,"s_051.ogg",100
Sample,111225,0,"s_058.ogg",100
Sample,111225,0,"s_045.ogg",100
Sample,111285,0,"s_044.ogg",100
Sample,111285,0,"s_048.ogg",100
Sample,111300,0,"s_048.ogg",100
Sample,111300,0,"s_049.ogg",100
Sample,111300,0,"s_070.ogg",100
Sample,111300,0,"s_039.ogg",100
Sample,111300,0,"s_015.ogg",100
Sample,111300,0,"s_058.ogg",100
Sample,111300,0,"s_044.ogg",100
Sample,111345,0,"s_047.ogg",100
Sample,111345,0,"s_043.ogg",100
Sample,111375,0,"s_065.ogg",100
Sample,111375,0,"s_045.ogg",100
Sample,111375,0,"s_072.ogg",100
Sample,111375,0,"s_059.ogg",100
Sample,111375,0,"s_034.ogg",100
Sample,111375,0,"s_003.ogg",100
Sample,111375,0,"s_027.ogg",100
Sample,111375,0,"s_044.ogg",100
Sample,111375,0,"s_041.ogg",100
Sample,111375,0,"s_055.ogg",100
Sample,111375,0,"s_052.ogg",100
Sample,111375,0,"s_050.ogg",100
Sample,111375,0,"s_037.ogg",100
Sample,111405,0,"s_046.ogg",100
Sample,111405,0,"s_042.ogg",100
Sample,111450,0,"s_015.ogg",100
Sample,111450,0,"s_043.ogg",100
Sample,111450,0,"s_059.ogg",100
Sample,111450,0,"s_075.ogg",100
Sample,111465,0,"s_045.ogg",100
Sample,111465,0,"s_041.ogg",100
Sample,111525,0,"s_039.ogg",100
Sample,111525,0,"s_068.ogg",100
Sample,111525,0,"s_060.ogg",100
Sample,111525,0,"s_053.ogg",100
Sample,111525,0,"s_032.ogg",100
Sample,111525,0,"s_040.ogg",100
Sample,111525,0,"s_020.ogg",100
Sample,111525,0,"s_051.ogg",100
Sample,111525,0,"s_056.ogg",100
Sample,111585,0,"s_041.ogg",100
Sample,111585,0,"s_045.ogg",100
Sample,111600,0,"s_043.ogg",100
Sample,111600,0,"s_060.ogg",100
Sample,111600,0,"s_070.ogg",100
Sample,111600,0,"s_019.ogg",100
Sample,111600,0,"s_031.ogg",100
Sample,111645,0,"s_042.ogg",100
Sample,111675,0,"s_041.ogg",100
Sample,111675,0,"s_030.ogg",100
Sample,111675,0,"s_024.ogg",100
Sample,111675,0,"s_039.ogg",100
Sample,111675,0,"s_044.ogg",100
Sample,111675,0,"s_059.ogg",100
Sample,111675,0,"s_018.ogg",100
Sample,111675,0,"s_071.ogg",100
Sample,111675,0,"s_055.ogg",100
Sample,111675,0,"s_050.ogg",100
Sample,111675,0,"s_036.ogg",100
Sample,111675,0,"s_052.ogg",100
Sample,111705,0,"s_043.ogg",100
Sample,111705,0,"s_047.ogg",100
Sample,111750,0,"s_017.ogg",100
Sample,111750,0,"s_048.ogg",100
Sample,111750,0,"s_040.ogg",100
Sample,111750,0,"s_072.ogg",100
Sample,111750,0,"s_045.ogg",100
Sample,111750,0,"s_061.ogg",100
Sample,111750,0,"s_029.ogg",100
Sample,111750,0,"s_037.ogg",100
Sample,111750,0,"s_025.ogg",100
Sample,111765,0,"s_048.ogg",100
Sample,111765,0,"s_044.ogg",100
Sample,111825,0,"s_041.ogg",100
Sample,111825,0,"s_054.ogg",100
Sample,111825,0,"s_051.ogg",100
Sample,111825,0,"s_028.ogg",100
Sample,111825,0,"s_058.ogg",100
Sample,111825,0,"s_016.ogg",100
Sample,111825,0,"s_072.ogg",100
Sample,111825,0,"s_045.ogg",100
Sample,111825,0,"s_070.ogg",100
Sample,111825,0,"s_049.ogg",100
Sample,111885,0,"s_042.ogg",100
Sample,111885,0,"s_046.ogg",100
Sample,111900,0,"s_051.ogg",100
Sample,111900,0,"s_062.ogg",100
Sample,111900,0,"s_075.ogg",100
Sample,111900,0,"s_015.ogg",100
Sample,111900,0,"s_038.ogg",100
Sample,111900,0,"s_040.ogg",100
Sample,111900,0,"s_027.ogg",100
Sample,111900,0,"s_055.ogg",100
Sample,111900,0,"s_026.ogg",100
Sample,111945,0,"s_047.ogg",100
Sample,111945,0,"s_043.ogg",100
Sample,111975,0,"s_027.ogg",100
Sample,111975,0,"s_026.ogg",100
Sample,111975,0,"s_039.ogg",100
Sample,111975,0,"s_053.ogg",100
Sample,111975,0,"s_041.ogg",100
Sample,111975,0,"s_057.ogg",100
Sample,111975,0,"s_052.ogg",100
Sample,111975,0,"s_014.ogg",100
Sample,111975,0,"s_055.ogg",100
Sample,111975,0,"s_077.ogg",100
Sample,111975,0,"s_050.ogg",100
Sample,111975,0,"s_044.ogg",100
Sample,111975,0,"s_069.ogg",100
Sample,111975,0,"s_059.ogg",100
Sample,112005,0,"s_048.ogg",100
Sample,112005,0,"s_044.ogg",100
Sample,112050,0,"s_061.ogg",100
Sample,112050,0,"s_063.ogg",100
Sample,112050,0,"s_015.ogg",100
Sample,112050,0,"s_027.ogg",100
Sample,112050,0,"s_070.ogg",100
Sample,112050,0,"s_042.ogg",100
Sample,112065,0,"s_049.ogg",100
Sample,112065,0,"s_045.ogg",100
Sample,112125,0,"s_051.ogg",100
Sample,112125,0,"s_041.ogg",100
Sample,112125,0,"s_052.ogg",100
Sample,112125,0,"s_056.ogg",100
Sample,112125,0,"s_071.ogg",100
Sample,112125,0,"s_048.ogg",100
Sample,112125,0,"s_068.ogg",100
Sample,112125,0,"s_066.ogg",100
Sample,112125,0,"s_032.ogg",100
Sample,112125,0,"s_020.ogg",100
Sample,112125,0,"s_053.ogg",100
Sample,112125,0,"s_060.ogg",100
Sample,112185,0,"s_049.ogg",100
Sample,112185,0,"s_045.ogg",100
Sample,112200,0,"s_042.ogg",100
Sample,112200,0,"s_061.ogg",100
Sample,112200,0,"s_053.ogg",100
Sample,112200,0,"s_019.ogg",100
Sample,112200,0,"s_072.ogg",100
Sample,112200,0,"s_031.ogg",100
Sample,112200,0,"s_056.ogg",100
Sample,112245,0,"s_044.ogg",100
Sample,112245,0,"s_048.ogg",100
Sample,112275,0,"s_041.ogg",100
Sample,112275,0,"s_030.ogg",100
Sample,112275,0,"s_052.ogg",100
Sample,112275,0,"s_018.ogg",100
Sample,112275,0,"s_050.ogg",100
Sample,112275,0,"s_055.ogg",100
Sample,112275,0,"s_057.ogg",100
Sample,112275,0,"s_036.ogg",100
Sample,112275,0,"s_043.ogg",100
Sample,112275,0,"s_063.ogg",100
Sample,112275,0,"s_072.ogg",100
Sample,112275,0,"s_024.ogg",100
Sample,112275,0,"s_059.ogg",100
Sample,112275,0,"s_034.ogg",100
Sample,112275,0,"s_044.ogg",100
Sample,112305,0,"s_043.ogg",100
Sample,112305,0,"s_047.ogg",100
Sample,112350,0,"s_017.ogg",100
Sample,112350,0,"s_042.ogg",100
Sample,112350,0,"s_055.ogg",100
Sample,112350,0,"s_075.ogg",100
Sample,112350,0,"s_051.ogg",100
Sample,112350,0,"s_057.ogg",100
Sample,112350,0,"s_029.ogg",100
Sample,112350,0,"s_037.ogg",100
Sample,112350,0,"s_025.ogg",100
Sample,112365,0,"s_042.ogg",100
Sample,112365,0,"s_046.ogg",100
Sample,112425,0,"s_054.ogg",100
Sample,112425,0,"s_064.ogg",100
Sample,112425,0,"s_058.ogg",100
Sample,112425,0,"s_049.ogg",100
Sample,112425,0,"s_077.ogg",100
Sample,112425,0,"s_016.ogg",100
Sample,112425,0,"s_041.ogg",100
Sample,112425,0,"s_028.ogg",100
Sample,112425,0,"s_045.ogg",100
Sample,112425,0,"s_043.ogg",100
Sample,112425,0,"s_051.ogg",100
Sample,112485,0,"s_048.ogg",100
Sample,112485,0,"s_044.ogg",100
Sample,112500,0,"s_044.ogg",100
Sample,112500,0,"s_015.ogg",100
Sample,112500,0,"s_070.ogg",100
Sample,112500,0,"s_049.ogg",100
Sample,112500,0,"s_048.ogg",100
Sample,112500,0,"s_027.ogg",100
Sample,112500,0,"s_026.ogg",100
Sample,112500,0,"s_058.ogg",100
Sample,112500,0,"s_038.ogg",100
Sample,112545,0,"s_047.ogg",100
Sample,112545,0,"s_043.ogg",100
Sample,112575,0,"s_041.ogg",100
Sample,112575,0,"s_039.ogg",100
Sample,112575,0,"s_052.ogg",100
Sample,112575,0,"s_059.ogg",100
Sample,112575,0,"s_044.ogg",100
Sample,112575,0,"s_055.ogg",100
Sample,112575,0,"s_027.ogg",100
Sample,112575,0,"s_072.ogg",100
Sample,112575,0,"s_014.ogg",100
Sample,112575,0,"s_026.ogg",100
Sample,112575,0,"s_045.ogg",100
Sample,112575,0,"s_065.ogg",100
Sample,112575,0,"s_034.ogg",100
Sample,112575,0,"s_037.ogg",100
Sample,112575,0,"s_050.ogg",100
Sample,112605,0,"s_046.ogg",100
Sample,112605,0,"s_042.ogg",100
Sample,112650,0,"s_059.ogg",100
Sample,112650,0,"s_015.ogg",100
Sample,112650,0,"s_043.ogg",100
Sample,112650,0,"s_075.ogg",100
Sample,112650,0,"s_027.ogg",100
Sample,112665,0,"s_045.ogg",100
Sample,112665,0,"s_041.ogg",100
Sample,112725,0,"s_039.ogg",100
Sample,112725,0,"s_068.ogg",100
Sample,112725,0,"s_060.ogg",100
Sample,112725,0,"s_053.ogg",100
Sample,112725,0,"s_032.ogg",100
Sample,112725,0,"s_040.ogg",100
Sample,112725,0,"s_020.ogg",100
Sample,112725,0,"s_051.ogg",100
Sample,112725,0,"s_056.ogg",100
Sample,112785,0,"s_045.ogg",100
Sample,112785,0,"s_041.ogg",100
Sample,112800,0,"s_043.ogg",100
Sample,112800,0,"s_060.ogg",100
Sample,112800,0,"s_070.ogg",100
Sample,112800,0,"s_019.ogg",100
Sample,112800,0,"s_031.ogg",100
Sample,112845,0,"s_042.ogg",100
Sample,112875,0,"s_041.ogg",100
Sample,112875,0,"s_030.ogg",100
Sample,112875,0,"s_024.ogg",100
Sample,112875,0,"s_039.ogg",100
Sample,112875,0,"s_044.ogg",100
Sample,112875,0,"s_059.ogg",100
Sample,112875,0,"s_018.ogg",100
Sample,112875,0,"s_071.ogg",100
Sample,112875,0,"s_055.ogg",100
Sample,112875,0,"s_050.ogg",100
Sample,112875,0,"s_036.ogg",100
Sample,112875,0,"s_052.ogg",100
Sample,112905,0,"s_043.ogg",100
Sample,112905,0,"s_047.ogg",100
Sample,112950,0,"s_072.ogg",100
Sample,112950,0,"s_048.ogg",100
Sample,112950,0,"s_037.ogg",100
Sample,112950,0,"s_040.ogg",100
Sample,112950,0,"s_029.ogg",100
Sample,112950,0,"s_025.ogg",100
Sample,112950,0,"s_061.ogg",100
Sample,112950,0,"s_045.ogg",100
Sample,112950,0,"s_017.ogg",100
Sample,112965,0,"s_044.ogg",100
Sample,112965,0,"s_048.ogg",100
Sample,113025,0,"s_041.ogg",100
Sample,113025,0,"s_054.ogg",100
Sample,113025,0,"s_051.ogg",100
Sample,113025,0,"s_028.ogg",100
Sample,113025,0,"s_058.ogg",100
Sample,113025,0,"s_016.ogg",100
Sample,113025,0,"s_072.ogg",100
Sample,113025,0,"s_045.ogg",100
Sample,113025,0,"s_070.ogg",100
Sample,113025,0,"s_049.ogg",100
Sample,113085,0,"s_042.ogg",100
Sample,113085,0,"s_046.ogg",100
Sample,113100,0,"s_051.ogg",100
Sample,113100,0,"s_062.ogg",100
Sample,113100,0,"s_075.ogg",100
Sample,113100,0,"s_015.ogg",100
Sample,113100,0,"s_038.ogg",100
Sample,113100,0,"s_040.ogg",100
Sample,113100,0,"s_027.ogg",100
Sample,113100,0,"s_055.ogg",100
Sample,113100,0,"s_026.ogg",100
Sample,113145,0,"s_047.ogg",100
Sample,113145,0,"s_043.ogg",100
Sample,113175,0,"s_027.ogg",100
Sample,113175,0,"s_026.ogg",100
Sample,113175,0,"s_039.ogg",100
Sample,113175,0,"s_053.ogg",100
Sample,113175,0,"s_041.ogg",100
Sample,113175,0,"s_057.ogg",100
Sample,113175,0,"s_052.ogg",100
Sample,113175,0,"s_014.ogg",100
Sample,113175,0,"s_055.ogg",100
Sample,113175,0,"s_077.ogg",100
Sample,113175,0,"s_050.ogg",100
Sample,113175,0,"s_044.ogg",100
Sample,113175,0,"s_069.ogg",100
Sample,113175,0,"s_059.ogg",100
Sample,113205,0,"s_048.ogg",100
Sample,113205,0,"s_044.ogg",100
Sample,113250,0,"s_027.ogg",100
Sample,113250,0,"s_070.ogg",100
Sample,113250,0,"s_061.ogg",100
Sample,113250,0,"s_042.ogg",100
Sample,113250,0,"s_015.ogg",100
Sample,113250,0,"s_063.ogg",100
Sample,113265,0,"s_045.ogg",100
Sample,113265,0,"s_049.ogg",100
Sample,113325,0,"s_051.ogg",100
Sample,113325,0,"s_041.ogg",100
Sample,113325,0,"s_052.ogg",100
Sample,113325,0,"s_056.ogg",100
Sample,113325,0,"s_071.ogg",100
Sample,113325,0,"s_048.ogg",100
Sample,113325,0,"s_068.ogg",100
Sample,113325,0,"s_066.ogg",100
Sample,113325,0,"s_032.ogg",100
Sample,113325,0,"s_020.ogg",100
Sample,113325,0,"s_053.ogg",100
Sample,113325,0,"s_060.ogg",100
Sample,113385,0,"s_049.ogg",100
Sample,113385,0,"s_045.ogg",100
Sample,113400,0,"s_042.ogg",100
Sample,113400,0,"s_061.ogg",100
Sample,113400,0,"s_053.ogg",100
Sample,113400,0,"s_019.ogg",100
Sample,113400,0,"s_072.ogg",100
Sample,113400,0,"s_031.ogg",100
Sample,113400,0,"s_056.ogg",100
Sample,113445,0,"s_044.ogg",100
Sample,113445,0,"s_048.ogg",100
Sample,113475,0,"s_041.ogg",100
Sample,113475,0,"s_030.ogg",100
Sample,113475,0,"s_052.ogg",100
Sample,113475,0,"s_018.ogg",100
Sample,113475,0,"s_050.ogg",100
Sample,113475,0,"s_055.ogg",100
Sample,113475,0,"s_057.ogg",100
Sample,113475,0,"s_036.ogg",100
Sample,113475,0,"s_043.ogg",100
Sample,113475,0,"s_063.ogg",100
Sample,113475,0,"s_072.ogg",100
Sample,113475,0,"s_024.ogg",100
Sample,113475,0,"s_059.ogg",100
Sample,113475,0,"s_034.ogg",100
Sample,113475,0,"s_044.ogg",100
Sample,113505,0,"s_043.ogg",100
Sample,113505,0,"s_047.ogg",100
Sample,113550,0,"s_075.ogg",100
Sample,113550,0,"s_042.ogg",100
Sample,113550,0,"s_037.ogg",100
Sample,113550,0,"s_055.ogg",100
Sample,113550,0,"s_029.ogg",100
Sample,113550,0,"s_025.ogg",100
Sample,113550,0,"s_057.ogg",100
Sample,113550,0,"s_051.ogg",100
Sample,113550,0,"s_017.ogg",100
Sample,113565,0,"s_042.ogg",100
Sample,113565,0,"s_046.ogg",100
Sample,113625,0,"s_054.ogg",100
Sample,113625,0,"s_064.ogg",100
Sample,113625,0,"s_058.ogg",100
Sample,113625,0,"s_049.ogg",100
Sample,113625,0,"s_077.ogg",100
Sample,113625,0,"s_016.ogg",100
Sample,113625,0,"s_041.ogg",100
Sample,113625,0,"s_028.ogg",100
Sample,113625,0,"s_045.ogg",100
Sample,113625,0,"s_043.ogg",100
Sample,113625,0,"s_051.ogg",100
Sample,113685,0,"s_048.ogg",100
Sample,113685,0,"s_044.ogg",100
Sample,113700,0,"s_044.ogg",100
Sample,113700,0,"s_015.ogg",100
Sample,113700,0,"s_070.ogg",100
Sample,113700,0,"s_049.ogg",100
Sample,113700,0,"s_048.ogg",100
Sample,113700,0,"s_027.ogg",100
Sample,113700,0,"s_026.ogg",100
Sample,113700,0,"s_058.ogg",100
Sample,113700,0,"s_038.ogg",100
Sample,113745,0,"s_043.ogg",100
Sample,113745,0,"s_047.ogg",100
Sample,113775,0,"s_041.ogg",100
Sample,113775,0,"s_039.ogg",100
Sample,113775,0,"s_052.ogg",100
Sample,113775,0,"s_059.ogg",100
Sample,113775,0,"s_044.ogg",100
Sample,113775,0,"s_055.ogg",100
Sample,113775,0,"s_027.ogg",100
Sample,113775,0,"s_072.ogg",100
Sample,113775,0,"s_014.ogg",100
Sample,113775,0,"s_026.ogg",100
Sample,113775,0,"s_045.ogg",100
Sample,113775,0,"s_065.ogg",100
Sample,113775,0,"s_034.ogg",100
Sample,113775,0,"s_037.ogg",100
Sample,113775,0,"s_050.ogg",100
Sample,113805,0,"s_046.ogg",100
Sample,113805,0,"s_042.ogg",100
Sample,113850,0,"s_059.ogg",100
Sample,113850,0,"s_015.ogg",100
Sample,113850,0,"s_043.ogg",100
Sample,113850,0,"s_075.ogg",100
Sample,113850,0,"s_027.ogg",100
Sample,113865,0,"s_045.ogg",100
Sample,113865,0,"s_041.ogg",100
Sample,113925,0,"s_020.ogg",100
Sample,113925,0,"s_060.ogg",100
Sample,113925,0,"s_027.ogg",100
Sample,113925,0,"s_032.ogg",100
Sample,113925,0,"s_044.ogg",100
Sample,113925,0,"s_036.ogg",100
Sample,113925,0,"s_056.ogg",100
Sample,113958,0,"s_029.ogg",100
Sample,113970,0,"s_048.ogg",100
Sample,113975,0,"s_059.ogg",100
Sample,113975,0,"s_057.ogg",100
Sample,113985,0,"s_033.ogg",100
Sample,113991,0,"s_032.ogg",100
Sample,113991,0,"s_028.ogg",100
Sample,114000,0,"s_039.ogg",100
Sample,114000,0,"s_031.ogg",100
Sample,114000,0,"s_019.ogg",100
Sample,114000,0,"s_061.ogg",100
Sample,114016,0,"s_047.ogg",100
Sample,114025,0,"s_058.ogg",100
Sample,114025,0,"s_060.ogg",100
Sample,114025,0,"s_036.ogg",100
Sample,114045,0,"s_034.ogg",100
Sample,114058,0,"s_039.ogg",100
Sample,114058,0,"s_029.ogg",100
Sample,114063,0,"s_045.ogg",100
Sample,114075,0,"s_069.ogg",100
Sample,114075,0,"s_059.ogg",100
Sample,114075,0,"s_046.ogg",100
Sample,114075,0,"s_030.ogg",100
Sample,114075,0,"s_062.ogg",100
Sample,114075,0,"s_018.ogg",100
Sample,114091,0,"s_041.ogg",100
Sample,114105,0,"s_035.ogg",100
Sample,114109,0,"s_044.ogg",100
Sample,114125,0,"s_070.ogg",100
Sample,114125,0,"s_060.ogg",100
Sample,114125,0,"s_044.ogg",100
Sample,114125,0,"s_028.ogg",100
Sample,114150,0,"s_017.ogg",100
Sample,114150,0,"s_029.ogg",100
Sample,114150,0,"s_065.ogg",100
Sample,114150,0,"s_048.ogg",100
Sample,114155,0,"s_050.ogg",100
Sample,114158,0,"s_048.ogg",100
Sample,114165,0,"s_036.ogg",100
Sample,114175,0,"s_061.ogg",100
Sample,114175,0,"s_055.ogg",100
Sample,114191,0,"s_051.ogg",100
Sample,114191,0,"s_032.ogg",100
Sample,114201,0,"s_049.ogg",100
Sample,114225,0,"s_044.ogg",100
Sample,114225,0,"s_062.ogg",100
Sample,114225,0,"s_035.ogg",100
Sample,114225,0,"s_016.ogg",100
Sample,114225,0,"s_053.ogg",100
Sample,114225,0,"s_063.ogg",100
Sample,114225,0,"s_028.ogg",100
Sample,114225,0,"s_056.ogg",100
Sample,114247,0,"s_047.ogg",100
Sample,114258,0,"s_056.ogg",100
Sample,114258,0,"s_031.ogg",100
Sample,114275,0,"s_071.ogg",100
Sample,114275,0,"s_055.ogg",100
Sample,114285,0,"s_036.ogg",100
Sample,114291,0,"s_060.ogg",100
Sample,114293,0,"s_046.ogg",100
Sample,114300,0,"s_027.ogg",100
Sample,114300,0,"s_015.ogg",100
Sample,114300,0,"s_068.ogg",100
Sample,114300,0,"s_041.ogg",100
Sample,114325,0,"s_063.ogg",100
Sample,114325,0,"s_030.ogg",100
Sample,114325,0,"s_054.ogg",100
Sample,114325,0,"s_072.ogg",100
Sample,114340,0,"s_051.ogg",100
Sample,114345,0,"s_037.ogg",100
Sample,114358,0,"s_064.ogg",100
Sample,114375,0,"s_053.ogg",100
Sample,114375,0,"s_062.ogg",100
Sample,114375,0,"s_026.ogg",100
Sample,114375,0,"s_064.ogg",100
Sample,114375,0,"s_014.ogg",100
Sample,114375,0,"s_048.ogg",100
Sample,114386,0,"s_052.ogg",100
Sample,114391,0,"s_029.ogg",100
Sample,114391,0,"s_065.ogg",100
Sample,114405,0,"s_038.ogg",100
Sample,114425,0,"s_052.ogg",100
Sample,114425,0,"s_068.ogg",100
Sample,114425,0,"s_067.ogg",100
Sample,114432,0,"s_054.ogg",100
Sample,114450,0,"s_061.ogg",100
Sample,114450,0,"s_051.ogg",100
Sample,114450,0,"s_015.ogg",100
Sample,114450,0,"s_027.ogg",100
Sample,114458,0,"s_072.ogg",100
Sample,114458,0,"s_028.ogg",100
Sample,114465,0,"s_039.ogg",100
Sample,114475,0,"s_063.ogg",100
Sample,114478,0,"s_055.ogg",100
Sample,114525,0,"s_027.ogg",100
Sample,114525,0,"s_020.ogg",100
Sample,114525,0,"s_032.ogg",100
Sample,114525,0,"s_044.ogg",100
Sample,114525,0,"s_060.ogg",100
Sample,114525,0,"s_056.ogg",100
Sample,114525,0,"s_036.ogg",100
Sample,114558,0,"s_029.ogg",100
Sample,114570,0,"s_048.ogg",100
Sample,114575,0,"s_059.ogg",100
Sample,114575,0,"s_057.ogg",100
Sample,114585,0,"s_033.ogg",100
Sample,114591,0,"s_028.ogg",100
Sample,114591,0,"s_032.ogg",100
Sample,114600,0,"s_031.ogg",100
Sample,114600,0,"s_019.ogg",100
Sample,114600,0,"s_039.ogg",100
Sample,114600,0,"s_061.ogg",100
Sample,114616,0,"s_047.ogg",100
Sample,114625,0,"s_036.ogg",100
Sample,114625,0,"s_060.ogg",100
Sample,114625,0,"s_058.ogg",100
Sample,114645,0,"s_034.ogg",100
Sample,114658,0,"s_029.ogg",100
Sample,114658,0,"s_039.ogg",100
Sample,114663,0,"s_045.ogg",100
Sample,114675,0,"s_030.ogg",100
Sample,114675,0,"s_062.ogg",100
Sample,114675,0,"s_018.ogg",100
Sample,114675,0,"s_069.ogg",100
Sample,114675,0,"s_059.ogg",100
Sample,114675,0,"s_046.ogg",100
Sample,114691,0,"s_041.ogg",100
Sample,114705,0,"s_035.ogg",100
Sample,114709,0,"s_044.ogg",100
Sample,114725,0,"s_044.ogg",100
Sample,114725,0,"s_028.ogg",100
Sample,114725,0,"s_070.ogg",100
Sample,114725,0,"s_060.ogg",100
Sample,114750,0,"s_065.ogg",100
Sample,114750,0,"s_048.ogg",100
Sample,114750,0,"s_017.ogg",100
Sample,114750,0,"s_029.ogg",100
Sample,114755,0,"s_050.ogg",100
Sample,114758,0,"s_048.ogg",100
Sample,114765,0,"s_036.ogg",100
Sample,114775,0,"s_061.ogg",100
Sample,114775,0,"s_055.ogg",100
Sample,114791,0,"s_032.ogg",100
Sample,114791,0,"s_051.ogg",100
Sample,114801,0,"s_049.ogg",100
Sample,114825,0,"s_063.ogg",100
Sample,114825,0,"s_035.ogg",100
Sample,114825,0,"s_056.ogg",100
Sample,114825,0,"s_062.ogg",100
Sample,114825,0,"s_016.ogg",100
Sample,114825,0,"s_044.ogg",100
Sample,114825,0,"s_053.ogg",100
Sample,114825,0,"s_028.ogg",100
Sample,114847,0,"s_047.ogg",100
Sample,114858,0,"s_031.ogg",100
Sample,114858,0,"s_056.ogg",100
Sample,114875,0,"s_055.ogg",100
Sample,114875,0,"s_071.ogg",100
Sample,114885,0,"s_036.ogg",100
Sample,114891,0,"s_060.ogg",100
Sample,114893,0,"s_046.ogg",100
Sample,114900,0,"s_068.ogg",100
Sample,114900,0,"s_041.ogg",100
Sample,114900,0,"s_027.ogg",100
Sample,114900,0,"s_015.ogg",100
Sample,114925,0,"s_054.ogg",100
Sample,114925,0,"s_072.ogg",100
Sample,114925,0,"s_063.ogg",100
Sample,114925,0,"s_030.ogg",100
Sample,114940,0,"s_051.ogg",100
Sample,114945,0,"s_037.ogg",100
Sample,114958,0,"s_064.ogg",100
Sample,114975,0,"s_064.ogg",100
Sample,114975,0,"s_014.ogg",100
Sample,114975,0,"s_048.ogg",100
Sample,114975,0,"s_053.ogg",100
Sample,114975,0,"s_062.ogg",100
Sample,114975,0,"s_026.ogg",100
Sample,114986,0,"s_052.ogg",100
Sample,114991,0,"s_065.ogg",100
Sample,114991,0,"s_029.ogg",100
Sample,115005,0,"s_038.ogg",100
Sample,115025,0,"s_067.ogg",100
Sample,115025,0,"s_068.ogg",100
Sample,115025,0,"s_052.ogg",100
Sample,115032,0,"s_054.ogg",100
Sample,115050,0,"s_015.ogg",100
Sample,115050,0,"s_027.ogg",100
Sample,115050,0,"s_061.ogg",100
Sample,115050,0,"s_051.ogg",100
Sample,115058,0,"s_028.ogg",100
Sample,115058,0,"s_072.ogg",100
Sample,115065,0,"s_039.ogg",100
Sample,115075,0,"s_063.ogg",100
Sample,115078,0,"s_055.ogg",100
Sample,115125,0,"s_020.ogg",100
Sample,115125,0,"s_060.ogg",100
Sample,115125,0,"s_027.ogg",100
Sample,115125,0,"s_032.ogg",100
Sample,115125,0,"s_044.ogg",100
Sample,115125,0,"s_036.ogg",100
Sample,115125,0,"s_056.ogg",100
Sample,115158,0,"s_029.ogg",100
Sample,115170,0,"s_048.ogg",100
Sample,115175,0,"s_057.ogg",100
Sample,115175,0,"s_059.ogg",100
Sample,115185,0,"s_033.ogg",100
Sample,115191,0,"s_032.ogg",100
Sample,115191,0,"s_028.ogg",100
Sample,115200,0,"s_039.ogg",100
Sample,115200,0,"s_031.ogg",100
Sample,115200,0,"s_019.ogg",100
Sample,115200,0,"s_061.ogg",100
Sample,115216,0,"s_047.ogg",100
Sample,115225,0,"s_058.ogg",100
Sample,115225,0,"s_060.ogg",100
Sample,115225,0,"s_036.ogg",100
Sample,115245,0,"s_034.ogg",100
Sample,115258,0,"s_039.ogg",100
Sample,115258,0,"s_029.ogg",100
Sample,115263,0,"s_045.ogg",100
Sample,115275,0,"s_069.ogg",100
Sample,115275,0,"s_059.ogg",100
Sample,115275,0,"s_046.ogg",100
Sample,115275,0,"s_030.ogg",100
Sample,115275,0,"s_062.ogg",100
Sample,115275,0,"s_018.ogg",100
Sample,115291,0,"s_041.ogg",100
Sample,115305,0,"s_035.ogg",100
Sample,115309,0,"s_044.ogg",100
Sample,115325,0,"s_070.ogg",100
Sample,115325,0,"s_060.ogg",100
Sample,115325,0,"s_044.ogg",100
Sample,115325,0,"s_028.ogg",100
Sample,115350,0,"s_017.ogg",100
Sample,115350,0,"s_029.ogg",100
Sample,115350,0,"s_065.ogg",100
Sample,115350,0,"s_048.ogg",100
Sample,115355,0,"s_050.ogg",100
Sample,115358,0,"s_048.ogg",100
Sample,115365,0,"s_036.ogg",100
Sample,115375,0,"s_055.ogg",100
Sample,115375,0,"s_061.ogg",100
Sample,115391,0,"s_051.ogg",100
Sample,115391,0,"s_032.ogg",100
Sample,115401,0,"s_049.ogg",100
Sample,115425,0,"s_044.ogg",100
Sample,115425,0,"s_056.ogg",100
Sample,115425,0,"s_035.ogg",100
Sample,115425,0,"s_016.ogg",100
Sample,115425,0,"s_062.ogg",100
Sample,115425,0,"s_063.ogg",100
Sample,115425,0,"s_028.ogg",100
Sample,115425,0,"s_053.ogg",100
Sample,115447,0,"s_047.ogg",100
Sample,115458,0,"s_056.ogg",100
Sample,115458,0,"s_031.ogg",100
Sample,115475,0,"s_071.ogg",100
Sample,115475,0,"s_055.ogg",100
Sample,115485,0,"s_036.ogg",100
Sample,115491,0,"s_060.ogg",100
Sample,115493,0,"s_046.ogg",100
Sample,115500,0,"s_027.ogg",100
Sample,115500,0,"s_015.ogg",100
Sample,115500,0,"s_068.ogg",100
Sample,115500,0,"s_041.ogg",100
Sample,115525,0,"s_063.ogg",100
Sample,115525,0,"s_030.ogg",100
Sample,115525,0,"s_054.ogg",100
Sample,115525,0,"s_072.ogg",100
Sample,115540,0,"s_051.ogg",100
Sample,115545,0,"s_037.ogg",100
Sample,115558,0,"s_064.ogg",100
Sample,115575,0,"s_053.ogg",100
Sample,115575,0,"s_062.ogg",100
Sample,115575,0,"s_026.ogg",100
Sample,115575,0,"s_064.ogg",100
Sample,115575,0,"s_014.ogg",100
Sample,115575,0,"s_048.ogg",100
Sample,115586,0,"s_052.ogg",100
Sample,115591,0,"s_029.ogg",100
Sample,115591,0,"s_065.ogg",100
Sample,115605,0,"s_038.ogg",100
Sample,115625,0,"s_052.ogg",100
Sample,115625,0,"s_068.ogg",100
Sample,115625,0,"s_067.ogg",100
Sample,115632,0,"s_054.ogg",100
Sample,115650,0,"s_061.ogg",100
Sample,115650,0,"s_051.ogg",100
Sample,115650,0,"s_015.ogg",100
Sample,115650,0,"s_027.ogg",100
Sample,115658,0,"s_072.ogg",100
Sample,115658,0,"s_028.ogg",100
Sample,115665,0,"s_039.ogg",100
Sample,115675,0,"s_063.ogg",100
Sample,115678,0,"s_055.ogg",100
Sample,115725,0,"s_027.ogg",100
Sample,115725,0,"s_020.ogg",100
Sample,115725,0,"s_032.ogg",100
Sample,115725,0,"s_044.ogg",100
Sample,115725,0,"s_060.ogg",100
Sample,115725,0,"s_056.ogg",100
Sample,115725,0,"s_036.ogg",100
Sample,115758,0,"s_029.ogg",100
Sample,115770,0,"s_048.ogg",100
Sample,115775,0,"s_059.ogg",100
Sample,115775,0,"s_057.ogg",100
Sample,115785,0,"s_033.ogg",100
Sample,115791,0,"s_028.ogg",100
Sample,115791,0,"s_032.ogg",100
Sample,115800,0,"s_019.ogg",100
Sample,115800,0,"s_061.ogg",100
Sample,115800,0,"s_031.ogg",100
Sample,115800,0,"s_039.ogg",100
Sample,115816,0,"s_047.ogg",100
Sample,115825,0,"s_036.ogg",100
Sample,115825,0,"s_060.ogg",100
Sample,115825,0,"s_058.ogg",100
Sample,115845,0,"s_034.ogg",100
Sample,115858,0,"s_029.ogg",100
Sample,115858,0,"s_039.ogg",100
Sample,115863,0,"s_045.ogg",100
Sample,115875,0,"s_030.ogg",100
Sample,115875,0,"s_062.ogg",100
Sample,115875,0,"s_018.ogg",100
Sample,115875,0,"s_059.ogg",100
Sample,115875,0,"s_069.ogg",100
Sample,115875,0,"s_046.ogg",100
Sample,115891,0,"s_041.ogg",100
Sample,115905,0,"s_035.ogg",100
Sample,115909,0,"s_044.ogg",100
Sample,115925,0,"s_044.ogg",100
Sample,115925,0,"s_028.ogg",100
Sample,115925,0,"s_070.ogg",100
Sample,115925,0,"s_060.ogg",100
Sample,115950,0,"s_065.ogg",100
Sample,115950,0,"s_048.ogg",100
Sample,115950,0,"s_017.ogg",100
Sample,115950,0,"s_029.ogg",100
Sample,115955,0,"s_050.ogg",100
Sample,115958,0,"s_048.ogg",100
Sample,115965,0,"s_036.ogg",100
Sample,115975,0,"s_061.ogg",100
Sample,115975,0,"s_055.ogg",100
Sample,115991,0,"s_032.ogg",100
Sample,115991,0,"s_051.ogg",100
Sample,116001,0,"s_049.ogg",100
Sample,116025,0,"s_063.ogg",100
Sample,116025,0,"s_035.ogg",100
Sample,116025,0,"s_056.ogg",100
Sample,116025,0,"s_062.ogg",100
Sample,116025,0,"s_016.ogg",100
Sample,116025,0,"s_044.ogg",100
Sample,116025,0,"s_053.ogg",100
Sample,116025,0,"s_028.ogg",100
Sample,116047,0,"s_047.ogg",100
Sample,116058,0,"s_031.ogg",100
Sample,116058,0,"s_056.ogg",100
Sample,116075,0,"s_055.ogg",100
Sample,116075,0,"s_071.ogg",100
Sample,116085,0,"s_036.ogg",100
Sample,116091,0,"s_060.ogg",100
Sample,116093,0,"s_046.ogg",100
Sample,116100,0,"s_068.ogg",100
Sample,116100,0,"s_041.ogg",100
Sample,116100,0,"s_027.ogg",100
Sample,116100,0,"s_015.ogg",100
Sample,116125,0,"s_054.ogg",100
Sample,116125,0,"s_072.ogg",100
Sample,116125,0,"s_063.ogg",100
Sample,116125,0,"s_030.ogg",100
Sample,116140,0,"s_051.ogg",100
Sample,116145,0,"s_037.ogg",100
Sample,116158,0,"s_064.ogg",100
Sample,116175,0,"s_064.ogg",100
Sample,116175,0,"s_014.ogg",100
Sample,116175,0,"s_048.ogg",100
Sample,116175,0,"s_053.ogg",100
Sample,116175,0,"s_062.ogg",100
Sample,116175,0,"s_026.ogg",100
Sample,116186,0,"s_052.ogg",100
Sample,116191,0,"s_065.ogg",100
Sample,116191,0,"s_029.ogg",100
Sample,116205,0,"s_038.ogg",100
Sample,116225,0,"s_067.ogg",100
Sample,116225,0,"s_068.ogg",100
Sample,116225,0,"s_052.ogg",100
Sample,116232,0,"s_054.ogg",100
Sample,116250,0,"s_015.ogg",100
Sample,116250,0,"s_027.ogg",100
Sample,116250,0,"s_061.ogg",100
Sample,116250,0,"s_051.ogg",100
Sample,116258,0,"s_028.ogg",100
Sample,116258,0,"s_072.ogg",100
Sample,116265,0,"s_039.ogg",100
Sample,116275,0,"s_063.ogg",100
Sample,116278,0,"s_055.ogg",100
Sample,116325,0,"s_020.ogg",100
Sample,116325,0,"s_060.ogg",100
Sample,116325,0,"s_027.ogg",100
Sample,116325,0,"s_032.ogg",100
Sample,116325,0,"s_044.ogg",100
Sample,116325,0,"s_036.ogg",100
Sample,116325,0,"s_056.ogg",100
Sample,116358,0,"s_029.ogg",100
Sample,116370,0,"s_048.ogg",100
Sample,116375,0,"s_057.ogg",100
Sample,116375,0,"s_059.ogg",100
Sample,116385,0,"s_033.ogg",100
Sample,116391,0,"s_032.ogg",100
Sample,116391,0,"s_028.ogg",100
Sample,116400,0,"s_019.ogg",100
Sample,116400,0,"s_031.ogg",100
Sample,116400,0,"s_061.ogg",100
Sample,116400,0,"s_039.ogg",100
Sample,116416,0,"s_047.ogg",100
Sample,116425,0,"s_058.ogg",100
Sample,116425,0,"s_060.ogg",100
Sample,116425,0,"s_036.ogg",100
Sample,116445,0,"s_034.ogg",100
Sample,116458,0,"s_039.ogg",100
Sample,116458,0,"s_029.ogg",100
Sample,116463,0,"s_045.ogg",100
Sample,116475,0,"s_059.ogg",100
Sample,116475,0,"s_069.ogg",100
Sample,116475,0,"s_046.ogg",100
Sample,116475,0,"s_030.ogg",100
Sample,116475,0,"s_062.ogg",100
Sample,116475,0,"s_018.ogg",100
Sample,116491,0,"s_041.ogg",100
Sample,116505,0,"s_035.ogg",100
Sample,116509,0,"s_044.ogg",100
Sample,116525,0,"s_070.ogg",100
Sample,116525,0,"s_060.ogg",100
Sample,116525,0,"s_044.ogg",100
Sample,116525,0,"s_028.ogg",100
Sample,116550,0,"s_017.ogg",100
Sample,116550,0,"s_029.ogg",100
Sample,116550,0,"s_065.ogg",100
Sample,116550,0,"s_048.ogg",100
Sample,116555,0,"s_050.ogg",100
Sample,116558,0,"s_048.ogg",100
Sample,116565,0,"s_036.ogg",100
Sample,116575,0,"s_055.ogg",100
Sample,116575,0,"s_061.ogg",100
Sample,116591,0,"s_051.ogg",100
Sample,116591,0,"s_032.ogg",100
Sample,116601,0,"s_049.ogg",100
Sample,116625,0,"s_044.ogg",100
Sample,116625,0,"s_056.ogg",100
Sample,116625,0,"s_035.ogg",100
Sample,116625,0,"s_016.ogg",100
Sample,116625,0,"s_062.ogg",100
Sample,116625,0,"s_063.ogg",100
Sample,116625,0,"s_028.ogg",100
Sample,116625,0,"s_053.ogg",100
Sample,116647,0,"s_047.ogg",100
Sample,116658,0,"s_056.ogg",100
Sample,116658,0,"s_031.ogg",100
Sample,116675,0,"s_071.ogg",100
Sample,116675,0,"s_055.ogg",100
Sample,116685,0,"s_036.ogg",100
Sample,116691,0,"s_060.ogg",100
Sample,116693,0,"s_046.ogg",100
Sample,116700,0,"s_027.ogg",100
Sample,116700,0,"s_015.ogg",100
Sample,116700,0,"s_068.ogg",100
Sample,116700,0,"s_041.ogg",100
Sample,116725,0,"s_063.ogg",100
Sample,116725,0,"s_030.ogg",100
Sample,116725,0,"s_054.ogg",100
Sample,116725,0,"s_072.ogg",100
Sample,116740,0,"s_051.ogg",100
Sample,116745,0,"s_037.ogg",100
Sample,116758,0,"s_064.ogg",100
Sample,116775,0,"s_053.ogg",100
Sample,116775,0,"s_062.ogg",100
Sample,116775,0,"s_026.ogg",100
Sample,116775,0,"s_064.ogg",100
Sample,116775,0,"s_014.ogg",100
Sample,116775,0,"s_048.ogg",100
Sample,116786,0,"s_052.ogg",100
Sample,116791,0,"s_029.ogg",100
Sample,116791,0,"s_065.ogg",100
Sample,116805,0,"s_038.ogg",100
Sample,116825,0,"s_052.ogg",100
Sample,116825,0,"s_068.ogg",100
Sample,116825,0,"s_067.ogg",100
Sample,116832,0,"s_054.ogg",100
Sample,116850,0,"s_061.ogg",100
Sample,116850,0,"s_051.ogg",100
Sample,116850,0,"s_015.ogg",100
Sample,116850,0,"s_027.ogg",100
Sample,116858,0,"s_072.ogg",100
Sample,116858,0,"s_028.ogg",100
Sample,116865,0,"s_039.ogg",100
Sample,116875,0,"s_063.ogg",100
Sample,116878,0,"s_055.ogg",100
Sample,116925,0,"s_032.ogg",100
Sample,116925,0,"s_020.ogg",100
Sample,116925,0,"s_060.ogg",100
Sample,116925,0,"s_056.ogg",100
Sample,116925,0,"s_044.ogg",100
Sample,116925,0,"s_036.ogg",100
Sample,116925,0,"s_027.ogg",100
Sample,116958,0,"s_029.ogg",100
Sample,116967,0,"s_059.ogg",100
Sample,116970,0,"s_048.ogg",100
Sample,116975,0,"s_057.ogg",100
Sample,116985,0,"s_039.ogg",100
Sample,116985,0,"s_033.ogg",100
Sample,116991,0,"s_028.ogg",100
Sample,116991,0,"s_032.ogg",100
Sample,117000,0,"s_019.ogg",100
Sample,117000,0,"s_061.ogg",100
Sample,117000,0,"s_031.ogg",100
Sample,117010,0,"s_060.ogg",100
Sample,117016,0,"s_047.ogg",100
Sample,117025,0,"s_036.ogg",100
Sample,117025,0,"s_058.ogg",100
Sample,117045,0,"s_046.ogg",100
Sample,117045,0,"s_034.ogg",100
Sample,117053,0,"s_069.ogg",100
Sample,117058,0,"s_029.ogg",100
Sample,117058,0,"s_039.ogg",100
Sample,117063,0,"s_045.ogg",100
Sample,117075,0,"s_018.ogg",100
Sample,117075,0,"s_062.ogg",100
Sample,117075,0,"s_030.ogg",100
Sample,117075,0,"s_059.ogg",100
Sample,117075,0,"s_050.ogg",100
Sample,117091,0,"s_041.ogg",100
Sample,117096,0,"s_060.ogg",100
Sample,117100,0,"s_051.ogg",100
Sample,117105,0,"s_048.ogg",100
Sample,117105,0,"s_035.ogg",100
Sample,117109,0,"s_044.ogg",100
Sample,117125,0,"s_052.ogg",100
Sample,117125,0,"s_028.ogg",100
Sample,117125,0,"s_044.ogg",100
Sample,117125,0,"s_060.ogg",100
Sample,117138,0,"s_069.ogg",100
Sample,117150,0,"s_029.ogg",100
Sample,117150,0,"s_017.ogg",100
Sample,117150,0,"s_053.ogg",100
Sample,117150,0,"s_065.ogg",100
Sample,117155,0,"s_050.ogg",100
Sample,117158,0,"s_048.ogg",100
Sample,117165,0,"s_046.ogg",100
Sample,117165,0,"s_036.ogg",100
Sample,117175,0,"s_055.ogg",100
Sample,117175,0,"s_054.ogg",100
Sample,117181,0,"s_070.ogg",100
Sample,117191,0,"s_051.ogg",100
Sample,117191,0,"s_032.ogg",100
Sample,117200,0,"s_055.ogg",100
Sample,117201,0,"s_049.ogg",100
Sample,117225,0,"s_028.ogg",100
Sample,117225,0,"s_016.ogg",100
Sample,117225,0,"s_056.ogg",100
Sample,117225,0,"s_063.ogg",100
Sample,117225,0,"s_061.ogg",100
Sample,117225,0,"s_035.ogg",100
Sample,117225,0,"s_053.ogg",100
Sample,117225,0,"s_041.ogg",100
Sample,117247,0,"s_047.ogg",100
Sample,117250,0,"s_057.ogg",100
Sample,117258,0,"s_056.ogg",100
Sample,117258,0,"s_031.ogg",100
Sample,117275,0,"s_058.ogg",100
Sample,117275,0,"s_055.ogg",100
Sample,117275,0,"s_062.ogg",100
Sample,117285,0,"s_036.ogg",100
Sample,117285,0,"s_068.ogg",100
Sample,117285,0,"s_048.ogg",100
Sample,117291,0,"s_060.ogg",100
Sample,117293,0,"s_046.ogg",100
Sample,117300,0,"s_059.ogg",100
Sample,117300,0,"s_027.ogg",100
Sample,117300,0,"s_015.ogg",100
Sample,117325,0,"s_063.ogg",100
Sample,117325,0,"s_078.ogg",100
Sample,117325,0,"s_060.ogg",100
Sample,117325,0,"s_054.ogg",100
Sample,117325,0,"s_071.ogg",100
Sample,117325,0,"s_030.ogg",100
Sample,117340,0,"s_051.ogg",100
Sample,117345,0,"s_062.ogg",100
Sample,117345,0,"s_037.ogg",100
Sample,117345,0,"s_051.ogg",100
Sample,117350,0,"s_061.ogg",100
Sample,117358,0,"s_064.ogg",100
Sample,117375,0,"s_053.ogg",100
Sample,117375,0,"s_063.ogg",100
Sample,117375,0,"s_014.ogg",100
Sample,117375,0,"s_079.ogg",100
Sample,117375,0,"s_026.ogg",100
Sample,117375,0,"s_062.ogg",100
Sample,117386,0,"s_052.ogg",100
Sample,117391,0,"s_029.ogg",100
Sample,117391,0,"s_065.ogg",100
Sample,117396,0,"s_063.ogg",100
Sample,117405,0,"s_061.ogg",100
Sample,117405,0,"s_038.ogg",100
Sample,117417,0,"s_064.ogg",100
Sample,117425,0,"s_080.ogg",100
Sample,117425,0,"s_052.ogg",100
Sample,117425,0,"s_068.ogg",100
Sample,117432,0,"s_054.ogg",100
Sample,117438,0,"s_065.ogg",100
Sample,117450,0,"s_027.ogg",100
Sample,117450,0,"s_015.ogg",100
Sample,117458,0,"s_028.ogg",100
Sample,117458,0,"s_072.ogg",100
Sample,117460,0,"s_066.ogg",100
Sample,117465,0,"s_039.ogg",100
Sample,117475,0,"s_081.ogg",100
Sample,117475,0,"s_063.ogg",100
Sample,117478,0,"s_055.ogg",100
Sample,117481,0,"s_067.ogg",100
Sample,117503,0,"s_068.ogg",100
Sample,117525,0,"s_069.ogg",100
Sample,117525,0,"s_083.ogg",100
Sample,117567,0,"s_075.ogg",100
Sample,117585,0,"s_073.ogg",100
Sample,117610,0,"s_077.ogg",100
Sample,117645,0,"s_066.ogg",100
Sample,117653,0,"s_086.ogg",100
Sample,117696,0,"s_081.ogg",100
Sample,117705,0,"s_061.ogg",100
Sample,117725,0,"s_029.ogg",100
Sample,117725,0,"s_031.ogg",100
Sample,117725,0,"s_048.ogg",100
Sample,117725,0,"s_032.ogg",100
Sample,117725,0,"s_039.ogg",100
Sample,117725,0,"s_050.ogg",100
Sample,117725,0,"s_041.ogg",100
Sample,117725,0,"s_034.ogg",100
Sample,117725,0,"s_044.ogg",100
Sample,117725,0,"s_043.ogg",100
Sample,117725,0,"s_046.ogg",100
Sample,117725,0,"s_036.ogg",100
Sample,117738,0,"s_076.ogg",100
Sample,117765,0,"s_056.ogg",100
Sample,117781,0,"s_072.ogg",100
Sample,117825,0,"s_068.ogg",100
Sample,117825,0,"s_058.ogg",100
Sample,117875,0,"s_067.ogg",100
Sample,117885,0,"s_059.ogg",100
Sample,117925,0,"s_063.ogg",100
Sample,117945,0,"s_060.ogg",100
Sample,117975,0,"s_052.ogg",100
Sample,118005,0,"s_038.ogg",100
Sample,118005,0,"s_040.ogg",100
Sample,118025,0,"s_053.ogg",100
Sample,118065,0,"s_034.ogg",100
Sample,118075,0,"s_050.ogg",100
Sample,118125,0,"s_056.ogg",100
Sample,118125,0,"s_064.ogg",100
Sample,118158,0,"s_050.ogg",100
Sample,118162,0,"s_057.ogg",100
Sample,118191,0,"s_047.ogg",100
Sample,118200,0,"s_054.ogg",100
Sample,118225,0,"s_048.ogg",100
Sample,118225,0,"s_067.ogg",100
Sample,118237,0,"s_053.ogg",100
Sample,118258,0,"s_049.ogg",100
Sample,118275,0,"s_066.ogg",100
Sample,118275,0,"s_051.ogg",100
Sample,118275,0,"s_067.ogg",100
Sample,118291,0,"s_055.ogg",100
Sample,118291,0,"s_057.ogg",100
Sample,118312,0,"s_055.ogg",100
Sample,118325,0,"s_065.ogg",100
Sample,118325,0,"s_044.ogg",100
Sample,118325,0,"s_067.ogg",100
Sample,118350,0,"s_054.ogg",100
Sample,118358,0,"s_049.ogg",100
Sample,118358,0,"s_050.ogg",100
Sample,118375,0,"s_064.ogg",100
Sample,118375,0,"s_067.ogg",100
Sample,118387,0,"s_053.ogg",100
Sample,118391,0,"s_044.ogg",100
Sample,118425,0,"s_049.ogg",100
Sample,118425,0,"s_047.ogg",100
Sample,118425,0,"s_043.ogg",100
Sample,118467,0,"s_054.ogg",100
Sample,118467,0,"s_046.ogg",100
Sample,118485,0,"s_059.ogg",100
Sample,118485,0,"s_057.ogg",100
Sample,118510,0,"s_045.ogg",100
Sample,118510,0,"s_042.ogg",100
Sample,118545,0,"s_055.ogg",100
Sample,118553,0,"s_045.ogg",100
Sample,118553,0,"s_044.ogg",100
Sample,118553,0,"s_046.ogg",100
Sample,118596,0,"s_044.ogg",100
Sample,118596,0,"s_031.ogg",100
Sample,118605,0,"s_040.ogg",100
Sample,118638,0,"s_042.ogg",100
Sample,118638,0,"s_041.ogg",100
Sample,118665,0,"s_048.ogg",100
Sample,118681,0,"s_038.ogg",100
Sample,118681,0,"s_037.ogg",100
Sample,118725,0,"s_043.ogg",100
Sample,118725,0,"s_039.ogg",100
Sample,118725,0,"s_034.ogg",100
Sample,118725,0,"s_044.ogg",100
Sample,118725,0,"s_046.ogg",100
Sample,118725,0,"s_041.ogg",100
Sample,118767,0,"s_044.ogg",100
Sample,118775,0,"s_033.ogg",100
Sample,118785,0,"s_031.ogg",100
Sample,118810,0,"s_043.ogg",100
Sample,118825,0,"s_043.ogg",100
Sample,118845,0,"s_013.ogg",100
Sample,118853,0,"s_042.ogg",100
Sample,118875,0,"s_039.ogg",100
Sample,118905,0,"s_017.ogg",100
Sample,118925,0,"s_028.ogg",100
Sample,118965,0,"s_021.ogg",100
Sample,118975,0,"s_026.ogg",100
Sample,118975,0,"s_019.ogg",100
Sample,119025,0,"s_032.ogg",100
Sample,119025,0,"s_027.ogg",100
Sample,119025,0,"s_038.ogg",100
Sample,119075,0,"s_029.ogg",100
Sample,119085,0,"s_021.ogg",100
Sample,119100,0,"s_020.ogg",100
Sample,119125,0,"s_029.ogg",100
Sample,119145,0,"s_029.ogg",100
Sample,119175,0,"s_016.ogg",100
Sample,119175,0,"s_029.ogg",100
Sample,119175,0,"s_031.ogg",100
Sample,119205,0,"s_023.ogg",100
Sample,119225,0,"s_031.ogg",100
Sample,119225,0,"s_029.ogg",100
Sample,119225,0,"s_033.ogg",100
Sample,119250,0,"s_012.ogg",100
Sample,119265,0,"s_020.ogg",100
Sample,119325,0,"s_010.ogg",100
Sample,119325,0,"s_019.ogg",100
Sample,119325,0,"s_009.ogg",100
Sample,119325,0,"s_008.ogg",100
Sample,119325,0,"s_017.ogg",100
Sample,119325,0,"s_006.ogg",100
Sample,119325,0,"s_022.ogg",100
Sample,119325,0,"s_018.ogg",100
Sample,119325,0,"s_012.ogg",100
Sample,119325,0,"s_016.ogg",100
Sample,119325,0,"s_021.ogg",100
Sample,119325,0,"s_011.ogg",100
Sample,119325,0,"s_007.ogg",100
Sample,119325,0,"s_014.ogg",100
Sample,119325,0,"s_013.ogg",100
Sample,119325,0,"s_005.ogg",100
Sample,119325,0,"s_023.ogg",100
Sample,119325,0,"s_015.ogg",100
Sample,119325,0,"s_004.ogg",100
Sample,119325,0,"s_020.ogg",100
Sample,119525,0,"s_044.ogg",100
Sample,119525,0,"s_033.ogg",100
Sample,119625,0,"s_028.ogg",100
Sample,119625,0,"s_037.ogg",100

[TimingPoints]
0,300.000000000001,4,2,0,100,1,0
32850,300.000000000001,4,2,0,100,1,0
45600,300.000000000001,4,2,0,100,1,0
67125,300.000000000001,4,2,0,100,1,0

[HitObjects]
128,192,1050,5,0,0:0:0:0:s_063.ogg
384,192,1650,1,0,0:0:0:0:s_063.ogg
128,192,2250,1,0,0:0:0:0:s_063.ogg
384,192,3975,128,0,4800:0:0:0:0:s_064.ogg
435,192,8400,1,0,0:0:0:0:m_037.ogg
332,192,8850,1,0,0:0:0:0:s_036.ogg
179,192,9000,1,0,0:0:0:0:m_034.ogg
486,192,9600,128,0,10500:0:0:0:0:s_071.ogg
435,192,12600,1,0,0:0:0:0:m_037.ogg
332,192,13050,1,0,0:0:0:0:s_036.ogg
179,192,13200,1,0,0:0:0:0:m_034.ogg
76,192,13800,1,0,0:0:0:0:m_027.ogg
230,192,15300,128,0,15900:0:0:0:0:m_051.ogg
435,192,18300,1,0,0:0:0:0:m_037.ogg
332,192,18750,1,0,0:0:0:0:s_036.ogg
179,192,18900,1,0,0:0:0:0:m_034.ogg
486,192,19500,128,0,20400:0:0:0:0:s_071.ogg
435,192,22500,1,0,0:0:0:0:m_037.ogg
332,192,22950,1,0,0:0:0:0:s_036.ogg
179,192,23100,1,0,0:0:0:0:m_034.ogg
76,192,23700,1,0,0:0:0:0:m_027.ogg
25,192,25200,128,0,25500:0:0:0:0:m_043.ogg
281,192,25800,128,0,26100:0:0:0:0:m_043.ogg
25,192,26400,1,0,0:0:0:0:m_060.ogg
281,192,26400,1,0,0:0:0:0:m_062.ogg
128,192,27600,1,0,0:0:0:0:m_032.ogg
384,192,28800,1,0,0:0:0:0:m_027.ogg
435,192,30000,128,0,32850:0:0:0:0:m_042.ogg
128,192,34050,1,0,0:0:0:0:m_032.ogg
384,192,34650,1,0,0:0:0:0:m_047.ogg
76,192,35250,128,0,36150:0:0:0:0:s_060.ogg
230,192,36750,1,0,0:0:0:0:m_082.ogg
230,192,37350,1,0,0:0:0:0:m_082.ogg
486,192,38850,128,0,40050:0:0:0:0:l_033.ogg
128,192,40050,1,0,0:0:0:0:m_032.ogg
384,192,41250,1,0,0:0:0:0:m_027.ogg
332,192,42450,128,0,48600:0:0:0:0:m_042.ogg
128,192,49800,5,0,0:0:0:0:m_032.ogg
384,192,50400,1,0,0:0:0:0:m_046.ogg
179,192,51000,128,0,52200:0:0:0:0:s_061.ogg
230,192,54000,1,0,0:0:0:0:s_079.ogg
230,192,55200,1,0,0:0:0:0:s_079.ogg
281,192,56400,1,0,0:0:0:0:s_079.ogg
281,192,57150,1,0,0:0:0:0:s_079.ogg
128,192,58800,128,0,61200:0:0:0:0:s_079.ogg
384,192,61350,128,0,62100:0:0:0:0:s_058.ogg
435,192,64800,1,0,0:0:0:0:m_037.ogg
332,192,65250,1,0,0:0:0:0:s_036.ogg
179,192,65400,1,0,0:0:0:0:m_034.ogg
486,192,66000,128,0,68025:0:0:0:0:s_061.ogg
25,192,66000,128,0,68025:0:0:0:0:s_071.ogg
435,192,70125,1,0,0:0:0:0:m_037.ogg
332,192,70575,1,0,0:0:0:0:s_036.ogg
179,192,70725,1,0,0:0:0:0:m_010.ogg
435,192,71325,1,0,0:0:0:0:s_027.ogg
179,192,71925,1,0,0:0:0:0:m_010.ogg
435,192,72525,1,0,0:0:0:0:s_027.ogg
179,192,73125,1,0,0:0:0:0:m_010.ogg
76,192,73725,128,0,76125:0:0:0:0:l_003.ogg
281,192,76125,128,0,76725:0:0:0:0:s_034.ogg
230,192,76725,1,0,0:0:0:0:s_084.ogg
25,192,79125,1,0,0:0:0:0:s_032.ogg
25,192,80325,1,0,0:0:0:0:s_032.ogg
25,192,81525,1,0,0:0:0:0:s_032.ogg
281,192,82725,1,0,0:0:0:0:s_032.ogg
281,192,83925,1,0,0:0:0:0:s_032.ogg
281,192,85125,1,0,0:0:0:0:s_032.ogg
76,192,86325,1,0,0:0:0:0:s_032.ogg
76,192,87525,1,0,0:0:0:0:s_032.ogg
76,192,88725,1,0,0:0:0:0:s_032.ogg
332,192,89925,1,0,0:0:0:0:s_032.ogg
332,192,91125,1,0,0:0:0:0:s_032.ogg
332,192,92325,1,0,0:0:0:0:s_032.ogg
128,192,93525,1,0,0:0:0:0:s_032.ogg
128,192,94725,1,0,0:0:0:0:s_032.ogg
128,192,95925,1,0,0:0:0:0:s_032.ogg
384,192,97125,1,0,0:0:0:0:s_032.ogg
384,192,98325,1,0,0:0:0:0:s_032.ogg
384,192,99525,1,0,0:0:0:0:s_032.ogg
179,192,100725,1,0,0:0:0:0:s_060.ogg
179,192,101925,1,0,0:0:0:0:s_060.ogg
179,192,103125,1,0,0:0:0:0:s_060.ogg
435,192,104325,1,0,0:0:0:0:s_068.ogg
435,192,105525,1,0,0:0:0:0:s_068.ogg
435,192,106725,1,0,0:0:0:0:s_068.ogg
230,192,107925,1,0,0:0:0:0:s_080.ogg
230,192,109125,1,0,0:0:0:0:s_080.ogg
230,192,110325,1,0,0:0:0:0:s_080.ogg
486,192,111525,1,0,0:0:0:0:s_080.ogg
486,192,112725,1,0,0:0:0:0:s_080.ogg
128,192,113925,1,0,0:0:0:0:s_068.ogg
384,192,114525,1,0,0:0:0:0:s_068.ogg
128,192,115125,1,0,0:0:0:0:s_068.ogg
384,192,115725,1,0,0:0:0:0:s_068.ogg
128,192,116325,1,0,0:0:0:0:s_068.ogg
384,192,116925,1,0,0:0:0:0:s_068.ogg
230,192,117725,1,0,0:0:0:0:s_051.ogg
486,192,117725,1,0,0:0:0:0:s_038.ogg
25,192,119325,128,0,119425:0:0:0:0:s_003.ogg
435,192,119525,1,0,0:0:0:0:s_045.ogg
332,192,119625,1,0,0:0:0:0:s_041.ogg
