osu file format v14

[General]
AudioFilename: virtual
AudioLeadIn: 0
PreviewTime: 0
Countdown: 0
SampleSet: None
StackLeniency: 0.7
Mode: 3
LetterboxInBreaks: 0
SpecialStyle: 0
WidescreenStoryboard: 1

[Editor]
DistanceSpacing: 0.8
BeatDivisor: 4
GridSize: 32
TimelineZoom: 0.8000054

[Metadata]
Title:Piano Beatmap Set
TitleUnicode:Piano Beatmap Set
Artist:Collection
ArtistUnicode:Collection
Creator:CircusGalop
Version:Chopin Nocturne - 10K HD
Source:BMS
Tags:
BeatmapID:1316766
BeatmapSetID:332673

[Difficulty]
HPDrainRate:7
CircleSize:10
OverallDifficulty:5
ApproachRate:5
SliderMultiplier:1.4
SliderTickRate:1

[Events]
//Background and Video events
0,0,"CircusGalop.jpg",0,0
//Break Periods
//Storyboard Layer 0 (Background)
//Storyboard Layer 1 (Fail)
//Storyboard Layer 2 (Pass)
//Storyboard Layer 3 (Foreground)
//Storyboard Sound Samples
Sample,2666,0,"m_042.ogg",100
Sample,4266,0,"m_041.ogg",100
Sample,5866,0,"m_037.ogg",100
Sample,7466,0,"m_037.ogg",100
Sample,9066,0,"m_043.ogg",100
Sample,10666,0,"m_039.ogg",100
Sample,12266,0,"m_037.ogg",100
Sample,13866,0,"m_035.ogg",100
Sample,15466,0,"m_037.ogg",100
Sample,17066,0,"m_041.ogg",100
Sample,18666,0,"m_039.ogg",100
Sample,20266,0,"m_039.ogg",100
Sample,21866,0,"m_037.ogg",100
Sample,25066,0,"m_037.ogg",100
Sample,28266,0,"m_037.ogg",100
Sample,29866,0,"m_041.ogg",100
Sample,31466,0,"m_042.ogg",100
Sample,33066,0,"m_037.ogg",100
Sample,33066,0,"m_046.ogg",100
Sample,34666,0,"m_043.ogg",100
Sample,36266,0,"m_043.ogg",100
Sample,37866,0,"m_037.ogg",100
Sample,39466,0,"m_035.ogg",100
Sample,41066,0,"m_041.ogg",100
Sample,42666,0,"m_041.ogg",100
Sample,44266,0,"m_039.ogg",100
Sample,45866,0,"m_039.ogg",100
Sample,47466,0,"m_037.ogg",100
Sample,48977,0,"s_059.ogg",100
Sample,50666,0,"m_042.ogg",100
Sample,53866,0,"m_044.ogg",100
Sample,55466,0,"m_044.ogg",100
Sample,60266,0,"m_035.ogg",100
Sample,61866,0,"m_038.ogg",100
Sample,63466,0,"m_037.ogg",100
Sample,65066,0,"m_037.ogg",100
Sample,66666,0,"m_037.ogg",100
Sample,68266,0,"m_037.ogg",100
Sample,69866,0,"m_039.ogg",100
Sample,71466,0,"m_037.ogg",100
Sample,73066,0,"m_039.ogg",100
Sample,74666,0,"m_039.ogg",100
Sample,75200,0,"m_044.ogg",100
Sample,75733,0,"m_045.ogg",100
Sample,76800,0,"m_051.ogg",100
Sample,77333,0,"m_044.ogg",100
Sample,77333,0,"m_039.ogg",100
Sample,77333,0,"m_048.ogg",100
Sample,77866,0,"m_047.ogg",100
Sample,79466,0,"m_042.ogg",100
Sample,81066,0,"m_038.ogg",100
Sample,82666,0,"m_037.ogg",100
Sample,84266,0,"m_046.ogg",100
Sample,84266,0,"m_049.ogg",100
Sample,85866,0,"m_043.ogg",100
Sample,87466,0,"m_043.ogg",100
Sample,89066,0,"m_037.ogg",100
Sample,90666,0,"m_035.ogg",100
Sample,92266,0,"m_041.ogg",100
Sample,93866,0,"m_041.ogg",100
Sample,95466,0,"m_039.ogg",100
Sample,97066,0,"m_039.ogg",100
Sample,98666,0,"m_042.ogg",100
Sample,100266,0,"m_037.ogg",100
Sample,101866,0,"m_042.ogg",100
Sample,103466,0,"m_046.ogg",100

[TimingPoints]
0,533.333333333338,4,2,0,100,1,0

[HitObjects]
332,192,1066,5,0,0:0:0:0:m_049.ogg
25,192,1600,5,0,0:0:0:0:m_018.ogg
486,192,1600,1,0,0:0:0:0:m_058.ogg
76,192,2133,1,0,0:0:0:0:m_034.ogg
179,192,2133,1,0,0:0:0:0:m_042.ogg
128,192,2666,1,0,0:0:0:0:m_046.ogg
230,192,2666,1,0,0:0:0:0:m_037.ogg
25,192,3200,1,0,0:0:0:0:m_030.ogg
76,192,3733,1,0,0:0:0:0:m_035.ogg
179,192,3733,1,0,0:0:0:0:m_041.ogg
435,192,3733,1,0,0:0:0:0:m_056.ogg
128,192,4266,1,0,0:0:0:0:m_047.ogg
230,192,4266,1,0,0:0:0:0:m_038.ogg
486,192,4266,1,0,0:0:0:0:m_058.ogg
25,192,4800,1,0,0:0:0:0:m_018.ogg
435,192,4800,1,0,0:0:0:0:m_056.ogg
76,192,5333,1,0,0:0:0:0:m_042.ogg
179,192,5333,1,0,0:0:0:0:m_034.ogg
128,192,5866,1,0,0:0:0:0:m_046.ogg
230,192,5866,1,0,0:0:0:0:m_042.ogg
25,192,6400,1,0,0:0:0:0:m_017.ogg
384,192,6400,1,0,0:0:0:0:m_054.ogg
76,192,6933,1,0,0:0:0:0:m_034.ogg
179,192,6933,1,0,0:0:0:0:m_042.ogg
128,192,7466,1,0,0:0:0:0:m_046.ogg
230,192,7466,1,0,0:0:0:0:m_042.ogg
332,192,7466,1,0,0:0:0:0:m_049.ogg
25,192,8000,1,0,0:0:0:0:m_015.ogg
486,192,8000,1,0,0:0:0:0:m_058.ogg
76,192,8533,1,0,0:0:0:0:m_043.ogg
179,192,8533,1,0,0:0:0:0:m_034.ogg
128,192,9066,1,0,0:0:0:0:m_046.ogg
230,192,9066,1,0,0:0:0:0:m_037.ogg
384,192,9066,1,0,0:0:0:0:s_051.ogg
435,192,9177,1,0,0:0:0:0:s_052.ogg
384,192,9277,1,0,0:0:0:0:s_051.ogg
332,192,9388,1,0,0:0:0:0:s_050.ogg
384,192,9500,1,0,0:0:0:0:s_051.ogg
25,192,9600,1,0,0:0:0:0:m_027.ogg
486,192,9600,1,0,0:0:0:0:m_063.ogg
76,192,10133,1,0,0:0:0:0:m_043.ogg
179,192,10133,1,0,0:0:0:0:m_034.ogg
128,192,10666,1,0,0:0:0:0:m_049.ogg
230,192,10666,1,0,0:0:0:0:m_043.ogg
384,192,10666,1,0,0:0:0:0:m_058.ogg
25,192,11200,1,0,0:0:0:0:m_020.ogg
435,192,11200,1,0,0:0:0:0:m_061.ogg
76,192,11733,1,0,0:0:0:0:m_040.ogg
179,192,11733,1,0,0:0:0:0:m_032.ogg
128,192,12266,1,0,0:0:0:0:m_040.ogg
230,192,12266,1,0,0:0:0:0:m_043.ogg
25,192,12800,1,0,0:0:0:0:m_020.ogg
384,192,12800,1,0,0:0:0:0:m_059.ogg
76,192,13333,1,0,0:0:0:0:m_032.ogg
179,192,13333,1,0,0:0:0:0:m_039.ogg
128,192,13866,1,0,0:0:0:0:m_044.ogg
230,192,13866,1,0,0:0:0:0:m_039.ogg
332,192,13866,1,0,0:0:0:0:m_058.ogg
25,192,14400,1,0,0:0:0:0:m_025.ogg
281,192,14400,1,0,0:0:0:0:m_056.ogg
76,192,14933,1,0,0:0:0:0:m_041.ogg
179,192,14933,1,0,0:0:0:0:m_032.ogg
128,192,15466,1,0,0:0:0:0:m_047.ogg
230,192,15466,1,0,0:0:0:0:m_041.ogg
25,192,16000,1,0,0:0:0:0:m_026.ogg
435,192,16000,1,0,0:0:0:0:m_058.ogg
76,192,16533,1,0,0:0:0:0:m_044.ogg
179,192,16533,1,0,0:0:0:0:m_034.ogg
128,192,17066,1,0,0:0:0:0:m_046.ogg
230,192,17066,1,0,0:0:0:0:m_044.ogg
332,192,17066,1,0,0:0:0:0:m_053.ogg
25,192,17600,1,0,0:0:0:0:m_027.ogg
384,192,17600,1,0,0:0:0:0:m_054.ogg
76,192,18133,1,0,0:0:0:0:m_042.ogg
179,192,18133,1,0,0:0:0:0:m_034.ogg
128,192,18666,1,0,0:0:0:0:m_046.ogg
230,192,18666,1,0,0:0:0:0:m_042.ogg
25,192,19200,1,0,0:0:0:0:m_024.ogg
332,192,19200,1,0,0:0:0:0:m_051.ogg
76,192,19733,1,0,0:0:0:0:m_042.ogg
179,192,19733,1,0,0:0:0:0:m_033.ogg
128,192,20266,1,0,0:0:0:0:m_045.ogg
230,192,20266,1,0,0:0:0:0:m_042.ogg
25,192,20800,1,0,0:0:0:0:m_025.ogg
281,192,20800,1,0,0:0:0:0:m_049.ogg
76,192,21333,1,0,0:0:0:0:m_042.ogg
179,192,21333,1,0,0:0:0:0:m_032.ogg
486,192,21333,1,0,0:0:0:0:m_065.ogg
128,192,21866,1,0,0:0:0:0:m_047.ogg
230,192,21866,1,0,0:0:0:0:m_042.ogg
435,192,21866,1,0,0:0:0:0:m_063.ogg
25,192,22400,1,0,0:0:0:0:m_013.ogg
384,192,22400,1,0,0:0:0:0:m_061.ogg
332,192,22666,1,0,0:0:0:0:m_059.ogg
76,192,22933,1,0,0:0:0:0:m_041.ogg
179,192,22933,1,0,0:0:0:0:m_032.ogg
281,192,22933,1,0,0:0:0:0:m_058.ogg
384,192,23200,1,0,0:0:0:0:m_059.ogg
128,192,23466,1,0,0:0:0:0:m_047.ogg
230,192,23466,1,0,0:0:0:0:m_037.ogg
281,192,23466,1,0,0:0:0:0:m_051.ogg
332,192,23733,1,0,0:0:0:0:m_053.ogg
25,192,24000,1,0,0:0:0:0:m_018.ogg
384,192,24000,128,0,25600:0:0:0:0:m_054.ogg
76,192,24533,1,0,0:0:0:0:m_042.ogg
179,192,24533,1,0,0:0:0:0:m_034.ogg
128,192,25066,1,0,0:0:0:0:m_046.ogg
230,192,25066,1,0,0:0:0:0:m_042.ogg
25,192,25600,1,0,0:0:0:0:m_030.ogg
76,192,26133,1,0,0:0:0:0:m_042.ogg
179,192,26133,1,0,0:0:0:0:m_034.ogg
128,192,26666,1,0,0:0:0:0:m_046.ogg
230,192,26666,1,0,0:0:0:0:m_037.ogg
332,192,26666,1,0,0:0:0:0:m_049.ogg
25,192,27200,1,0,0:0:0:0:m_018.ogg
486,192,27200,1,0,0:0:0:0:m_058.ogg
76,192,27733,1,0,0:0:0:0:m_034.ogg
179,192,27733,1,0,0:0:0:0:m_042.ogg
128,192,28266,1,0,0:0:0:0:m_046.ogg
230,192,28266,1,0,0:0:0:0:m_042.ogg
25,192,28800,1,0,0:0:0:0:m_030.ogg
435,192,28800,1,0,0:0:0:0:m_056.ogg
486,192,29066,1,0,0:0:0:0:m_058.ogg
76,192,29333,1,0,0:0:0:0:m_035.ogg
179,192,29333,1,0,0:0:0:0:m_041.ogg
435,192,29333,1,0,0:0:0:0:s_056.ogg
486,192,29422,1,0,0:0:0:0:s_058.ogg
435,192,29511,1,0,0:0:0:0:s_056.ogg
384,192,29600,1,0,0:0:0:0:m_055.ogg
128,192,29866,1,0,0:0:0:0:m_038.ogg
230,192,29866,1,0,0:0:0:0:m_047.ogg
435,192,29866,1,0,0:0:0:0:m_056.ogg
486,192,30133,1,0,0:0:0:0:m_058.ogg
25,192,30400,1,0,0:0:0:0:m_018.ogg
435,192,30400,1,0,0:0:0:0:m_056.ogg
76,192,30933,1,0,0:0:0:0:m_034.ogg
179,192,30933,1,0,0:0:0:0:m_042.ogg
384,192,30933,1,0,0:0:0:0:m_054.ogg
128,192,31466,1,0,0:0:0:0:m_046.ogg
230,192,31466,1,0,0:0:0:0:m_037.ogg
25,192,32000,1,0,0:0:0:0:m_017.ogg
435,192,32266,1,0,0:0:0:0:m_056.ogg
76,192,32533,1,0,0:0:0:0:m_034.ogg
179,192,32533,1,0,0:0:0:0:m_042.ogg
384,192,32533,1,0,0:0:0:0:s_054.ogg
435,192,32622,1,0,0:0:0:0:s_056.ogg
384,192,32711,1,0,0:0:0:0:s_054.ogg
332,192,32800,1,0,0:0:0:0:m_053.ogg
128,192,33066,1,0,0:0:0:0:m_049.ogg
230,192,33066,1,0,0:0:0:0:m_042.ogg
384,192,33066,1,0,0:0:0:0:m_054.ogg
435,192,33333,1,0,0:0:0:0:m_056.ogg
25,192,33600,1,0,0:0:0:0:m_015.ogg
486,192,33600,1,0,0:0:0:0:m_058.ogg
281,192,33866,1,0,0:0:0:0:m_050.ogg
76,192,34133,1,0,0:0:0:0:m_043.ogg
179,192,34133,1,0,0:0:0:0:m_034.ogg
332,192,34133,1,0,0:0:0:0:m_051.ogg
384,192,34400,1,0,0:0:0:0:m_052.ogg
128,192,34666,1,0,0:0:0:0:m_046.ogg
230,192,34666,1,0,0:0:0:0:m_037.ogg
332,192,34666,1,0,0:0:0:0:m_051.ogg
435,192,34933,1,0,0:0:0:0:m_056.ogg
25,192,35200,1,0,0:0:0:0:m_027.ogg
384,192,35200,1,0,0:0:0:0:m_055.ogg
435,192,35466,1,0,0:0:0:0:m_059.ogg
76,192,35733,1,0,0:0:0:0:m_043.ogg
179,192,35733,1,0,0:0:0:0:m_034.ogg
384,192,35733,1,0,0:0:0:0:m_058.ogg
486,192,36000,1,0,0:0:0:0:m_064.ogg
128,192,36266,1,0,0:0:0:0:m_049.ogg
230,192,36266,1,0,0:0:0:0:m_039.ogg
435,192,36266,1,0,0:0:0:0:m_063.ogg
384,192,36533,1,0,0:0:0:0:m_058.ogg
25,192,36800,1,0,0:0:0:0:m_020.ogg
486,192,36800,1,0,0:0:0:0:m_061.ogg
76,192,37333,1,0,0:0:0:0:m_032.ogg
179,192,37333,1,0,0:0:0:0:m_040.ogg
128,192,37866,1,0,0:0:0:0:m_040.ogg
230,192,37866,1,0,0:0:0:0:m_043.ogg
25,192,38400,1,0,0:0:0:0:m_020.ogg
435,192,38400,1,0,0:0:0:0:m_059.ogg
76,192,38933,1,0,0:0:0:0:m_039.ogg
179,192,38933,1,0,0:0:0:0:m_032.ogg
128,192,39466,1,0,0:0:0:0:m_044.ogg
230,192,39466,1,0,0:0:0:0:m_039.ogg
384,192,39466,1,0,0:0:0:0:m_058.ogg
25,192,40000,1,0,0:0:0:0:m_025.ogg
332,192,40000,1,0,0:0:0:0:s_056.ogg
486,192,40088,1,0,0:0:0:0:s_058.ogg
332,192,40177,1,0,0:0:0:0:s_056.ogg
486,192,40266,1,0,0:0:0:0:s_058.ogg
332,192,40355,1,0,0:0:0:0:s_056.ogg
486,192,40444,1,0,0:0:0:0:s_058.ogg
76,192,40533,1,0,0:0:0:0:m_041.ogg
179,192,40533,1,0,0:0:0:0:m_032.ogg
332,192,40533,1,0,0:0:0:0:s_056.ogg
486,192,40622,1,0,0:0:0:0:s_058.ogg
332,192,40711,1,0,0:0:0:0:s_056.ogg
486,192,40800,1,0,0:0:0:0:s_058.ogg
332,192,40888,1,0,0:0:0:0:s_056.ogg
486,192,40977,1,0,0:0:0:0:s_058.ogg
128,192,41066,1,0,0:0:0:0:m_047.ogg
230,192,41066,1,0,0:0:0:0:m_037.ogg
332,192,41066,1,0,0:0:0:0:s_056.ogg
486,192,41155,1,0,0:0:0:0:s_058.ogg
332,192,41244,1,0,0:0:0:0:s_056.ogg
486,192,41333,1,0,0:0:0:0:s_058.ogg
281,192,41422,1,0,0:0:0:0:s_055.ogg
332,192,41511,1,0,0:0:0:0:s_056.ogg
25,192,41600,1,0,0:0:0:0:m_026.ogg
384,192,41600,1,0,0:0:0:0:m_058.ogg
76,192,42133,1,0,0:0:0:0:m_044.ogg
179,192,42133,1,0,0:0:0:0:m_034.ogg
384,192,42133,1,0,0:0:0:0:m_058.ogg
128,192,42666,1,0,0:0:0:0:m_046.ogg
230,192,42666,1,0,0:0:0:0:m_044.ogg
281,192,42666,1,0,0:0:0:0:m_053.ogg
25,192,43200,1,0,0:0:0:0:m_027.ogg
384,192,43200,1,0,0:0:0:0:m_054.ogg
76,192,43733,1,0,0:0:0:0:m_042.ogg
179,192,43733,1,0,0:0:0:0:m_034.ogg
128,192,44266,1,0,0:0:0:0:m_046.ogg
230,192,44266,1,0,0:0:0:0:m_042.ogg
25,192,44800,1,0,0:0:0:0:m_024.ogg
332,192,44800,1,0,0:0:0:0:m_051.ogg
76,192,45333,1,0,0:0:0:0:m_042.ogg
179,192,45333,1,0,0:0:0:0:m_033.ogg
128,192,45866,1,0,0:0:0:0:m_045.ogg
230,192,45866,1,0,0:0:0:0:m_042.ogg
25,192,46400,1,0,0:0:0:0:m_025.ogg
281,192,46400,1,0,0:0:0:0:m_049.ogg
76,192,46933,1,0,0:0:0:0:m_042.ogg
179,192,46933,1,0,0:0:0:0:m_032.ogg
486,192,46933,1,0,0:0:0:0:m_065.ogg
128,192,47466,1,0,0:0:0:0:m_047.ogg
230,192,47466,1,0,0:0:0:0:m_042.ogg
435,192,47466,1,0,0:0:0:0:m_063.ogg
25,192,48000,1,0,0:0:0:0:m_013.ogg
384,192,48000,1,0,0:0:0:0:m_061.ogg
332,192,48266,1,0,0:0:0:0:m_059.ogg
76,192,48533,1,0,0:0:0:0:m_041.ogg
179,192,48533,1,0,0:0:0:0:m_032.ogg
281,192,48533,1,0,0:0:0:0:m_058.ogg
332,192,48800,1,0,0:0:0:0:s_059.ogg
128,192,49066,1,0,0:0:0:0:m_047.ogg
230,192,49066,1,0,0:0:0:0:m_037.ogg
281,192,49066,1,0,0:0:0:0:m_051.ogg
332,192,49333,1,0,0:0:0:0:m_053.ogg
25,192,49600,1,0,0:0:0:0:m_018.ogg
384,192,49600,128,0,51200:0:0:0:0:m_054.ogg
76,192,50133,1,0,0:0:0:0:m_042.ogg
179,192,50133,1,0,0:0:0:0:m_034.ogg
128,192,50666,1,0,0:0:0:0:m_046.ogg
230,192,50666,1,0,0:0:0:0:m_037.ogg
25,192,51200,1,0,0:0:0:0:m_030.ogg
76,192,51733,1,0,0:0:0:0:m_042.ogg
179,192,51733,1,0,0:0:0:0:m_034.ogg
332,192,51733,1,0,0:0:0:0:m_053.ogg
128,192,52266,1,0,0:0:0:0:m_046.ogg
230,192,52266,1,0,0:0:0:0:m_037.ogg
384,192,52266,1,0,0:0:0:0:m_054.ogg
179,192,52800,1,0,0:0:0:0:m_056.ogg
281,192,52800,1,0,0:0:0:0:m_025.ogg
332,192,53333,1,0,0:0:0:0:m_032.ogg
435,192,53333,1,0,0:0:0:0:m_041.ogg
384,192,53866,1,0,0:0:0:0:m_037.ogg
486,192,53866,1,0,0:0:0:0:m_041.ogg
230,192,54400,1,0,0:0:0:0:m_058.ogg
281,192,54400,1,0,0:0:0:0:m_025.ogg
332,192,54933,1,0,0:0:0:0:m_041.ogg
435,192,54933,1,0,0:0:0:0:m_032.ogg
179,192,55466,1,0,0:0:0:0:m_056.ogg
384,192,55466,1,0,0:0:0:0:m_037.ogg
486,192,55466,1,0,0:0:0:0:m_041.ogg
179,192,56000,1,0,0:0:0:0:m_056.ogg
281,192,56000,1,0,0:0:0:0:m_024.ogg
332,192,56533,1,0,0:0:0:0:m_039.ogg
435,192,56533,1,0,0:0:0:0:m_032.ogg
384,192,57066,1,0,0:0:0:0:m_039.ogg
486,192,57066,1,0,0:0:0:0:m_044.ogg
76,192,57600,1,0,0:0:0:0:m_051.ogg
281,192,57600,1,0,0:0:0:0:m_024.ogg
332,192,58133,1,0,0:0:0:0:m_039.ogg
435,192,58133,1,0,0:0:0:0:m_032.ogg
384,192,58666,1,0,0:0:0:0:m_044.ogg
486,192,58666,1,0,0:0:0:0:m_039.ogg
128,192,59200,1,0,0:0:0:0:m_054.ogg
281,192,59200,1,0,0:0:0:0:m_023.ogg
128,192,59733,1,0,0:0:0:0:m_054.ogg
332,192,59733,1,0,0:0:0:0:m_039.ogg
435,192,59733,1,0,0:0:0:0:m_030.ogg
128,192,60266,1,0,0:0:0:0:m_054.ogg
384,192,60266,1,0,0:0:0:0:m_042.ogg
486,192,60266,1,0,0:0:0:0:m_039.ogg
128,192,60800,1,0,0:0:0:0:m_054.ogg
281,192,60800,1,0,0:0:0:0:m_011.ogg
76,192,61333,1,0,0:0:0:0:m_053.ogg
332,192,61333,1,0,0:0:0:0:m_038.ogg
435,192,61333,1,0,0:0:0:0:m_030.ogg
128,192,61600,1,0,0:0:0:0:m_054.ogg
179,192,61866,1,0,0:0:0:0:m_056.ogg
384,192,61866,1,0,0:0:0:0:m_035.ogg
486,192,61866,1,0,0:0:0:0:m_042.ogg
128,192,62266,1,0,0:0:0:0:s_054.ogg
128,192,62400,1,0,0:0:0:0:m_054.ogg
281,192,62400,1,0,0:0:0:0:m_018.ogg
332,192,62933,1,0,0:0:0:0:m_042.ogg
435,192,62933,1,0,0:0:0:0:m_034.ogg
384,192,63466,1,0,0:0:0:0:m_046.ogg
486,192,63466,1,0,0:0:0:0:m_042.ogg
25,192,64000,1,0,0:0:0:0:m_049.ogg
281,192,64000,1,0,0:0:0:0:m_030.ogg
332,192,64533,1,0,0:0:0:0:m_042.ogg
435,192,64533,1,0,0:0:0:0:m_034.ogg
384,192,65066,1,0,0:0:0:0:m_046.ogg
486,192,65066,1,0,0:0:0:0:m_042.ogg
230,192,65600,1,0,0:0:0:0:m_061.ogg
281,192,65600,1,0,0:0:0:0:m_019.ogg
332,192,66133,1,0,0:0:0:0:m_040.ogg
435,192,66133,1,0,0:0:0:0:m_031.ogg
384,192,66666,1,0,0:0:0:0:m_046.ogg
486,192,66666,1,0,0:0:0:0:m_040.ogg
179,192,67200,1,0,0:0:0:0:m_060.ogg
281,192,67200,1,0,0:0:0:0:m_019.ogg
332,192,67733,1,0,0:0:0:0:m_039.ogg
435,192,67733,1,0,0:0:0:0:m_031.ogg
128,192,68266,1,0,0:0:0:0:m_058.ogg
384,192,68266,1,0,0:0:0:0:m_046.ogg
486,192,68266,1,0,0:0:0:0:m_039.ogg
76,192,68800,1,0,0:0:0:0:m_056.ogg
230,192,68800,1,0,0:0:0:0:m_048.ogg
281,192,68800,1,0,0:0:0:0:m_020.ogg
332,192,69333,1,0,0:0:0:0:m_042.ogg
435,192,69333,1,0,0:0:0:0:m_032.ogg
384,192,69866,1,0,0:0:0:0:m_048.ogg
486,192,69866,1,0,0:0:0:0:m_042.ogg
25,192,70400,1,0,0:0:0:0:m_053.ogg
179,192,70400,1,0,0:0:0:0:m_049.ogg
281,192,70400,1,0,0:0:0:0:m_022.ogg
332,192,70933,1,0,0:0:0:0:m_041.ogg
435,192,70933,1,0,0:0:0:0:m_034.ogg
384,192,71466,1,0,0:0:0:0:m_046.ogg
486,192,71466,1,0,0:0:0:0:m_041.ogg
76,192,72000,1,0,0:0:0:0:m_046.ogg
230,192,72000,1,0,0:0:0:0:m_054.ogg
281,192,72000,1,0,0:0:0:0:m_015.ogg
332,192,72533,1,0,0:0:0:0:m_042.ogg
435,192,72533,1,0,0:0:0:0:m_034.ogg
384,192,73066,1,0,0:0:0:0:m_046.ogg
486,192,73066,1,0,0:0:0:0:m_042.ogg
76,192,73600,1,0,0:0:0:0:m_048.ogg
179,192,73600,1,0,0:0:0:0:m_053.ogg
281,192,73600,1,0,0:0:0:0:m_020.ogg
25,192,74133,1,0,0:0:0:0:m_048.ogg
128,192,74133,1,0,0:0:0:0:m_051.ogg
332,192,74133,1,0,0:0:0:0:m_042.ogg
435,192,74133,1,0,0:0:0:0:m_032.ogg
76,192,74666,1,0,0:0:0:0:m_048.ogg
179,192,74666,1,0,0:0:0:0:m_053.ogg
384,192,74666,1,0,0:0:0:0:m_044.ogg
486,192,74666,1,0,0:0:0:0:m_042.ogg
25,192,75200,1,0,0:0:0:0:m_049.ogg
281,192,75200,1,0,0:0:0:0:m_037.ogg
435,192,75200,1,0,0:0:0:0:m_041.ogg
76,192,75733,1,0,0:0:0:0:m_050.ogg
281,192,75733,1,0,0:0:0:0:m_036.ogg
435,192,75733,1,0,0:0:0:0:m_042.ogg
76,192,76266,1,0,0:0:0:0:m_050.ogg
332,192,76266,1,0,0:0:0:0:m_035.ogg
486,192,76266,1,0,0:0:0:0:m_043.ogg
128,192,76800,1,0,0:0:0:0:m_049.ogg
332,192,76800,1,0,0:0:0:0:m_034.ogg
486,192,76800,1,0,0:0:0:0:m_043.ogg
128,192,77333,1,0,0:0:0:0:m_051.ogg
384,192,77333,1,0,0:0:0:0:m_042.ogg
435,192,77333,1,0,0:0:0:0:m_032.ogg
179,192,77866,1,0,0:0:0:0:m_053.ogg
384,192,77866,1,0,0:0:0:0:m_044.ogg
435,192,77866,1,0,0:0:0:0:m_037.ogg
25,192,78400,1,0,0:0:0:0:m_018.ogg
281,192,78400,1,0,0:0:0:0:s_046.ogg
332,192,78488,1,0,0:0:0:0:s_049.ogg
384,192,78577,1,0,0:0:0:0:s_054.ogg
435,192,78666,1,0,0:0:0:0:m_058.ogg
76,192,78933,1,0,0:0:0:0:m_034.ogg
179,192,78933,1,0,0:0:0:0:m_042.ogg
128,192,79466,1,0,0:0:0:0:m_046.ogg
230,192,79466,1,0,0:0:0:0:m_037.ogg
281,192,79466,1,0,0:0:0:0:m_048.ogg
332,192,79733,1,0,0:0:0:0:m_049.ogg
25,192,80000,1,0,0:0:0:0:m_030.ogg
384,192,80000,1,0,0:0:0:0:m_050.ogg
332,192,80266,1,0,0:0:0:0:m_049.ogg
76,192,80533,1,0,0:0:0:0:m_041.ogg
179,192,80533,1,0,0:0:0:0:m_035.ogg
384,192,80533,1,0,0:0:0:0:m_052.ogg
435,192,80800,1,0,0:0:0:0:m_053.ogg
128,192,81066,1,0,0:0:0:0:m_041.ogg
230,192,81066,1,0,0:0:0:0:m_047.ogg
486,192,81066,1,0,0:0:0:0:m_058.ogg
435,192,81466,1,0,0:0:0:0:s_056.ogg
25,192,81600,1,0,0:0:0:0:m_030.ogg
435,192,81600,1,0,0:0:0:0:m_056.ogg
76,192,82133,1,0,0:0:0:0:m_034.ogg
179,192,82133,1,0,0:0:0:0:m_042.ogg
128,192,82666,1,0,0:0:0:0:m_046.ogg
230,192,82666,1,0,0:0:0:0:m_042.ogg
384,192,82666,1,0,0:0:0:0:m_054.ogg
25,192,83200,1,0,0:0:0:0:m_029.ogg
435,192,83466,1,0,0:0:0:0:m_056.ogg
76,192,83733,1,0,0:0:0:0:m_034.ogg
179,192,83733,1,0,0:0:0:0:m_042.ogg
384,192,83733,1,0,0:0:0:0:s_054.ogg
435,192,83822,1,0,0:0:0:0:s_056.ogg
384,192,83911,1,0,0:0:0:0:s_054.ogg
332,192,84000,1,0,0:0:0:0:m_053.ogg
128,192,84266,1,0,0:0:0:0:m_037.ogg
230,192,84266,1,0,0:0:0:0:m_042.ogg
384,192,84266,1,0,0:0:0:0:m_054.ogg
435,192,84533,1,0,0:0:0:0:m_056.ogg
25,192,84800,1,0,0:0:0:0:m_015.ogg
486,192,84800,1,0,0:0:0:0:m_058.ogg
281,192,85066,1,0,0:0:0:0:m_050.ogg
76,192,85333,1,0,0:0:0:0:m_043.ogg
179,192,85333,1,0,0:0:0:0:m_034.ogg
332,192,85333,1,0,0:0:0:0:m_051.ogg
384,192,85600,1,0,0:0:0:0:m_052.ogg
128,192,85866,1,0,0:0:0:0:m_046.ogg
230,192,85866,1,0,0:0:0:0:m_037.ogg
281,192,85866,1,0,0:0:0:0:m_051.ogg
384,192,86133,1,0,0:0:0:0:m_056.ogg
25,192,86400,1,0,0:0:0:0:m_027.ogg
332,192,86400,1,0,0:0:0:0:m_055.ogg
435,192,86666,1,0,0:0:0:0:m_059.ogg
76,192,86933,1,0,0:0:0:0:m_043.ogg
179,192,86933,1,0,0:0:0:0:m_034.ogg
384,192,86933,1,0,0:0:0:0:m_058.ogg
486,192,87200,1,0,0:0:0:0:m_064.ogg
128,192,87466,1,0,0:0:0:0:m_049.ogg
230,192,87466,1,0,0:0:0:0:m_039.ogg
435,192,87466,1,0,0:0:0:0:m_063.ogg
384,192,87733,1,0,0:0:0:0:m_058.ogg
25,192,88000,1,0,0:0:0:0:m_020.ogg
435,192,88000,1,0,0:0:0:0:m_061.ogg
76,192,88533,1,0,0:0:0:0:m_040.ogg
179,192,88533,1,0,0:0:0:0:m_032.ogg
128,192,89066,1,0,0:0:0:0:m_040.ogg
230,192,89066,1,0,0:0:0:0:m_043.ogg
25,192,89600,1,0,0:0:0:0:m_020.ogg
384,192,89600,1,0,0:0:0:0:m_059.ogg
76,192,90133,1,0,0:0:0:0:m_032.ogg
179,192,90133,1,0,0:0:0:0:m_039.ogg
128,192,90666,1,0,0:0:0:0:m_044.ogg
230,192,90666,1,0,0:0:0:0:m_039.ogg
332,192,90666,1,0,0:0:0:0:m_058.ogg
25,192,91200,1,0,0:0:0:0:m_025.ogg
281,192,91200,1,0,0:0:0:0:s_056.ogg
435,192,91288,1,0,0:0:0:0:s_058.ogg
281,192,91377,1,0,0:0:0:0:s_056.ogg
435,192,91466,1,0,0:0:0:0:s_058.ogg
281,192,91555,1,0,0:0:0:0:s_056.ogg
435,192,91644,1,0,0:0:0:0:s_058.ogg
76,192,91733,1,0,0:0:0:0:m_041.ogg
179,192,91733,1,0,0:0:0:0:m_032.ogg
281,192,91733,1,0,0:0:0:0:s_056.ogg
435,192,91822,1,0,0:0:0:0:s_058.ogg
281,192,91911,1,0,0:0:0:0:s_056.ogg
435,192,92000,1,0,0:0:0:0:s_058.ogg
281,192,92088,1,0,0:0:0:0:s_056.ogg
435,192,92177,1,0,0:0:0:0:s_058.ogg
128,192,92266,1,0,0:0:0:0:m_047.ogg
230,192,92266,1,0,0:0:0:0:m_037.ogg
281,192,92266,1,0,0:0:0:0:s_056.ogg
435,192,92355,1,0,0:0:0:0:s_058.ogg
281,192,92444,1,0,0:0:0:0:s_056.ogg
435,192,92533,1,0,0:0:0:0:s_058.ogg
332,192,92622,1,0,0:0:0:0:s_055.ogg
384,192,92711,1,0,0:0:0:0:s_056.ogg
25,192,92800,1,0,0:0:0:0:m_026.ogg
435,192,92800,1,0,0:0:0:0:m_058.ogg
76,192,93333,1,0,0:0:0:0:m_044.ogg
179,192,93333,1,0,0:0:0:0:m_034.ogg
435,192,93333,1,0,0:0:0:0:m_058.ogg
128,192,93866,1,0,0:0:0:0:m_046.ogg
230,192,93866,1,0,0:0:0:0:m_044.ogg
332,192,93866,1,0,0:0:0:0:m_053.ogg
25,192,94400,1,0,0:0:0:0:m_027.ogg
384,192,94400,1,0,0:0:0:0:m_054.ogg
76,192,94933,1,0,0:0:0:0:m_042.ogg
179,192,94933,1,0,0:0:0:0:m_034.ogg
128,192,95466,1,0,0:0:0:0:m_046.ogg
230,192,95466,1,0,0:0:0:0:m_042.ogg
25,192,96000,1,0,0:0:0:0:m_024.ogg
332,192,96000,1,0,0:0:0:0:m_051.ogg
76,192,96533,1,0,0:0:0:0:m_042.ogg
179,192,96533,1,0,0:0:0:0:m_033.ogg
128,192,97066,1,0,0:0:0:0:m_045.ogg
230,192,97066,1,0,0:0:0:0:m_042.ogg
25,192,97600,1,0,0:0:0:0:m_025.ogg
281,192,97600,1,0,0:0:0:0:m_049.ogg
76,192,98133,1,0,0:0:0:0:m_042.ogg
179,192,98133,1,0,0:0:0:0:m_032.ogg
486,192,98133,1,0,0:0:0:0:m_065.ogg
128,192,98666,1,0,0:0:0:0:m_037.ogg
230,192,98666,1,0,0:0:0:0:m_047.ogg
435,192,98666,1,0,0:0:0:0:m_064.ogg
25,192,99200,1,0,0:0:0:0:m_013.ogg
486,192,99200,1,0,0:0:0:0:s_063.ogg
435,192,99333,1,0,0:0:0:0:s_062.ogg
384,192,99466,1,0,0:0:0:0:s_061.ogg
332,192,99600,1,0,0:0:0:0:s_060.ogg
76,192,99733,1,0,0:0:0:0:m_041.ogg
179,192,99733,1,0,0:0:0:0:m_032.ogg
281,192,99733,1,0,0:0:0:0:s_059.ogg
435,192,99866,1,0,0:0:0:0:s_056.ogg
384,192,100000,1,0,0:0:0:0:s_053.ogg
332,192,100133,1,0,0:0:0:0:s_050.ogg
128,192,100266,1,0,0:0:0:0:m_041.ogg
230,192,100266,1,0,0:0:0:0:m_047.ogg
281,192,100266,1,0,0:0:0:0:s_049.ogg
332,192,100366,1,0,0:0:0:0:s_053.ogg
486,192,100488,1,0,0:0:0:0:s_058.ogg
435,192,100588,1,0,0:0:0:0:s_056.ogg
332,192,100700,1,0,0:0:0:0:s_054.ogg
25,192,100800,1,0,0:0:0:0:l_054.ogg
384,192,100800,1,0,0:0:0:0:m_018.ogg
76,192,101333,1,0,0:0:0:0:m_042.ogg
179,192,101333,1,0,0:0:0:0:m_034.ogg
128,192,101866,1,0,0:0:0:0:m_046.ogg
230,192,101866,1,0,0:0:0:0:m_037.ogg
25,192,102400,1,0,0:0:0:0:m_030.ogg
76,192,102933,1,0,0:0:0:0:m_042.ogg
179,192,102933,1,0,0:0:0:0:m_034.ogg
128,192,103466,1,0,0:0:0:0:m_042.ogg
230,192,103466,1,0,0:0:0:0:m_037.ogg
76,192,104000,1,0,0:0:0:0:l_025.ogg
179,192,104000,1,0,0:0:0:0:l_034.ogg
332,192,104000,1,0,0:0:0:0:l_042.ogg
435,192,104000,1,0,0:0:0:0:l_018.ogg
