osu file format v14

[General]
AudioFilename: virtual
AudioLeadIn: 0
PreviewTime: 0
Countdown: 0
SampleSet: None
StackLeniency: 0.7
Mode: 3
LetterboxInBreaks: 0
SpecialStyle: 0
WidescreenStoryboard: 1

[Editor]
DistanceSpacing: 0.8
BeatDivisor: 4
GridSize: 32
TimelineZoom: 2.100006

[Metadata]
Title:Piano Beatmap Set
TitleUnicode:Piano Beatmap Set
Artist:Collection
ArtistUnicode:Collection
Creator:CircusGalop
Version:Canon - 7K EX
Source:BMS
Tags:
BeatmapID:1328824
BeatmapSetID:332673

[Difficulty]
HPDrainRate:9
CircleSize:7
OverallDifficulty:5
ApproachRate:5
SliderMultiplier:1.4
SliderTickRate:1

[Events]
//Background and Video events
0,0,"CircusGalop.jpg",0,0
//Break Periods
//Storyboard Layer 0 (Background)
//Storyboard Layer 1 (Fail)
//Storyboard Layer 2 (Pass)
//Storyboard Layer 3 (Foreground)
//Storyboard Sound Samples
Sample,4800,0,"l_036.ogg",100
Sample,6000,0,"l_048.ogg",100
Sample,8400,0,"l_040.ogg",100
Sample,14400,0,"l_029.ogg",100
Sample,15600,0,"l_024.ogg",100
Sample,18000,0,"l_021.ogg",100
Sample,22800,0,"l_043.ogg",100
Sample,24000,0,"l_045.ogg",100
Sample,27600,0,"l_021.ogg",100
Sample,27600,0,"l_040.ogg",100
Sample,28800,0,"l_022.ogg",100
Sample,30000,0,"l_045.ogg",100
Sample,30000,0,"l_017.ogg",100
Sample,31200,0,"l_022.ogg",100
Sample,32400,0,"l_043.ogg",100
Sample,33600,0,"l_041.ogg",100
Sample,34800,0,"l_043.ogg",100
Sample,38400,0,"l_041.ogg",100
Sample,39600,0,"l_060.ogg",100
Sample,40800,0,"l_041.ogg",100
Sample,40800,0,"l_062.ogg",100
Sample,42000,0,"l_064.ogg",100
Sample,43200,0,"l_045.ogg",100
Sample,44400,0,"l_043.ogg",100
Sample,44400,0,"l_024.ogg",100
Sample,46800,0,"l_041.ogg",100
Sample,48000,0,"l_053.ogg",100
Sample,49200,0,"l_045.ogg",100
Sample,50400,0,"l_041.ogg",100
Sample,51600,0,"l_024.ogg",100
Sample,51600,0,"l_048.ogg",100
Sample,52800,0,"l_036.ogg",100
Sample,52800,0,"l_045.ogg",100
Sample,54000,0,"l_043.ogg",100
Sample,54000,0,"l_024.ogg",100
Sample,54000,0,"l_040.ogg",100
Sample,54000,0,"l_048.ogg",100
Sample,55200,0,"l_045.ogg",100
Sample,56400,0,"l_041.ogg",100
Sample,56400,0,"l_048.ogg",100
Sample,56400,0,"l_036.ogg",100
Sample,58800,0,"l_036.ogg",100
Sample,58800,0,"l_041.ogg",100
Sample,60000,0,"l_043.ogg",100
Sample,61200,0,"l_040.ogg",100
Sample,61200,0,"l_036.ogg",100
Sample,61200,0,"l_043.ogg",100
Sample,66000,0,"l_040.ogg",100
Sample,68400,0,"l_045.ogg",100
Sample,68400,0,"l_041.ogg",100
Sample,70800,0,"l_036.ogg",100
Sample,70800,0,"l_043.ogg",100
Sample,73200,0,"l_048.ogg",100
Sample,75600,0,"l_021.ogg",100
Sample,78000,0,"l_041.ogg",100
Sample,79200,0,"l_041.ogg",100
Sample,82800,0,"l_024.ogg",100
Sample,84000,0,"l_045.ogg",100
Sample,85200,0,"l_048.ogg",100
Sample,86400,0,"l_041.ogg",100
Sample,87600,0,"l_036.ogg",100
Sample,88800,0,"l_041.ogg",100
Sample,90000,0,"l_043.ogg",100
Sample,91200,0,"m_045.ogg",100
Sample,96000,0,"l_022.ogg",100
Sample,97200,0,"l_048.ogg",100
Sample,98400,0,"l_043.ogg",100
Sample,99600,0,"l_048.ogg",100
Sample,100800,0,"l_029.ogg",100
Sample,100800,0,"l_017.ogg",100
Sample,100800,0,"l_048.ogg",100
Sample,100800,0,"l_053.ogg",100

[TimingPoints]
0,600.000000000006,4,2,0,100,1,0

[HitObjects]
182,192,4800,5,0,0:0:0:0:l_053.ogg
256,192,4800,1,0,0:0:0:0:l_057.ogg
329,192,4800,1,0,0:0:0:0:l_029.ogg
402,192,4800,1,0,0:0:0:0:l_045.ogg
475,192,4800,1,0,0:0:0:0:l_041.ogg
109,192,6000,1,0,0:0:0:0:l_052.ogg
182,192,6000,1,0,0:0:0:0:l_055.ogg
329,192,6000,1,0,0:0:0:0:l_024.ogg
402,192,6000,1,0,0:0:0:0:l_040.ogg
475,192,6000,1,0,0:0:0:0:l_043.ogg
109,192,7200,1,0,0:0:0:0:l_041.ogg
182,192,7200,1,0,0:0:0:0:l_050.ogg
256,192,7200,1,0,0:0:0:0:l_053.ogg
329,192,7200,1,0,0:0:0:0:l_026.ogg
402,192,7200,1,0,0:0:0:0:l_045.ogg
36,192,8400,1,0,0:0:0:0:l_048.ogg
109,192,8400,1,0,0:0:0:0:l_052.ogg
256,192,8400,1,0,0:0:0:0:l_021.ogg
402,192,8400,1,0,0:0:0:0:l_045.ogg
475,192,8400,1,0,0:0:0:0:l_036.ogg
36,192,9600,1,0,0:0:0:0:l_050.ogg
109,192,9600,1,0,0:0:0:0:l_038.ogg
256,192,9600,1,0,0:0:0:0:l_046.ogg
329,192,9600,1,0,0:0:0:0:l_022.ogg
402,192,9600,1,0,0:0:0:0:l_041.ogg
36,192,10800,1,0,0:0:0:0:l_045.ogg
109,192,10800,1,0,0:0:0:0:l_048.ogg
182,192,10800,1,0,0:0:0:0:l_036.ogg
256,192,10800,1,0,0:0:0:0:l_041.ogg
329,192,10800,1,0,0:0:0:0:l_017.ogg
36,192,12000,1,0,0:0:0:0:l_050.ogg
109,192,12000,1,0,0:0:0:0:l_046.ogg
182,192,12000,1,0,0:0:0:0:l_022.ogg
329,192,12000,1,0,0:0:0:0:l_041.ogg
402,192,12000,1,0,0:0:0:0:l_038.ogg
109,192,13200,1,0,0:0:0:0:l_043.ogg
182,192,13200,1,0,0:0:0:0:l_052.ogg
256,192,13200,1,0,0:0:0:0:l_024.ogg
329,192,13200,1,0,0:0:0:0:l_036.ogg
402,192,13200,1,0,0:0:0:0:l_040.ogg
36,192,14400,1,0,0:0:0:0:l_045.ogg
109,192,14400,1,0,0:0:0:0:l_053.ogg
182,192,14400,1,0,0:0:0:0:l_057.ogg
329,192,14400,1,0,0:0:0:0:l_041.ogg
475,192,14400,1,0,0:0:0:0:l_036.ogg
256,192,15000,1,0,0:0:0:0:m_045.ogg
36,192,15600,1,0,0:0:0:0:l_040.ogg
109,192,15600,1,0,0:0:0:0:l_043.ogg
182,192,15600,1,0,0:0:0:0:l_052.ogg
402,192,15600,1,0,0:0:0:0:l_055.ogg
475,192,15600,1,0,0:0:0:0:l_048.ogg
329,192,16200,1,0,0:0:0:0:m_046.ogg
36,192,16800,1,0,0:0:0:0:l_050.ogg
109,192,16800,1,0,0:0:0:0:l_045.ogg
256,192,16800,1,0,0:0:0:0:l_053.ogg
402,192,16800,1,0,0:0:0:0:l_026.ogg
475,192,16800,1,0,0:0:0:0:l_041.ogg
182,192,17400,1,0,0:0:0:0:m_041.ogg
36,192,18000,1,0,0:0:0:0:l_045.ogg
109,192,18000,1,0,0:0:0:0:l_036.ogg
329,192,18000,1,0,0:0:0:0:l_052.ogg
402,192,18000,1,0,0:0:0:0:l_048.ogg
475,192,18000,1,0,0:0:0:0:l_040.ogg
256,192,18600,1,0,0:0:0:0:m_043.ogg
36,192,19200,1,0,0:0:0:0:l_046.ogg
182,192,19200,1,0,0:0:0:0:l_050.ogg
329,192,19200,1,0,0:0:0:0:l_022.ogg
402,192,19200,1,0,0:0:0:0:l_041.ogg
475,192,19200,1,0,0:0:0:0:l_038.ogg
109,192,19800,1,0,0:0:0:0:m_038.ogg
36,192,20400,1,0,0:0:0:0:l_017.ogg
182,192,20400,1,0,0:0:0:0:l_048.ogg
256,192,20400,1,0,0:0:0:0:l_036.ogg
402,192,20400,1,0,0:0:0:0:l_045.ogg
475,192,20400,1,0,0:0:0:0:l_041.ogg
329,192,21000,1,0,0:0:0:0:m_048.ogg
36,192,21600,1,0,0:0:0:0:l_046.ogg
109,192,21600,1,0,0:0:0:0:l_041.ogg
182,192,21600,1,0,0:0:0:0:l_022.ogg
256,192,21600,1,0,0:0:0:0:l_050.ogg
475,192,21600,1,0,0:0:0:0:l_038.ogg
402,192,22200,1,0,0:0:0:0:m_050.ogg
36,192,22800,1,0,0:0:0:0:l_052.ogg
109,192,22800,1,0,0:0:0:0:l_036.ogg
182,192,22800,1,0,0:0:0:0:l_040.ogg
329,192,22800,1,0,0:0:0:0:m_048.ogg
475,192,22800,1,0,0:0:0:0:l_024.ogg
256,192,23400,1,0,0:0:0:0:m_046.ogg
109,192,24000,1,0,0:0:0:0:l_041.ogg
182,192,24000,1,0,0:0:0:0:l_029.ogg
329,192,24000,1,0,0:0:0:0:l_036.ogg
475,192,24000,1,0,0:0:0:0:m_053.ogg
402,192,24300,1,0,0:0:0:0:m_052.ogg
36,192,24600,1,0,0:0:0:0:m_053.ogg
256,192,24600,1,0,0:0:0:0:m_041.ogg
475,192,24600,1,0,0:0:0:0:m_045.ogg
182,192,24900,1,0,0:0:0:0:m_041.ogg
109,192,25200,1,0,0:0:0:0:l_040.ogg
256,192,25200,1,0,0:0:0:0:l_043.ogg
402,192,25200,1,0,0:0:0:0:l_024.ogg
475,192,25200,1,0,0:0:0:0:l_048.ogg
402,192,25500,1,0,0:0:0:0:m_048.ogg
36,192,25800,1,0,0:0:0:0:m_043.ogg
182,192,25800,1,0,0:0:0:0:m_052.ogg
329,192,25800,1,0,0:0:0:0:m_046.ogg
256,192,26100,1,0,0:0:0:0:m_045.ogg
109,192,26400,1,0,0:0:0:0:l_041.ogg
182,192,26400,1,0,0:0:0:0:m_053.ogg
402,192,26400,1,0,0:0:0:0:l_026.ogg
475,192,26400,1,0,0:0:0:0:l_045.ogg
329,192,26700,1,0,0:0:0:0:m_053.ogg
36,192,27000,1,0,0:0:0:0:m_052.ogg
256,192,27000,1,0,0:0:0:0:m_041.ogg
475,192,27000,1,0,0:0:0:0:m_057.ogg
182,192,27300,1,0,0:0:0:0:m_050.ogg
109,192,27600,1,0,0:0:0:0:m_052.ogg
256,192,27600,1,0,0:0:0:0:m_060.ogg
402,192,27600,1,0,0:0:0:0:l_045.ogg
475,192,27600,1,0,0:0:0:0:l_036.ogg
329,192,27900,1,0,0:0:0:0:m_057.ogg
36,192,28200,1,0,0:0:0:0:m_060.ogg
182,192,28200,1,0,0:0:0:0:m_048.ogg
402,192,28200,1,0,0:0:0:0:m_043.ogg
475,192,28500,1,0,0:0:0:0:m_062.ogg
36,192,28800,1,0,0:0:0:0:l_038.ogg
109,192,28800,1,0,0:0:0:0:l_050.ogg
329,192,28800,1,0,0:0:0:0:m_058.ogg
402,192,28800,1,0,0:0:0:0:l_041.ogg
256,192,29100,1,0,0:0:0:0:m_057.ogg
36,192,29400,1,0,0:0:0:0:m_055.ogg
182,192,29400,1,0,0:0:0:0:m_038.ogg
475,192,29400,1,0,0:0:0:0:m_046.ogg
329,192,29700,1,0,0:0:0:0:m_058.ogg
36,192,30000,1,0,0:0:0:0:l_041.ogg
109,192,30000,1,0,0:0:0:0:m_057.ogg
256,192,30000,1,0,0:0:0:0:m_048.ogg
402,192,30000,1,0,0:0:0:0:l_036.ogg
182,192,30300,1,0,0:0:0:0:m_055.ogg
109,192,30600,1,0,0:0:0:0:m_048.ogg
329,192,30600,1,0,0:0:0:0:m_053.ogg
475,192,30600,1,0,0:0:0:0:m_045.ogg
36,192,30900,1,0,0:0:0:0:m_052.ogg
109,192,31200,1,0,0:0:0:0:l_050.ogg
182,192,31200,1,0,0:0:0:0:l_043.ogg
329,192,31200,1,0,0:0:0:0:m_046.ogg
402,192,31200,1,0,0:0:0:0:l_041.ogg
256,192,31500,1,0,0:0:0:0:m_048.ogg
36,192,31800,1,0,0:0:0:0:m_046.ogg
182,192,31800,1,0,0:0:0:0:m_050.ogg
475,192,31800,1,0,0:0:0:0:m_053.ogg
109,192,32100,1,0,0:0:0:0:m_045.ogg
36,192,32400,1,0,0:0:0:0:l_024.ogg
256,192,32400,1,0,0:0:0:0:l_048.ogg
329,192,32400,1,0,0:0:0:0:s_053.ogg
402,192,32400,1,0,0:0:0:0:l_040.ogg
475,192,32475,1,0,0:0:0:0:s_055.ogg
329,192,32550,1,0,0:0:0:0:s_053.ogg
475,192,32625,1,0,0:0:0:0:s_055.ogg
182,192,32700,1,0,0:0:0:0:m_046.ogg
329,192,32700,1,0,0:0:0:0:s_053.ogg
475,192,32775,1,0,0:0:0:0:s_055.ogg
329,192,32850,1,0,0:0:0:0:s_053.ogg
475,192,32925,1,0,0:0:0:0:s_055.ogg
109,192,33000,1,0,0:0:0:0:m_046.ogg
256,192,33000,1,0,0:0:0:0:m_045.ogg
329,192,33000,1,0,0:0:0:0:s_053.ogg
475,192,33075,1,0,0:0:0:0:s_055.ogg
329,192,33150,1,0,0:0:0:0:s_053.ogg
475,192,33200,1,0,0:0:0:0:s_055.ogg
36,192,33300,1,0,0:0:0:0:m_052.ogg
402,192,33300,1,0,0:0:0:0:m_043.ogg
109,192,33600,1,0,0:0:0:0:l_036.ogg
182,192,33600,1,0,0:0:0:0:l_045.ogg
256,192,33600,1,0,0:0:0:0:m_065.ogg
475,192,33600,1,0,0:0:0:0:l_029.ogg
329,192,33900,1,0,0:0:0:0:m_043.ogg
109,192,34200,1,0,0:0:0:0:m_053.ogg
182,192,34200,1,0,0:0:0:0:m_057.ogg
402,192,34200,1,0,0:0:0:0:m_045.ogg
475,192,34500,1,0,0:0:0:0:m_046.ogg
36,192,34800,1,0,0:0:0:0:l_024.ogg
109,192,34800,1,0,0:0:0:0:l_040.ogg
256,192,34800,1,0,0:0:0:0:l_048.ogg
329,192,34800,1,0,0:0:0:0:l_052.ogg
402,192,34800,1,0,0:0:0:0:l_055.ogg
182,192,35100,1,0,0:0:0:0:m_043.ogg
329,192,35400,1,0,0:0:0:0:m_048.ogg
256,192,35700,1,0,0:0:0:0:m_046.ogg
36,192,36000,1,0,0:0:0:0:l_045.ogg
182,192,36000,1,0,0:0:0:0:l_026.ogg
402,192,36000,1,0,0:0:0:0:l_041.ogg
475,192,36300,1,0,0:0:0:0:m_050.ogg
109,192,36600,1,0,0:0:0:0:m_050.ogg
182,192,36600,1,0,0:0:0:0:m_053.ogg
402,192,36600,1,0,0:0:0:0:m_048.ogg
329,192,36900,1,0,0:0:0:0:m_046.ogg
36,192,37200,1,0,0:0:0:0:l_021.ogg
182,192,37200,1,0,0:0:0:0:l_048.ogg
256,192,37200,1,0,0:0:0:0:l_057.ogg
402,192,37200,1,0,0:0:0:0:l_053.ogg
475,192,37200,1,0,0:0:0:0:l_041.ogg
329,192,37500,1,0,0:0:0:0:m_046.ogg
256,192,37800,1,0,0:0:0:0:m_045.ogg
182,192,38100,1,0,0:0:0:0:m_043.ogg
109,192,38400,1,0,0:0:0:0:l_053.ogg
256,192,38400,1,0,0:0:0:0:l_046.ogg
329,192,38400,1,0,0:0:0:0:l_050.ogg
402,192,38400,1,0,0:0:0:0:l_062.ogg
475,192,38400,1,0,0:0:0:0:l_022.ogg
36,192,38700,1,0,0:0:0:0:m_038.ogg
182,192,39000,1,0,0:0:0:0:m_050.ogg
256,192,39300,1,0,0:0:0:0:m_052.ogg
36,192,39600,1,0,0:0:0:0:l_041.ogg
109,192,39600,1,0,0:0:0:0:l_048.ogg
329,192,39600,1,0,0:0:0:0:m_053.ogg
402,192,39600,1,0,0:0:0:0:l_017.ogg
475,192,39600,1,0,0:0:0:0:l_045.ogg
256,192,39900,1,0,0:0:0:0:m_052.ogg
182,192,40200,1,0,0:0:0:0:m_050.ogg
475,192,40200,1,0,0:0:0:0:m_053.ogg
109,192,40500,1,0,0:0:0:0:m_048.ogg
36,192,40800,1,0,0:0:0:0:m_053.ogg
182,192,40800,1,0,0:0:0:0:m_046.ogg
256,192,40800,1,0,0:0:0:0:l_050.ogg
329,192,40800,1,0,0:0:0:0:l_043.ogg
402,192,40800,1,0,0:0:0:0:l_022.ogg
109,192,41100,1,0,0:0:0:0:m_045.ogg
36,192,41400,1,0,0:0:0:0:m_043.ogg
475,192,41400,1,0,0:0:0:0:m_058.ogg
329,192,41700,1,0,0:0:0:0:m_050.ogg
109,192,42000,1,0,0:0:0:0:l_040.ogg
182,192,42000,1,0,0:0:0:0:l_048.ogg
256,192,42000,1,0,0:0:0:0:m_055.ogg
402,192,42000,1,0,0:0:0:0:l_043.ogg
475,192,42000,1,0,0:0:0:0:l_024.ogg
329,192,42300,1,0,0:0:0:0:m_050.ogg
36,192,42600,1,0,0:0:0:0:m_060.ogg
256,192,42600,1,0,0:0:0:0:m_048.ogg
182,192,42900,1,0,0:0:0:0:m_046.ogg
36,192,43200,1,0,0:0:0:0:l_041.ogg
109,192,43200,1,0,0:0:0:0:l_048.ogg
329,192,43200,1,0,0:0:0:0:m_060.ogg
402,192,43200,1,0,0:0:0:0:l_029.ogg
475,192,43200,1,0,0:0:0:0:m_065.ogg
256,192,43500,1,0,0:0:0:0:m_057.ogg
329,192,43650,1,0,0:0:0:0:m_058.ogg
36,192,43800,1,0,0:0:0:0:m_060.ogg
182,192,43800,1,0,0:0:0:0:m_053.ogg
402,192,43800,1,0,0:0:0:0:m_057.ogg
256,192,44100,1,0,0:0:0:0:m_057.ogg
329,192,44250,1,0,0:0:0:0:m_058.ogg
36,192,44400,1,0,0:0:0:0:l_055.ogg
109,192,44400,1,0,0:0:0:0:l_052.ogg
402,192,44400,1,0,0:0:0:0:s_060.ogg
475,192,44400,1,0,0:0:0:0:l_048.ogg
182,192,44550,1,0,0:0:0:0:m_048.ogg
256,192,44700,1,0,0:0:0:0:m_050.ogg
329,192,44850,1,0,0:0:0:0:m_052.ogg
402,192,45000,1,0,0:0:0:0:m_053.ogg
475,192,45150,1,0,0:0:0:0:m_055.ogg
182,192,45300,1,0,0:0:0:0:m_057.ogg
329,192,45450,1,0,0:0:0:0:m_058.ogg
36,192,45600,1,0,0:0:0:0:l_026.ogg
109,192,45600,1,0,0:0:0:0:l_045.ogg
256,192,45600,1,0,0:0:0:0:m_057.ogg
402,192,45600,1,0,0:0:0:0:l_041.ogg
475,192,45600,1,0,0:0:0:0:l_050.ogg
182,192,45900,1,0,0:0:0:0:m_053.ogg
256,192,46050,1,0,0:0:0:0:m_055.ogg
109,192,46200,1,0,0:0:0:0:m_057.ogg
329,192,46200,1,0,0:0:0:0:m_053.ogg
475,192,46200,1,0,0:0:0:0:m_050.ogg
256,192,46500,1,0,0:0:0:0:m_045.ogg
329,192,46650,1,0,0:0:0:0:m_046.ogg
36,192,46800,1,0,0:0:0:0:l_048.ogg
109,192,46800,1,0,0:0:0:0:l_053.ogg
182,192,46800,1,0,0:0:0:0:l_021.ogg
402,192,46800,1,0,0:0:0:0:l_057.ogg
475,192,46950,1,0,0:0:0:0:m_050.ogg
402,192,47100,1,0,0:0:0:0:m_048.ogg
329,192,47250,1,0,0:0:0:0:m_046.ogg
402,192,47400,1,0,0:0:0:0:m_048.ogg
182,192,47550,1,0,0:0:0:0:m_045.ogg
256,192,47700,1,0,0:0:0:0:m_046.ogg
329,192,47850,1,0,0:0:0:0:m_048.ogg
36,192,48000,1,0,0:0:0:0:l_062.ogg
109,192,48000,1,0,0:0:0:0:l_050.ogg
182,192,48000,1,0,0:0:0:0:l_041.ogg
402,192,48000,1,0,0:0:0:0:l_022.ogg
475,192,48000,1,0,0:0:0:0:l_046.ogg
329,192,48300,1,0,0:0:0:0:m_050.ogg
256,192,48450,1,0,0:0:0:0:m_048.ogg
182,192,48600,1,0,0:0:0:0:m_046.ogg
109,192,48900,1,0,0:0:0:0:m_045.ogg
36,192,49050,1,0,0:0:0:0:m_043.ogg
256,192,49200,1,0,0:0:0:0:l_048.ogg
329,192,49200,1,0,0:0:0:0:l_041.ogg
402,192,49200,1,0,0:0:0:0:l_060.ogg
475,192,49200,1,0,0:0:0:0:l_017.ogg
182,192,49350,1,0,0:0:0:0:m_043.ogg
109,192,49500,1,0,0:0:0:0:m_041.ogg
36,192,49650,1,0,0:0:0:0:m_043.ogg
109,192,49800,1,0,0:0:0:0:m_053.ogg
475,192,49800,1,0,0:0:0:0:m_045.ogg
182,192,49950,1,0,0:0:0:0:m_046.ogg
256,192,50100,1,0,0:0:0:0:m_048.ogg
329,192,50250,1,0,0:0:0:0:m_050.ogg
36,192,50400,1,0,0:0:0:0:m_053.ogg
109,192,50400,1,0,0:0:0:0:l_050.ogg
256,192,50400,1,0,0:0:0:0:l_046.ogg
402,192,50400,1,0,0:0:0:0:l_062.ogg
475,192,50400,1,0,0:0:0:0:l_022.ogg
182,192,50700,1,0,0:0:0:0:m_050.ogg
109,192,50850,1,0,0:0:0:0:m_048.ogg
182,192,51000,1,0,0:0:0:0:m_058.ogg
329,192,51000,1,0,0:0:0:0:m_050.ogg
256,192,51300,1,0,0:0:0:0:m_052.ogg
329,192,51450,1,0,0:0:0:0:m_053.ogg
36,192,51600,1,0,0:0:0:0:m_055.ogg
109,192,51600,1,0,0:0:0:0:l_040.ogg
402,192,51600,1,0,0:0:0:0:l_043.ogg
475,192,51600,1,0,0:0:0:0:l_064.ogg
182,192,51750,1,0,0:0:0:0:m_050.ogg
256,192,51900,1,0,0:0:0:0:m_052.ogg
329,192,52050,1,0,0:0:0:0:m_053.ogg
109,192,52200,1,0,0:0:0:0:m_060.ogg
475,192,52200,1,0,0:0:0:0:m_055.ogg
182,192,52350,1,0,0:0:0:0:m_057.ogg
256,192,52500,1,0,0:0:0:0:m_058.ogg
329,192,52650,1,0,0:0:0:0:m_060.ogg
36,192,52800,1,0,0:0:0:0:l_029.ogg
109,192,52800,1,0,0:0:0:0:l_041.ogg
256,192,52800,1,0,0:0:0:0:m_057.ogg
402,192,52800,1,0,0:0:0:0:m_060.ogg
475,192,52800,1,0,0:0:0:0:m_053.ogg
182,192,53100,1,0,0:0:0:0:m_057.ogg
329,192,53100,1,0,0:0:0:0:m_053.ogg
256,192,53250,1,0,0:0:0:0:m_058.ogg
402,192,53250,1,0,0:0:0:0:m_055.ogg
329,192,53400,1,0,0:0:0:0:m_057.ogg
475,192,53400,1,0,0:0:0:0:m_060.ogg
182,192,53700,1,0,0:0:0:0:m_057.ogg
329,192,53700,1,0,0:0:0:0:m_055.ogg
256,192,53850,1,0,0:0:0:0:m_058.ogg
402,192,53850,1,0,0:0:0:0:m_053.ogg
109,192,54000,1,0,0:0:0:0:s_060.ogg
329,192,54000,1,0,0:0:0:0:m_052.ogg
475,192,54000,1,0,0:0:0:0:m_055.ogg
36,192,54150,1,0,0:0:0:0:m_048.ogg
182,192,54150,1,0,0:0:0:0:m_052.ogg
109,192,54300,1,0,0:0:0:0:m_053.ogg
256,192,54300,1,0,0:0:0:0:m_050.ogg
182,192,54450,1,0,0:0:0:0:m_052.ogg
329,192,54450,1,0,0:0:0:0:m_055.ogg
256,192,54600,1,0,0:0:0:0:m_053.ogg
402,192,54600,1,0,0:0:0:0:m_057.ogg
329,192,54750,1,0,0:0:0:0:m_055.ogg
256,192,54900,1,0,0:0:0:0:m_057.ogg
402,192,54900,1,0,0:0:0:0:m_053.ogg
182,192,55050,1,0,0:0:0:0:m_058.ogg
475,192,55050,1,0,0:0:0:0:m_052.ogg
36,192,55200,1,0,0:0:0:0:l_026.ogg
109,192,55200,1,0,0:0:0:0:l_041.ogg
256,192,55200,1,0,0:0:0:0:m_053.ogg
329,192,55200,1,0,0:0:0:0:m_050.ogg
402,192,55200,1,0,0:0:0:0:m_057.ogg
182,192,55500,1,0,0:0:0:0:m_053.ogg
329,192,55500,1,0,0:0:0:0:m_050.ogg
256,192,55650,1,0,0:0:0:0:m_055.ogg
402,192,55650,1,0,0:0:0:0:m_052.ogg
329,192,55800,1,0,0:0:0:0:m_057.ogg
475,192,55800,1,0,0:0:0:0:m_053.ogg
36,192,56100,1,0,0:0:0:0:m_045.ogg
182,192,56100,1,0,0:0:0:0:m_041.ogg
109,192,56250,1,0,0:0:0:0:m_046.ogg
256,192,56250,1,0,0:0:0:0:m_043.ogg
182,192,56400,1,0,0:0:0:0:m_045.ogg
329,192,56400,1,0,0:0:0:0:m_053.ogg
475,192,56400,1,0,0:0:0:0:l_021.ogg
256,192,56550,1,0,0:0:0:0:m_046.ogg
402,192,56550,1,0,0:0:0:0:m_050.ogg
182,192,56700,1,0,0:0:0:0:m_045.ogg
329,192,56700,1,0,0:0:0:0:m_048.ogg
109,192,56850,1,0,0:0:0:0:m_046.ogg
256,192,56850,1,0,0:0:0:0:m_043.ogg
182,192,57000,1,0,0:0:0:0:m_048.ogg
329,192,57000,1,0,0:0:0:0:m_045.ogg
256,192,57150,1,0,0:0:0:0:m_045.ogg
402,192,57150,1,0,0:0:0:0:m_053.ogg
182,192,57300,1,0,0:0:0:0:m_052.ogg
329,192,57300,1,0,0:0:0:0:m_046.ogg
256,192,57450,1,0,0:0:0:0:m_048.ogg
402,192,57450,1,0,0:0:0:0:m_053.ogg
36,192,57600,1,0,0:0:0:0:l_038.ogg
109,192,57600,1,0,0:0:0:0:l_041.ogg
182,192,57600,1,0,0:0:0:0:l_022.ogg
329,192,57600,1,0,0:0:0:0:l_046.ogg
475,192,57600,1,0,0:0:0:0:m_050.ogg
256,192,57900,1,0,0:0:0:0:m_050.ogg
402,192,57900,1,0,0:0:0:0:m_053.ogg
182,192,58050,1,0,0:0:0:0:m_048.ogg
329,192,58050,1,0,0:0:0:0:m_052.ogg
109,192,58200,1,0,0:0:0:0:m_046.ogg
256,192,58200,1,0,0:0:0:0:m_050.ogg
256,192,58500,1,0,0:0:0:0:m_048.ogg
402,192,58500,1,0,0:0:0:0:m_045.ogg
182,192,58650,1,0,0:0:0:0:m_043.ogg
329,192,58650,1,0,0:0:0:0:m_046.ogg
256,192,58800,1,0,0:0:0:0:m_048.ogg
402,192,58800,1,0,0:0:0:0:l_017.ogg
475,192,58800,1,0,0:0:0:0:l_045.ogg
182,192,58950,1,0,0:0:0:0:m_043.ogg
329,192,58950,1,0,0:0:0:0:m_046.ogg
109,192,59100,1,0,0:0:0:0:m_041.ogg
256,192,59100,1,0,0:0:0:0:m_045.ogg
36,192,59250,1,0,0:0:0:0:m_043.ogg
182,192,59250,1,0,0:0:0:0:m_046.ogg
109,192,59400,1,0,0:0:0:0:m_045.ogg
256,192,59400,1,0,0:0:0:0:m_048.ogg
182,192,59550,1,0,0:0:0:0:m_050.ogg
329,192,59550,1,0,0:0:0:0:m_046.ogg
256,192,59700,1,0,0:0:0:0:m_052.ogg
402,192,59700,1,0,0:0:0:0:m_048.ogg
329,192,59850,1,0,0:0:0:0:m_053.ogg
475,192,59850,1,0,0:0:0:0:m_050.ogg
36,192,60000,1,0,0:0:0:0:m_046.ogg
109,192,60000,1,0,0:0:0:0:m_050.ogg
182,192,60000,1,0,0:0:0:0:l_022.ogg
256,192,60000,1,0,0:0:0:0:l_038.ogg
402,192,60000,1,0,0:0:0:0:l_041.ogg
182,192,60300,1,0,0:0:0:0:m_050.ogg
329,192,60300,1,0,0:0:0:0:m_053.ogg
109,192,60450,1,0,0:0:0:0:m_048.ogg
256,192,60450,1,0,0:0:0:0:m_052.ogg
182,192,60600,1,0,0:0:0:0:m_050.ogg
329,192,60600,1,0,0:0:0:0:m_053.ogg
256,192,60900,1,0,0:0:0:0:m_052.ogg
329,192,61050,1,0,0:0:0:0:m_050.ogg
475,192,61050,1,0,0:0:0:0:m_053.ogg
36,192,61200,1,0,0:0:0:0:m_052.ogg
182,192,61200,1,0,0:0:0:0:m_048.ogg
402,192,61200,1,0,0:0:0:0:l_024.ogg
109,192,61350,1,0,0:0:0:0:m_050.ogg
256,192,61350,1,0,0:0:0:0:m_053.ogg
182,192,61500,1,0,0:0:0:0:m_052.ogg
329,192,61500,1,0,0:0:0:0:m_055.ogg
402,192,61650,1,0,0:0:0:0:m_053.ogg
36,192,61800,1,0,0:0:0:0:m_055.ogg
475,192,61800,1,0,0:0:0:0:m_052.ogg
109,192,61950,1,0,0:0:0:0:m_057.ogg
329,192,61950,1,0,0:0:0:0:m_053.ogg
182,192,62100,1,0,0:0:0:0:m_058.ogg
402,192,62100,1,0,0:0:0:0:m_050.ogg
256,192,62250,1,0,0:0:0:0:m_052.ogg
475,192,62250,1,0,0:0:0:0:m_060.ogg
36,192,62400,1,0,0:0:0:0:l_036.ogg
109,192,62400,1,0,0:0:0:0:l_045.ogg
182,192,62400,1,0,0:0:0:0:m_057.ogg
329,192,62400,1,0,0:0:0:0:l_029.ogg
402,192,62400,1,0,0:0:0:0:l_041.ogg
256,192,62700,1,0,0:0:0:0:m_048.ogg
329,192,62700,1,0,0:0:0:0:m_045.ogg
402,192,62700,1,0,0:0:0:0:m_053.ogg
329,192,63000,1,0,0:0:0:0:m_046.ogg
402,192,63000,1,0,0:0:0:0:m_048.ogg
475,192,63000,1,0,0:0:0:0:m_055.ogg
256,192,63300,1,0,0:0:0:0:m_048.ogg
329,192,63300,1,0,0:0:0:0:m_045.ogg
402,192,63300,1,0,0:0:0:0:m_053.ogg
36,192,63600,1,0,0:0:0:0:l_048.ogg
109,192,63600,1,0,0:0:0:0:l_043.ogg
182,192,63600,1,0,0:0:0:0:l_024.ogg
256,192,63600,1,0,0:0:0:0:l_040.ogg
329,192,63600,1,0,0:0:0:0:m_052.ogg
182,192,63900,1,0,0:0:0:0:m_048.ogg
329,192,63900,1,0,0:0:0:0:m_055.ogg
402,192,63900,1,0,0:0:0:0:m_040.ogg
256,192,64200,1,0,0:0:0:0:m_048.ogg
329,192,64200,1,0,0:0:0:0:m_057.ogg
475,192,64200,1,0,0:0:0:0:m_041.ogg
182,192,64500,1,0,0:0:0:0:m_048.ogg
329,192,64500,1,0,0:0:0:0:m_055.ogg
402,192,64500,1,0,0:0:0:0:m_040.ogg
36,192,64800,1,0,0:0:0:0:l_026.ogg
109,192,64800,1,0,0:0:0:0:l_045.ogg
182,192,64800,1,0,0:0:0:0:m_053.ogg
256,192,64800,1,0,0:0:0:0:l_041.ogg
475,192,64800,1,0,0:0:0:0:l_038.ogg
182,192,65100,1,0,0:0:0:0:m_045.ogg
329,192,65100,1,0,0:0:0:0:m_050.ogg
109,192,65400,1,0,0:0:0:0:m_048.ogg
182,192,65400,1,0,0:0:0:0:m_041.ogg
256,192,65400,1,0,0:0:0:0:m_045.ogg
182,192,65700,1,0,0:0:0:0:m_050.ogg
329,192,65700,1,0,0:0:0:0:m_045.ogg
182,192,66000,1,0,0:0:0:0:m_048.ogg
256,192,66000,1,0,0:0:0:0:m_052.ogg
329,192,66000,1,0,0:0:0:0:l_021.ogg
402,192,66000,1,0,0:0:0:0:l_036.ogg
475,192,66000,1,0,0:0:0:0:l_045.ogg
36,192,66300,1,0,0:0:0:0:m_045.ogg
109,192,66300,1,0,0:0:0:0:m_040.ogg
182,192,66300,1,0,0:0:0:0:m_036.ogg
36,192,66600,1,0,0:0:0:0:m_048.ogg
256,192,66600,1,0,0:0:0:0:m_034.ogg
329,192,66600,1,0,0:0:0:0:m_045.ogg
36,192,66900,1,0,0:0:0:0:m_048.ogg
109,192,66900,1,0,0:0:0:0:m_043.ogg
256,192,66900,1,0,0:0:0:0:m_036.ogg
109,192,67200,1,0,0:0:0:0:l_022.ogg
256,192,67200,1,0,0:0:0:0:m_046.ogg
402,192,67200,1,0,0:0:0:0:l_041.ogg
475,192,67200,1,0,0:0:0:0:l_038.ogg
182,192,67500,1,0,0:0:0:0:m_046.ogg
256,192,67500,1,0,0:0:0:0:m_050.ogg
329,192,67500,1,0,0:0:0:0:m_053.ogg
182,192,67800,1,0,0:0:0:0:m_046.ogg
256,192,67800,1,0,0:0:0:0:m_052.ogg
402,192,67800,1,0,0:0:0:0:m_055.ogg
182,192,68100,1,0,0:0:0:0:m_053.ogg
329,192,68100,1,0,0:0:0:0:m_050.ogg
475,192,68100,1,0,0:0:0:0:m_058.ogg
36,192,68400,1,0,0:0:0:0:l_017.ogg
109,192,68400,1,0,0:0:0:0:l_036.ogg
329,192,68400,1,0,0:0:0:0:m_048.ogg
402,192,68400,1,0,0:0:0:0:m_053.ogg
475,192,68400,1,0,0:0:0:0:m_057.ogg
182,192,68700,1,0,0:0:0:0:m_053.ogg
256,192,68700,1,0,0:0:0:0:m_045.ogg
329,192,68700,1,0,0:0:0:0:m_036.ogg
256,192,69000,1,0,0:0:0:0:m_053.ogg
329,192,69000,1,0,0:0:0:0:m_034.ogg
402,192,69000,1,0,0:0:0:0:m_048.ogg
329,192,69300,1,0,0:0:0:0:m_036.ogg
402,192,69300,1,0,0:0:0:0:m_053.ogg
475,192,69300,1,0,0:0:0:0:m_057.ogg
36,192,69600,1,0,0:0:0:0:l_022.ogg
109,192,69600,1,0,0:0:0:0:l_038.ogg
182,192,69600,1,0,0:0:0:0:l_046.ogg
256,192,69600,1,0,0:0:0:0:m_053.ogg
475,192,69600,1,0,0:0:0:0:l_041.ogg
109,192,69900,1,0,0:0:0:0:m_053.ogg
256,192,69900,1,0,0:0:0:0:m_050.ogg
329,192,69900,1,0,0:0:0:0:m_058.ogg
36,192,70200,1,0,0:0:0:0:m_050.ogg
182,192,70200,1,0,0:0:0:0:m_048.ogg
329,192,70200,1,0,0:0:0:0:m_057.ogg
182,192,70500,1,0,0:0:0:0:m_050.ogg
256,192,70500,1,0,0:0:0:0:m_058.ogg
36,192,70800,1,0,0:0:0:0:m_048.ogg
109,192,70800,1,0,0:0:0:0:m_052.ogg
329,192,70800,1,0,0:0:0:0:m_055.ogg
402,192,70800,1,0,0:0:0:0:l_024.ogg
475,192,70800,1,0,0:0:0:0:l_040.ogg
109,192,71100,1,0,0:0:0:0:m_040.ogg
256,192,71100,1,0,0:0:0:0:m_048.ogg
36,192,71400,1,0,0:0:0:0:m_055.ogg
182,192,71400,1,0,0:0:0:0:m_038.ogg
329,192,71400,1,0,0:0:0:0:m_046.ogg
109,192,71700,1,0,0:0:0:0:m_040.ogg
256,192,71700,1,0,0:0:0:0:m_052.ogg
329,192,71700,1,0,0:0:0:0:m_048.ogg
36,192,72000,1,0,0:0:0:0:l_041.ogg
109,192,72000,1,0,0:0:0:0:l_048.ogg
256,192,72000,1,0,0:0:0:0:l_045.ogg
402,192,72000,1,0,0:0:0:0:l_029.ogg
475,192,72000,1,0,0:0:0:0:m_053.ogg
36,192,72300,1,0,0:0:0:0:m_041.ogg
182,192,72300,1,0,0:0:0:0:m_057.ogg
329,192,72300,1,0,0:0:0:0:m_053.ogg
256,192,72450,1,0,0:0:0:0:m_043.ogg
402,192,72450,1,0,0:0:0:0:m_052.ogg
36,192,72600,1,0,0:0:0:0:m_045.ogg
329,192,72600,1,0,0:0:0:0:m_057.ogg
475,192,72600,1,0,0:0:0:0:m_053.ogg
36,192,72900,1,0,0:0:0:0:m_041.ogg
182,192,72900,1,0,0:0:0:0:m_057.ogg
256,192,72900,1,0,0:0:0:0:m_045.ogg
36,192,73200,1,0,0:0:0:0:l_024.ogg
109,192,73200,1,0,0:0:0:0:l_043.ogg
256,192,73200,1,0,0:0:0:0:l_052.ogg
402,192,73200,1,0,0:0:0:0:m_055.ogg
475,192,73200,1,0,0:0:0:0:m_040.ogg
109,192,73500,1,0,0:0:0:0:m_052.ogg
182,192,73500,1,0,0:0:0:0:m_055.ogg
329,192,73500,1,0,0:0:0:0:m_048.ogg
256,192,73650,1,0,0:0:0:0:m_053.ogg
402,192,73650,1,0,0:0:0:0:m_050.ogg
329,192,73800,1,0,0:0:0:0:m_052.ogg
475,192,73800,1,0,0:0:0:0:m_055.ogg
109,192,74100,1,0,0:0:0:0:m_052.ogg
182,192,74100,1,0,0:0:0:0:m_055.ogg
329,192,74100,1,0,0:0:0:0:m_048.ogg
36,192,74400,1,0,0:0:0:0:l_045.ogg
109,192,74400,1,0,0:0:0:0:l_041.ogg
256,192,74400,1,0,0:0:0:0:l_050.ogg
402,192,74400,1,0,0:0:0:0:m_053.ogg
475,192,74400,1,0,0:0:0:0:l_026.ogg
182,192,74700,1,0,0:0:0:0:m_053.ogg
329,192,74700,1,0,0:0:0:0:m_038.ogg
256,192,74850,1,0,0:0:0:0:m_040.ogg
402,192,74850,1,0,0:0:0:0:m_055.ogg
36,192,75000,1,0,0:0:0:0:m_041.ogg
329,192,75000,1,0,0:0:0:0:m_057.ogg
475,192,75000,1,0,0:0:0:0:m_053.ogg
182,192,75300,1,0,0:0:0:0:m_053.ogg
329,192,75300,1,0,0:0:0:0:m_038.ogg
36,192,75600,1,0,0:0:0:0:l_040.ogg
109,192,75600,1,0,0:0:0:0:l_045.ogg
182,192,75600,1,0,0:0:0:0:m_060.ogg
256,192,75600,1,0,0:0:0:0:l_048.ogg
475,192,75600,1,0,0:0:0:0:m_057.ogg
109,192,75900,1,0,0:0:0:0:m_048.ogg
329,192,75900,1,0,0:0:0:0:m_060.ogg
475,192,75900,1,0,0:0:0:0:m_057.ogg
256,192,76050,1,0,0:0:0:0:m_046.ogg
402,192,76050,1,0,0:0:0:0:m_055.ogg
109,192,76200,1,0,0:0:0:0:m_045.ogg
182,192,76200,1,0,0:0:0:0:m_060.ogg
329,192,76200,1,0,0:0:0:0:m_053.ogg
109,192,76500,1,0,0:0:0:0:m_043.ogg
182,192,76500,1,0,0:0:0:0:m_060.ogg
256,192,76500,1,0,0:0:0:0:m_052.ogg
36,192,76800,1,0,0:0:0:0:m_041.ogg
109,192,76800,1,0,0:0:0:0:m_062.ogg
256,192,76800,1,0,0:0:0:0:l_022.ogg
402,192,76800,1,0,0:0:0:0:l_050.ogg
475,192,76800,1,0,0:0:0:0:m_038.ogg
182,192,77100,1,0,0:0:0:0:m_062.ogg
329,192,77100,1,0,0:0:0:0:m_050.ogg
475,192,77100,1,0,0:0:0:0:m_046.ogg
109,192,77250,1,0,0:0:0:0:m_045.ogg
256,192,77250,1,0,0:0:0:0:m_048.ogg
36,192,77400,1,0,0:0:0:0:m_043.ogg
182,192,77400,1,0,0:0:0:0:m_050.ogg
402,192,77400,1,0,0:0:0:0:m_040.ogg
475,192,77400,1,0,0:0:0:0:m_062.ogg
109,192,77700,1,0,0:0:0:0:m_062.ogg
256,192,77700,1,0,0:0:0:0:m_052.ogg
475,192,77700,1,0,0:0:0:0:m_046.ogg
36,192,78000,1,0,0:0:0:0:l_045.ogg
109,192,78000,1,0,0:0:0:0:m_060.ogg
182,192,78000,1,0,0:0:0:0:m_053.ogg
402,192,78000,1,0,0:0:0:0:l_017.ogg
475,192,78000,1,0,0:0:0:0:l_048.ogg
182,192,78300,1,0,0:0:0:0:m_060.ogg
329,192,78300,1,0,0:0:0:0:m_057.ogg
402,192,78300,1,0,0:0:0:0:m_041.ogg
109,192,78450,1,0,0:0:0:0:m_043.ogg
256,192,78450,1,0,0:0:0:0:m_055.ogg
36,192,78600,1,0,0:0:0:0:m_060.ogg
182,192,78600,1,0,0:0:0:0:m_053.ogg
402,192,78600,1,0,0:0:0:0:m_045.ogg
182,192,78900,1,0,0:0:0:0:m_057.ogg
329,192,78900,1,0,0:0:0:0:m_060.ogg
402,192,78900,1,0,0:0:0:0:m_048.ogg
36,192,79200,1,0,0:0:0:0:m_062.ogg
109,192,79200,1,0,0:0:0:0:m_058.ogg
256,192,79200,1,0,0:0:0:0:l_050.ogg
402,192,79200,1,0,0:0:0:0:l_046.ogg
475,192,79200,1,0,0:0:0:0:l_022.ogg
182,192,79500,1,0,0:0:0:0:m_062.ogg
329,192,79500,1,0,0:0:0:0:m_053.ogg
475,192,79500,1,0,0:0:0:0:m_050.ogg
109,192,79650,1,0,0:0:0:0:m_048.ogg
256,192,79650,1,0,0:0:0:0:m_052.ogg
36,192,79800,1,0,0:0:0:0:m_062.ogg
182,192,79800,1,0,0:0:0:0:m_050.ogg
475,192,79800,1,0,0:0:0:0:m_046.ogg
36,192,80100,1,0,0:0:0:0:m_050.ogg
109,192,80100,1,0,0:0:0:0:m_062.ogg
475,192,80100,1,0,0:0:0:0:m_045.ogg
109,192,80400,1,0,0:0:0:0:l_040.ogg
182,192,80400,1,0,0:0:0:0:m_064.ogg
256,192,80400,1,0,0:0:0:0:l_024.ogg
402,192,80400,1,0,0:0:0:0:l_048.ogg
475,192,80400,1,0,0:0:0:0:l_043.ogg
182,192,80700,1,0,0:0:0:0:m_052.ogg
329,192,80700,1,0,0:0:0:0:m_043.ogg
402,192,80700,1,0,0:0:0:0:m_048.ogg
109,192,80850,1,0,0:0:0:0:m_046.ogg
36,192,81000,1,0,0:0:0:0:m_052.ogg
256,192,81000,1,0,0:0:0:0:m_048.ogg
402,192,81000,1,0,0:0:0:0:m_045.ogg
109,192,81300,1,0,0:0:0:0:m_052.ogg
182,192,81300,1,0,0:0:0:0:m_048.ogg
402,192,81300,1,0,0:0:0:0:m_043.ogg
36,192,81600,1,0,0:0:0:0:l_048.ogg
256,192,81600,1,0,0:0:0:0:l_041.ogg
329,192,81600,1,0,0:0:0:0:l_045.ogg
475,192,81600,1,0,0:0:0:0:l_029.ogg
256,192,82200,1,0,0:0:0:0:m_053.ogg
182,192,82500,1,0,0:0:0:0:m_060.ogg
402,192,82500,1,0,0:0:0:0:m_057.ogg
36,192,82800,1,0,0:0:0:0:l_052.ogg
109,192,82800,1,0,0:0:0:0:m_057.ogg
182,192,82800,1,0,0:0:0:0:m_060.ogg
329,192,82800,1,0,0:0:0:0:m_040.ogg
402,192,82800,1,0,0:0:0:0:m_045.ogg
256,192,83100,1,0,0:0:0:0:m_062.ogg
475,192,83100,1,0,0:0:0:0:m_058.ogg
182,192,83400,1,0,0:0:0:0:m_060.ogg
402,192,83400,1,0,0:0:0:0:m_057.ogg
109,192,83700,1,0,0:0:0:0:m_043.ogg
256,192,83700,1,0,0:0:0:0:m_055.ogg
329,192,83700,1,0,0:0:0:0:m_046.ogg
475,192,83700,1,0,0:0:0:0:m_058.ogg
36,192,84000,1,0,0:0:0:0:l_050.ogg
109,192,84000,1,0,0:0:0:0:l_026.ogg
182,192,84000,1,0,0:0:0:0:l_041.ogg
256,192,84000,1,0,0:0:0:0:m_057.ogg
402,192,84000,1,0,0:0:0:0:m_053.ogg
256,192,84900,1,0,0:0:0:0:m_057.ogg
402,192,84900,1,0,0:0:0:0:m_053.ogg
36,192,85200,1,0,0:0:0:0:l_021.ogg
109,192,85200,1,0,0:0:0:0:m_053.ogg
182,192,85200,1,0,0:0:0:0:m_041.ogg
256,192,85200,1,0,0:0:0:0:m_057.ogg
402,192,85200,1,0,0:0:0:0:m_045.ogg
329,192,85500,1,0,0:0:0:0:m_058.ogg
475,192,85500,1,0,0:0:0:0:m_055.ogg
256,192,85800,1,0,0:0:0:0:m_057.ogg
402,192,85800,1,0,0:0:0:0:m_053.ogg
109,192,86100,1,0,0:0:0:0:m_043.ogg
182,192,86100,1,0,0:0:0:0:m_040.ogg
329,192,86100,1,0,0:0:0:0:m_055.ogg
475,192,86100,1,0,0:0:0:0:m_052.ogg
36,192,86400,1,0,0:0:0:0:l_022.ogg
109,192,86400,1,0,0:0:0:0:l_050.ogg
182,192,86400,1,0,0:0:0:0:l_038.ogg
329,192,86400,1,0,0:0:0:0:m_053.ogg
402,192,86400,1,0,0:0:0:0:l_046.ogg
256,192,86700,1,0,0:0:0:0:m_051.ogg
109,192,87000,1,0,0:0:0:0:m_050.ogg
256,192,87300,1,0,0:0:0:0:m_043.ogg
329,192,87300,1,0,0:0:0:0:m_051.ogg
36,192,87600,1,0,0:0:0:0:m_048.ogg
109,192,87600,1,0,0:0:0:0:l_041.ogg
182,192,87600,1,0,0:0:0:0:l_045.ogg
402,192,87600,1,0,0:0:0:0:l_053.ogg
475,192,87600,1,0,0:0:0:0:l_017.ogg
109,192,88500,1,0,0:0:0:0:m_048.ogg
182,192,88800,1,0,0:0:0:0:m_053.ogg
256,192,88800,1,0,0:0:0:0:l_050.ogg
329,192,88800,1,0,0:0:0:0:l_022.ogg
402,192,88800,1,0,0:0:0:0:l_046.ogg
475,192,88800,1,0,0:0:0:0:l_038.ogg
109,192,89100,1,0,0:0:0:0:m_051.ogg
36,192,89400,1,0,0:0:0:0:m_050.ogg
329,192,89400,1,0,0:0:0:0:m_053.ogg
109,192,89700,1,0,0:0:0:0:m_051.ogg
36,192,90000,1,0,0:0:0:0:l_024.ogg
182,192,90000,1,0,0:0:0:0:m_048.ogg
256,192,90000,1,0,0:0:0:0:m_052.ogg
402,192,90000,1,0,0:0:0:0:l_040.ogg
475,192,90000,1,0,0:0:0:0:l_036.ogg
182,192,90900,1,0,0:0:0:0:m_043.ogg
256,192,90900,1,0,0:0:0:0:m_052.ogg
329,192,90900,1,0,0:0:0:0:m_048.ogg
36,192,91200,1,0,0:0:0:0:l_029.ogg
109,192,91200,1,0,0:0:0:0:l_060.ogg
256,192,91200,1,0,0:0:0:0:m_036.ogg
329,192,91200,1,0,0:0:0:0:m_041.ogg
402,192,91200,1,0,0:0:0:0:m_053.ogg
109,192,91800,1,0,0:0:0:0:m_053.ogg
182,192,91800,1,0,0:0:0:0:l_057.ogg
256,192,91800,1,0,0:0:0:0:m_041.ogg
402,192,91800,1,0,0:0:0:0:l_048.ogg
475,192,91800,1,0,0:0:0:0:l_045.ogg
36,192,92400,1,0,0:0:0:0:m_048.ogg
109,192,92400,1,0,0:0:0:0:m_040.ogg
256,192,92400,1,0,0:0:0:0:l_024.ogg
329,192,92400,1,0,0:0:0:0:l_052.ogg
36,192,93000,1,0,0:0:0:0:m_046.ogg
182,192,93000,1,0,0:0:0:0:m_052.ogg
402,192,93000,1,0,0:0:0:0:m_055.ogg
475,192,93000,1,0,0:0:0:0:m_043.ogg
329,192,93300,1,0,0:0:0:0:m_046.ogg
36,192,93600,1,0,0:0:0:0:l_045.ogg
109,192,93600,1,0,0:0:0:0:l_041.ogg
182,192,93600,1,0,0:0:0:0:l_026.ogg
256,192,93600,1,0,0:0:0:0:m_053.ogg
475,192,93600,1,0,0:0:0:0:l_050.ogg
329,192,94200,1,0,0:0:0:0:l_065.ogg
475,192,94200,1,0,0:0:0:0:m_038.ogg
36,192,94800,1,0,0:0:0:0:l_021.ogg
109,192,94800,1,0,0:0:0:0:l_048.ogg
182,192,94800,1,0,0:0:0:0:m_057.ogg
256,192,94800,1,0,0:0:0:0:m_036.ogg
402,192,94800,1,0,0:0:0:0:l_041.ogg
329,192,95400,1,0,0:0:0:0:m_063.ogg
475,192,95400,1,0,0:0:0:0:m_048.ogg
402,192,95700,1,0,0:0:0:0:m_055.ogg
36,192,96000,1,0,0:0:0:0:l_046.ogg
109,192,96000,1,0,0:0:0:0:l_041.ogg
182,192,96000,1,0,0:0:0:0:l_062.ogg
329,192,96000,1,0,0:0:0:0:l_050.ogg
475,192,96000,1,0,0:0:0:0:l_053.ogg
256,192,96600,1,0,0:0:0:0:m_058.ogg
36,192,97200,1,0,0:0:0:0:l_045.ogg
182,192,97200,1,0,0:0:0:0:m_065.ogg
329,192,97200,1,0,0:0:0:0:m_057.ogg
402,192,97200,1,0,0:0:0:0:l_017.ogg
475,192,97200,1,0,0:0:0:0:l_041.ogg
109,192,97800,1,0,0:0:0:0:m_060.ogg
256,192,97800,1,0,0:0:0:0:m_045.ogg
329,192,97800,1,0,0:0:0:0:m_053.ogg
109,192,98400,1,0,0:0:0:0:l_062.ogg
182,192,98400,1,0,0:0:0:0:l_053.ogg
329,192,98400,1,0,0:0:0:0:l_050.ogg
402,192,98400,1,0,0:0:0:0:l_022.ogg
475,192,98400,1,0,0:0:0:0:l_041.ogg
36,192,99000,1,0,0:0:0:0:m_050.ogg
109,192,99600,1,0,0:0:0:0:l_060.ogg
256,192,99600,1,0,0:0:0:0:l_040.ogg
329,192,99600,1,0,0:0:0:0:l_052.ogg
402,192,99600,1,0,0:0:0:0:l_024.ogg
475,192,99600,1,0,0:0:0:0:l_043.ogg
182,192,100200,1,0,0:0:0:0:m_055.ogg
36,192,100800,128,0,105600:0:0:0:0:l_057.ogg
109,192,100825,128,0,105600:0:0:0:0:l_024.ogg
182,192,100850,128,0,105600:0:0:0:0:l_033.ogg
256,192,100875,128,0,105600:0:0:0:0:l_036.ogg
329,192,100900,128,0,105600:0:0:0:0:l_041.ogg
402,192,100925,128,0,105600:0:0:0:0:l_045.ogg
475,192,100950,128,0,105600:0:0:0:0:l_048.ogg
