osu file format v14

[General]
AudioFilename: virtual
AudioLeadIn: 0
PreviewTime: 0
Countdown: 0
SampleSet: None
StackLeniency: 0.7
Mode: 3
LetterboxInBreaks: 0
SpecialStyle: 0
WidescreenStoryboard: 1

[Editor]
DistanceSpacing: 0.8
BeatDivisor: 12
GridSize: 32
TimelineZoom: 2.500006

[Metadata]
Title:Piano Beatmap Set
TitleUnicode:Piano Beatmap Set
Artist:Collection
ArtistUnicode:Collection
Creator:CircusGalop
Version:Canon - 5K EX
Source:BMS
Tags:
BeatmapID:1331192
BeatmapSetID:332673

[Difficulty]
HPDrainRate:9
CircleSize:5
OverallDifficulty:5
ApproachRate:5
SliderMultiplier:1.4
SliderTickRate:1

[Events]
//Background and Video events
0,0,"CircusGalop.jpg",0,0
//Break Periods
//Storyboard Layer 0 (Background)
//Storyboard Layer 1 (Fail)
//Storyboard Layer 2 (Pass)
//Storyboard Layer 3 (Foreground)
//Storyboard Sound Samples
Sample,4800,0,"l_053.ogg",100
Sample,4800,0,"l_057.ogg",100
Sample,4800,0,"l_029.ogg",100
Sample,6000,0,"l_052.ogg",100
Sample,6000,0,"l_055.ogg",100
Sample,6000,0,"l_024.ogg",100
Sample,7200,0,"l_053.ogg",100
Sample,7200,0,"l_050.ogg",100
Sample,8400,0,"l_021.ogg",100
Sample,8400,0,"l_052.ogg",100
Sample,8400,0,"l_048.ogg",100
Sample,9600,0,"l_050.ogg",100
Sample,9600,0,"l_046.ogg",100
Sample,10800,0,"l_045.ogg",100
Sample,10800,0,"l_048.ogg",100
Sample,12000,0,"l_046.ogg",100
Sample,12000,0,"l_050.ogg",100
Sample,13200,0,"l_043.ogg",100
Sample,13200,0,"l_052.ogg",100
Sample,14400,0,"l_036.ogg",100
Sample,14400,0,"l_029.ogg",100
Sample,14400,0,"l_045.ogg",100
Sample,15600,0,"l_040.ogg",100
Sample,15600,0,"l_024.ogg",100
Sample,15600,0,"l_048.ogg",100
Sample,16800,0,"l_041.ogg",100
Sample,16800,0,"l_026.ogg",100
Sample,18000,0,"l_021.ogg",100
Sample,18000,0,"l_040.ogg",100
Sample,18000,0,"l_045.ogg",100
Sample,19200,0,"l_022.ogg",100
Sample,19200,0,"l_038.ogg",100
Sample,20400,0,"l_017.ogg",100
Sample,20400,0,"l_036.ogg",100
Sample,21600,0,"l_022.ogg",100
Sample,21600,0,"l_046.ogg",100
Sample,22800,0,"l_024.ogg",100
Sample,22800,0,"l_052.ogg",100
Sample,22800,0,"l_043.ogg",100
Sample,24000,0,"l_045.ogg",100
Sample,24000,0,"l_041.ogg",100
Sample,24600,0,"m_053.ogg",100
Sample,25200,0,"l_048.ogg",100
Sample,25800,0,"m_043.ogg",100
Sample,26400,0,"l_026.ogg",100
Sample,27000,0,"m_052.ogg",100
Sample,27600,0,"l_040.ogg",100
Sample,27600,0,"l_021.ogg",100
Sample,27600,0,"m_052.ogg",100
Sample,28200,0,"m_060.ogg",100
Sample,28800,0,"l_038.ogg",100
Sample,28800,0,"l_022.ogg",100
Sample,29400,0,"m_055.ogg",100
Sample,30000,0,"l_017.ogg",100
Sample,30000,0,"l_036.ogg",100
Sample,30000,0,"l_045.ogg",100
Sample,30600,0,"m_053.ogg",100
Sample,31200,0,"l_022.ogg",100
Sample,31200,0,"l_050.ogg",100
Sample,31800,0,"m_053.ogg",100
Sample,32400,0,"l_024.ogg",100
Sample,32400,0,"l_048.ogg",100
Sample,33600,0,"l_045.ogg",100
Sample,33600,0,"l_036.ogg",100
Sample,34800,0,"l_043.ogg",100
Sample,34800,0,"l_024.ogg",100
Sample,34800,0,"l_040.ogg",100
Sample,37200,0,"l_021.ogg",100
Sample,37200,0,"l_041.ogg",100
Sample,38400,0,"l_022.ogg",100
Sample,38400,0,"l_041.ogg",100
Sample,38400,0,"l_062.ogg",100
Sample,39600,0,"l_060.ogg",100
Sample,39600,0,"l_045.ogg",100
Sample,39600,0,"l_017.ogg",100
Sample,40800,0,"l_041.ogg",100
Sample,40800,0,"l_062.ogg",100
Sample,40800,0,"l_022.ogg",100
Sample,40800,0,"m_053.ogg",100
Sample,42000,0,"l_024.ogg",100
Sample,42000,0,"l_043.ogg",100
Sample,42000,0,"l_064.ogg",100
Sample,43200,0,"l_048.ogg",100
Sample,43200,0,"l_041.ogg",100
Sample,43200,0,"l_045.ogg",100
Sample,44400,0,"l_052.ogg",100
Sample,44400,0,"l_055.ogg",100
Sample,44400,0,"l_043.ogg",100
Sample,45600,0,"l_026.ogg",100
Sample,45600,0,"l_045.ogg",100
Sample,46800,0,"l_048.ogg",100
Sample,46800,0,"l_053.ogg",100
Sample,48000,0,"l_041.ogg",100
Sample,48000,0,"l_062.ogg",100
Sample,48000,0,"l_050.ogg",100
Sample,49200,0,"l_048.ogg",100
Sample,49200,0,"l_045.ogg",100
Sample,50400,0,"l_062.ogg",100
Sample,50400,0,"l_022.ogg",100
Sample,50400,0,"l_046.ogg",100
Sample,51600,0,"l_024.ogg",100
Sample,51600,0,"l_043.ogg",100
Sample,51600,0,"l_064.ogg",100
Sample,52800,0,"l_029.ogg",100
Sample,52800,0,"l_041.ogg",100
Sample,52800,0,"l_036.ogg",100
Sample,52800,0,"l_045.ogg",100
Sample,54000,0,"l_040.ogg",100
Sample,54000,0,"l_048.ogg",100
Sample,54000,0,"s_060.ogg",100
Sample,54000,0,"l_024.ogg",100
Sample,55200,0,"m_053.ogg",100
Sample,55200,0,"m_057.ogg",100
Sample,55200,0,"m_050.ogg",100
Sample,56400,0,"l_036.ogg",100
Sample,56400,0,"l_041.ogg",100
Sample,56400,0,"l_048.ogg",100
Sample,57600,0,"l_038.ogg",100
Sample,57600,0,"l_046.ogg",100
Sample,58800,0,"l_045.ogg",100
Sample,58800,0,"l_036.ogg",100
Sample,60000,0,"m_046.ogg",100
Sample,60000,0,"m_050.ogg",100
Sample,60000,0,"l_038.ogg",100
Sample,61200,0,"l_043.ogg",100
Sample,61200,0,"l_040.ogg",100
Sample,61200,0,"l_036.ogg",100
Sample,62400,0,"l_036.ogg",100
Sample,62400,0,"l_045.ogg",100
Sample,63600,0,"l_048.ogg",100
Sample,63600,0,"l_043.ogg",100
Sample,64800,0,"l_026.ogg",100
Sample,64800,0,"m_053.ogg",100
Sample,66000,0,"l_036.ogg",100
Sample,66000,0,"l_045.ogg",100
Sample,66000,0,"l_040.ogg",100
Sample,67200,0,"l_022.ogg",100
Sample,68400,0,"l_036.ogg",100
Sample,68400,0,"l_041.ogg",100
Sample,68400,0,"l_045.ogg",100
Sample,68400,0,"l_017.ogg",100
Sample,69600,0,"l_041.ogg",100
Sample,69600,0,"l_046.ogg",100
Sample,70800,0,"l_040.ogg",100
Sample,70800,0,"l_043.ogg",100
Sample,70800,0,"l_036.ogg",100
Sample,70800,0,"l_024.ogg",100
Sample,72000,0,"l_048.ogg",100
Sample,72000,0,"l_041.ogg",100
Sample,73200,0,"l_024.ogg",100
Sample,73200,0,"l_043.ogg",100
Sample,73200,0,"l_048.ogg",100
Sample,74400,0,"l_041.ogg",100
Sample,74400,0,"l_045.ogg",100
Sample,75600,0,"l_048.ogg",100
Sample,75600,0,"l_021.ogg",100
Sample,75600,0,"l_040.ogg",100
Sample,76800,0,"l_022.ogg",100
Sample,76800,0,"l_050.ogg",100
Sample,77400,0,"m_040.ogg",100
Sample,78000,0,"l_045.ogg",100
Sample,78000,0,"l_017.ogg",100
Sample,78000,0,"l_048.ogg",100
Sample,79200,0,"l_041.ogg",100
Sample,79200,0,"l_046.ogg",100
Sample,79200,0,"l_022.ogg",100
Sample,80400,0,"l_043.ogg",100
Sample,80400,0,"l_040.ogg",100
Sample,81600,0,"l_048.ogg",100
Sample,82800,0,"l_052.ogg",100
Sample,82800,0,"m_057.ogg",100
Sample,82800,0,"m_040.ogg",100
Sample,83700,0,"m_043.ogg",100
Sample,84000,0,"l_026.ogg",100
Sample,84000,0,"l_045.ogg",100
Sample,84000,0,"l_050.ogg",100
Sample,85200,0,"l_021.ogg",100
Sample,85200,0,"m_053.ogg",100
Sample,85200,0,"m_041.ogg",100
Sample,86100,0,"m_043.ogg",100
Sample,86400,0,"m_053.ogg",100
Sample,86400,0,"l_022.ogg",100
Sample,86400,0,"l_038.ogg",100
Sample,87600,0,"l_017.ogg",100
Sample,87600,0,"l_041.ogg",100
Sample,87600,0,"l_036.ogg",100
Sample,88800,0,"l_038.ogg",100
Sample,88800,0,"l_046.ogg",100
Sample,88800,0,"l_041.ogg",100
Sample,90000,0,"l_040.ogg",100
Sample,90000,0,"l_036.ogg",100
Sample,90000,0,"l_043.ogg",100
Sample,91200,0,"m_045.ogg",100
Sample,91200,0,"l_060.ogg",100
Sample,91800,0,"m_053.ogg",100
Sample,93600,0,"l_050.ogg",100
Sample,94800,0,"l_048.ogg",100
Sample,96000,0,"l_053.ogg",100
Sample,96000,0,"l_022.ogg",100
Sample,97200,0,"l_045.ogg",100
Sample,97200,0,"l_048.ogg",100
Sample,98400,0,"l_041.ogg",100
Sample,98400,0,"l_043.ogg",100
Sample,99600,0,"l_043.ogg",100
Sample,99600,0,"l_048.ogg",100
Sample,100800,0,"l_029.ogg",100
Sample,100800,0,"l_017.ogg",100
Sample,100800,0,"l_057.ogg",100
Sample,100800,0,"l_048.ogg",100
Sample,100925,0,"l_045.ogg",100
Sample,100950,0,"l_048.ogg",100

[TimingPoints]
0,600.000000000006,4,2,0,100,1,0

[HitObjects]
256,192,4800,5,0,0:0:0:0:l_045.ogg
358,192,4800,1,0,0:0:0:0:l_041.ogg
460,192,4800,1,0,0:0:0:0:l_036.ogg
153,192,6000,1,0,0:0:0:0:l_040.ogg
358,192,6000,1,0,0:0:0:0:l_043.ogg
460,192,6000,1,0,0:0:0:0:l_048.ogg
153,192,7200,1,0,0:0:0:0:l_026.ogg
256,192,7200,1,0,0:0:0:0:l_045.ogg
460,192,7200,1,0,0:0:0:0:l_041.ogg
153,192,8400,1,0,0:0:0:0:l_045.ogg
256,192,8400,1,0,0:0:0:0:l_036.ogg
358,192,8400,1,0,0:0:0:0:l_040.ogg
51,192,9600,1,0,0:0:0:0:l_038.ogg
256,192,9600,1,0,0:0:0:0:l_022.ogg
358,192,9600,1,0,0:0:0:0:l_041.ogg
51,192,10800,1,0,0:0:0:0:l_036.ogg
153,192,10800,1,0,0:0:0:0:l_041.ogg
358,192,10800,1,0,0:0:0:0:l_017.ogg
51,192,12000,1,0,0:0:0:0:l_022.ogg
256,192,12000,1,0,0:0:0:0:l_041.ogg
358,192,12000,1,0,0:0:0:0:l_038.ogg
153,192,13200,1,0,0:0:0:0:l_024.ogg
256,192,13200,1,0,0:0:0:0:l_036.ogg
358,192,13200,1,0,0:0:0:0:l_040.ogg
51,192,14400,1,0,0:0:0:0:l_053.ogg
153,192,14400,1,0,0:0:0:0:l_057.ogg
358,192,14400,1,0,0:0:0:0:l_041.ogg
256,192,15000,1,0,0:0:0:0:m_045.ogg
51,192,15600,1,0,0:0:0:0:l_043.ogg
153,192,15600,1,0,0:0:0:0:l_052.ogg
460,192,15600,1,0,0:0:0:0:l_055.ogg
358,192,16200,1,0,0:0:0:0:m_046.ogg
51,192,16800,1,0,0:0:0:0:l_045.ogg
256,192,16800,1,0,0:0:0:0:l_053.ogg
358,192,16800,1,0,0:0:0:0:l_050.ogg
153,192,17400,1,0,0:0:0:0:m_041.ogg
51,192,18000,1,0,0:0:0:0:l_036.ogg
358,192,18000,1,0,0:0:0:0:l_052.ogg
460,192,18000,1,0,0:0:0:0:l_048.ogg
256,192,18600,1,0,0:0:0:0:m_043.ogg
51,192,19200,1,0,0:0:0:0:l_046.ogg
153,192,19200,1,0,0:0:0:0:l_050.ogg
460,192,19200,1,0,0:0:0:0:l_041.ogg
51,192,19800,1,0,0:0:0:0:m_038.ogg
153,192,20400,1,0,0:0:0:0:l_048.ogg
256,192,20400,1,0,0:0:0:0:l_041.ogg
460,192,20400,1,0,0:0:0:0:l_045.ogg
358,192,21000,1,0,0:0:0:0:m_048.ogg
51,192,21600,1,0,0:0:0:0:l_041.ogg
153,192,21600,1,0,0:0:0:0:l_038.ogg
256,192,21600,1,0,0:0:0:0:l_050.ogg
460,192,22200,1,0,0:0:0:0:m_050.ogg
51,192,22800,1,0,0:0:0:0:l_036.ogg
153,192,22800,1,0,0:0:0:0:l_040.ogg
358,192,22800,1,0,0:0:0:0:m_048.ogg
256,192,23400,1,0,0:0:0:0:m_046.ogg
51,192,24000,1,0,0:0:0:0:l_029.ogg
153,192,24000,1,0,0:0:0:0:l_036.ogg
460,192,24000,1,0,0:0:0:0:m_053.ogg
358,192,24300,1,0,0:0:0:0:m_052.ogg
153,192,24600,1,0,0:0:0:0:m_041.ogg
460,192,24600,1,0,0:0:0:0:m_045.ogg
51,192,24900,1,0,0:0:0:0:m_041.ogg
153,192,25200,1,0,0:0:0:0:l_043.ogg
256,192,25200,1,0,0:0:0:0:l_040.ogg
358,192,25200,1,0,0:0:0:0:l_024.ogg
358,192,25500,1,0,0:0:0:0:m_048.ogg
51,192,25800,1,0,0:0:0:0:m_052.ogg
256,192,25800,1,0,0:0:0:0:m_046.ogg
153,192,26100,1,0,0:0:0:0:m_045.ogg
51,192,26400,1,0,0:0:0:0:m_053.ogg
358,192,26400,1,0,0:0:0:0:l_041.ogg
460,192,26400,1,0,0:0:0:0:l_045.ogg
256,192,26700,1,0,0:0:0:0:m_053.ogg
153,192,27000,1,0,0:0:0:0:m_041.ogg
460,192,27000,1,0,0:0:0:0:m_057.ogg
51,192,27300,1,0,0:0:0:0:m_050.ogg
153,192,27600,1,0,0:0:0:0:m_060.ogg
358,192,27600,1,0,0:0:0:0:l_045.ogg
460,192,27600,1,0,0:0:0:0:l_036.ogg
256,192,27900,1,0,0:0:0:0:m_057.ogg
51,192,28200,1,0,0:0:0:0:m_048.ogg
358,192,28200,1,0,0:0:0:0:m_043.ogg
460,192,28500,1,0,0:0:0:0:m_062.ogg
51,192,28800,1,0,0:0:0:0:l_041.ogg
153,192,28800,1,0,0:0:0:0:l_050.ogg
460,192,28800,1,0,0:0:0:0:m_058.ogg
358,192,29100,1,0,0:0:0:0:m_057.ogg
153,192,29400,1,0,0:0:0:0:m_046.ogg
256,192,29400,1,0,0:0:0:0:m_038.ogg
460,192,29700,1,0,0:0:0:0:m_058.ogg
51,192,30000,1,0,0:0:0:0:l_041.ogg
153,192,30000,1,0,0:0:0:0:m_057.ogg
358,192,30000,1,0,0:0:0:0:m_048.ogg
256,192,30300,1,0,0:0:0:0:m_055.ogg
153,192,30600,1,0,0:0:0:0:m_048.ogg
460,192,30600,1,0,0:0:0:0:m_045.ogg
51,192,30900,1,0,0:0:0:0:m_052.ogg
153,192,31200,1,0,0:0:0:0:l_041.ogg
256,192,31200,1,0,0:0:0:0:l_043.ogg
460,192,31200,1,0,0:0:0:0:m_046.ogg
358,192,31500,1,0,0:0:0:0:m_048.ogg
51,192,31800,1,0,0:0:0:0:m_046.ogg
256,192,31800,1,0,0:0:0:0:m_050.ogg
153,192,32100,1,0,0:0:0:0:m_045.ogg
51,192,32400,1,0,0:0:0:0:l_040.ogg
256,192,32400,1,0,0:0:0:0:s_053.ogg
358,192,32400,1,0,0:0:0:0:l_043.ogg
460,192,32475,1,0,0:0:0:0:s_055.ogg
256,192,32550,1,0,0:0:0:0:s_053.ogg
460,192,32625,1,0,0:0:0:0:s_055.ogg
153,192,32700,1,0,0:0:0:0:m_046.ogg
256,192,32700,1,0,0:0:0:0:s_053.ogg
460,192,32775,1,0,0:0:0:0:s_055.ogg
256,192,32850,1,0,0:0:0:0:s_053.ogg
460,192,32925,1,0,0:0:0:0:s_055.ogg
51,192,33000,1,0,0:0:0:0:m_045.ogg
153,192,33000,1,0,0:0:0:0:m_046.ogg
256,192,33000,1,0,0:0:0:0:s_053.ogg
460,192,33075,1,0,0:0:0:0:s_055.ogg
256,192,33150,1,0,0:0:0:0:s_053.ogg
460,192,33200,1,0,0:0:0:0:s_055.ogg
51,192,33300,1,0,0:0:0:0:m_052.ogg
358,192,33300,1,0,0:0:0:0:m_043.ogg
153,192,33600,1,0,0:0:0:0:m_065.ogg
358,192,33600,1,0,0:0:0:0:l_041.ogg
460,192,33600,1,0,0:0:0:0:l_029.ogg
256,192,33900,1,0,0:0:0:0:m_043.ogg
51,192,34200,1,0,0:0:0:0:m_057.ogg
153,192,34200,1,0,0:0:0:0:m_053.ogg
358,192,34200,1,0,0:0:0:0:m_045.ogg
460,192,34500,1,0,0:0:0:0:m_046.ogg
153,192,34800,1,0,0:0:0:0:l_048.ogg
256,192,34800,1,0,0:0:0:0:l_052.ogg
358,192,34800,1,0,0:0:0:0:l_055.ogg
51,192,35100,1,0,0:0:0:0:m_043.ogg
256,192,35400,1,0,0:0:0:0:m_048.ogg
153,192,35700,1,0,0:0:0:0:m_046.ogg
51,192,36000,1,0,0:0:0:0:l_026.ogg
256,192,36000,1,0,0:0:0:0:l_045.ogg
358,192,36000,1,0,0:0:0:0:l_041.ogg
460,192,36300,1,0,0:0:0:0:m_050.ogg
51,192,36600,1,0,0:0:0:0:m_050.ogg
153,192,36600,1,0,0:0:0:0:m_053.ogg
358,192,36600,1,0,0:0:0:0:m_048.ogg
256,192,36900,1,0,0:0:0:0:m_046.ogg
51,192,37200,1,0,0:0:0:0:l_048.ogg
358,192,37200,1,0,0:0:0:0:l_053.ogg
460,192,37200,1,0,0:0:0:0:l_057.ogg
256,192,37500,1,0,0:0:0:0:m_046.ogg
153,192,37800,1,0,0:0:0:0:m_045.ogg
51,192,38100,1,0,0:0:0:0:m_043.ogg
256,192,38400,1,0,0:0:0:0:l_053.ogg
358,192,38400,1,0,0:0:0:0:l_046.ogg
460,192,38400,1,0,0:0:0:0:l_050.ogg
153,192,38700,1,0,0:0:0:0:m_038.ogg
256,192,39000,1,0,0:0:0:0:m_050.ogg
358,192,39300,1,0,0:0:0:0:m_052.ogg
51,192,39600,1,0,0:0:0:0:l_041.ogg
153,192,39600,1,0,0:0:0:0:l_048.ogg
460,192,39600,1,0,0:0:0:0:m_053.ogg
358,192,39900,1,0,0:0:0:0:m_052.ogg
51,192,40200,1,0,0:0:0:0:m_053.ogg
256,192,40200,1,0,0:0:0:0:m_050.ogg
153,192,40500,1,0,0:0:0:0:m_048.ogg
256,192,40800,1,0,0:0:0:0:m_046.ogg
358,192,40800,1,0,0:0:0:0:l_050.ogg
460,192,40800,1,0,0:0:0:0:l_043.ogg
153,192,41100,1,0,0:0:0:0:m_045.ogg
51,192,41400,1,0,0:0:0:0:m_043.ogg
256,192,41400,1,0,0:0:0:0:m_058.ogg
460,192,41700,1,0,0:0:0:0:m_050.ogg
153,192,42000,1,0,0:0:0:0:l_040.ogg
256,192,42000,1,0,0:0:0:0:l_048.ogg
358,192,42000,1,0,0:0:0:0:m_055.ogg
460,192,42300,1,0,0:0:0:0:m_050.ogg
51,192,42600,1,0,0:0:0:0:m_060.ogg
358,192,42600,1,0,0:0:0:0:m_048.ogg
256,192,42900,1,0,0:0:0:0:m_046.ogg
51,192,43200,1,0,0:0:0:0:m_060.ogg
358,192,43200,1,0,0:0:0:0:l_029.ogg
460,192,43200,1,0,0:0:0:0:m_065.ogg
153,192,43500,1,0,0:0:0:0:m_057.ogg
256,192,43650,1,0,0:0:0:0:m_058.ogg
51,192,43800,1,0,0:0:0:0:m_060.ogg
358,192,43800,1,0,0:0:0:0:m_057.ogg
460,192,43800,1,0,0:0:0:0:m_053.ogg
153,192,44100,1,0,0:0:0:0:m_057.ogg
256,192,44250,1,0,0:0:0:0:m_058.ogg
51,192,44400,1,0,0:0:0:0:l_024.ogg
358,192,44400,1,0,0:0:0:0:s_060.ogg
460,192,44400,1,0,0:0:0:0:l_048.ogg
153,192,44550,1,0,0:0:0:0:m_048.ogg
256,192,44700,1,0,0:0:0:0:m_050.ogg
358,192,44850,1,0,0:0:0:0:m_052.ogg
460,192,45000,1,0,0:0:0:0:m_053.ogg
51,192,45150,1,0,0:0:0:0:m_055.ogg
153,192,45300,1,0,0:0:0:0:m_057.ogg
256,192,45450,1,0,0:0:0:0:m_058.ogg
153,192,45600,1,0,0:0:0:0:m_057.ogg
358,192,45600,1,0,0:0:0:0:l_041.ogg
460,192,45600,1,0,0:0:0:0:l_050.ogg
51,192,45900,1,0,0:0:0:0:m_053.ogg
153,192,46050,1,0,0:0:0:0:m_055.ogg
51,192,46200,1,0,0:0:0:0:m_057.ogg
256,192,46200,1,0,0:0:0:0:m_053.ogg
358,192,46200,1,0,0:0:0:0:m_050.ogg
153,192,46500,1,0,0:0:0:0:m_045.ogg
256,192,46650,1,0,0:0:0:0:m_046.ogg
51,192,46800,1,0,0:0:0:0:l_021.ogg
153,192,46800,1,0,0:0:0:0:l_041.ogg
358,192,46800,1,0,0:0:0:0:l_057.ogg
460,192,46950,1,0,0:0:0:0:m_050.ogg
358,192,47100,1,0,0:0:0:0:m_048.ogg
256,192,47250,1,0,0:0:0:0:m_046.ogg
358,192,47400,1,0,0:0:0:0:m_048.ogg
51,192,47550,1,0,0:0:0:0:m_045.ogg
153,192,47700,1,0,0:0:0:0:m_046.ogg
256,192,47850,1,0,0:0:0:0:m_048.ogg
51,192,48000,1,0,0:0:0:0:l_053.ogg
358,192,48000,1,0,0:0:0:0:l_022.ogg
460,192,48000,1,0,0:0:0:0:l_046.ogg
460,192,48300,1,0,0:0:0:0:m_050.ogg
358,192,48450,1,0,0:0:0:0:m_048.ogg
256,192,48600,1,0,0:0:0:0:m_046.ogg
153,192,48900,1,0,0:0:0:0:m_045.ogg
51,192,49050,1,0,0:0:0:0:m_043.ogg
153,192,49200,1,0,0:0:0:0:l_060.ogg
358,192,49200,1,0,0:0:0:0:l_017.ogg
460,192,49200,1,0,0:0:0:0:l_041.ogg
256,192,49350,1,0,0:0:0:0:m_043.ogg
153,192,49500,1,0,0:0:0:0:m_041.ogg
51,192,49650,1,0,0:0:0:0:m_043.ogg
153,192,49800,1,0,0:0:0:0:m_053.ogg
460,192,49800,1,0,0:0:0:0:m_045.ogg
256,192,49950,1,0,0:0:0:0:m_046.ogg
358,192,50100,1,0,0:0:0:0:m_048.ogg
460,192,50250,1,0,0:0:0:0:m_050.ogg
51,192,50400,1,0,0:0:0:0:m_053.ogg
153,192,50400,1,0,0:0:0:0:l_050.ogg
358,192,50400,1,0,0:0:0:0:l_041.ogg
256,192,50700,1,0,0:0:0:0:m_050.ogg
153,192,50850,1,0,0:0:0:0:m_048.ogg
256,192,51000,1,0,0:0:0:0:m_058.ogg
460,192,51000,1,0,0:0:0:0:m_050.ogg
358,192,51300,1,0,0:0:0:0:m_052.ogg
460,192,51450,1,0,0:0:0:0:m_053.ogg
51,192,51600,1,0,0:0:0:0:m_055.ogg
153,192,51600,1,0,0:0:0:0:l_040.ogg
358,192,51600,1,0,0:0:0:0:l_048.ogg
256,192,51750,1,0,0:0:0:0:m_050.ogg
358,192,51900,1,0,0:0:0:0:m_052.ogg
460,192,52050,1,0,0:0:0:0:m_053.ogg
51,192,52200,1,0,0:0:0:0:m_060.ogg
256,192,52200,1,0,0:0:0:0:m_055.ogg
153,192,52350,1,0,0:0:0:0:m_057.ogg
256,192,52500,1,0,0:0:0:0:m_058.ogg
358,192,52650,1,0,0:0:0:0:m_060.ogg
51,192,52800,1,0,0:0:0:0:m_060.ogg
153,192,52800,1,0,0:0:0:0:m_057.ogg
460,192,52800,1,0,0:0:0:0:m_053.ogg
51,192,53100,1,0,0:0:0:0:m_057.ogg
256,192,53100,1,0,0:0:0:0:m_053.ogg
153,192,53250,1,0,0:0:0:0:m_058.ogg
358,192,53250,1,0,0:0:0:0:m_055.ogg
256,192,53400,1,0,0:0:0:0:m_057.ogg
460,192,53400,1,0,0:0:0:0:m_060.ogg
153,192,53700,1,0,0:0:0:0:m_057.ogg
256,192,53700,1,0,0:0:0:0:m_055.ogg
51,192,53850,1,0,0:0:0:0:m_058.ogg
358,192,53850,1,0,0:0:0:0:m_053.ogg
153,192,54000,1,0,0:0:0:0:m_052.ogg
256,192,54000,1,0,0:0:0:0:l_043.ogg
460,192,54000,1,0,0:0:0:0:m_055.ogg
51,192,54150,1,0,0:0:0:0:m_052.ogg
358,192,54150,1,0,0:0:0:0:m_048.ogg
153,192,54300,1,0,0:0:0:0:m_050.ogg
460,192,54300,1,0,0:0:0:0:m_053.ogg
51,192,54450,1,0,0:0:0:0:m_052.ogg
256,192,54450,1,0,0:0:0:0:m_055.ogg
153,192,54600,1,0,0:0:0:0:m_053.ogg
358,192,54600,1,0,0:0:0:0:m_057.ogg
256,192,54750,1,0,0:0:0:0:m_055.ogg
153,192,54900,1,0,0:0:0:0:m_057.ogg
358,192,54900,1,0,0:0:0:0:m_053.ogg
51,192,55050,1,0,0:0:0:0:m_058.ogg
460,192,55050,1,0,0:0:0:0:m_052.ogg
153,192,55200,1,0,0:0:0:0:l_026.ogg
256,192,55200,1,0,0:0:0:0:l_041.ogg
358,192,55200,1,0,0:0:0:0:l_045.ogg
51,192,55500,1,0,0:0:0:0:m_053.ogg
256,192,55500,1,0,0:0:0:0:m_050.ogg
153,192,55650,1,0,0:0:0:0:m_055.ogg
358,192,55650,1,0,0:0:0:0:m_052.ogg
256,192,55800,1,0,0:0:0:0:m_057.ogg
460,192,55800,1,0,0:0:0:0:m_053.ogg
51,192,56100,1,0,0:0:0:0:m_045.ogg
256,192,56100,1,0,0:0:0:0:m_041.ogg
153,192,56250,1,0,0:0:0:0:m_046.ogg
358,192,56250,1,0,0:0:0:0:m_043.ogg
51,192,56400,1,0,0:0:0:0:l_021.ogg
256,192,56400,1,0,0:0:0:0:m_045.ogg
460,192,56400,1,0,0:0:0:0:m_053.ogg
153,192,56550,1,0,0:0:0:0:m_050.ogg
358,192,56550,1,0,0:0:0:0:m_046.ogg
256,192,56700,1,0,0:0:0:0:m_045.ogg
460,192,56700,1,0,0:0:0:0:m_048.ogg
153,192,56850,1,0,0:0:0:0:m_046.ogg
358,192,56850,1,0,0:0:0:0:m_043.ogg
256,192,57000,1,0,0:0:0:0:m_048.ogg
460,192,57000,1,0,0:0:0:0:m_045.ogg
51,192,57150,1,0,0:0:0:0:m_045.ogg
153,192,57150,1,0,0:0:0:0:m_053.ogg
358,192,57300,1,0,0:0:0:0:m_052.ogg
460,192,57300,1,0,0:0:0:0:m_046.ogg
51,192,57450,1,0,0:0:0:0:m_048.ogg
153,192,57450,1,0,0:0:0:0:m_053.ogg
256,192,57600,1,0,0:0:0:0:m_050.ogg
358,192,57600,1,0,0:0:0:0:l_022.ogg
460,192,57600,1,0,0:0:0:0:l_041.ogg
256,192,57900,1,0,0:0:0:0:m_050.ogg
460,192,57900,1,0,0:0:0:0:m_053.ogg
153,192,58050,1,0,0:0:0:0:m_048.ogg
358,192,58050,1,0,0:0:0:0:m_052.ogg
51,192,58200,1,0,0:0:0:0:m_046.ogg
256,192,58200,1,0,0:0:0:0:m_050.ogg
153,192,58500,1,0,0:0:0:0:m_048.ogg
460,192,58500,1,0,0:0:0:0:m_045.ogg
51,192,58650,1,0,0:0:0:0:m_043.ogg
358,192,58650,1,0,0:0:0:0:m_046.ogg
153,192,58800,1,0,0:0:0:0:l_041.ogg
256,192,58800,1,0,0:0:0:0:m_048.ogg
460,192,58800,1,0,0:0:0:0:l_017.ogg
51,192,58950,1,0,0:0:0:0:m_043.ogg
358,192,58950,1,0,0:0:0:0:m_046.ogg
153,192,59100,1,0,0:0:0:0:m_041.ogg
256,192,59100,1,0,0:0:0:0:m_045.ogg
51,192,59250,1,0,0:0:0:0:m_043.ogg
358,192,59250,1,0,0:0:0:0:m_046.ogg
153,192,59400,1,0,0:0:0:0:m_045.ogg
460,192,59400,1,0,0:0:0:0:m_048.ogg
51,192,59550,1,0,0:0:0:0:m_046.ogg
256,192,59550,1,0,0:0:0:0:m_050.ogg
153,192,59700,1,0,0:0:0:0:m_048.ogg
358,192,59700,1,0,0:0:0:0:m_052.ogg
256,192,59850,1,0,0:0:0:0:m_050.ogg
460,192,59850,1,0,0:0:0:0:m_053.ogg
51,192,60000,1,0,0:0:0:0:l_043.ogg
153,192,60000,1,0,0:0:0:0:l_022.ogg
358,192,60000,1,0,0:0:0:0:l_041.ogg
256,192,60300,1,0,0:0:0:0:m_050.ogg
460,192,60300,1,0,0:0:0:0:m_053.ogg
153,192,60450,1,0,0:0:0:0:m_048.ogg
358,192,60450,1,0,0:0:0:0:m_052.ogg
256,192,60600,1,0,0:0:0:0:m_050.ogg
460,192,60600,1,0,0:0:0:0:m_053.ogg
51,192,60900,1,0,0:0:0:0:m_052.ogg
153,192,61050,1,0,0:0:0:0:m_053.ogg
358,192,61050,1,0,0:0:0:0:m_050.ogg
51,192,61200,1,0,0:0:0:0:m_052.ogg
256,192,61200,1,0,0:0:0:0:m_048.ogg
460,192,61200,1,0,0:0:0:0:l_024.ogg
153,192,61350,1,0,0:0:0:0:m_050.ogg
358,192,61350,1,0,0:0:0:0:m_053.ogg
256,192,61500,1,0,0:0:0:0:m_052.ogg
460,192,61500,1,0,0:0:0:0:m_055.ogg
358,192,61650,1,0,0:0:0:0:m_053.ogg
51,192,61800,1,0,0:0:0:0:m_055.ogg
256,192,61800,1,0,0:0:0:0:m_052.ogg
153,192,61950,1,0,0:0:0:0:m_057.ogg
358,192,61950,1,0,0:0:0:0:m_053.ogg
51,192,62100,1,0,0:0:0:0:m_058.ogg
460,192,62100,1,0,0:0:0:0:m_050.ogg
153,192,62250,1,0,0:0:0:0:m_052.ogg
358,192,62250,1,0,0:0:0:0:m_060.ogg
51,192,62400,1,0,0:0:0:0:m_057.ogg
256,192,62400,1,0,0:0:0:0:l_029.ogg
460,192,62400,1,0,0:0:0:0:l_041.ogg
153,192,62700,1,0,0:0:0:0:m_048.ogg
256,192,62700,1,0,0:0:0:0:m_045.ogg
358,192,62700,1,0,0:0:0:0:m_053.ogg
256,192,63000,1,0,0:0:0:0:m_046.ogg
358,192,63000,1,0,0:0:0:0:m_048.ogg
460,192,63000,1,0,0:0:0:0:m_055.ogg
153,192,63300,1,0,0:0:0:0:m_048.ogg
256,192,63300,1,0,0:0:0:0:m_045.ogg
358,192,63300,1,0,0:0:0:0:m_053.ogg
51,192,63600,1,0,0:0:0:0:l_024.ogg
153,192,63600,1,0,0:0:0:0:l_040.ogg
256,192,63600,1,0,0:0:0:0:m_052.ogg
51,192,63900,1,0,0:0:0:0:m_048.ogg
256,192,63900,1,0,0:0:0:0:m_055.ogg
358,192,63900,1,0,0:0:0:0:m_040.ogg
153,192,64200,1,0,0:0:0:0:m_048.ogg
256,192,64200,1,0,0:0:0:0:m_057.ogg
460,192,64200,1,0,0:0:0:0:m_041.ogg
51,192,64500,1,0,0:0:0:0:m_048.ogg
256,192,64500,1,0,0:0:0:0:m_055.ogg
358,192,64500,1,0,0:0:0:0:m_040.ogg
51,192,64800,1,0,0:0:0:0:l_045.ogg
153,192,64800,1,0,0:0:0:0:l_038.ogg
460,192,64800,1,0,0:0:0:0:l_041.ogg
256,192,65100,1,0,0:0:0:0:m_045.ogg
460,192,65100,1,0,0:0:0:0:m_050.ogg
153,192,65400,1,0,0:0:0:0:m_048.ogg
256,192,65400,1,0,0:0:0:0:m_041.ogg
358,192,65400,1,0,0:0:0:0:m_045.ogg
256,192,65700,1,0,0:0:0:0:m_050.ogg
460,192,65700,1,0,0:0:0:0:m_045.ogg
256,192,66000,1,0,0:0:0:0:m_048.ogg
358,192,66000,1,0,0:0:0:0:m_052.ogg
460,192,66000,1,0,0:0:0:0:l_021.ogg
51,192,66300,1,0,0:0:0:0:m_045.ogg
153,192,66300,1,0,0:0:0:0:m_040.ogg
256,192,66300,1,0,0:0:0:0:m_036.ogg
51,192,66600,1,0,0:0:0:0:m_048.ogg
358,192,66600,1,0,0:0:0:0:m_034.ogg
460,192,66600,1,0,0:0:0:0:m_045.ogg
51,192,66900,1,0,0:0:0:0:m_048.ogg
153,192,66900,1,0,0:0:0:0:m_043.ogg
358,192,66900,1,0,0:0:0:0:m_036.ogg
153,192,67200,1,0,0:0:0:0:m_046.ogg
256,192,67200,1,0,0:0:0:0:l_041.ogg
460,192,67200,1,0,0:0:0:0:l_038.ogg
51,192,67500,1,0,0:0:0:0:m_046.ogg
153,192,67500,1,0,0:0:0:0:m_050.ogg
256,192,67500,1,0,0:0:0:0:m_053.ogg
51,192,67800,1,0,0:0:0:0:m_046.ogg
153,192,67800,1,0,0:0:0:0:m_052.ogg
358,192,67800,1,0,0:0:0:0:m_055.ogg
51,192,68100,1,0,0:0:0:0:m_053.ogg
256,192,68100,1,0,0:0:0:0:m_050.ogg
460,192,68100,1,0,0:0:0:0:m_058.ogg
256,192,68400,1,0,0:0:0:0:m_048.ogg
358,192,68400,1,0,0:0:0:0:m_053.ogg
460,192,68400,1,0,0:0:0:0:m_057.ogg
51,192,68700,1,0,0:0:0:0:m_053.ogg
153,192,68700,1,0,0:0:0:0:m_045.ogg
256,192,68700,1,0,0:0:0:0:m_036.ogg
153,192,69000,1,0,0:0:0:0:m_053.ogg
256,192,69000,1,0,0:0:0:0:m_034.ogg
358,192,69000,1,0,0:0:0:0:m_048.ogg
256,192,69300,1,0,0:0:0:0:m_036.ogg
358,192,69300,1,0,0:0:0:0:m_053.ogg
460,192,69300,1,0,0:0:0:0:m_057.ogg
51,192,69600,1,0,0:0:0:0:l_022.ogg
153,192,69600,1,0,0:0:0:0:l_038.ogg
358,192,69600,1,0,0:0:0:0:m_053.ogg
153,192,69900,1,0,0:0:0:0:m_053.ogg
358,192,69900,1,0,0:0:0:0:m_050.ogg
460,192,69900,1,0,0:0:0:0:m_058.ogg
51,192,70200,1,0,0:0:0:0:m_050.ogg
256,192,70200,1,0,0:0:0:0:m_048.ogg
460,192,70200,1,0,0:0:0:0:m_057.ogg
256,192,70500,1,0,0:0:0:0:m_050.ogg
358,192,70500,1,0,0:0:0:0:m_058.ogg
51,192,70800,1,0,0:0:0:0:m_048.ogg
153,192,70800,1,0,0:0:0:0:m_052.ogg
460,192,70800,1,0,0:0:0:0:m_055.ogg
153,192,71100,1,0,0:0:0:0:m_040.ogg
358,192,71100,1,0,0:0:0:0:m_048.ogg
51,192,71400,1,0,0:0:0:0:m_055.ogg
256,192,71400,1,0,0:0:0:0:m_038.ogg
460,192,71400,1,0,0:0:0:0:m_046.ogg
153,192,71700,1,0,0:0:0:0:m_040.ogg
358,192,71700,1,0,0:0:0:0:m_052.ogg
460,192,71700,1,0,0:0:0:0:m_048.ogg
51,192,72000,1,0,0:0:0:0:l_045.ogg
153,192,72000,1,0,0:0:0:0:m_053.ogg
256,192,72000,1,0,0:0:0:0:l_029.ogg
51,192,72300,1,0,0:0:0:0:m_057.ogg
256,192,72300,1,0,0:0:0:0:m_041.ogg
460,192,72300,1,0,0:0:0:0:m_053.ogg
153,192,72450,1,0,0:0:0:0:m_043.ogg
358,192,72450,1,0,0:0:0:0:m_052.ogg
256,192,72600,1,0,0:0:0:0:m_057.ogg
358,192,72600,1,0,0:0:0:0:m_045.ogg
460,192,72600,1,0,0:0:0:0:m_053.ogg
51,192,72900,1,0,0:0:0:0:m_057.ogg
153,192,72900,1,0,0:0:0:0:m_045.ogg
256,192,72900,1,0,0:0:0:0:m_041.ogg
153,192,73200,1,0,0:0:0:0:l_052.ogg
358,192,73200,1,0,0:0:0:0:m_055.ogg
460,192,73200,1,0,0:0:0:0:m_040.ogg
51,192,73500,1,0,0:0:0:0:m_055.ogg
153,192,73500,1,0,0:0:0:0:m_052.ogg
256,192,73500,1,0,0:0:0:0:m_048.ogg
153,192,73650,1,0,0:0:0:0:m_053.ogg
358,192,73650,1,0,0:0:0:0:m_050.ogg
256,192,73800,1,0,0:0:0:0:m_052.ogg
460,192,73800,1,0,0:0:0:0:m_055.ogg
51,192,74100,1,0,0:0:0:0:m_055.ogg
153,192,74100,1,0,0:0:0:0:m_052.ogg
256,192,74100,1,0,0:0:0:0:m_048.ogg
153,192,74400,1,0,0:0:0:0:l_050.ogg
358,192,74400,1,0,0:0:0:0:m_053.ogg
460,192,74400,1,0,0:0:0:0:l_026.ogg
51,192,74700,1,0,0:0:0:0:m_053.ogg
256,192,74700,1,0,0:0:0:0:m_038.ogg
153,192,74850,1,0,0:0:0:0:m_040.ogg
358,192,74850,1,0,0:0:0:0:m_055.ogg
256,192,75000,1,0,0:0:0:0:m_057.ogg
358,192,75000,1,0,0:0:0:0:m_041.ogg
460,192,75000,1,0,0:0:0:0:m_053.ogg
51,192,75300,1,0,0:0:0:0:m_053.ogg
256,192,75300,1,0,0:0:0:0:m_038.ogg
51,192,75600,1,0,0:0:0:0:m_060.ogg
358,192,75600,1,0,0:0:0:0:l_045.ogg
460,192,75600,1,0,0:0:0:0:m_057.ogg
153,192,75900,1,0,0:0:0:0:m_048.ogg
256,192,75900,1,0,0:0:0:0:m_060.ogg
460,192,75900,1,0,0:0:0:0:m_057.ogg
153,192,76050,1,0,0:0:0:0:m_046.ogg
358,192,76050,1,0,0:0:0:0:m_055.ogg
51,192,76200,1,0,0:0:0:0:m_060.ogg
256,192,76200,1,0,0:0:0:0:m_053.ogg
460,192,76200,1,0,0:0:0:0:m_045.ogg
51,192,76500,1,0,0:0:0:0:m_060.ogg
153,192,76500,1,0,0:0:0:0:m_052.ogg
460,192,76500,1,0,0:0:0:0:m_043.ogg
51,192,76800,1,0,0:0:0:0:m_041.ogg
153,192,76800,1,0,0:0:0:0:m_062.ogg
358,192,76800,1,0,0:0:0:0:m_038.ogg
256,192,77100,1,0,0:0:0:0:m_062.ogg
358,192,77100,1,0,0:0:0:0:m_046.ogg
460,192,77100,1,0,0:0:0:0:m_050.ogg
153,192,77250,1,0,0:0:0:0:m_045.ogg
358,192,77250,1,0,0:0:0:0:m_048.ogg
51,192,77400,1,0,0:0:0:0:m_043.ogg
256,192,77400,1,0,0:0:0:0:m_062.ogg
460,192,77400,1,0,0:0:0:0:m_050.ogg
153,192,77700,1,0,0:0:0:0:m_062.ogg
358,192,77700,1,0,0:0:0:0:m_052.ogg
460,192,77700,1,0,0:0:0:0:m_046.ogg
51,192,78000,1,0,0:0:0:0:l_041.ogg
153,192,78000,1,0,0:0:0:0:m_060.ogg
256,192,78000,1,0,0:0:0:0:m_053.ogg
51,192,78300,1,0,0:0:0:0:m_060.ogg
153,192,78300,1,0,0:0:0:0:m_041.ogg
460,192,78300,1,0,0:0:0:0:m_057.ogg
153,192,78450,1,0,0:0:0:0:m_043.ogg
358,192,78450,1,0,0:0:0:0:m_055.ogg
51,192,78600,1,0,0:0:0:0:m_060.ogg
256,192,78600,1,0,0:0:0:0:m_053.ogg
460,192,78600,1,0,0:0:0:0:m_045.ogg
256,192,78900,1,0,0:0:0:0:m_057.ogg
358,192,78900,1,0,0:0:0:0:m_048.ogg
460,192,78900,1,0,0:0:0:0:m_060.ogg
51,192,79200,1,0,0:0:0:0:m_062.ogg
153,192,79200,1,0,0:0:0:0:m_058.ogg
358,192,79200,1,0,0:0:0:0:l_050.ogg
51,192,79500,1,0,0:0:0:0:m_050.ogg
256,192,79500,1,0,0:0:0:0:m_062.ogg
460,192,79500,1,0,0:0:0:0:m_053.ogg
153,192,79650,1,0,0:0:0:0:m_048.ogg
358,192,79650,1,0,0:0:0:0:m_052.ogg
51,192,79800,1,0,0:0:0:0:m_062.ogg
256,192,79800,1,0,0:0:0:0:m_050.ogg
358,192,79800,1,0,0:0:0:0:m_046.ogg
51,192,80100,1,0,0:0:0:0:m_050.ogg
153,192,80100,1,0,0:0:0:0:m_062.ogg
460,192,80100,1,0,0:0:0:0:m_045.ogg
153,192,80400,1,0,0:0:0:0:l_048.ogg
256,192,80400,1,0,0:0:0:0:m_064.ogg
358,192,80400,1,0,0:0:0:0:l_024.ogg
153,192,80700,1,0,0:0:0:0:m_048.ogg
256,192,80700,1,0,0:0:0:0:m_052.ogg
460,192,80700,1,0,0:0:0:0:m_043.ogg
153,192,80850,1,0,0:0:0:0:m_046.ogg
51,192,81000,1,0,0:0:0:0:m_052.ogg
256,192,81000,1,0,0:0:0:0:m_045.ogg
358,192,81000,1,0,0:0:0:0:m_048.ogg
51,192,81300,1,0,0:0:0:0:m_043.ogg
153,192,81300,1,0,0:0:0:0:m_052.ogg
256,192,81300,1,0,0:0:0:0:m_048.ogg
256,192,81600,1,0,0:0:0:0:l_029.ogg
358,192,81600,1,0,0:0:0:0:l_045.ogg
460,192,81600,1,0,0:0:0:0:l_041.ogg
153,192,82200,1,0,0:0:0:0:m_053.ogg
51,192,82500,1,0,0:0:0:0:m_060.ogg
358,192,82500,1,0,0:0:0:0:m_057.ogg
51,192,82800,1,0,0:0:0:0:m_060.ogg
256,192,82800,1,0,0:0:0:0:l_024.ogg
358,192,82800,1,0,0:0:0:0:m_045.ogg
153,192,83100,1,0,0:0:0:0:m_062.ogg
460,192,83100,1,0,0:0:0:0:m_058.ogg
51,192,83400,1,0,0:0:0:0:m_060.ogg
358,192,83400,1,0,0:0:0:0:m_057.ogg
153,192,83700,1,0,0:0:0:0:m_055.ogg
256,192,83700,1,0,0:0:0:0:m_046.ogg
460,192,83700,1,0,0:0:0:0:m_058.ogg
51,192,84000,1,0,0:0:0:0:l_041.ogg
153,192,84000,1,0,0:0:0:0:m_057.ogg
358,192,84000,1,0,0:0:0:0:m_053.ogg
153,192,84900,1,0,0:0:0:0:m_057.ogg
358,192,84900,1,0,0:0:0:0:m_053.ogg
51,192,85200,1,0,0:0:0:0:l_048.ogg
153,192,85200,1,0,0:0:0:0:m_057.ogg
358,192,85200,1,0,0:0:0:0:m_045.ogg
256,192,85500,1,0,0:0:0:0:m_058.ogg
460,192,85500,1,0,0:0:0:0:m_055.ogg
153,192,85800,1,0,0:0:0:0:m_057.ogg
358,192,85800,1,0,0:0:0:0:m_053.ogg
51,192,86100,1,0,0:0:0:0:m_040.ogg
256,192,86100,1,0,0:0:0:0:m_055.ogg
358,192,86100,1,0,0:0:0:0:m_052.ogg
153,192,86400,1,0,0:0:0:0:l_046.ogg
358,192,86400,1,0,0:0:0:0:l_050.ogg
460,192,86400,1,0,0:0:0:0:l_041.ogg
256,192,86700,1,0,0:0:0:0:m_051.ogg
153,192,87000,1,0,0:0:0:0:m_050.ogg
358,192,87300,1,0,0:0:0:0:m_043.ogg
460,192,87300,1,0,0:0:0:0:m_051.ogg
51,192,87600,1,0,0:0:0:0:m_048.ogg
153,192,87600,1,0,0:0:0:0:l_053.ogg
256,192,87600,1,0,0:0:0:0:l_045.ogg
153,192,88500,1,0,0:0:0:0:m_048.ogg
256,192,88800,1,0,0:0:0:0:m_053.ogg
358,192,88800,1,0,0:0:0:0:l_050.ogg
460,192,88800,1,0,0:0:0:0:l_022.ogg
153,192,89100,1,0,0:0:0:0:m_051.ogg
51,192,89400,1,0,0:0:0:0:m_050.ogg
460,192,89400,1,0,0:0:0:0:m_053.ogg
153,192,89700,1,0,0:0:0:0:m_051.ogg
51,192,90000,1,0,0:0:0:0:l_024.ogg
256,192,90000,1,0,0:0:0:0:m_048.ogg
358,192,90000,1,0,0:0:0:0:m_052.ogg
51,192,90900,1,0,0:0:0:0:m_043.ogg
153,192,90900,1,0,0:0:0:0:m_052.ogg
256,192,90900,1,0,0:0:0:0:m_048.ogg
153,192,91200,1,0,0:0:0:0:m_036.ogg
256,192,91200,1,0,0:0:0:0:m_041.ogg
358,192,91200,1,0,0:0:0:0:m_053.ogg
460,192,91200,1,0,0:0:0:0:l_029.ogg
51,192,91800,1,0,0:0:0:0:l_057.ogg
256,192,91800,1,0,0:0:0:0:m_041.ogg
358,192,91800,1,0,0:0:0:0:l_048.ogg
460,192,91800,1,0,0:0:0:0:l_045.ogg
51,192,92400,1,0,0:0:0:0:m_040.ogg
153,192,92400,1,0,0:0:0:0:l_024.ogg
256,192,92400,1,0,0:0:0:0:l_052.ogg
460,192,92400,1,0,0:0:0:0:m_048.ogg
51,192,93000,1,0,0:0:0:0:m_052.ogg
256,192,93000,1,0,0:0:0:0:m_046.ogg
358,192,93000,1,0,0:0:0:0:m_055.ogg
460,192,93000,1,0,0:0:0:0:m_043.ogg
256,192,93300,1,0,0:0:0:0:m_046.ogg
51,192,93600,1,0,0:0:0:0:l_026.ogg
153,192,93600,1,0,0:0:0:0:m_053.ogg
358,192,93600,1,0,0:0:0:0:l_045.ogg
460,192,93600,1,0,0:0:0:0:l_041.ogg
256,192,94200,1,0,0:0:0:0:l_065.ogg
460,192,94200,1,0,0:0:0:0:m_038.ogg
51,192,94800,1,0,0:0:0:0:m_057.ogg
153,192,94800,1,0,0:0:0:0:m_036.ogg
256,192,94800,1,0,0:0:0:0:l_021.ogg
358,192,94800,1,0,0:0:0:0:l_041.ogg
153,192,95400,1,0,0:0:0:0:m_063.ogg
460,192,95400,1,0,0:0:0:0:m_048.ogg
256,192,95700,1,0,0:0:0:0:m_055.ogg
51,192,96000,1,0,0:0:0:0:l_046.ogg
153,192,96000,1,0,0:0:0:0:l_041.ogg
358,192,96000,1,0,0:0:0:0:l_062.ogg
460,192,96000,1,0,0:0:0:0:l_050.ogg
358,192,96600,1,0,0:0:0:0:m_058.ogg
51,192,97200,1,0,0:0:0:0:l_017.ogg
153,192,97200,1,0,0:0:0:0:l_041.ogg
256,192,97200,1,0,0:0:0:0:m_065.ogg
460,192,97200,1,0,0:0:0:0:m_057.ogg
51,192,97800,1,0,0:0:0:0:m_053.ogg
153,192,97800,1,0,0:0:0:0:m_060.ogg
358,192,97800,1,0,0:0:0:0:m_045.ogg
51,192,98400,1,0,0:0:0:0:l_022.ogg
256,192,98400,1,0,0:0:0:0:l_062.ogg
358,192,98400,1,0,0:0:0:0:l_053.ogg
460,192,98400,1,0,0:0:0:0:l_050.ogg
51,192,99000,1,0,0:0:0:0:m_050.ogg
51,192,99600,1,0,0:0:0:0:l_052.ogg
153,192,99600,1,0,0:0:0:0:l_060.ogg
358,192,99600,1,0,0:0:0:0:l_040.ogg
460,192,99600,1,0,0:0:0:0:l_024.ogg
256,192,100200,1,0,0:0:0:0:m_055.ogg
51,192,100800,128,0,105600:0:0:0:0:l_053.ogg
153,192,100825,128,0,105600:0:0:0:0:l_024.ogg
256,192,100850,128,0,105600:0:0:0:0:l_033.ogg
358,192,100875,128,0,105600:0:0:0:0:l_036.ogg
460,192,100900,128,0,105600:0:0:0:0:l_041.ogg
