osu file format v14

[General]
AudioFilename: virtual
AudioLeadIn: 0
PreviewTime: 0
Countdown: 0
SampleSet: Soft
StackLeniency: 0.7
Mode: 3
LetterboxInBreaks: 0
SpecialStyle: 0
WidescreenStoryboard: 1

[Editor]
DistanceSpacing: 0.8
BeatDivisor: 4
GridSize: 32
TimelineZoom: 4.100004

[Metadata]
Title:Piano Beatmap Set
TitleUnicode:Piano Beatmap Set
Artist:Collection
ArtistUnicode:Collection
Creator:CircusGalop
Version:Canon - 10K EX
Source:BMS
Tags:
BeatmapID:823104
BeatmapSetID:332673

[Difficulty]
HPDrainRate:9
CircleSize:10
OverallDifficulty:5
ApproachRate:5
SliderMultiplier:1.4
SliderTickRate:1

[Events]
//Background and Video events
0,0,"CircusGalop.jpg",0,0
//Break Periods
//Storyboard Layer 0 (Background)
//Storyboard Layer 1 (Fail)
//Storyboard Layer 2 (Pass)
//Storyboard Layer 3 (Foreground)
//Storyboard Sound Samples

[TimingPoints]
0,600.000000000006,4,2,0,100,1,0

[HitObjects]
76,192,4800,5,0,0:0:0:0:l_053.ogg
128,192,4800,1,0,0:0:0:0:l_057.ogg
179,192,4800,1,0,0:0:0:0:l_029.ogg
384,192,4800,1,0,0:0:0:0:l_045.ogg
435,192,4800,1,0,0:0:0:0:l_041.ogg
486,192,4800,1,0,0:0:0:0:l_036.ogg
128,192,6000,1,0,0:0:0:0:l_052.ogg
179,192,6000,1,0,0:0:0:0:l_055.ogg
230,192,6000,1,0,0:0:0:0:l_024.ogg
332,192,6000,1,0,0:0:0:0:l_040.ogg
435,192,6000,1,0,0:0:0:0:l_043.ogg
486,192,6000,1,0,0:0:0:0:l_048.ogg
128,192,7200,1,0,0:0:0:0:l_050.ogg
230,192,7200,1,0,0:0:0:0:l_053.ogg
332,192,7200,1,0,0:0:0:0:l_026.ogg
384,192,7200,1,0,0:0:0:0:l_045.ogg
486,192,7200,1,0,0:0:0:0:l_041.ogg
76,192,8400,1,0,0:0:0:0:l_048.ogg
128,192,8400,1,0,0:0:0:0:l_052.ogg
179,192,8400,1,0,0:0:0:0:l_021.ogg
332,192,8400,1,0,0:0:0:0:l_045.ogg
384,192,8400,1,0,0:0:0:0:l_036.ogg
435,192,8400,1,0,0:0:0:0:l_040.ogg
25,192,9600,1,0,0:0:0:0:l_050.ogg
179,192,9600,1,0,0:0:0:0:l_046.ogg
281,192,9600,1,0,0:0:0:0:l_038.ogg
384,192,9600,1,0,0:0:0:0:l_022.ogg
435,192,9600,1,0,0:0:0:0:l_041.ogg
25,192,10800,1,0,0:0:0:0:l_045.ogg
128,192,10800,1,0,0:0:0:0:l_048.ogg
281,192,10800,1,0,0:0:0:0:l_036.ogg
332,192,10800,1,0,0:0:0:0:l_041.ogg
435,192,10800,1,0,0:0:0:0:l_017.ogg
25,192,12000,1,0,0:0:0:0:l_050.ogg
179,192,12000,1,0,0:0:0:0:l_046.ogg
281,192,12000,1,0,0:0:0:0:l_022.ogg
384,192,12000,1,0,0:0:0:0:l_041.ogg
435,192,12000,1,0,0:0:0:0:l_038.ogg
76,192,13200,1,0,0:0:0:0:l_043.ogg
230,192,13200,1,0,0:0:0:0:l_052.ogg
332,192,13200,1,0,0:0:0:0:l_024.ogg
384,192,13200,1,0,0:0:0:0:l_036.ogg
435,192,13200,1,0,0:0:0:0:l_040.ogg
128,192,14400,1,0,0:0:0:0:l_029.ogg
179,192,14400,1,0,0:0:0:0:l_036.ogg
230,192,14400,1,0,0:0:0:0:l_045.ogg
281,192,14400,1,0,0:0:0:0:l_053.ogg
332,192,14400,1,0,0:0:0:0:l_057.ogg
435,192,14400,1,0,0:0:0:0:l_041.ogg
384,192,15000,1,0,0:0:0:0:m_045.ogg
76,192,15600,1,0,0:0:0:0:l_024.ogg
179,192,15600,1,0,0:0:0:0:l_048.ogg
230,192,15600,1,0,0:0:0:0:l_040.ogg
281,192,15600,1,0,0:0:0:0:l_043.ogg
332,192,15600,1,0,0:0:0:0:l_052.ogg
486,192,15600,1,0,0:0:0:0:l_055.ogg
435,192,16200,1,0,0:0:0:0:m_046.ogg
76,192,16800,1,0,0:0:0:0:l_026.ogg
128,192,16800,1,0,0:0:0:0:l_041.ogg
230,192,16800,1,0,0:0:0:0:l_050.ogg
281,192,16800,1,0,0:0:0:0:l_045.ogg
384,192,16800,1,0,0:0:0:0:l_053.ogg
332,192,17400,1,0,0:0:0:0:m_041.ogg
76,192,18000,1,0,0:0:0:0:l_021.ogg
128,192,18000,1,0,0:0:0:0:l_040.ogg
179,192,18000,1,0,0:0:0:0:l_045.ogg
281,192,18000,1,0,0:0:0:0:l_036.ogg
435,192,18000,1,0,0:0:0:0:l_052.ogg
486,192,18000,1,0,0:0:0:0:l_048.ogg
384,192,18600,1,0,0:0:0:0:m_043.ogg
25,192,19200,1,0,0:0:0:0:l_022.ogg
128,192,19200,1,0,0:0:0:0:l_038.ogg
179,192,19200,1,0,0:0:0:0:l_046.ogg
332,192,19200,1,0,0:0:0:0:l_050.ogg
486,192,19200,1,0,0:0:0:0:l_041.ogg
281,192,19800,1,0,0:0:0:0:m_038.ogg
25,192,20400,1,0,0:0:0:0:l_017.ogg
76,192,20400,1,0,0:0:0:0:l_036.ogg
179,192,20400,1,0,0:0:0:0:l_041.ogg
332,192,20400,1,0,0:0:0:0:l_048.ogg
486,192,20400,1,0,0:0:0:0:l_045.ogg
435,192,21000,1,0,0:0:0:0:m_048.ogg
25,192,21600,1,0,0:0:0:0:l_046.ogg
128,192,21600,1,0,0:0:0:0:l_022.ogg
179,192,21600,1,0,0:0:0:0:l_038.ogg
281,192,21600,1,0,0:0:0:0:l_041.ogg
384,192,21600,1,0,0:0:0:0:l_050.ogg
486,192,22200,1,0,0:0:0:0:m_050.ogg
76,192,22800,1,0,0:0:0:0:l_052.ogg
128,192,22800,1,0,0:0:0:0:l_043.ogg
179,192,22800,1,0,0:0:0:0:l_024.ogg
281,192,22800,1,0,0:0:0:0:l_036.ogg
332,192,22800,1,0,0:0:0:0:l_040.ogg
435,192,22800,1,0,0:0:0:0:m_048.ogg
384,192,23400,1,0,0:0:0:0:m_046.ogg
25,192,24000,1,0,0:0:0:0:l_045.ogg
128,192,24000,1,0,0:0:0:0:l_041.ogg
230,192,24000,1,0,0:0:0:0:l_029.ogg
332,192,24000,1,0,0:0:0:0:l_036.ogg
486,192,24000,1,0,0:0:0:0:m_053.ogg
435,192,24300,1,0,0:0:0:0:m_052.ogg
76,192,24600,1,0,0:0:0:0:m_053.ogg
179,192,24600,1,0,0:0:0:0:m_041.ogg
486,192,24600,1,0,0:0:0:0:m_045.ogg
281,192,24900,1,0,0:0:0:0:m_041.ogg
128,192,25200,1,0,0:0:0:0:l_048.ogg
230,192,25200,1,0,0:0:0:0:l_040.ogg
332,192,25200,1,0,0:0:0:0:l_043.ogg
435,192,25200,1,0,0:0:0:0:l_024.ogg
435,192,25500,1,0,0:0:0:0:m_048.ogg
25,192,25800,1,0,0:0:0:0:m_043.ogg
179,192,25800,1,0,0:0:0:0:m_052.ogg
384,192,25800,1,0,0:0:0:0:m_046.ogg
332,192,26100,1,0,0:0:0:0:m_045.ogg
76,192,26400,1,0,0:0:0:0:l_026.ogg
230,192,26400,1,0,0:0:0:0:l_041.ogg
281,192,26400,1,0,0:0:0:0:m_053.ogg
486,192,26400,1,0,0:0:0:0:l_045.ogg
384,192,26700,1,0,0:0:0:0:m_053.ogg
25,192,27000,1,0,0:0:0:0:m_052.ogg
128,192,27000,1,0,0:0:0:0:m_057.ogg
332,192,27000,1,0,0:0:0:0:m_041.ogg
281,192,27300,1,0,0:0:0:0:m_050.ogg
76,192,27600,1,0,0:0:0:0:l_021.ogg
179,192,27600,1,0,0:0:0:0:l_040.ogg
230,192,27600,1,0,0:0:0:0:m_052.ogg
332,192,27600,1,0,0:0:0:0:m_060.ogg
435,192,27600,1,0,0:0:0:0:l_045.ogg
486,192,27600,1,0,0:0:0:0:l_036.ogg
384,192,27900,1,0,0:0:0:0:m_057.ogg
25,192,28200,1,0,0:0:0:0:m_060.ogg
128,192,28200,1,0,0:0:0:0:m_048.ogg
435,192,28200,1,0,0:0:0:0:m_043.ogg
486,192,28500,1,0,0:0:0:0:m_062.ogg
76,192,28800,1,0,0:0:0:0:l_050.ogg
230,192,28800,1,0,0:0:0:0:m_058.ogg
332,192,28800,1,0,0:0:0:0:l_022.ogg
384,192,28800,1,0,0:0:0:0:l_038.ogg
435,192,28800,1,0,0:0:0:0:l_041.ogg
179,192,29100,1,0,0:0:0:0:m_057.ogg
128,192,29400,1,0,0:0:0:0:m_038.ogg
281,192,29400,1,0,0:0:0:0:m_055.ogg
384,192,29400,1,0,0:0:0:0:m_046.ogg
230,192,29700,1,0,0:0:0:0:m_058.ogg
25,192,30000,1,0,0:0:0:0:l_041.ogg
76,192,30000,1,0,0:0:0:0:m_057.ogg
179,192,30000,1,0,0:0:0:0:m_048.ogg
281,192,30000,1,0,0:0:0:0:l_045.ogg
332,192,30000,1,0,0:0:0:0:l_017.ogg
435,192,30000,1,0,0:0:0:0:l_036.ogg
128,192,30300,1,0,0:0:0:0:m_055.ogg
76,192,30600,1,0,0:0:0:0:m_048.ogg
384,192,30600,1,0,0:0:0:0:m_053.ogg
486,192,30600,1,0,0:0:0:0:m_045.ogg
25,192,30900,1,0,0:0:0:0:m_052.ogg
128,192,31200,1,0,0:0:0:0:l_043.ogg
230,192,31200,1,0,0:0:0:0:m_046.ogg
281,192,31200,1,0,0:0:0:0:l_022.ogg
332,192,31200,1,0,0:0:0:0:l_041.ogg
435,192,31200,1,0,0:0:0:0:l_050.ogg
179,192,31500,1,0,0:0:0:0:m_048.ogg
128,192,31800,1,0,0:0:0:0:m_050.ogg
384,192,31800,1,0,0:0:0:0:m_046.ogg
486,192,31800,1,0,0:0:0:0:m_053.ogg
76,192,32100,1,0,0:0:0:0:m_045.ogg
25,192,32400,1,0,0:0:0:0:l_024.ogg
179,192,32400,1,0,0:0:0:0:l_048.ogg
230,192,32400,1,0,0:0:0:0:l_040.ogg
332,192,32400,1,0,0:0:0:0:s_053.ogg
384,192,32400,1,0,0:0:0:0:l_043.ogg
435,192,32475,1,0,0:0:0:0:s_055.ogg
332,192,32550,1,0,0:0:0:0:s_053.ogg
435,192,32625,1,0,0:0:0:0:s_055.ogg
128,192,32700,1,0,0:0:0:0:m_046.ogg
332,192,32700,1,0,0:0:0:0:s_053.ogg
435,192,32775,1,0,0:0:0:0:s_055.ogg
332,192,32850,1,0,0:0:0:0:s_053.ogg
435,192,32925,1,0,0:0:0:0:s_055.ogg
76,192,33000,1,0,0:0:0:0:m_046.ogg
230,192,33000,1,0,0:0:0:0:m_045.ogg
332,192,33000,1,0,0:0:0:0:s_053.ogg
435,192,33075,1,0,0:0:0:0:s_055.ogg
332,192,33150,1,0,0:0:0:0:s_053.ogg
435,192,33200,1,0,0:0:0:0:s_055.ogg
25,192,33300,1,0,0:0:0:0:m_052.ogg
281,192,33300,1,0,0:0:0:0:m_043.ogg
128,192,33600,1,0,0:0:0:0:l_036.ogg
179,192,33600,1,0,0:0:0:0:l_045.ogg
230,192,33600,1,0,0:0:0:0:l_041.ogg
332,192,33600,1,0,0:0:0:0:m_065.ogg
486,192,33600,1,0,0:0:0:0:l_029.ogg
384,192,33900,1,0,0:0:0:0:m_043.ogg
25,192,34200,1,0,0:0:0:0:m_053.ogg
76,192,34200,1,0,0:0:0:0:m_057.ogg
435,192,34200,1,0,0:0:0:0:m_045.ogg
486,192,34500,1,0,0:0:0:0:m_046.ogg
128,192,34800,1,0,0:0:0:0:l_024.ogg
179,192,34800,1,0,0:0:0:0:l_040.ogg
230,192,34800,1,0,0:0:0:0:l_043.ogg
332,192,34800,1,0,0:0:0:0:l_048.ogg
384,192,34800,1,0,0:0:0:0:l_052.ogg
435,192,34800,1,0,0:0:0:0:l_055.ogg
281,192,35100,1,0,0:0:0:0:m_043.ogg
384,192,35400,1,0,0:0:0:0:m_048.ogg
332,192,35700,1,0,0:0:0:0:m_046.ogg
25,192,36000,1,0,0:0:0:0:l_045.ogg
128,192,36000,1,0,0:0:0:0:l_041.ogg
281,192,36000,1,0,0:0:0:0:l_026.ogg
486,192,36300,1,0,0:0:0:0:m_050.ogg
76,192,36600,1,0,0:0:0:0:m_050.ogg
179,192,36600,1,0,0:0:0:0:m_053.ogg
435,192,36600,1,0,0:0:0:0:m_048.ogg
384,192,36900,1,0,0:0:0:0:m_046.ogg
128,192,37200,1,0,0:0:0:0:l_057.ogg
179,192,37200,1,0,0:0:0:0:l_021.ogg
230,192,37200,1,0,0:0:0:0:l_041.ogg
281,192,37200,1,0,0:0:0:0:l_048.ogg
435,192,37200,1,0,0:0:0:0:l_053.ogg
384,192,37500,1,0,0:0:0:0:m_046.ogg
332,192,37800,1,0,0:0:0:0:m_045.ogg
281,192,38100,1,0,0:0:0:0:m_043.ogg
76,192,38400,1,0,0:0:0:0:l_053.ogg
179,192,38400,1,0,0:0:0:0:l_046.ogg
230,192,38400,1,0,0:0:0:0:l_050.ogg
384,192,38400,1,0,0:0:0:0:l_062.ogg
435,192,38400,1,0,0:0:0:0:l_022.ogg
486,192,38400,1,0,0:0:0:0:l_041.ogg
25,192,38700,1,0,0:0:0:0:m_038.ogg
128,192,39000,1,0,0:0:0:0:m_050.ogg
179,192,39300,1,0,0:0:0:0:m_052.ogg
25,192,39600,1,0,0:0:0:0:l_041.ogg
76,192,39600,1,0,0:0:0:0:l_048.ogg
230,192,39600,1,0,0:0:0:0:m_053.ogg
332,192,39600,1,0,0:0:0:0:l_017.ogg
384,192,39600,1,0,0:0:0:0:l_045.ogg
435,192,39600,1,0,0:0:0:0:l_060.ogg
179,192,39900,1,0,0:0:0:0:m_052.ogg
128,192,40200,1,0,0:0:0:0:m_050.ogg
332,192,40200,1,0,0:0:0:0:m_053.ogg
76,192,40500,1,0,0:0:0:0:m_048.ogg
128,192,40800,1,0,0:0:0:0:m_046.ogg
179,192,40800,1,0,0:0:0:0:l_050.ogg
230,192,40800,1,0,0:0:0:0:l_043.ogg
281,192,40800,1,0,0:0:0:0:m_053.ogg
384,192,40800,1,0,0:0:0:0:l_022.ogg
435,192,40800,1,0,0:0:0:0:l_041.ogg
486,192,40800,1,0,0:0:0:0:l_062.ogg
76,192,41100,1,0,0:0:0:0:m_045.ogg
25,192,41400,1,0,0:0:0:0:m_043.ogg
332,192,41400,1,0,0:0:0:0:m_058.ogg
230,192,41700,1,0,0:0:0:0:m_050.ogg
76,192,42000,1,0,0:0:0:0:l_040.ogg
128,192,42000,1,0,0:0:0:0:l_048.ogg
179,192,42000,1,0,0:0:0:0:m_055.ogg
281,192,42000,1,0,0:0:0:0:l_024.ogg
435,192,42000,1,0,0:0:0:0:l_043.ogg
486,192,42000,1,0,0:0:0:0:l_064.ogg
230,192,42300,1,0,0:0:0:0:m_050.ogg
179,192,42600,1,0,0:0:0:0:m_048.ogg
384,192,42600,1,0,0:0:0:0:m_060.ogg
128,192,42900,1,0,0:0:0:0:m_046.ogg
25,192,43200,1,0,0:0:0:0:l_041.ogg
76,192,43200,1,0,0:0:0:0:l_048.ogg
230,192,43200,1,0,0:0:0:0:l_045.ogg
281,192,43200,1,0,0:0:0:0:m_060.ogg
435,192,43200,1,0,0:0:0:0:l_029.ogg
486,192,43200,1,0,0:0:0:0:m_065.ogg
332,192,43500,1,0,0:0:0:0:m_057.ogg
384,192,43650,1,0,0:0:0:0:m_058.ogg
128,192,43800,1,0,0:0:0:0:m_060.ogg
179,192,43800,1,0,0:0:0:0:m_053.ogg
435,192,43800,1,0,0:0:0:0:m_057.ogg
332,192,44100,1,0,0:0:0:0:m_057.ogg
384,192,44250,1,0,0:0:0:0:m_058.ogg
25,192,44400,1,0,0:0:0:0:l_055.ogg
76,192,44400,1,0,0:0:0:0:l_052.ogg
128,192,44400,1,0,0:0:0:0:l_043.ogg
230,192,44400,1,0,0:0:0:0:l_024.ogg
435,192,44400,1,0,0:0:0:0:s_060.ogg
486,192,44400,1,0,0:0:0:0:l_048.ogg
281,192,44550,1,0,0:0:0:0:m_048.ogg
332,192,44700,1,0,0:0:0:0:m_050.ogg
384,192,44850,1,0,0:0:0:0:m_052.ogg
435,192,45000,1,0,0:0:0:0:m_053.ogg
486,192,45150,1,0,0:0:0:0:m_055.ogg
281,192,45300,1,0,0:0:0:0:m_057.ogg
384,192,45450,1,0,0:0:0:0:m_058.ogg
25,192,45600,1,0,0:0:0:0:l_026.ogg
76,192,45600,1,0,0:0:0:0:l_045.ogg
179,192,45600,1,0,0:0:0:0:l_050.ogg
332,192,45600,1,0,0:0:0:0:m_057.ogg
435,192,45600,1,0,0:0:0:0:l_041.ogg
281,192,45900,1,0,0:0:0:0:m_053.ogg
332,192,46050,1,0,0:0:0:0:m_055.ogg
76,192,46200,1,0,0:0:0:0:m_057.ogg
128,192,46200,1,0,0:0:0:0:m_050.ogg
384,192,46200,1,0,0:0:0:0:m_053.ogg
332,192,46500,1,0,0:0:0:0:m_045.ogg
384,192,46650,1,0,0:0:0:0:m_046.ogg
128,192,46800,1,0,0:0:0:0:l_048.ogg
179,192,46800,1,0,0:0:0:0:l_053.ogg
230,192,46800,1,0,0:0:0:0:l_041.ogg
281,192,46800,1,0,0:0:0:0:l_021.ogg
435,192,46800,1,0,0:0:0:0:l_057.ogg
486,192,46950,1,0,0:0:0:0:m_050.ogg
435,192,47100,1,0,0:0:0:0:m_048.ogg
384,192,47250,1,0,0:0:0:0:m_046.ogg
435,192,47400,1,0,0:0:0:0:m_048.ogg
281,192,47550,1,0,0:0:0:0:m_045.ogg
332,192,47700,1,0,0:0:0:0:m_046.ogg
384,192,47850,1,0,0:0:0:0:m_048.ogg
25,192,48000,1,0,0:0:0:0:l_062.ogg
76,192,48000,1,0,0:0:0:0:l_050.ogg
128,192,48000,1,0,0:0:0:0:l_041.ogg
281,192,48000,1,0,0:0:0:0:l_053.ogg
435,192,48000,1,0,0:0:0:0:l_022.ogg
486,192,48000,1,0,0:0:0:0:l_046.ogg
230,192,48300,1,0,0:0:0:0:m_050.ogg
179,192,48450,1,0,0:0:0:0:m_048.ogg
128,192,48600,1,0,0:0:0:0:m_046.ogg
76,192,48900,1,0,0:0:0:0:m_045.ogg
25,192,49050,1,0,0:0:0:0:m_043.ogg
230,192,49200,1,0,0:0:0:0:l_041.ogg
281,192,49200,1,0,0:0:0:0:l_060.ogg
332,192,49200,1,0,0:0:0:0:l_017.ogg
384,192,49200,1,0,0:0:0:0:l_048.ogg
435,192,49200,1,0,0:0:0:0:l_045.ogg
128,192,49350,1,0,0:0:0:0:m_043.ogg
76,192,49500,1,0,0:0:0:0:m_041.ogg
25,192,49650,1,0,0:0:0:0:m_043.ogg
76,192,49800,1,0,0:0:0:0:m_053.ogg
332,192,49800,1,0,0:0:0:0:m_045.ogg
128,192,49950,1,0,0:0:0:0:m_046.ogg
179,192,50100,1,0,0:0:0:0:m_048.ogg
230,192,50250,1,0,0:0:0:0:m_050.ogg
25,192,50400,1,0,0:0:0:0:m_053.ogg
76,192,50400,1,0,0:0:0:0:l_050.ogg
281,192,50400,1,0,0:0:0:0:l_062.ogg
384,192,50400,1,0,0:0:0:0:l_022.ogg
435,192,50400,1,0,0:0:0:0:l_046.ogg
486,192,50400,1,0,0:0:0:0:l_041.ogg
128,192,50700,1,0,0:0:0:0:m_050.ogg
76,192,50850,1,0,0:0:0:0:m_048.ogg
128,192,51000,1,0,0:0:0:0:m_058.ogg
384,192,51000,1,0,0:0:0:0:m_050.ogg
179,192,51300,1,0,0:0:0:0:m_052.ogg
230,192,51450,1,0,0:0:0:0:m_053.ogg
25,192,51600,1,0,0:0:0:0:m_055.ogg
76,192,51600,1,0,0:0:0:0:l_040.ogg
281,192,51600,1,0,0:0:0:0:l_043.ogg
332,192,51600,1,0,0:0:0:0:l_064.ogg
435,192,51600,1,0,0:0:0:0:l_024.ogg
486,192,51600,1,0,0:0:0:0:l_048.ogg
128,192,51750,1,0,0:0:0:0:m_050.ogg
179,192,51900,1,0,0:0:0:0:m_052.ogg
230,192,52050,1,0,0:0:0:0:m_053.ogg
76,192,52200,1,0,0:0:0:0:m_060.ogg
435,192,52200,1,0,0:0:0:0:m_055.ogg
128,192,52350,1,0,0:0:0:0:m_057.ogg
179,192,52500,1,0,0:0:0:0:m_058.ogg
230,192,52650,1,0,0:0:0:0:m_060.ogg
25,192,52800,1,0,0:0:0:0:l_029.ogg
76,192,52800,1,0,0:0:0:0:l_041.ogg
128,192,52800,1,0,0:0:0:0:l_036.ogg
179,192,52800,1,0,0:0:0:0:l_045.ogg
332,192,52800,1,0,0:0:0:0:m_057.ogg
435,192,52800,1,0,0:0:0:0:m_060.ogg
486,192,52800,1,0,0:0:0:0:m_053.ogg
281,192,53100,1,0,0:0:0:0:m_057.ogg
384,192,53100,1,0,0:0:0:0:m_053.ogg
332,192,53250,1,0,0:0:0:0:m_058.ogg
435,192,53250,1,0,0:0:0:0:m_055.ogg
384,192,53400,1,0,0:0:0:0:m_057.ogg
486,192,53400,1,0,0:0:0:0:m_060.ogg
281,192,53700,1,0,0:0:0:0:m_057.ogg
384,192,53700,1,0,0:0:0:0:m_055.ogg
332,192,53850,1,0,0:0:0:0:m_058.ogg
435,192,53850,1,0,0:0:0:0:m_053.ogg
25,192,54000,1,0,0:0:0:0:s_060.ogg
76,192,54000,1,0,0:0:0:0:l_024.ogg
128,192,54000,1,0,0:0:0:0:l_040.ogg
179,192,54000,1,0,0:0:0:0:l_048.ogg
230,192,54000,1,0,0:0:0:0:l_043.ogg
384,192,54000,1,0,0:0:0:0:m_052.ogg
486,192,54000,1,0,0:0:0:0:m_055.ogg
281,192,54150,1,0,0:0:0:0:m_052.ogg
435,192,54150,1,0,0:0:0:0:m_048.ogg
332,192,54300,1,0,0:0:0:0:m_050.ogg
486,192,54300,1,0,0:0:0:0:m_053.ogg
281,192,54450,1,0,0:0:0:0:m_052.ogg
384,192,54450,1,0,0:0:0:0:m_055.ogg
332,192,54600,1,0,0:0:0:0:m_053.ogg
435,192,54600,1,0,0:0:0:0:m_057.ogg
384,192,54750,1,0,0:0:0:0:m_055.ogg
332,192,54900,1,0,0:0:0:0:m_057.ogg
435,192,54900,1,0,0:0:0:0:m_053.ogg
281,192,55050,1,0,0:0:0:0:m_058.ogg
486,192,55050,1,0,0:0:0:0:m_052.ogg
76,192,55200,1,0,0:0:0:0:m_053.ogg
179,192,55200,1,0,0:0:0:0:m_057.ogg
230,192,55200,1,0,0:0:0:0:m_050.ogg
332,192,55200,1,0,0:0:0:0:l_026.ogg
384,192,55200,1,0,0:0:0:0:l_041.ogg
435,192,55200,1,0,0:0:0:0:l_045.ogg
25,192,55500,1,0,0:0:0:0:m_053.ogg
128,192,55500,1,0,0:0:0:0:m_050.ogg
76,192,55650,1,0,0:0:0:0:m_055.ogg
179,192,55650,1,0,0:0:0:0:m_052.ogg
128,192,55800,1,0,0:0:0:0:m_057.ogg
230,192,55800,1,0,0:0:0:0:m_053.ogg
25,192,56100,1,0,0:0:0:0:m_045.ogg
128,192,56100,1,0,0:0:0:0:m_041.ogg
76,192,56250,1,0,0:0:0:0:m_046.ogg
179,192,56250,1,0,0:0:0:0:m_043.ogg
128,192,56400,1,0,0:0:0:0:m_045.ogg
230,192,56400,1,0,0:0:0:0:m_053.ogg
281,192,56400,1,0,0:0:0:0:l_021.ogg
332,192,56400,1,0,0:0:0:0:l_041.ogg
435,192,56400,1,0,0:0:0:0:l_048.ogg
486,192,56400,1,0,0:0:0:0:l_036.ogg
25,192,56550,1,0,0:0:0:0:m_050.ogg
179,192,56550,1,0,0:0:0:0:m_046.ogg
128,192,56700,1,0,0:0:0:0:m_045.ogg
230,192,56700,1,0,0:0:0:0:m_048.ogg
76,192,56850,1,0,0:0:0:0:m_046.ogg
179,192,56850,1,0,0:0:0:0:m_043.ogg
128,192,57000,1,0,0:0:0:0:m_048.ogg
230,192,57000,1,0,0:0:0:0:m_045.ogg
25,192,57150,1,0,0:0:0:0:m_045.ogg
76,192,57150,1,0,0:0:0:0:m_053.ogg
179,192,57300,1,0,0:0:0:0:m_052.ogg
230,192,57300,1,0,0:0:0:0:m_046.ogg
25,192,57450,1,0,0:0:0:0:m_048.ogg
76,192,57450,1,0,0:0:0:0:m_053.ogg
128,192,57600,1,0,0:0:0:0:l_041.ogg
179,192,57600,1,0,0:0:0:0:l_038.ogg
230,192,57600,1,0,0:0:0:0:l_046.ogg
281,192,57600,1,0,0:0:0:0:l_022.ogg
332,192,57600,1,0,0:0:0:0:m_050.ogg
384,192,57900,1,0,0:0:0:0:m_050.ogg
486,192,57900,1,0,0:0:0:0:m_053.ogg
332,192,58050,1,0,0:0:0:0:m_048.ogg
435,192,58050,1,0,0:0:0:0:m_052.ogg
281,192,58200,1,0,0:0:0:0:m_046.ogg
384,192,58200,1,0,0:0:0:0:m_050.ogg
384,192,58500,1,0,0:0:0:0:m_048.ogg
486,192,58500,1,0,0:0:0:0:m_045.ogg
332,192,58650,1,0,0:0:0:0:m_043.ogg
435,192,58650,1,0,0:0:0:0:m_046.ogg
76,192,58800,1,0,0:0:0:0:l_045.ogg
128,192,58800,1,0,0:0:0:0:l_036.ogg
179,192,58800,1,0,0:0:0:0:l_041.ogg
384,192,58800,1,0,0:0:0:0:m_048.ogg
486,192,58800,1,0,0:0:0:0:l_017.ogg
332,192,58950,1,0,0:0:0:0:m_043.ogg
435,192,58950,1,0,0:0:0:0:m_046.ogg
281,192,59100,1,0,0:0:0:0:m_041.ogg
384,192,59100,1,0,0:0:0:0:m_045.ogg
332,192,59250,1,0,0:0:0:0:m_043.ogg
435,192,59250,1,0,0:0:0:0:m_046.ogg
384,192,59400,1,0,0:0:0:0:m_045.ogg
486,192,59400,1,0,0:0:0:0:m_048.ogg
281,192,59550,1,0,0:0:0:0:m_046.ogg
435,192,59550,1,0,0:0:0:0:m_050.ogg
332,192,59700,1,0,0:0:0:0:m_048.ogg
486,192,59700,1,0,0:0:0:0:m_052.ogg
281,192,59850,1,0,0:0:0:0:m_053.ogg
384,192,59850,1,0,0:0:0:0:m_050.ogg
25,192,60000,1,0,0:0:0:0:m_046.ogg
76,192,60000,1,0,0:0:0:0:m_050.ogg
179,192,60000,1,0,0:0:0:0:l_038.ogg
332,192,60000,1,0,0:0:0:0:l_022.ogg
435,192,60000,1,0,0:0:0:0:l_041.ogg
486,192,60000,1,0,0:0:0:0:l_043.ogg
128,192,60300,1,0,0:0:0:0:m_050.ogg
230,192,60300,1,0,0:0:0:0:m_053.ogg
76,192,60450,1,0,0:0:0:0:m_048.ogg
179,192,60450,1,0,0:0:0:0:m_052.ogg
128,192,60600,1,0,0:0:0:0:m_050.ogg
230,192,60600,1,0,0:0:0:0:m_053.ogg
128,192,60900,1,0,0:0:0:0:m_052.ogg
76,192,61050,1,0,0:0:0:0:m_053.ogg
179,192,61050,1,0,0:0:0:0:m_050.ogg
25,192,61200,1,0,0:0:0:0:m_052.ogg
128,192,61200,1,0,0:0:0:0:m_048.ogg
281,192,61200,1,0,0:0:0:0:l_024.ogg
384,192,61200,1,0,0:0:0:0:l_040.ogg
435,192,61200,1,0,0:0:0:0:l_036.ogg
486,192,61200,1,0,0:0:0:0:l_043.ogg
76,192,61350,1,0,0:0:0:0:m_050.ogg
179,192,61350,1,0,0:0:0:0:m_053.ogg
128,192,61500,1,0,0:0:0:0:m_052.ogg
230,192,61500,1,0,0:0:0:0:m_055.ogg
179,192,61650,1,0,0:0:0:0:m_053.ogg
25,192,61800,1,0,0:0:0:0:m_055.ogg
128,192,61800,1,0,0:0:0:0:m_052.ogg
76,192,61950,1,0,0:0:0:0:m_057.ogg
179,192,61950,1,0,0:0:0:0:m_053.ogg
25,192,62100,1,0,0:0:0:0:m_058.ogg
230,192,62100,1,0,0:0:0:0:m_050.ogg
76,192,62250,1,0,0:0:0:0:m_052.ogg
179,192,62250,1,0,0:0:0:0:m_060.ogg
128,192,62400,1,0,0:0:0:0:l_036.ogg
230,192,62400,1,0,0:0:0:0:l_045.ogg
281,192,62400,1,0,0:0:0:0:m_057.ogg
332,192,62400,1,0,0:0:0:0:l_029.ogg
486,192,62400,1,0,0:0:0:0:l_041.ogg
332,192,62700,1,0,0:0:0:0:m_048.ogg
384,192,62700,1,0,0:0:0:0:m_045.ogg
435,192,62700,1,0,0:0:0:0:m_053.ogg
384,192,63000,1,0,0:0:0:0:m_046.ogg
435,192,63000,1,0,0:0:0:0:m_048.ogg
486,192,63000,1,0,0:0:0:0:m_055.ogg
332,192,63300,1,0,0:0:0:0:m_048.ogg
384,192,63300,1,0,0:0:0:0:m_045.ogg
435,192,63300,1,0,0:0:0:0:m_053.ogg
25,192,63600,1,0,0:0:0:0:l_048.ogg
76,192,63600,1,0,0:0:0:0:l_043.ogg
281,192,63600,1,0,0:0:0:0:l_024.ogg
332,192,63600,1,0,0:0:0:0:l_040.ogg
384,192,63600,1,0,0:0:0:0:m_052.ogg
281,192,63900,1,0,0:0:0:0:m_048.ogg
384,192,63900,1,0,0:0:0:0:m_055.ogg
435,192,63900,1,0,0:0:0:0:m_040.ogg
332,192,64200,1,0,0:0:0:0:m_048.ogg
384,192,64200,1,0,0:0:0:0:m_057.ogg
486,192,64200,1,0,0:0:0:0:m_041.ogg
281,192,64500,1,0,0:0:0:0:m_048.ogg
384,192,64500,1,0,0:0:0:0:m_055.ogg
435,192,64500,1,0,0:0:0:0:m_040.ogg
25,192,64800,1,0,0:0:0:0:l_026.ogg
128,192,64800,1,0,0:0:0:0:m_053.ogg
281,192,64800,1,0,0:0:0:0:l_045.ogg
332,192,64800,1,0,0:0:0:0:l_038.ogg
486,192,64800,1,0,0:0:0:0:l_041.ogg
128,192,65100,1,0,0:0:0:0:m_045.ogg
230,192,65100,1,0,0:0:0:0:m_050.ogg
76,192,65400,1,0,0:0:0:0:m_048.ogg
128,192,65400,1,0,0:0:0:0:m_041.ogg
179,192,65400,1,0,0:0:0:0:m_045.ogg
128,192,65700,1,0,0:0:0:0:m_050.ogg
230,192,65700,1,0,0:0:0:0:m_045.ogg
128,192,66000,1,0,0:0:0:0:m_048.ogg
179,192,66000,1,0,0:0:0:0:m_052.ogg
230,192,66000,1,0,0:0:0:0:l_021.ogg
332,192,66000,1,0,0:0:0:0:l_036.ogg
384,192,66000,1,0,0:0:0:0:l_045.ogg
435,192,66000,1,0,0:0:0:0:l_040.ogg
25,192,66300,1,0,0:0:0:0:m_045.ogg
76,192,66300,1,0,0:0:0:0:m_040.ogg
128,192,66300,1,0,0:0:0:0:m_036.ogg
25,192,66600,1,0,0:0:0:0:m_048.ogg
179,192,66600,1,0,0:0:0:0:m_034.ogg
230,192,66600,1,0,0:0:0:0:m_045.ogg
25,192,66900,1,0,0:0:0:0:m_048.ogg
76,192,66900,1,0,0:0:0:0:m_043.ogg
179,192,66900,1,0,0:0:0:0:m_036.ogg
128,192,67200,1,0,0:0:0:0:l_022.ogg
230,192,67200,1,0,0:0:0:0:l_041.ogg
332,192,67200,1,0,0:0:0:0:m_046.ogg
486,192,67200,1,0,0:0:0:0:l_038.ogg
281,192,67500,1,0,0:0:0:0:m_046.ogg
332,192,67500,1,0,0:0:0:0:m_050.ogg
384,192,67500,1,0,0:0:0:0:m_053.ogg
281,192,67800,1,0,0:0:0:0:m_046.ogg
332,192,67800,1,0,0:0:0:0:m_052.ogg
435,192,67800,1,0,0:0:0:0:m_055.ogg
281,192,68100,1,0,0:0:0:0:m_053.ogg
384,192,68100,1,0,0:0:0:0:m_050.ogg
486,192,68100,1,0,0:0:0:0:m_058.ogg
25,192,68400,1,0,0:0:0:0:l_017.ogg
76,192,68400,1,0,0:0:0:0:l_036.ogg
128,192,68400,1,0,0:0:0:0:l_045.ogg
179,192,68400,1,0,0:0:0:0:l_041.ogg
384,192,68400,1,0,0:0:0:0:m_048.ogg
435,192,68400,1,0,0:0:0:0:m_053.ogg
486,192,68400,1,0,0:0:0:0:m_057.ogg
281,192,68700,1,0,0:0:0:0:m_053.ogg
332,192,68700,1,0,0:0:0:0:m_045.ogg
384,192,68700,1,0,0:0:0:0:m_036.ogg
332,192,69000,1,0,0:0:0:0:m_053.ogg
384,192,69000,1,0,0:0:0:0:m_034.ogg
435,192,69000,1,0,0:0:0:0:m_048.ogg
384,192,69300,1,0,0:0:0:0:m_036.ogg
435,192,69300,1,0,0:0:0:0:m_053.ogg
486,192,69300,1,0,0:0:0:0:m_057.ogg
25,192,69600,1,0,0:0:0:0:l_022.ogg
76,192,69600,1,0,0:0:0:0:l_038.ogg
179,192,69600,1,0,0:0:0:0:m_053.ogg
281,192,69600,1,0,0:0:0:0:l_046.ogg
332,192,69600,1,0,0:0:0:0:l_041.ogg
76,192,69900,1,0,0:0:0:0:m_053.ogg
179,192,69900,1,0,0:0:0:0:m_050.ogg
230,192,69900,1,0,0:0:0:0:m_058.ogg
25,192,70200,1,0,0:0:0:0:m_050.ogg
128,192,70200,1,0,0:0:0:0:m_048.ogg
230,192,70200,1,0,0:0:0:0:m_057.ogg
128,192,70500,1,0,0:0:0:0:m_050.ogg
179,192,70500,1,0,0:0:0:0:m_058.ogg
25,192,70800,1,0,0:0:0:0:m_048.ogg
76,192,70800,1,0,0:0:0:0:m_052.ogg
230,192,70800,1,0,0:0:0:0:m_055.ogg
281,192,70800,1,0,0:0:0:0:l_024.ogg
384,192,70800,1,0,0:0:0:0:l_040.ogg
435,192,70800,1,0,0:0:0:0:l_036.ogg
486,192,70800,1,0,0:0:0:0:l_043.ogg
76,192,71100,1,0,0:0:0:0:m_040.ogg
179,192,71100,1,0,0:0:0:0:m_048.ogg
25,192,71400,1,0,0:0:0:0:m_055.ogg
128,192,71400,1,0,0:0:0:0:m_038.ogg
230,192,71400,1,0,0:0:0:0:m_046.ogg
76,192,71700,1,0,0:0:0:0:m_040.ogg
179,192,71700,1,0,0:0:0:0:m_052.ogg
230,192,71700,1,0,0:0:0:0:m_048.ogg
25,192,72000,1,0,0:0:0:0:l_041.ogg
76,192,72000,1,0,0:0:0:0:l_048.ogg
128,192,72000,1,0,0:0:0:0:l_045.ogg
332,192,72000,1,0,0:0:0:0:m_053.ogg
384,192,72000,1,0,0:0:0:0:l_029.ogg
179,192,72300,1,0,0:0:0:0:m_041.ogg
281,192,72300,1,0,0:0:0:0:m_057.ogg
486,192,72300,1,0,0:0:0:0:m_053.ogg
332,192,72450,1,0,0:0:0:0:m_043.ogg
435,192,72450,1,0,0:0:0:0:m_052.ogg
179,192,72600,1,0,0:0:0:0:m_045.ogg
384,192,72600,1,0,0:0:0:0:m_057.ogg
486,192,72600,1,0,0:0:0:0:m_053.ogg
179,192,72900,1,0,0:0:0:0:m_041.ogg
281,192,72900,1,0,0:0:0:0:m_057.ogg
332,192,72900,1,0,0:0:0:0:m_045.ogg
25,192,73200,1,0,0:0:0:0:l_024.ogg
76,192,73200,1,0,0:0:0:0:l_043.ogg
128,192,73200,1,0,0:0:0:0:l_052.ogg
230,192,73200,1,0,0:0:0:0:l_048.ogg
435,192,73200,1,0,0:0:0:0:m_055.ogg
486,192,73200,1,0,0:0:0:0:m_040.ogg
128,192,73500,1,0,0:0:0:0:m_052.ogg
281,192,73500,1,0,0:0:0:0:m_055.ogg
384,192,73500,1,0,0:0:0:0:m_048.ogg
332,192,73650,1,0,0:0:0:0:m_053.ogg
435,192,73650,1,0,0:0:0:0:m_050.ogg
384,192,73800,1,0,0:0:0:0:m_052.ogg
486,192,73800,1,0,0:0:0:0:m_055.ogg
128,192,74100,1,0,0:0:0:0:m_052.ogg
281,192,74100,1,0,0:0:0:0:m_055.ogg
384,192,74100,1,0,0:0:0:0:m_048.ogg
25,192,74400,1,0,0:0:0:0:l_045.ogg
76,192,74400,1,0,0:0:0:0:l_041.ogg
179,192,74400,1,0,0:0:0:0:l_050.ogg
435,192,74400,1,0,0:0:0:0:m_053.ogg
486,192,74400,1,0,0:0:0:0:l_026.ogg
281,192,74700,1,0,0:0:0:0:m_053.ogg
384,192,74700,1,0,0:0:0:0:m_038.ogg
332,192,74850,1,0,0:0:0:0:m_040.ogg
435,192,74850,1,0,0:0:0:0:m_055.ogg
76,192,75000,1,0,0:0:0:0:m_041.ogg
384,192,75000,1,0,0:0:0:0:m_057.ogg
486,192,75000,1,0,0:0:0:0:m_053.ogg
281,192,75300,1,0,0:0:0:0:m_053.ogg
384,192,75300,1,0,0:0:0:0:m_038.ogg
25,192,75600,1,0,0:0:0:0:l_021.ogg
128,192,75600,1,0,0:0:0:0:l_040.ogg
179,192,75600,1,0,0:0:0:0:l_048.ogg
230,192,75600,1,0,0:0:0:0:l_045.ogg
281,192,75600,1,0,0:0:0:0:m_060.ogg
486,192,75600,1,0,0:0:0:0:m_057.ogg
230,192,75900,1,0,0:0:0:0:m_048.ogg
384,192,75900,1,0,0:0:0:0:m_060.ogg
486,192,75900,1,0,0:0:0:0:m_057.ogg
332,192,76050,1,0,0:0:0:0:m_046.ogg
435,192,76050,1,0,0:0:0:0:m_055.ogg
230,192,76200,1,0,0:0:0:0:m_045.ogg
281,192,76200,1,0,0:0:0:0:m_060.ogg
384,192,76200,1,0,0:0:0:0:m_053.ogg
230,192,76500,1,0,0:0:0:0:m_043.ogg
281,192,76500,1,0,0:0:0:0:m_060.ogg
332,192,76500,1,0,0:0:0:0:m_052.ogg
25,192,76800,1,0,0:0:0:0:m_041.ogg
76,192,76800,1,0,0:0:0:0:m_062.ogg
384,192,76800,1,0,0:0:0:0:m_038.ogg
435,192,76800,1,0,0:0:0:0:l_022.ogg
486,192,76800,1,0,0:0:0:0:l_050.ogg
128,192,77100,1,0,0:0:0:0:m_062.ogg
230,192,77100,1,0,0:0:0:0:m_050.ogg
384,192,77100,1,0,0:0:0:0:m_046.ogg
76,192,77250,1,0,0:0:0:0:m_045.ogg
179,192,77250,1,0,0:0:0:0:m_048.ogg
25,192,77400,1,0,0:0:0:0:m_043.ogg
230,192,77400,1,0,0:0:0:0:m_050.ogg
384,192,77400,1,0,0:0:0:0:m_062.ogg
435,192,77400,1,0,0:0:0:0:m_040.ogg
76,192,77700,1,0,0:0:0:0:m_062.ogg
179,192,77700,1,0,0:0:0:0:m_052.ogg
384,192,77700,1,0,0:0:0:0:m_046.ogg
76,192,78000,1,0,0:0:0:0:m_060.ogg
128,192,78000,1,0,0:0:0:0:m_053.ogg
281,192,78000,1,0,0:0:0:0:l_045.ogg
332,192,78000,1,0,0:0:0:0:l_017.ogg
435,192,78000,1,0,0:0:0:0:l_048.ogg
486,192,78000,1,0,0:0:0:0:l_041.ogg
25,192,78300,1,0,0:0:0:0:m_060.ogg
230,192,78300,1,0,0:0:0:0:m_057.ogg
332,192,78300,1,0,0:0:0:0:m_041.ogg
76,192,78450,1,0,0:0:0:0:m_043.ogg
179,192,78450,1,0,0:0:0:0:m_055.ogg
25,192,78600,1,0,0:0:0:0:m_060.ogg
128,192,78600,1,0,0:0:0:0:m_053.ogg
332,192,78600,1,0,0:0:0:0:m_045.ogg
128,192,78900,1,0,0:0:0:0:m_057.ogg
230,192,78900,1,0,0:0:0:0:m_060.ogg
332,192,78900,1,0,0:0:0:0:m_048.ogg
25,192,79200,1,0,0:0:0:0:m_062.ogg
76,192,79200,1,0,0:0:0:0:m_058.ogg
281,192,79200,1,0,0:0:0:0:l_050.ogg
384,192,79200,1,0,0:0:0:0:l_022.ogg
435,192,79200,1,0,0:0:0:0:l_041.ogg
486,192,79200,1,0,0:0:0:0:l_046.ogg
128,192,79500,1,0,0:0:0:0:m_062.ogg
230,192,79500,1,0,0:0:0:0:m_053.ogg
384,192,79500,1,0,0:0:0:0:m_050.ogg
76,192,79650,1,0,0:0:0:0:m_048.ogg
179,192,79650,1,0,0:0:0:0:m_052.ogg
25,192,79800,1,0,0:0:0:0:m_062.ogg
128,192,79800,1,0,0:0:0:0:m_050.ogg
384,192,79800,1,0,0:0:0:0:m_046.ogg
25,192,80100,1,0,0:0:0:0:m_050.ogg
76,192,80100,1,0,0:0:0:0:m_062.ogg
384,192,80100,1,0,0:0:0:0:m_045.ogg
128,192,80400,1,0,0:0:0:0:m_064.ogg
179,192,80400,1,0,0:0:0:0:l_024.ogg
332,192,80400,1,0,0:0:0:0:l_048.ogg
435,192,80400,1,0,0:0:0:0:l_043.ogg
486,192,80400,1,0,0:0:0:0:l_040.ogg
128,192,80700,1,0,0:0:0:0:m_052.ogg
230,192,80700,1,0,0:0:0:0:m_043.ogg
281,192,80700,1,0,0:0:0:0:m_048.ogg
76,192,80850,1,0,0:0:0:0:m_046.ogg
25,192,81000,1,0,0:0:0:0:m_052.ogg
179,192,81000,1,0,0:0:0:0:m_048.ogg
281,192,81000,1,0,0:0:0:0:m_045.ogg
76,192,81300,1,0,0:0:0:0:m_052.ogg
128,192,81300,1,0,0:0:0:0:m_048.ogg
281,192,81300,1,0,0:0:0:0:m_043.ogg
25,192,81600,1,0,0:0:0:0:l_048.ogg
230,192,81600,1,0,0:0:0:0:l_045.ogg
384,192,81600,1,0,0:0:0:0:l_029.ogg
486,192,81600,1,0,0:0:0:0:l_041.ogg
332,192,82200,1,0,0:0:0:0:m_053.ogg
281,192,82500,1,0,0:0:0:0:m_060.ogg
435,192,82500,1,0,0:0:0:0:m_057.ogg
25,192,82800,1,0,0:0:0:0:l_052.ogg
76,192,82800,1,0,0:0:0:0:m_057.ogg
128,192,82800,1,0,0:0:0:0:m_040.ogg
179,192,82800,1,0,0:0:0:0:l_024.ogg
281,192,82800,1,0,0:0:0:0:m_060.ogg
435,192,82800,1,0,0:0:0:0:m_045.ogg
332,192,83100,1,0,0:0:0:0:m_062.ogg
486,192,83100,1,0,0:0:0:0:m_058.ogg
281,192,83400,1,0,0:0:0:0:m_060.ogg
435,192,83400,1,0,0:0:0:0:m_057.ogg
128,192,83700,1,0,0:0:0:0:m_043.ogg
230,192,83700,1,0,0:0:0:0:m_055.ogg
384,192,83700,1,0,0:0:0:0:m_046.ogg
486,192,83700,1,0,0:0:0:0:m_058.ogg
25,192,84000,1,0,0:0:0:0:l_050.ogg
76,192,84000,1,0,0:0:0:0:l_026.ogg
179,192,84000,1,0,0:0:0:0:l_045.ogg
281,192,84000,1,0,0:0:0:0:l_041.ogg
332,192,84000,1,0,0:0:0:0:m_057.ogg
435,192,84000,1,0,0:0:0:0:m_053.ogg
332,192,84900,1,0,0:0:0:0:m_057.ogg
435,192,84900,1,0,0:0:0:0:m_053.ogg
25,192,85200,1,0,0:0:0:0:l_048.ogg
128,192,85200,1,0,0:0:0:0:l_021.ogg
179,192,85200,1,0,0:0:0:0:m_053.ogg
230,192,85200,1,0,0:0:0:0:m_041.ogg
332,192,85200,1,0,0:0:0:0:m_057.ogg
435,192,85200,1,0,0:0:0:0:m_045.ogg
384,192,85500,1,0,0:0:0:0:m_058.ogg
486,192,85500,1,0,0:0:0:0:m_055.ogg
332,192,85800,1,0,0:0:0:0:m_057.ogg
435,192,85800,1,0,0:0:0:0:m_053.ogg
76,192,86100,1,0,0:0:0:0:m_052.ogg
179,192,86100,1,0,0:0:0:0:m_043.ogg
281,192,86100,1,0,0:0:0:0:m_040.ogg
384,192,86100,1,0,0:0:0:0:m_055.ogg
25,192,86400,1,0,0:0:0:0:l_022.ogg
128,192,86400,1,0,0:0:0:0:l_038.ogg
230,192,86400,1,0,0:0:0:0:m_053.ogg
332,192,86400,1,0,0:0:0:0:l_046.ogg
435,192,86400,1,0,0:0:0:0:l_050.ogg
486,192,86400,1,0,0:0:0:0:l_041.ogg
179,192,86700,1,0,0:0:0:0:m_051.ogg
76,192,87000,1,0,0:0:0:0:m_050.ogg
179,192,87300,1,0,0:0:0:0:m_043.ogg
230,192,87300,1,0,0:0:0:0:m_051.ogg
25,192,87600,1,0,0:0:0:0:m_048.ogg
128,192,87600,1,0,0:0:0:0:l_045.ogg
281,192,87600,1,0,0:0:0:0:l_053.ogg
332,192,87600,1,0,0:0:0:0:l_017.ogg
384,192,87600,1,0,0:0:0:0:l_041.ogg
435,192,87600,1,0,0:0:0:0:l_036.ogg
76,192,88500,1,0,0:0:0:0:m_048.ogg
128,192,88800,1,0,0:0:0:0:m_053.ogg
179,192,88800,1,0,0:0:0:0:l_050.ogg
230,192,88800,1,0,0:0:0:0:l_022.ogg
384,192,88800,1,0,0:0:0:0:l_046.ogg
435,192,88800,1,0,0:0:0:0:l_038.ogg
486,192,88800,1,0,0:0:0:0:l_041.ogg
76,192,89100,1,0,0:0:0:0:m_051.ogg
25,192,89400,1,0,0:0:0:0:m_050.ogg
230,192,89400,1,0,0:0:0:0:m_053.ogg
76,192,89700,1,0,0:0:0:0:m_051.ogg
25,192,90000,1,0,0:0:0:0:l_024.ogg
128,192,90000,1,0,0:0:0:0:m_048.ogg
179,192,90000,1,0,0:0:0:0:m_052.ogg
281,192,90000,1,0,0:0:0:0:l_040.ogg
332,192,90000,1,0,0:0:0:0:l_036.ogg
384,192,90000,1,0,0:0:0:0:l_043.ogg
281,192,90900,1,0,0:0:0:0:m_043.ogg
332,192,90900,1,0,0:0:0:0:m_052.ogg
384,192,90900,1,0,0:0:0:0:m_048.ogg
76,192,91200,1,0,0:0:0:0:l_029.ogg
179,192,91200,1,0,0:0:0:0:l_060.ogg
230,192,91200,1,0,0:0:0:0:m_045.ogg
332,192,91200,1,0,0:0:0:0:m_036.ogg
384,192,91200,1,0,0:0:0:0:m_041.ogg
435,192,91200,1,0,0:0:0:0:m_053.ogg
25,192,91800,1,0,0:0:0:0:m_053.ogg
128,192,91800,1,0,0:0:0:0:m_041.ogg
281,192,91800,1,0,0:0:0:0:l_057.ogg
435,192,91800,1,0,0:0:0:0:l_048.ogg
486,192,91800,1,0,0:0:0:0:l_045.ogg
76,192,92400,1,0,0:0:0:0:m_048.ogg
179,192,92400,1,0,0:0:0:0:m_040.ogg
332,192,92400,1,0,0:0:0:0:l_024.ogg
384,192,92400,1,0,0:0:0:0:l_052.ogg
25,192,93000,1,0,0:0:0:0:m_046.ogg
128,192,93000,1,0,0:0:0:0:m_052.ogg
435,192,93000,1,0,0:0:0:0:m_055.ogg
486,192,93000,1,0,0:0:0:0:m_043.ogg
384,192,93300,1,0,0:0:0:0:m_046.ogg
76,192,93600,1,0,0:0:0:0:l_045.ogg
179,192,93600,1,0,0:0:0:0:l_041.ogg
230,192,93600,1,0,0:0:0:0:l_050.ogg
281,192,93600,1,0,0:0:0:0:l_026.ogg
332,192,93600,1,0,0:0:0:0:m_053.ogg
384,192,94200,1,0,0:0:0:0:l_065.ogg
486,192,94200,1,0,0:0:0:0:m_038.ogg
25,192,94800,1,0,0:0:0:0:l_021.ogg
76,192,94800,1,0,0:0:0:0:l_048.ogg
179,192,94800,1,0,0:0:0:0:l_041.ogg
281,192,94800,1,0,0:0:0:0:m_057.ogg
332,192,94800,1,0,0:0:0:0:m_036.ogg
384,192,95400,1,0,0:0:0:0:m_063.ogg
486,192,95400,1,0,0:0:0:0:m_048.ogg
435,192,95700,1,0,0:0:0:0:m_055.ogg
25,192,96000,1,0,0:0:0:0:l_046.ogg
76,192,96000,1,0,0:0:0:0:l_041.ogg
230,192,96000,1,0,0:0:0:0:l_050.ogg
281,192,96000,1,0,0:0:0:0:l_062.ogg
332,192,96000,1,0,0:0:0:0:l_053.ogg
384,192,96000,1,0,0:0:0:0:l_022.ogg
179,192,96600,1,0,0:0:0:0:m_058.ogg
128,192,97200,1,0,0:0:0:0:m_065.ogg
230,192,97200,1,0,0:0:0:0:m_057.ogg
281,192,97200,1,0,0:0:0:0:l_017.ogg
332,192,97200,1,0,0:0:0:0:l_041.ogg
435,192,97200,1,0,0:0:0:0:l_045.ogg
486,192,97200,1,0,0:0:0:0:l_048.ogg
76,192,97800,1,0,0:0:0:0:m_060.ogg
179,192,97800,1,0,0:0:0:0:m_045.ogg
435,192,97800,1,0,0:0:0:0:m_053.ogg
76,192,98400,1,0,0:0:0:0:l_062.ogg
230,192,98400,1,0,0:0:0:0:l_050.ogg
332,192,98400,1,0,0:0:0:0:l_053.ogg
384,192,98400,1,0,0:0:0:0:l_022.ogg
435,192,98400,1,0,0:0:0:0:l_041.ogg
486,192,98400,1,0,0:0:0:0:l_043.ogg
25,192,99000,1,0,0:0:0:0:m_050.ogg
76,192,99600,1,0,0:0:0:0:l_060.ogg
179,192,99600,1,0,0:0:0:0:l_040.ogg
281,192,99600,1,0,0:0:0:0:l_052.ogg
332,192,99600,1,0,0:0:0:0:l_024.ogg
384,192,99600,1,0,0:0:0:0:l_043.ogg
435,192,99600,1,0,0:0:0:0:l_048.ogg
128,192,100200,1,0,0:0:0:0:m_055.ogg
230,192,100800,1,0,0:0:0:0:l_029.ogg
179,192,100800,128,0,105600:0:0:0:0:l_053.ogg
76,192,100800,128,0,105600:0:0:0:0:l_017.ogg
128,192,100800,128,0,105600:0:0:0:0:l_057.ogg
25,192,100800,128,0,105600:0:0:0:0:l_048.ogg
281,192,100825,128,0,105600:0:0:0:0:l_024.ogg
332,192,100850,128,0,105600:0:0:0:0:l_033.ogg
384,192,100875,128,0,105600:0:0:0:0:l_036.ogg
435,192,100900,128,0,105600:0:0:0:0:l_041.ogg
486,192,100925,128,0,105600:0:0:0:0:l_045.ogg
230,192,100950,128,0,105600:0:0:0:0:l_048.ogg
