osu file format v14

[General]
AudioFilename: virtual
AudioLeadIn: 0
PreviewTime: 0
Countdown: 0
SampleSet: None
StackLeniency: 0.7
Mode: 3
LetterboxInBreaks: 0
SpecialStyle: 0
WidescreenStoryboard: 1

[Editor]
DistanceSpacing: 0.8
BeatDivisor: 4
GridSize: 16
TimelineZoom: 1.400007

[Metadata]
Title:Piano Beatmap Set
TitleUnicode:Piano Beatmap Set
Artist:Collection
ArtistUnicode:Collection
Creator:CircusGalop
Version:Black Key - 5K EX
Source:BMS
Tags:
BeatmapID:1316761
BeatmapSetID:332673

[Difficulty]
HPDrainRate:9
CircleSize:5
OverallDifficulty:5
ApproachRate:5
SliderMultiplier:1.4
SliderTickRate:1

[Events]
//Background and Video events
0,0,"CircusGalop.jpg",0,0
//Break Periods
//Storyboard Layer 0 (Background)
//Storyboard Layer 1 (Fail)
//Storyboard Layer 2 (Pass)
//Storyboard Layer 3 (Foreground)
//Storyboard Sound Samples
Sample,2000,0,"s_037.ogg",100
Sample,2000,0,"s_045.ogg",100
Sample,2250,0,"s_038.ogg",100
Sample,2250,0,"s_045.ogg",100
Sample,2500,0,"s_033.ogg",100
Sample,2500,0,"s_045.ogg",100
Sample,3250,0,"s_045.ogg",100
Sample,3500,0,"s_045.ogg",100
Sample,4250,0,"s_044.ogg",100
Sample,4500,0,"m_042.ogg",100
Sample,5250,0,"s_042.ogg",100
Sample,5500,0,"m_035.ogg",100
Sample,6000,0,"s_033.ogg",100
Sample,6000,0,"s_040.ogg",100
Sample,6250,0,"s_033.ogg",100
Sample,6250,0,"s_038.ogg",100
Sample,6500,0,"s_045.ogg",100
Sample,6500,0,"s_040.ogg",100
Sample,7250,0,"s_045.ogg",100
Sample,7500,0,"s_040.ogg",100
Sample,10200,0,"s_033.ogg",100
Sample,10200,0,"s_037.ogg",100
Sample,10450,0,"s_038.ogg",100
Sample,10450,0,"s_033.ogg",100
Sample,10700,0,"s_033.ogg",100
Sample,10700,0,"s_037.ogg",100
Sample,11450,0,"s_045.ogg",100
Sample,11700,0,"s_045.ogg",100
Sample,12450,0,"s_044.ogg",100
Sample,12700,0,"m_035.ogg",100
Sample,13450,0,"s_042.ogg",100
Sample,13700,0,"m_035.ogg",100
Sample,14200,0,"s_040.ogg",100
Sample,14200,0,"s_033.ogg",100
Sample,14450,0,"s_038.ogg",100
Sample,14450,0,"s_045.ogg",100
Sample,14700,0,"s_045.ogg",100
Sample,14700,0,"s_037.ogg",100
Sample,15450,0,"s_038.ogg",100
Sample,15700,0,"s_045.ogg",100
Sample,18200,0,"s_039.ogg",100
Sample,18450,0,"s_035.ogg",100
Sample,18700,0,"s_040.ogg",100
Sample,18950,0,"s_035.ogg",100
Sample,19200,0,"s_039.ogg",100
Sample,19450,0,"s_047.ogg",100
Sample,20450,0,"s_045.ogg",100
Sample,20700,0,"m_035.ogg",100
Sample,21450,0,"s_045.ogg",100
Sample,21950,0,"s_044.ogg",100
Sample,22450,0,"s_039.ogg",100
Sample,22700,0,"s_040.ogg",100
Sample,22950,0,"s_047.ogg",100
Sample,23200,0,"s_049.ogg",100
Sample,23450,0,"s_045.ogg",100
Sample,24450,0,"m_042.ogg",100
Sample,25450,0,"m_042.ogg",100
Sample,26450,0,"s_045.ogg",100
Sample,30450,0,"s_044.ogg",100
Sample,31450,0,"s_040.ogg",100
Sample,32450,0,"s_043.ogg",100
Sample,32950,0,"s_044.ogg",100
Sample,33450,0,"m_045.ogg",100
Sample,35700,0,"m_035.ogg",100
Sample,36075,0,"s_035.ogg",100
Sample,36200,0,"l_045.ogg",100
Sample,39700,0,"m_047.ogg",100
Sample,39700,0,"m_035.ogg",100
Sample,40075,0,"s_047.ogg",100
Sample,40075,0,"s_035.ogg",100
Sample,40200,0,"l_035.ogg",100
Sample,40200,0,"l_047.ogg",100
Sample,46450,0,"s_044.ogg",100
Sample,46700,0,"s_036.ogg",100
Sample,46950,0,"s_040.ogg",100
Sample,47200,0,"m_047.ogg",100
Sample,47700,0,"s_037.ogg",100
Sample,47950,0,"s_036.ogg",100
Sample,48200,0,"m_044.ogg",100
Sample,48700,0,"m_044.ogg",100
Sample,48700,0,"s_047.ogg",100
Sample,49200,0,"m_044.ogg",100
Sample,49200,0,"m_050.ogg",100
Sample,50400,0,"s_040.ogg",100
Sample,50400,0,"s_037.ogg",100
Sample,50650,0,"s_045.ogg",100
Sample,50650,0,"s_033.ogg",100
Sample,50900,0,"s_037.ogg",100
Sample,50900,0,"s_033.ogg",100
Sample,51650,0,"s_045.ogg",100
Sample,51900,0,"s_045.ogg",100
Sample,52650,0,"s_040.ogg",100
Sample,52900,0,"m_035.ogg",100
Sample,53650,0,"s_042.ogg",100
Sample,53900,0,"m_038.ogg",100
Sample,54400,0,"s_045.ogg",100
Sample,54400,0,"s_040.ogg",100
Sample,54650,0,"s_033.ogg",100
Sample,54650,0,"s_038.ogg",100
Sample,54900,0,"s_037.ogg",100
Sample,54900,0,"s_033.ogg",100
Sample,55650,0,"s_045.ogg",100
Sample,55900,0,"s_045.ogg",100
Sample,56900,0,"s_032.ogg",100
Sample,57900,0,"m_041.ogg",100
Sample,58650,0,"s_047.ogg",100
Sample,59150,0,"s_045.ogg",100
Sample,59650,0,"s_038.ogg",100
Sample,59650,0,"s_040.ogg",100
Sample,60150,0,"s_037.ogg",100
Sample,60150,0,"s_040.ogg",100
Sample,60650,0,"s_047.ogg",100
Sample,61150,0,"s_045.ogg",100
Sample,61650,0,"s_040.ogg",100
Sample,61650,0,"s_047.ogg",100
Sample,62150,0,"s_040.ogg",100
Sample,62150,0,"s_037.ogg",100
Sample,62650,0,"m_042.ogg",100
Sample,63650,0,"m_042.ogg",100
Sample,63650,0,"m_035.ogg",100
Sample,64900,0,"m_045.ogg",100
Sample,64900,0,"m_047.ogg",100
Sample,65400,0,"m_047.ogg",100
Sample,67825,0,"m_042.ogg",100
Sample,67825,0,"m_047.ogg",100
Sample,68425,0,"m_040.ogg",100
Sample,69025,0,"m_045.ogg",100
Sample,70025,0,"m_033.ogg",100
Sample,71025,0,"s_037.ogg",100
Sample,71525,0,"s_042.ogg",100
Sample,72025,0,"s_042.ogg",100
Sample,72525,0,"s_038.ogg",100
Sample,73025,0,"s_037.ogg",100
Sample,74025,0,"m_033.ogg",100
Sample,75025,0,"s_033.ogg",100
Sample,75525,0,"s_038.ogg",100
Sample,76025,0,"s_033.ogg",100
Sample,76525,0,"s_032.ogg",100
Sample,77775,0,"s_035.ogg",100
Sample,77775,0,"s_028.ogg",100
Sample,78025,0,"m_045.ogg",100
Sample,78775,0,"s_016.ogg",100
Sample,79025,0,"m_033.ogg",100
Sample,81775,0,"s_021.ogg",100
Sample,82025,0,"s_021.ogg",100
Sample,82275,0,"s_025.ogg",100
Sample,82525,0,"s_028.ogg",100
Sample,82775,0,"s_033.ogg",100
Sample,83025,0,"s_037.ogg",100
Sample,83275,0,"s_040.ogg",100
Sample,83525,0,"s_045.ogg",100
Sample,83775,0,"s_040.ogg",100
Sample,84025,0,"s_045.ogg",100
Sample,84275,0,"s_040.ogg",100
Sample,84525,0,"s_045.ogg",100
Sample,84775,0,"s_040.ogg",100
Sample,85025,0,"s_045.ogg",100
Sample,85425,0,"s_045.ogg",100
Sample,85525,0,"s_030.ogg",100
Sample,85625,0,"s_028.ogg",100
Sample,85725,0,"s_025.ogg",100
Sample,85825,0,"s_035.ogg",100
Sample,85925,0,"s_021.ogg",100
Sample,86025,0,"s_018.ogg",100
Sample,86125,0,"s_028.ogg",100
Sample,86225,0,"s_025.ogg",100
Sample,86325,0,"s_011.ogg",100
Sample,86425,0,"s_009.ogg",100

[TimingPoints]
0,500.000000000004,4,2,0,100,1,0
9500,600,4,2,0,100,1,0
9500,-83.3333333333333,4,2,0,100,0,0
10000,1200,4,2,0,100,1,0
10000,-41.6666666666667,4,2,0,100,0,0
10200,500.000000000004,4,2,0,100,1,0
49700,600,4,2,0,100,1,0
49700,-83.3333333333333,4,2,0,100,0,0
50200,1200,4,2,0,100,1,0
50200,-41.6666666666667,4,2,0,100,0,0
50400,500.000000000004,4,2,0,100,1,0
66400,1500,4,2,0,100,1,0
66400,-33.3333333333333,4,2,0,100,0,0
66775,600,4,2,0,100,1,0
66775,-83.3333333333333,4,2,0,100,0,0
67825,600,4,2,0,100,1,0
67825,-83.3333333333333,4,2,0,100,0,0
69025,500.000000000004,4,2,0,100,1,0
85025,1200,4,2,0,100,1,0
85025,-41.6666666666667,4,2,0,100,0,0
85425,600,4,2,0,100,1,0
85425,-83.3333333333333,4,2,0,100,0,0
86425,750,4,2,0,100,1,0
86425,-66.6666666666667,4,2,0,100,0,0

[HitObjects]
153,192,2000,5,0,0:0:0:0:s_033.ogg
256,192,2000,1,0,0:0:0:0:s_040.ogg
358,192,2000,1,0,0:0:0:0:s_069.ogg
460,192,2083,1,0,0:0:0:0:s_073.ogg
51,192,2166,1,0,0:0:0:0:s_064.ogg
153,192,2250,1,0,0:0:0:0:s_042.ogg
358,192,2250,1,0,0:0:0:0:s_069.ogg
460,192,2250,1,0,0:0:0:0:s_033.ogg
256,192,2333,1,0,0:0:0:0:s_066.ogg
358,192,2416,1,0,0:0:0:0:s_069.ogg
51,192,2500,1,0,0:0:0:0:s_037.ogg
153,192,2500,1,0,0:0:0:0:s_064.ogg
460,192,2500,1,0,0:0:0:0:s_040.ogg
358,192,2583,1,0,0:0:0:0:s_069.ogg
51,192,2666,1,0,0:0:0:0:s_061.ogg
460,192,2750,1,0,0:0:0:0:s_064.ogg
153,192,2833,1,0,0:0:0:0:s_057.ogg
358,192,2916,1,0,0:0:0:0:s_061.ogg
51,192,3000,1,0,0:0:0:0:m_033.ogg
153,192,3000,1,0,0:0:0:0:s_057.ogg
460,192,3000,1,0,0:0:0:0:m_021.ogg
358,192,3083,1,0,0:0:0:0:s_061.ogg
256,192,3166,1,0,0:0:0:0:s_052.ogg
153,192,3250,1,0,0:0:0:0:s_042.ogg
358,192,3250,1,0,0:0:0:0:s_038.ogg
460,192,3250,1,0,0:0:0:0:s_057.ogg
51,192,3333,1,0,0:0:0:0:s_054.ogg
460,192,3416,1,0,0:0:0:0:s_057.ogg
153,192,3500,1,0,0:0:0:0:s_037.ogg
256,192,3500,1,0,0:0:0:0:s_052.ogg
358,192,3500,1,0,0:0:0:0:s_040.ogg
460,192,3583,1,0,0:0:0:0:s_057.ogg
153,192,3666,1,0,0:0:0:0:s_049.ogg
358,192,3750,1,0,0:0:0:0:s_052.ogg
51,192,3833,1,0,0:0:0:0:s_045.ogg
256,192,3916,1,0,0:0:0:0:s_049.ogg
51,192,4000,1,0,0:0:0:0:m_016.ogg
153,192,4000,1,0,0:0:0:0:s_040.ogg
460,192,4000,1,0,0:0:0:0:m_028.ogg
358,192,4083,1,0,0:0:0:0:s_052.ogg
51,192,4166,1,0,0:0:0:0:s_047.ogg
153,192,4250,1,0,0:0:0:0:s_040.ogg
256,192,4250,1,0,0:0:0:0:s_035.ogg
358,192,4250,1,0,0:0:0:0:s_052.ogg
51,192,4333,1,0,0:0:0:0:s_047.ogg
460,192,4416,1,0,0:0:0:0:s_059.ogg
51,192,4500,1,0,0:0:0:0:s_047.ogg
153,192,4500,1,0,0:0:0:0:m_035.ogg
358,192,4500,1,0,0:0:0:0:m_038.ogg
460,192,4583,1,0,0:0:0:0:s_059.ogg
256,192,4666,1,0,0:0:0:0:s_054.ogg
51,192,4750,1,0,0:0:0:0:m_023.ogg
460,192,4750,1,0,0:0:0:0:s_059.ogg
256,192,4833,1,0,0:0:0:0:s_054.ogg
358,192,4916,1,0,0:0:0:0:s_066.ogg
51,192,5000,1,0,0:0:0:0:m_028.ogg
256,192,5000,1,0,0:0:0:0:s_054.ogg
358,192,5083,1,0,0:0:0:0:s_066.ogg
153,192,5166,1,0,0:0:0:0:s_059.ogg
51,192,5250,1,0,0:0:0:0:s_038.ogg
256,192,5250,1,0,0:0:0:0:s_035.ogg
358,192,5250,1,0,0:0:0:0:s_066.ogg
153,192,5333,1,0,0:0:0:0:s_059.ogg
460,192,5416,1,0,0:0:0:0:s_071.ogg
153,192,5500,1,0,0:0:0:0:s_059.ogg
256,192,5500,1,0,0:0:0:0:m_040.ogg
358,192,5500,1,0,0:0:0:0:m_038.ogg
460,192,5583,1,0,0:0:0:0:s_071.ogg
51,192,5666,1,0,0:0:0:0:s_064.ogg
460,192,5750,1,0,0:0:0:0:s_071.ogg
51,192,5833,1,0,0:0:0:0:s_064.ogg
256,192,5916,1,0,0:0:0:0:s_076.ogg
51,192,6000,1,0,0:0:0:0:s_045.ogg
153,192,6000,1,0,0:0:0:0:s_037.ogg
358,192,6000,1,0,0:0:0:0:s_069.ogg
460,192,6083,1,0,0:0:0:0:s_073.ogg
51,192,6166,1,0,0:0:0:0:s_064.ogg
153,192,6250,1,0,0:0:0:0:s_042.ogg
358,192,6250,1,0,0:0:0:0:s_069.ogg
460,192,6250,1,0,0:0:0:0:s_045.ogg
256,192,6333,1,0,0:0:0:0:s_066.ogg
358,192,6416,1,0,0:0:0:0:s_069.ogg
51,192,6500,1,0,0:0:0:0:s_037.ogg
153,192,6500,1,0,0:0:0:0:s_064.ogg
460,192,6500,1,0,0:0:0:0:s_033.ogg
358,192,6583,1,0,0:0:0:0:s_069.ogg
51,192,6666,1,0,0:0:0:0:s_061.ogg
460,192,6750,1,0,0:0:0:0:s_064.ogg
153,192,6833,1,0,0:0:0:0:s_057.ogg
358,192,6916,1,0,0:0:0:0:s_061.ogg
51,192,7000,1,0,0:0:0:0:m_033.ogg
153,192,7000,1,0,0:0:0:0:s_057.ogg
460,192,7000,1,0,0:0:0:0:m_021.ogg
358,192,7083,1,0,0:0:0:0:s_061.ogg
256,192,7166,1,0,0:0:0:0:s_052.ogg
153,192,7250,1,0,0:0:0:0:s_042.ogg
358,192,7250,1,0,0:0:0:0:s_038.ogg
460,192,7250,1,0,0:0:0:0:s_057.ogg
51,192,7333,1,0,0:0:0:0:s_054.ogg
460,192,7416,1,0,0:0:0:0:s_057.ogg
153,192,7500,1,0,0:0:0:0:s_045.ogg
256,192,7500,1,0,0:0:0:0:s_052.ogg
358,192,7500,1,0,0:0:0:0:s_037.ogg
460,192,7583,1,0,0:0:0:0:s_057.ogg
153,192,7666,1,0,0:0:0:0:s_049.ogg
358,192,7750,1,0,0:0:0:0:s_052.ogg
51,192,7833,1,0,0:0:0:0:s_045.ogg
256,192,7916,1,0,0:0:0:0:s_049.ogg
153,192,8000,1,0,0:0:0:0:s_042.ogg
460,192,8000,1,0,0:0:0:0:m_026.ogg
358,192,8083,1,0,0:0:0:0:s_054.ogg
51,192,8166,1,0,0:0:0:0:s_047.ogg
153,192,8250,1,0,0:0:0:0:m_042.ogg
256,192,8250,1,0,0:0:0:0:m_035.ogg
358,192,8250,1,0,0:0:0:0:s_054.ogg
51,192,8333,1,0,0:0:0:0:s_047.ogg
460,192,8416,1,0,0:0:0:0:s_059.ogg
153,192,8500,1,0,0:0:0:0:s_054.ogg
460,192,8583,1,0,0:0:0:0:s_059.ogg
153,192,8666,1,0,0:0:0:0:s_054.ogg
51,192,8750,1,0,0:0:0:0:m_026.ogg
358,192,8750,1,0,0:0:0:0:s_066.ogg
256,192,8833,1,0,0:0:0:0:s_059.ogg
460,192,8916,1,0,0:0:0:0:s_071.ogg
51,192,9000,1,0,0:0:0:0:s_061.ogg
153,192,9000,1,0,0:0:0:0:m_025.ogg
358,192,9041,1,0,0:0:0:0:m_032.ogg
256,192,9083,1,0,0:0:0:0:s_073.ogg
460,192,9083,1,0,0:0:0:0:m_041.ogg
51,192,9166,1,0,0:0:0:0:s_061.ogg
153,192,9250,1,0,0:0:0:0:m_037.ogg
256,192,9250,1,0,0:0:0:0:s_073.ogg
358,192,9291,1,0,0:0:0:0:m_044.ogg
51,192,9333,1,0,0:0:0:0:s_061.ogg
460,192,9333,1,0,0:0:0:0:m_053.ogg
256,192,9416,1,0,0:0:0:0:s_073.ogg
51,192,9500,1,0,0:0:0:0:s_061.ogg
256,192,9600,1,0,0:0:0:0:s_073.ogg
51,192,9700,1,0,0:0:0:0:s_061.ogg
256,192,9800,1,0,0:0:0:0:s_073.ogg
51,192,9900,1,0,0:0:0:0:s_061.ogg
256,192,10000,1,0,0:0:0:0:s_073.ogg
51,192,10200,1,0,0:0:0:0:s_045.ogg
153,192,10200,1,0,0:0:0:0:s_040.ogg
358,192,10200,1,0,0:0:0:0:s_069.ogg
460,192,10283,1,0,0:0:0:0:s_073.ogg
51,192,10366,1,0,0:0:0:0:s_064.ogg
153,192,10450,1,0,0:0:0:0:s_042.ogg
358,192,10450,1,0,0:0:0:0:s_069.ogg
460,192,10450,1,0,0:0:0:0:s_045.ogg
256,192,10533,1,0,0:0:0:0:s_066.ogg
358,192,10616,1,0,0:0:0:0:s_069.ogg
51,192,10700,1,0,0:0:0:0:s_040.ogg
153,192,10700,1,0,0:0:0:0:s_064.ogg
460,192,10700,1,0,0:0:0:0:s_045.ogg
358,192,10783,1,0,0:0:0:0:s_069.ogg
51,192,10866,1,0,0:0:0:0:s_061.ogg
460,192,10950,1,0,0:0:0:0:s_064.ogg
153,192,11033,1,0,0:0:0:0:s_057.ogg
358,192,11116,1,0,0:0:0:0:s_061.ogg
51,192,11200,1,0,0:0:0:0:m_021.ogg
153,192,11200,1,0,0:0:0:0:s_057.ogg
460,192,11200,1,0,0:0:0:0:m_033.ogg
358,192,11283,1,0,0:0:0:0:s_061.ogg
256,192,11366,1,0,0:0:0:0:s_052.ogg
153,192,11450,1,0,0:0:0:0:s_042.ogg
358,192,11450,1,0,0:0:0:0:s_038.ogg
460,192,11450,1,0,0:0:0:0:s_057.ogg
51,192,11533,1,0,0:0:0:0:s_054.ogg
460,192,11616,1,0,0:0:0:0:s_057.ogg
153,192,11700,1,0,0:0:0:0:s_037.ogg
256,192,11700,1,0,0:0:0:0:s_052.ogg
358,192,11700,1,0,0:0:0:0:s_040.ogg
460,192,11783,1,0,0:0:0:0:s_057.ogg
153,192,11866,1,0,0:0:0:0:s_049.ogg
358,192,11950,1,0,0:0:0:0:s_052.ogg
51,192,12033,1,0,0:0:0:0:s_045.ogg
256,192,12116,1,0,0:0:0:0:s_049.ogg
51,192,12200,1,0,0:0:0:0:m_016.ogg
153,192,12200,1,0,0:0:0:0:s_040.ogg
460,192,12200,1,0,0:0:0:0:m_028.ogg
358,192,12283,1,0,0:0:0:0:s_052.ogg
51,192,12366,1,0,0:0:0:0:s_047.ogg
153,192,12450,1,0,0:0:0:0:s_035.ogg
256,192,12450,1,0,0:0:0:0:s_040.ogg
358,192,12450,1,0,0:0:0:0:s_052.ogg
51,192,12533,1,0,0:0:0:0:s_047.ogg
460,192,12616,1,0,0:0:0:0:s_059.ogg
51,192,12700,1,0,0:0:0:0:s_047.ogg
153,192,12700,1,0,0:0:0:0:m_042.ogg
358,192,12700,1,0,0:0:0:0:m_038.ogg
460,192,12783,1,0,0:0:0:0:s_059.ogg
256,192,12866,1,0,0:0:0:0:s_054.ogg
51,192,12950,1,0,0:0:0:0:m_023.ogg
460,192,12950,1,0,0:0:0:0:s_059.ogg
256,192,13033,1,0,0:0:0:0:s_054.ogg
358,192,13116,1,0,0:0:0:0:s_066.ogg
51,192,13200,1,0,0:0:0:0:m_028.ogg
256,192,13200,1,0,0:0:0:0:s_054.ogg
358,192,13283,1,0,0:0:0:0:s_066.ogg
153,192,13366,1,0,0:0:0:0:s_059.ogg
51,192,13450,1,0,0:0:0:0:s_038.ogg
256,192,13450,1,0,0:0:0:0:s_035.ogg
358,192,13450,1,0,0:0:0:0:s_066.ogg
153,192,13533,1,0,0:0:0:0:s_059.ogg
460,192,13616,1,0,0:0:0:0:s_071.ogg
153,192,13700,1,0,0:0:0:0:s_059.ogg
256,192,13700,1,0,0:0:0:0:m_040.ogg
358,192,13700,1,0,0:0:0:0:m_038.ogg
460,192,13783,1,0,0:0:0:0:s_071.ogg
51,192,13866,1,0,0:0:0:0:s_064.ogg
460,192,13950,1,0,0:0:0:0:s_071.ogg
51,192,14033,1,0,0:0:0:0:s_064.ogg
256,192,14116,1,0,0:0:0:0:s_076.ogg
51,192,14200,1,0,0:0:0:0:s_045.ogg
153,192,14200,1,0,0:0:0:0:s_037.ogg
358,192,14200,1,0,0:0:0:0:s_069.ogg
460,192,14283,1,0,0:0:0:0:s_073.ogg
51,192,14366,1,0,0:0:0:0:s_064.ogg
153,192,14450,1,0,0:0:0:0:s_042.ogg
358,192,14450,1,0,0:0:0:0:s_069.ogg
460,192,14450,1,0,0:0:0:0:s_033.ogg
256,192,14533,1,0,0:0:0:0:s_066.ogg
358,192,14616,1,0,0:0:0:0:s_069.ogg
51,192,14700,1,0,0:0:0:0:s_033.ogg
153,192,14700,1,0,0:0:0:0:s_064.ogg
460,192,14700,1,0,0:0:0:0:s_040.ogg
358,192,14783,1,0,0:0:0:0:s_069.ogg
51,192,14866,1,0,0:0:0:0:s_061.ogg
460,192,14950,1,0,0:0:0:0:s_064.ogg
153,192,15033,1,0,0:0:0:0:s_057.ogg
358,192,15116,1,0,0:0:0:0:s_061.ogg
51,192,15200,1,0,0:0:0:0:m_033.ogg
153,192,15200,1,0,0:0:0:0:s_057.ogg
460,192,15200,1,0,0:0:0:0:m_021.ogg
358,192,15283,1,0,0:0:0:0:s_061.ogg
256,192,15366,1,0,0:0:0:0:s_052.ogg
153,192,15450,1,0,0:0:0:0:s_045.ogg
358,192,15450,1,0,0:0:0:0:s_042.ogg
460,192,15450,1,0,0:0:0:0:s_057.ogg
51,192,15533,1,0,0:0:0:0:s_054.ogg
460,192,15616,1,0,0:0:0:0:s_057.ogg
153,192,15700,1,0,0:0:0:0:s_037.ogg
256,192,15700,1,0,0:0:0:0:s_052.ogg
358,192,15700,1,0,0:0:0:0:s_040.ogg
460,192,15783,1,0,0:0:0:0:s_057.ogg
153,192,15866,1,0,0:0:0:0:s_049.ogg
358,192,15950,1,0,0:0:0:0:s_052.ogg
51,192,16033,1,0,0:0:0:0:s_045.ogg
256,192,16116,1,0,0:0:0:0:s_049.ogg
153,192,16200,1,0,0:0:0:0:s_042.ogg
460,192,16200,1,0,0:0:0:0:m_027.ogg
358,192,16283,1,0,0:0:0:0:s_054.ogg
51,192,16366,1,0,0:0:0:0:s_047.ogg
153,192,16450,1,0,0:0:0:0:m_045.ogg
256,192,16450,1,0,0:0:0:0:m_035.ogg
358,192,16450,1,0,0:0:0:0:s_054.ogg
51,192,16533,1,0,0:0:0:0:s_047.ogg
460,192,16616,1,0,0:0:0:0:s_059.ogg
153,192,16700,1,0,0:0:0:0:s_054.ogg
460,192,16783,1,0,0:0:0:0:s_059.ogg
153,192,16866,1,0,0:0:0:0:s_054.ogg
51,192,16950,1,0,0:0:0:0:m_027.ogg
358,192,16950,1,0,0:0:0:0:s_066.ogg
256,192,17033,1,0,0:0:0:0:s_059.ogg
358,192,17116,1,0,0:0:0:0:s_066.ogg
51,192,17200,1,0,0:0:0:0:s_054.ogg
460,192,17200,1,0,0:0:0:0:m_028.ogg
358,192,17283,1,0,0:0:0:0:s_066.ogg
153,192,17366,1,0,0:0:0:0:s_059.ogg
256,192,17450,1,0,0:0:0:0:m_044.ogg
358,192,17450,1,0,0:0:0:0:s_066.ogg
460,192,17450,1,0,0:0:0:0:m_035.ogg
51,192,17533,1,0,0:0:0:0:s_052.ogg
358,192,17616,1,0,0:0:0:0:s_064.ogg
153,192,17700,1,0,0:0:0:0:s_059.ogg
256,192,17783,1,0,0:0:0:0:s_064.ogg
153,192,17866,1,0,0:0:0:0:s_059.ogg
358,192,17950,1,0,0:0:0:0:s_071.ogg
256,192,18033,1,0,0:0:0:0:s_064.ogg
460,192,18116,1,0,0:0:0:0:s_076.ogg
51,192,18200,1,0,0:0:0:0:s_047.ogg
153,192,18200,1,0,0:0:0:0:s_071.ogg
256,192,18200,1,0,0:0:0:0:s_045.ogg
358,192,18283,1,0,0:0:0:0:s_073.ogg
153,192,18366,1,0,0:0:0:0:s_071.ogg
51,192,18450,1,0,0:0:0:0:s_066.ogg
256,192,18450,1,0,0:0:0:0:s_047.ogg
358,192,18450,1,0,0:0:0:0:s_045.ogg
460,192,18533,1,0,0:0:0:0:s_078.ogg
51,192,18616,1,0,0:0:0:0:s_066.ogg
153,192,18700,1,0,0:0:0:0:s_044.ogg
256,192,18700,1,0,0:0:0:0:s_064.ogg
460,192,18700,1,0,0:0:0:0:s_049.ogg
358,192,18783,1,0,0:0:0:0:s_066.ogg
256,192,18866,1,0,0:0:0:0:s_064.ogg
51,192,18950,1,0,0:0:0:0:s_047.ogg
153,192,18950,1,0,0:0:0:0:s_059.ogg
358,192,18950,1,0,0:0:0:0:s_044.ogg
460,192,19033,1,0,0:0:0:0:s_071.ogg
256,192,19116,1,0,0:0:0:0:s_059.ogg
51,192,19200,1,0,0:0:0:0:s_049.ogg
153,192,19200,1,0,0:0:0:0:s_059.ogg
358,192,19200,1,0,0:0:0:0:s_045.ogg
256,192,19283,1,0,0:0:0:0:s_061.ogg
153,192,19366,1,0,0:0:0:0:s_059.ogg
51,192,19450,1,0,0:0:0:0:s_054.ogg
256,192,19450,1,0,0:0:0:0:s_045.ogg
358,192,19450,1,0,0:0:0:0:s_035.ogg
460,192,19533,1,0,0:0:0:0:s_066.ogg
51,192,19616,1,0,0:0:0:0:s_054.ogg
153,192,19700,1,0,0:0:0:0:s_040.ogg
256,192,19700,1,0,0:0:0:0:s_052.ogg
460,192,19700,1,0,0:0:0:0:s_044.ogg
358,192,19783,1,0,0:0:0:0:s_054.ogg
256,192,19866,1,0,0:0:0:0:s_052.ogg
51,192,19950,1,0,0:0:0:0:s_035.ogg
153,192,19950,1,0,0:0:0:0:s_047.ogg
460,192,20200,1,0,0:0:0:0:m_027.ogg
256,192,20283,1,0,0:0:0:0:s_054.ogg
358,192,20366,1,0,0:0:0:0:s_059.ogg
51,192,20450,1,0,0:0:0:0:s_035.ogg
153,192,20450,1,0,0:0:0:0:s_042.ogg
460,192,20450,1,0,0:0:0:0:s_061.ogg
358,192,20533,1,0,0:0:0:0:s_059.ogg
256,192,20616,1,0,0:0:0:0:s_054.ogg
51,192,20700,1,0,0:0:0:0:s_052.ogg
358,192,20700,1,0,0:0:0:0:m_044.ogg
460,192,20700,1,0,0:0:0:0:m_040.ogg
153,192,20783,1,0,0:0:0:0:s_059.ogg
256,192,20866,1,0,0:0:0:0:s_064.ogg
358,192,20950,1,0,0:0:0:0:s_066.ogg
460,192,20950,1,0,0:0:0:0:m_028.ogg
256,192,21033,1,0,0:0:0:0:s_064.ogg
153,192,21116,1,0,0:0:0:0:s_061.ogg
51,192,21200,1,0,0:0:0:0:s_059.ogg
460,192,21200,1,0,0:0:0:0:m_023.ogg
153,192,21283,1,0,0:0:0:0:s_066.ogg
256,192,21366,1,0,0:0:0:0:s_071.ogg
51,192,21450,1,0,0:0:0:0:s_035.ogg
358,192,21450,1,0,0:0:0:0:s_073.ogg
460,192,21450,1,0,0:0:0:0:s_039.ogg
256,192,21533,1,0,0:0:0:0:s_071.ogg
153,192,21616,1,0,0:0:0:0:s_066.ogg
51,192,21700,1,0,0:0:0:0:s_064.ogg
460,192,21700,1,0,0:0:0:0:m_016.ogg
256,192,21783,1,0,0:0:0:0:s_071.ogg
358,192,21866,1,0,0:0:0:0:s_076.ogg
51,192,21950,1,0,0:0:0:0:s_035.ogg
153,192,21950,1,0,0:0:0:0:s_040.ogg
460,192,21950,1,0,0:0:0:0:s_078.ogg
358,192,22033,1,0,0:0:0:0:s_076.ogg
256,192,22116,1,0,0:0:0:0:s_073.ogg
153,192,22200,1,0,0:0:0:0:s_071.ogg
460,192,22200,1,0,0:0:0:0:m_023.ogg
358,192,22283,1,0,0:0:0:0:s_073.ogg
153,192,22366,1,0,0:0:0:0:s_071.ogg
51,192,22450,1,0,0:0:0:0:s_066.ogg
256,192,22450,1,0,0:0:0:0:s_047.ogg
358,192,22450,1,0,0:0:0:0:s_045.ogg
460,192,22533,1,0,0:0:0:0:s_078.ogg
51,192,22616,1,0,0:0:0:0:s_066.ogg
153,192,22700,1,0,0:0:0:0:s_049.ogg
256,192,22700,1,0,0:0:0:0:s_064.ogg
460,192,22700,1,0,0:0:0:0:s_044.ogg
358,192,22783,1,0,0:0:0:0:s_066.ogg
256,192,22866,1,0,0:0:0:0:s_064.ogg
51,192,22950,1,0,0:0:0:0:s_044.ogg
153,192,22950,1,0,0:0:0:0:s_059.ogg
358,192,22950,1,0,0:0:0:0:s_035.ogg
460,192,23033,1,0,0:0:0:0:s_071.ogg
256,192,23116,1,0,0:0:0:0:s_059.ogg
51,192,23200,1,0,0:0:0:0:s_039.ogg
153,192,23200,1,0,0:0:0:0:s_059.ogg
358,192,23200,1,0,0:0:0:0:s_045.ogg
256,192,23283,1,0,0:0:0:0:s_061.ogg
153,192,23366,1,0,0:0:0:0:s_059.ogg
51,192,23450,1,0,0:0:0:0:s_054.ogg
256,192,23450,1,0,0:0:0:0:s_047.ogg
460,192,23450,1,0,0:0:0:0:s_035.ogg
358,192,23533,1,0,0:0:0:0:s_066.ogg
51,192,23616,1,0,0:0:0:0:s_054.ogg
153,192,23700,1,0,0:0:0:0:s_052.ogg
358,192,23700,1,0,0:0:0:0:s_044.ogg
460,192,23700,1,0,0:0:0:0:s_040.ogg
256,192,23783,1,0,0:0:0:0:s_054.ogg
153,192,23866,1,0,0:0:0:0:s_052.ogg
51,192,23950,1,0,0:0:0:0:s_047.ogg
358,192,23950,1,0,0:0:0:0:s_035.ogg
460,192,24200,1,0,0:0:0:0:m_027.ogg
256,192,24283,1,0,0:0:0:0:s_059.ogg
153,192,24366,1,0,0:0:0:0:s_057.ogg
51,192,24450,1,0,0:0:0:0:m_035.ogg
256,192,24450,1,0,0:0:0:0:s_059.ogg
358,192,24450,1,0,0:0:0:0:m_045.ogg
153,192,24533,1,0,0:0:0:0:s_057.ogg
256,192,24616,1,0,0:0:0:0:s_059.ogg
460,192,24700,1,0,0:0:0:0:s_069.ogg
256,192,24783,1,0,0:0:0:0:s_059.ogg
153,192,24866,1,0,0:0:0:0:s_057.ogg
256,192,24950,1,0,0:0:0:0:s_059.ogg
358,192,24950,1,0,0:0:0:0:m_015.ogg
153,192,25033,1,0,0:0:0:0:s_057.ogg
256,192,25116,1,0,0:0:0:0:s_059.ogg
51,192,25200,1,0,0:0:0:0:s_047.ogg
460,192,25200,1,0,0:0:0:0:m_027.ogg
256,192,25283,1,0,0:0:0:0:s_059.ogg
153,192,25366,1,0,0:0:0:0:s_057.ogg
51,192,25450,1,0,0:0:0:0:m_045.ogg
256,192,25450,1,0,0:0:0:0:s_059.ogg
358,192,25450,1,0,0:0:0:0:m_035.ogg
153,192,25533,1,0,0:0:0:0:s_057.ogg
256,192,25616,1,0,0:0:0:0:s_059.ogg
460,192,25700,1,0,0:0:0:0:s_069.ogg
256,192,25783,1,0,0:0:0:0:s_059.ogg
153,192,25866,1,0,0:0:0:0:s_057.ogg
51,192,25950,1,0,0:0:0:0:s_015.ogg
256,192,25950,1,0,0:0:0:0:s_059.ogg
358,192,25950,1,0,0:0:0:0:s_027.ogg
153,192,26033,1,0,0:0:0:0:s_057.ogg
256,192,26116,1,0,0:0:0:0:s_059.ogg
51,192,26200,1,0,0:0:0:0:s_049.ogg
153,192,26200,1,0,0:0:0:0:m_028.ogg
460,192,26200,1,0,0:0:0:0:m_016.ogg
358,192,26283,1,0,0:0:0:0:s_061.ogg
256,192,26366,1,0,0:0:0:0:s_057.ogg
51,192,26450,1,0,0:0:0:0:s_037.ogg
153,192,26450,1,0,0:0:0:0:s_040.ogg
358,192,26450,1,0,0:0:0:0:s_061.ogg
256,192,26533,1,0,0:0:0:0:s_057.ogg
358,192,26616,1,0,0:0:0:0:s_061.ogg
51,192,26700,1,0,0:0:0:0:s_027.ogg
153,192,26700,1,0,0:0:0:0:s_015.ogg
460,192,26700,1,0,0:0:0:0:s_069.ogg
358,192,26783,1,0,0:0:0:0:s_061.ogg
256,192,26866,1,0,0:0:0:0:s_057.ogg
153,192,26950,1,0,0:0:0:0:s_016.ogg
358,192,26950,1,0,0:0:0:0:s_061.ogg
460,192,26950,1,0,0:0:0:0:s_028.ogg
256,192,27033,1,0,0:0:0:0:s_057.ogg
358,192,27116,1,0,0:0:0:0:s_061.ogg
51,192,27200,1,0,0:0:0:0:s_049.ogg
153,192,27200,1,0,0:0:0:0:m_029.ogg
460,192,27200,1,0,0:0:0:0:m_017.ogg
358,192,27283,1,0,0:0:0:0:s_061.ogg
256,192,27366,1,0,0:0:0:0:s_057.ogg
51,192,27450,1,0,0:0:0:0:s_045.ogg
153,192,27450,1,0,0:0:0:0:s_037.ogg
358,192,27450,1,0,0:0:0:0:s_061.ogg
256,192,27533,1,0,0:0:0:0:s_057.ogg
358,192,27616,1,0,0:0:0:0:s_061.ogg
51,192,27700,1,0,0:0:0:0:s_028.ogg
153,192,27700,1,0,0:0:0:0:s_016.ogg
460,192,27700,1,0,0:0:0:0:s_069.ogg
358,192,27783,1,0,0:0:0:0:s_061.ogg
256,192,27866,1,0,0:0:0:0:s_057.ogg
51,192,27950,1,0,0:0:0:0:s_029.ogg
153,192,27950,1,0,0:0:0:0:s_017.ogg
358,192,27950,1,0,0:0:0:0:s_061.ogg
256,192,28033,1,0,0:0:0:0:s_057.ogg
358,192,28116,1,0,0:0:0:0:s_061.ogg
51,192,28200,1,0,0:0:0:0:m_030.ogg
256,192,28200,1,0,0:0:0:0:s_057.ogg
460,192,28200,1,0,0:0:0:0:m_018.ogg
358,192,28283,1,0,0:0:0:0:s_061.ogg
256,192,28366,1,0,0:0:0:0:s_057.ogg
51,192,28450,1,0,0:0:0:0:m_037.ogg
153,192,28450,1,0,0:0:0:0:m_045.ogg
460,192,28450,1,0,0:0:0:0:s_073.ogg
358,192,28533,1,0,0:0:0:0:s_061.ogg
256,192,28616,1,0,0:0:0:0:s_057.ogg
153,192,28700,1,0,0:0:0:0:s_071.ogg
358,192,28783,1,0,0:0:0:0:s_061.ogg
256,192,28866,1,0,0:0:0:0:s_057.ogg
51,192,28950,1,0,0:0:0:0:s_069.ogg
153,192,28950,1,0,0:0:0:0:s_030.ogg
460,192,28950,1,0,0:0:0:0:s_018.ogg
358,192,29033,1,0,0:0:0:0:s_061.ogg
256,192,29116,1,0,0:0:0:0:s_057.ogg
51,192,29200,1,0,0:0:0:0:m_019.ogg
153,192,29200,1,0,0:0:0:0:s_064.ogg
460,192,29200,1,0,0:0:0:0:m_031.ogg
358,192,29283,1,0,0:0:0:0:s_061.ogg
256,192,29366,1,0,0:0:0:0:s_057.ogg
51,192,29450,1,0,0:0:0:0:m_037.ogg
153,192,29450,1,0,0:0:0:0:m_045.ogg
460,192,29450,1,0,0:0:0:0:s_073.ogg
358,192,29533,1,0,0:0:0:0:s_061.ogg
256,192,29616,1,0,0:0:0:0:s_057.ogg
153,192,29700,1,0,0:0:0:0:s_071.ogg
358,192,29783,1,0,0:0:0:0:s_061.ogg
256,192,29866,1,0,0:0:0:0:s_057.ogg
51,192,29950,1,0,0:0:0:0:s_069.ogg
153,192,29950,1,0,0:0:0:0:s_031.ogg
460,192,29950,1,0,0:0:0:0:s_019.ogg
358,192,30033,1,0,0:0:0:0:s_061.ogg
256,192,30116,1,0,0:0:0:0:s_057.ogg
51,192,30200,1,0,0:0:0:0:s_052.ogg
153,192,30200,1,0,0:0:0:0:m_032.ogg
358,192,30200,1,0,0:0:0:0:m_020.ogg
460,192,30283,1,0,0:0:0:0:s_064.ogg
256,192,30366,1,0,0:0:0:0:s_061.ogg
51,192,30450,1,0,0:0:0:0:s_040.ogg
358,192,30450,1,0,0:0:0:0:s_037.ogg
460,192,30450,1,0,0:0:0:0:s_064.ogg
256,192,30533,1,0,0:0:0:0:s_064.ogg
153,192,30616,1,0,0:0:0:0:s_076.ogg
51,192,30700,1,0,0:0:0:0:s_073.ogg
256,192,30700,1,0,0:0:0:0:s_031.ogg
358,192,30700,1,0,0:0:0:0:s_019.ogg
153,192,30783,1,0,0:0:0:0:s_076.ogg
256,192,30866,1,0,0:0:0:0:s_064.ogg
51,192,30950,1,0,0:0:0:0:s_020.ogg
358,192,30950,1,0,0:0:0:0:s_064.ogg
460,192,30950,1,0,0:0:0:0:s_032.ogg
256,192,31033,1,0,0:0:0:0:s_061.ogg
358,192,31116,1,0,0:0:0:0:s_064.ogg
51,192,31200,1,0,0:0:0:0:s_052.ogg
153,192,31200,1,0,0:0:0:0:m_033.ogg
460,192,31200,1,0,0:0:0:0:m_021.ogg
358,192,31283,1,0,0:0:0:0:s_064.ogg
256,192,31366,1,0,0:0:0:0:s_061.ogg
51,192,31450,1,0,0:0:0:0:s_043.ogg
153,192,31450,1,0,0:0:0:0:s_037.ogg
358,192,31450,1,0,0:0:0:0:s_064.ogg
256,192,31533,1,0,0:0:0:0:s_064.ogg
460,192,31616,1,0,0:0:0:0:s_076.ogg
51,192,31700,1,0,0:0:0:0:s_032.ogg
153,192,31700,1,0,0:0:0:0:s_073.ogg
256,192,31700,1,0,0:0:0:0:s_020.ogg
460,192,31783,1,0,0:0:0:0:s_076.ogg
256,192,31866,1,0,0:0:0:0:s_064.ogg
51,192,31950,1,0,0:0:0:0:s_033.ogg
153,192,31950,1,0,0:0:0:0:s_021.ogg
358,192,31950,1,0,0:0:0:0:s_064.ogg
256,192,32033,1,0,0:0:0:0:s_061.ogg
358,192,32116,1,0,0:0:0:0:s_064.ogg
51,192,32200,1,0,0:0:0:0:s_052.ogg
153,192,32200,1,0,0:0:0:0:s_034.ogg
460,192,32200,1,0,0:0:0:0:m_022.ogg
358,192,32283,1,0,0:0:0:0:s_064.ogg
256,192,32366,1,0,0:0:0:0:s_061.ogg
51,192,32450,1,0,0:0:0:0:s_040.ogg
153,192,32450,1,0,0:0:0:0:s_034.ogg
358,192,32450,1,0,0:0:0:0:s_064.ogg
256,192,32533,1,0,0:0:0:0:s_064.ogg
460,192,32616,1,0,0:0:0:0:s_076.ogg
51,192,32700,1,0,0:0:0:0:s_035.ogg
153,192,32700,1,0,0:0:0:0:s_071.ogg
256,192,32700,1,0,0:0:0:0:m_023.ogg
460,192,32783,1,0,0:0:0:0:s_076.ogg
256,192,32866,1,0,0:0:0:0:s_064.ogg
51,192,32950,1,0,0:0:0:0:s_040.ogg
153,192,32950,1,0,0:0:0:0:s_035.ogg
358,192,32950,1,0,0:0:0:0:s_064.ogg
256,192,33033,1,0,0:0:0:0:s_059.ogg
358,192,33116,1,0,0:0:0:0:s_064.ogg
51,192,33200,1,0,0:0:0:0:s_036.ogg
153,192,33200,1,0,0:0:0:0:s_052.ogg
460,192,33200,1,0,0:0:0:0:m_024.ogg
358,192,33283,1,0,0:0:0:0:s_064.ogg
256,192,33366,1,0,0:0:0:0:s_057.ogg
51,192,33450,1,0,0:0:0:0:m_042.ogg
358,192,33450,1,0,0:0:0:0:s_064.ogg
460,192,33450,1,0,0:0:0:0:m_036.ogg
256,192,33533,1,0,0:0:0:0:s_052.ogg
153,192,33616,1,0,0:0:0:0:s_052.ogg
51,192,33700,1,0,0:0:0:0:s_045.ogg
153,192,33783,1,0,0:0:0:0:s_052.ogg
51,192,33866,1,0,0:0:0:0:s_040.ogg
256,192,33950,1,0,0:0:0:0:s_040.ogg
358,192,33950,1,0,0:0:0:0:s_024.ogg
460,192,33950,1,0,0:0:0:0:s_012.ogg
153,192,34033,1,0,0:0:0:0:s_033.ogg
256,192,34116,1,0,0:0:0:0:s_040.ogg
51,192,34200,1,0,0:0:0:0:m_030.ogg
358,192,34200,1,0,0:0:0:0:l_023.ogg
460,192,34200,1,0,0:0:0:0:l_011.ogg
153,192,34283,1,0,0:0:0:0:m_033.ogg
256,192,34366,1,0,0:0:0:0:m_040.ogg
358,192,34450,1,0,0:0:0:0:m_042.ogg
51,192,34533,1,0,0:0:0:0:m_033.ogg
256,192,34616,1,0,0:0:0:0:m_040.ogg
358,192,34700,1,0,0:0:0:0:m_042.ogg
460,192,34783,1,0,0:0:0:0:m_045.ogg
51,192,34866,1,0,0:0:0:0:m_040.ogg
153,192,34950,1,0,0:0:0:0:m_042.ogg
358,192,35033,1,0,0:0:0:0:m_045.ogg
460,192,35116,1,0,0:0:0:0:m_052.ogg
51,192,35200,1,0,0:0:0:0:m_042.ogg
153,192,35283,1,0,0:0:0:0:m_045.ogg
256,192,35366,1,0,0:0:0:0:m_052.ogg
358,192,35450,1,0,0:0:0:0:m_054.ogg
460,192,35533,1,0,0:0:0:0:m_045.ogg
256,192,35616,1,0,0:0:0:0:m_052.ogg
51,192,35700,1,0,0:0:0:0:m_040.ogg
153,192,35700,1,0,0:0:0:0:m_045.ogg
358,192,35700,1,0,0:0:0:0:m_054.ogg
460,192,35783,1,0,0:0:0:0:m_057.ogg
256,192,35866,1,0,0:0:0:0:m_052.ogg
358,192,35950,1,0,0:0:0:0:m_054.ogg
460,192,36033,1,0,0:0:0:0:m_064.ogg
51,192,36075,1,0,0:0:0:0:s_040.ogg
153,192,36075,1,0,0:0:0:0:s_045.ogg
358,192,36116,1,0,0:0:0:0:s_057.ogg
51,192,36200,1,0,0:0:0:0:l_040.ogg
153,192,36200,1,0,0:0:0:0:m_054.ogg
256,192,36200,1,0,0:0:0:0:l_035.ogg
460,192,36283,1,0,0:0:0:0:m_057.ogg
358,192,36366,1,0,0:0:0:0:m_066.ogg
256,192,36450,1,0,0:0:0:0:m_064.ogg
153,192,36533,1,0,0:0:0:0:m_057.ogg
51,192,36616,1,0,0:0:0:0:m_054.ogg
460,192,36700,1,0,0:0:0:0:m_064.ogg
256,192,36783,1,0,0:0:0:0:m_057.ogg
153,192,36866,1,0,0:0:0:0:m_054.ogg
51,192,36950,1,0,0:0:0:0:m_052.ogg
460,192,37033,1,0,0:0:0:0:m_057.ogg
358,192,37116,1,0,0:0:0:0:m_054.ogg
153,192,37200,1,0,0:0:0:0:m_052.ogg
51,192,37283,1,0,0:0:0:0:m_045.ogg
460,192,37366,1,0,0:0:0:0:m_054.ogg
358,192,37450,1,0,0:0:0:0:m_052.ogg
256,192,37533,1,0,0:0:0:0:m_045.ogg
51,192,37616,1,0,0:0:0:0:m_042.ogg
358,192,37700,1,0,0:0:0:0:m_052.ogg
256,192,37783,1,0,0:0:0:0:m_045.ogg
153,192,37866,1,0,0:0:0:0:m_042.ogg
51,192,37950,1,0,0:0:0:0:m_040.ogg
256,192,38033,1,0,0:0:0:0:m_045.ogg
153,192,38116,1,0,0:0:0:0:s_042.ogg
51,192,38200,1,0,0:0:0:0:m_035.ogg
358,192,38200,1,0,0:0:0:0:l_023.ogg
460,192,38200,1,0,0:0:0:0:l_011.ogg
153,192,38283,1,0,0:0:0:0:m_042.ogg
256,192,38366,1,0,0:0:0:0:m_045.ogg
358,192,38450,1,0,0:0:0:0:m_047.ogg
51,192,38533,1,0,0:0:0:0:m_042.ogg
256,192,38616,1,0,0:0:0:0:m_045.ogg
358,192,38700,1,0,0:0:0:0:m_047.ogg
460,192,38783,1,0,0:0:0:0:m_054.ogg
51,192,38866,1,0,0:0:0:0:m_045.ogg
153,192,38950,1,0,0:0:0:0:m_047.ogg
358,192,39033,1,0,0:0:0:0:m_054.ogg
460,192,39116,1,0,0:0:0:0:m_057.ogg
51,192,39200,1,0,0:0:0:0:m_047.ogg
153,192,39283,1,0,0:0:0:0:m_054.ogg
256,192,39366,1,0,0:0:0:0:m_057.ogg
358,192,39450,1,0,0:0:0:0:m_059.ogg
460,192,39533,1,0,0:0:0:0:m_054.ogg
256,192,39616,1,0,0:0:0:0:m_057.ogg
51,192,39700,1,0,0:0:0:0:m_045.ogg
153,192,39700,1,0,0:0:0:0:m_039.ogg
358,192,39700,1,0,0:0:0:0:m_059.ogg
460,192,39783,1,0,0:0:0:0:m_066.ogg
256,192,39866,1,0,0:0:0:0:m_057.ogg
358,192,39950,1,0,0:0:0:0:m_059.ogg
460,192,40033,1,0,0:0:0:0:m_069.ogg
51,192,40075,1,0,0:0:0:0:s_045.ogg
153,192,40075,1,0,0:0:0:0:s_039.ogg
358,192,40116,1,0,0:0:0:0:m_066.ogg
51,192,40200,1,0,0:0:0:0:l_045.ogg
153,192,40200,1,0,0:0:0:0:l_039.ogg
256,192,40200,1,0,0:0:0:0:m_059.ogg
460,192,40283,1,0,0:0:0:0:m_057.ogg
358,192,40366,1,0,0:0:0:0:m_066.ogg
256,192,40450,1,0,0:0:0:0:m_059.ogg
153,192,40533,1,0,0:0:0:0:m_057.ogg
51,192,40616,1,0,0:0:0:0:m_054.ogg
358,192,40700,1,0,0:0:0:0:m_059.ogg
256,192,40783,1,0,0:0:0:0:m_057.ogg
153,192,40866,1,0,0:0:0:0:m_054.ogg
51,192,40950,1,0,0:0:0:0:m_047.ogg
460,192,41033,1,0,0:0:0:0:m_057.ogg
358,192,41116,1,0,0:0:0:0:s_054.ogg
256,192,41200,1,0,0:0:0:0:m_047.ogg
358,192,41283,1,0,0:0:0:0:m_054.ogg
153,192,41366,1,0,0:0:0:0:s_045.ogg
256,192,41450,1,0,0:0:0:0:m_047.ogg
153,192,41533,1,0,0:0:0:0:m_045.ogg
51,192,41616,1,0,0:0:0:0:m_042.ogg
358,192,41700,1,0,0:0:0:0:m_047.ogg
256,192,41783,1,0,0:0:0:0:m_045.ogg
153,192,41866,1,0,0:0:0:0:m_042.ogg
51,192,41950,1,0,0:0:0:0:m_035.ogg
256,192,42033,1,0,0:0:0:0:m_045.ogg
153,192,42116,1,0,0:0:0:0:m_042.ogg
51,192,42200,1,0,0:0:0:0:s_040.ogg
460,192,42200,1,0,0:0:0:0:l_016.ogg
358,192,42283,1,0,0:0:0:0:s_052.ogg
153,192,42366,1,0,0:0:0:0:s_047.ogg
358,192,42450,1,0,0:0:0:0:s_052.ogg
153,192,42533,1,0,0:0:0:0:s_047.ogg
460,192,42616,1,0,0:0:0:0:s_059.ogg
51,192,42700,1,0,0:0:0:0:m_035.ogg
256,192,42700,1,0,0:0:0:0:m_044.ogg
358,192,42700,1,0,0:0:0:0:s_052.ogg
460,192,42783,1,0,0:0:0:0:s_059.ogg
153,192,42866,1,0,0:0:0:0:s_047.ogg
358,192,42950,1,0,0:0:0:0:s_052.ogg
153,192,43033,1,0,0:0:0:0:s_047.ogg
358,192,43116,1,0,0:0:0:0:s_052.ogg
51,192,43200,1,0,0:0:0:0:s_040.ogg
358,192,43283,1,0,0:0:0:0:s_052.ogg
153,192,43366,1,0,0:0:0:0:s_047.ogg
358,192,43450,1,0,0:0:0:0:s_052.ogg
153,192,43533,1,0,0:0:0:0:s_047.ogg
460,192,43616,1,0,0:0:0:0:s_059.ogg
51,192,43700,1,0,0:0:0:0:m_043.ogg
256,192,43700,1,0,0:0:0:0:m_034.ogg
358,192,43700,1,0,0:0:0:0:s_052.ogg
460,192,43783,1,0,0:0:0:0:s_059.ogg
153,192,43866,1,0,0:0:0:0:s_047.ogg
358,192,43950,1,0,0:0:0:0:s_052.ogg
153,192,44033,1,0,0:0:0:0:s_047.ogg
256,192,44075,1,0,0:0:0:0:m_035.ogg
460,192,44075,1,0,0:0:0:0:m_044.ogg
358,192,44116,1,0,0:0:0:0:s_052.ogg
51,192,44200,1,0,0:0:0:0:s_040.ogg
153,192,44200,1,0,0:0:0:0:m_028.ogg
358,192,44283,1,0,0:0:0:0:s_052.ogg
153,192,44366,1,0,0:0:0:0:s_047.ogg
358,192,44450,1,0,0:0:0:0:s_052.ogg
256,192,44533,1,0,0:0:0:0:s_052.ogg
460,192,44616,1,0,0:0:0:0:s_064.ogg
51,192,44700,1,0,0:0:0:0:m_044.ogg
153,192,44700,1,0,0:0:0:0:m_035.ogg
256,192,44700,1,0,0:0:0:0:s_059.ogg
460,192,44783,1,0,0:0:0:0:s_064.ogg
256,192,44866,1,0,0:0:0:0:s_052.ogg
358,192,44950,1,0,0:0:0:0:s_052.ogg
153,192,45033,1,0,0:0:0:0:s_047.ogg
358,192,45116,1,0,0:0:0:0:s_052.ogg
153,192,45200,1,0,0:0:0:0:s_047.ogg
256,192,45283,1,0,0:0:0:0:s_059.ogg
51,192,45366,1,0,0:0:0:0:s_052.ogg
256,192,45450,1,0,0:0:0:0:s_059.ogg
358,192,45533,1,0,0:0:0:0:s_059.ogg
460,192,45616,1,0,0:0:0:0:s_071.ogg
51,192,45700,1,0,0:0:0:0:m_043.ogg
153,192,45700,1,0,0:0:0:0:m_034.ogg
358,192,45700,1,0,0:0:0:0:s_064.ogg
460,192,45783,1,0,0:0:0:0:s_071.ogg
358,192,45866,1,0,0:0:0:0:s_059.ogg
256,192,45950,1,0,0:0:0:0:s_059.ogg
51,192,46033,1,0,0:0:0:0:s_052.ogg
358,192,46075,1,0,0:0:0:0:m_035.ogg
460,192,46075,1,0,0:0:0:0:m_044.ogg
256,192,46116,1,0,0:0:0:0:s_059.ogg
51,192,46200,1,0,0:0:0:0:s_052.ogg
153,192,46200,1,0,0:0:0:0:m_028.ogg
256,192,46283,1,0,0:0:0:0:s_054.ogg
51,192,46366,1,0,0:0:0:0:s_052.ogg
256,192,46450,1,0,0:0:0:0:s_032.ogg
358,192,46450,1,0,0:0:0:0:s_066.ogg
460,192,46450,1,0,0:0:0:0:s_040.ogg
153,192,46533,1,0,0:0:0:0:s_064.ogg
460,192,46616,1,0,0:0:0:0:s_078.ogg
51,192,46700,1,0,0:0:0:0:s_040.ogg
256,192,46700,1,0,0:0:0:0:s_076.ogg
358,192,46700,1,0,0:0:0:0:s_045.ogg
460,192,46783,1,0,0:0:0:0:s_078.ogg
256,192,46866,1,0,0:0:0:0:s_076.ogg
51,192,46950,1,0,0:0:0:0:s_037.ogg
358,192,46950,1,0,0:0:0:0:s_064.ogg
460,192,46950,1,0,0:0:0:0:s_046.ogg
153,192,47033,1,0,0:0:0:0:s_066.ogg
358,192,47116,1,0,0:0:0:0:s_064.ogg
153,192,47200,1,0,0:0:0:0:m_038.ogg
256,192,47200,1,0,0:0:0:0:s_052.ogg
460,192,47200,1,0,0:0:0:0:m_040.ogg
51,192,47283,1,0,0:0:0:0:s_054.ogg
256,192,47366,1,0,0:0:0:0:s_052.ogg
358,192,47450,1,0,0:0:0:0:s_066.ogg
153,192,47533,1,0,0:0:0:0:s_064.ogg
460,192,47616,1,0,0:0:0:0:s_078.ogg
51,192,47700,1,0,0:0:0:0:s_040.ogg
256,192,47700,1,0,0:0:0:0:s_076.ogg
358,192,47700,1,0,0:0:0:0:s_046.ogg
460,192,47783,1,0,0:0:0:0:s_078.ogg
256,192,47866,1,0,0:0:0:0:s_076.ogg
51,192,47950,1,0,0:0:0:0:s_064.ogg
358,192,47950,1,0,0:0:0:0:s_040.ogg
460,192,47950,1,0,0:0:0:0:s_045.ogg
153,192,48033,1,0,0:0:0:0:s_066.ogg
51,192,48116,1,0,0:0:0:0:s_064.ogg
153,192,48200,1,0,0:0:0:0:m_040.ogg
256,192,48200,1,0,0:0:0:0:m_032.ogg
358,192,48200,1,0,0:0:0:0:s_076.ogg
460,192,48283,1,0,0:0:0:0:s_078.ogg
358,192,48366,1,0,0:0:0:0:s_076.ogg
51,192,48450,1,0,0:0:0:0:s_064.ogg
256,192,48450,1,0,0:0:0:0:s_028.ogg
153,192,48533,1,0,0:0:0:0:s_066.ogg
51,192,48616,1,0,0:0:0:0:s_064.ogg
153,192,48700,1,0,0:0:0:0:m_038.ogg
256,192,48700,1,0,0:0:0:0:m_040.ogg
358,192,48700,1,0,0:0:0:0:s_076.ogg
460,192,48783,1,0,0:0:0:0:s_078.ogg
358,192,48866,1,0,0:0:0:0:s_076.ogg
51,192,48950,1,0,0:0:0:0:s_064.ogg
256,192,48950,1,0,0:0:0:0:s_049.ogg
153,192,49033,1,0,0:0:0:0:s_066.ogg
51,192,49116,1,0,0:0:0:0:s_064.ogg
153,192,49200,1,0,0:0:0:0:m_038.ogg
256,192,49200,1,0,0:0:0:0:m_040.ogg
358,192,49200,1,0,0:0:0:0:s_076.ogg
460,192,49283,1,0,0:0:0:0:s_078.ogg
358,192,49366,1,0,0:0:0:0:s_076.ogg
51,192,49450,1,0,0:0:0:0:s_064.ogg
153,192,49533,1,0,0:0:0:0:s_066.ogg
51,192,49616,1,0,0:0:0:0:s_064.ogg
256,192,49700,1,0,0:0:0:0:s_049.ogg
358,192,49700,1,0,0:0:0:0:s_076.ogg
460,192,49800,1,0,0:0:0:0:s_078.ogg
358,192,49900,1,0,0:0:0:0:s_076.ogg
51,192,50000,1,0,0:0:0:0:s_064.ogg
256,192,50000,1,0,0:0:0:0:s_047.ogg
153,192,50100,1,0,0:0:0:0:s_066.ogg
51,192,50200,1,0,0:0:0:0:s_064.ogg
153,192,50400,1,0,0:0:0:0:s_033.ogg
256,192,50400,1,0,0:0:0:0:s_045.ogg
358,192,50400,1,0,0:0:0:0:s_069.ogg
460,192,50483,1,0,0:0:0:0:s_073.ogg
51,192,50566,1,0,0:0:0:0:s_064.ogg
153,192,50650,1,0,0:0:0:0:s_042.ogg
358,192,50650,1,0,0:0:0:0:s_069.ogg
460,192,50650,1,0,0:0:0:0:s_038.ogg
256,192,50733,1,0,0:0:0:0:s_066.ogg
358,192,50816,1,0,0:0:0:0:s_069.ogg
51,192,50900,1,0,0:0:0:0:s_040.ogg
153,192,50900,1,0,0:0:0:0:s_064.ogg
460,192,50900,1,0,0:0:0:0:s_045.ogg
358,192,50983,1,0,0:0:0:0:s_069.ogg
51,192,51066,1,0,0:0:0:0:s_061.ogg
460,192,51150,1,0,0:0:0:0:s_064.ogg
153,192,51233,1,0,0:0:0:0:s_057.ogg
358,192,51316,1,0,0:0:0:0:s_061.ogg
51,192,51400,1,0,0:0:0:0:m_021.ogg
153,192,51400,1,0,0:0:0:0:s_057.ogg
460,192,51400,1,0,0:0:0:0:m_033.ogg
358,192,51483,1,0,0:0:0:0:s_061.ogg
256,192,51566,1,0,0:0:0:0:s_052.ogg
153,192,51650,1,0,0:0:0:0:s_038.ogg
358,192,51650,1,0,0:0:0:0:s_042.ogg
460,192,51650,1,0,0:0:0:0:s_057.ogg
51,192,51733,1,0,0:0:0:0:s_054.ogg
460,192,51816,1,0,0:0:0:0:s_057.ogg
153,192,51900,1,0,0:0:0:0:s_040.ogg
256,192,51900,1,0,0:0:0:0:s_052.ogg
358,192,51900,1,0,0:0:0:0:s_037.ogg
460,192,51983,1,0,0:0:0:0:s_057.ogg
153,192,52066,1,0,0:0:0:0:s_049.ogg
358,192,52150,1,0,0:0:0:0:s_052.ogg
51,192,52233,1,0,0:0:0:0:s_045.ogg
256,192,52316,1,0,0:0:0:0:s_049.ogg
51,192,52400,1,0,0:0:0:0:m_028.ogg
153,192,52400,1,0,0:0:0:0:s_040.ogg
460,192,52400,1,0,0:0:0:0:m_016.ogg
358,192,52483,1,0,0:0:0:0:s_052.ogg
51,192,52566,1,0,0:0:0:0:s_047.ogg
153,192,52650,1,0,0:0:0:0:s_035.ogg
256,192,52650,1,0,0:0:0:0:s_044.ogg
358,192,52650,1,0,0:0:0:0:s_052.ogg
51,192,52733,1,0,0:0:0:0:s_047.ogg
460,192,52816,1,0,0:0:0:0:s_059.ogg
51,192,52900,1,0,0:0:0:0:s_047.ogg
153,192,52900,1,0,0:0:0:0:m_038.ogg
358,192,52900,1,0,0:0:0:0:m_042.ogg
460,192,52983,1,0,0:0:0:0:s_059.ogg
256,192,53066,1,0,0:0:0:0:s_054.ogg
51,192,53150,1,0,0:0:0:0:m_023.ogg
460,192,53150,1,0,0:0:0:0:s_059.ogg
256,192,53233,1,0,0:0:0:0:s_054.ogg
358,192,53316,1,0,0:0:0:0:s_066.ogg
51,192,53400,1,0,0:0:0:0:m_028.ogg
256,192,53400,1,0,0:0:0:0:s_054.ogg
358,192,53483,1,0,0:0:0:0:s_066.ogg
153,192,53566,1,0,0:0:0:0:s_059.ogg
51,192,53650,1,0,0:0:0:0:s_038.ogg
256,192,53650,1,0,0:0:0:0:s_035.ogg
358,192,53650,1,0,0:0:0:0:s_066.ogg
153,192,53733,1,0,0:0:0:0:s_059.ogg
460,192,53816,1,0,0:0:0:0:s_071.ogg
153,192,53900,1,0,0:0:0:0:s_059.ogg
256,192,53900,1,0,0:0:0:0:m_040.ogg
358,192,53900,1,0,0:0:0:0:m_035.ogg
460,192,53983,1,0,0:0:0:0:s_071.ogg
51,192,54066,1,0,0:0:0:0:s_064.ogg
460,192,54150,1,0,0:0:0:0:s_071.ogg
51,192,54233,1,0,0:0:0:0:s_064.ogg
256,192,54316,1,0,0:0:0:0:s_076.ogg
51,192,54400,1,0,0:0:0:0:s_033.ogg
153,192,54400,1,0,0:0:0:0:s_037.ogg
358,192,54400,1,0,0:0:0:0:s_069.ogg
460,192,54483,1,0,0:0:0:0:s_073.ogg
51,192,54566,1,0,0:0:0:0:s_064.ogg
153,192,54650,1,0,0:0:0:0:s_045.ogg
358,192,54650,1,0,0:0:0:0:s_069.ogg
460,192,54650,1,0,0:0:0:0:s_042.ogg
256,192,54733,1,0,0:0:0:0:s_066.ogg
358,192,54816,1,0,0:0:0:0:s_069.ogg
51,192,54900,1,0,0:0:0:0:s_040.ogg
153,192,54900,1,0,0:0:0:0:s_064.ogg
460,192,54900,1,0,0:0:0:0:s_045.ogg
358,192,54983,1,0,0:0:0:0:s_069.ogg
51,192,55066,1,0,0:0:0:0:s_061.ogg
460,192,55150,1,0,0:0:0:0:s_064.ogg
153,192,55233,1,0,0:0:0:0:s_057.ogg
358,192,55316,1,0,0:0:0:0:s_061.ogg
51,192,55400,1,0,0:0:0:0:m_033.ogg
153,192,55400,1,0,0:0:0:0:s_057.ogg
460,192,55400,1,0,0:0:0:0:m_021.ogg
358,192,55483,1,0,0:0:0:0:s_061.ogg
256,192,55566,1,0,0:0:0:0:s_052.ogg
153,192,55650,1,0,0:0:0:0:s_042.ogg
358,192,55650,1,0,0:0:0:0:s_038.ogg
460,192,55650,1,0,0:0:0:0:s_057.ogg
51,192,55733,1,0,0:0:0:0:s_054.ogg
460,192,55816,1,0,0:0:0:0:s_057.ogg
153,192,55900,1,0,0:0:0:0:s_037.ogg
256,192,55900,1,0,0:0:0:0:s_052.ogg
358,192,55900,1,0,0:0:0:0:s_040.ogg
460,192,55983,1,0,0:0:0:0:s_057.ogg
153,192,56066,1,0,0:0:0:0:s_049.ogg
358,192,56150,1,0,0:0:0:0:s_052.ogg
51,192,56233,1,0,0:0:0:0:s_045.ogg
256,192,56316,1,0,0:0:0:0:s_049.ogg
153,192,56400,1,0,0:0:0:0:s_042.ogg
460,192,56400,1,0,0:0:0:0:m_026.ogg
358,192,56483,1,0,0:0:0:0:s_054.ogg
51,192,56566,1,0,0:0:0:0:s_047.ogg
153,192,56650,1,0,0:0:0:0:s_035.ogg
358,192,56650,1,0,0:0:0:0:s_054.ogg
460,192,56650,1,0,0:0:0:0:s_042.ogg
51,192,56733,1,0,0:0:0:0:s_047.ogg
256,192,56816,1,0,0:0:0:0:s_059.ogg
51,192,56900,1,0,0:0:0:0:s_037.ogg
153,192,56900,1,0,0:0:0:0:s_049.ogg
358,192,56900,1,0,0:0:0:0:s_041.ogg
460,192,56983,1,0,0:0:0:0:s_061.ogg
153,192,57066,1,0,0:0:0:0:s_049.ogg
256,192,57150,1,0,0:0:0:0:s_025.ogg
460,192,57150,1,0,0:0:0:0:s_061.ogg
153,192,57233,1,0,0:0:0:0:s_049.ogg
460,192,57316,1,0,0:0:0:0:s_061.ogg
51,192,57400,1,0,0:0:0:0:m_026.ogg
256,192,57400,1,0,0:0:0:0:s_054.ogg
358,192,57483,1,0,0:0:0:0:s_066.ogg
51,192,57566,1,0,0:0:0:0:s_059.ogg
256,192,57650,1,0,0:0:0:0:s_035.ogg
358,192,57650,1,0,0:0:0:0:s_066.ogg
460,192,57650,1,0,0:0:0:0:s_042.ogg
51,192,57733,1,0,0:0:0:0:s_059.ogg
153,192,57816,1,0,0:0:0:0:s_071.ogg
51,192,57900,1,0,0:0:0:0:m_037.ogg
256,192,57900,1,0,0:0:0:0:s_061.ogg
358,192,57900,1,0,0:0:0:0:m_032.ogg
460,192,57983,1,0,0:0:0:0:s_073.ogg
256,192,58066,1,0,0:0:0:0:s_061.ogg
153,192,58150,1,0,0:0:0:0:s_025.ogg
460,192,58150,1,0,0:0:0:0:s_073.ogg
256,192,58233,1,0,0:0:0:0:s_061.ogg
460,192,58316,1,0,0:0:0:0:s_073.ogg
51,192,58400,1,0,0:0:0:0:m_026.ogg
256,192,58400,1,0,0:0:0:0:s_061.ogg
460,192,58483,1,0,0:0:0:0:s_073.ogg
358,192,58566,1,0,0:0:0:0:s_066.ogg
51,192,58650,1,0,0:0:0:0:s_038.ogg
256,192,58650,1,0,0:0:0:0:s_042.ogg
460,192,58650,1,0,0:0:0:0:s_073.ogg
153,192,58733,1,0,0:0:0:0:s_059.ogg
358,192,58816,1,0,0:0:0:0:s_071.ogg
51,192,58900,1,0,0:0:0:0:m_028.ogg
153,192,58900,1,0,0:0:0:0:s_059.ogg
358,192,58983,1,0,0:0:0:0:s_071.ogg
256,192,59066,1,0,0:0:0:0:s_064.ogg
51,192,59150,1,0,0:0:0:0:s_037.ogg
358,192,59150,1,0,0:0:0:0:s_071.ogg
460,192,59150,1,0,0:0:0:0:s_040.ogg
153,192,59233,1,0,0:0:0:0:s_057.ogg
460,192,59316,1,0,0:0:0:0:s_069.ogg
51,192,59400,1,0,0:0:0:0:s_052.ogg
358,192,59400,1,0,0:0:0:0:m_026.ogg
256,192,59483,1,0,0:0:0:0:s_064.ogg
153,192,59566,1,0,0:0:0:0:s_059.ogg
51,192,59650,1,0,0:0:0:0:s_047.ogg
256,192,59650,1,0,0:0:0:0:s_064.ogg
358,192,59650,1,0,0:0:0:0:s_044.ogg
153,192,59733,1,0,0:0:0:0:s_059.ogg
460,192,59816,1,0,0:0:0:0:s_071.ogg
51,192,59900,1,0,0:0:0:0:s_057.ogg
256,192,59900,1,0,0:0:0:0:m_025.ogg
358,192,59983,1,0,0:0:0:0:s_069.ogg
256,192,60066,1,0,0:0:0:0:s_064.ogg
51,192,60150,1,0,0:0:0:0:s_049.ogg
153,192,60150,1,0,0:0:0:0:s_045.ogg
358,192,60150,1,0,0:0:0:0:s_069.ogg
256,192,60233,1,0,0:0:0:0:s_064.ogg
460,192,60316,1,0,0:0:0:0:s_076.ogg
51,192,60400,1,0,0:0:0:0:s_061.ogg
153,192,60400,1,0,0:0:0:0:m_026.ogg
358,192,60483,1,0,0:0:0:0:s_073.ogg
153,192,60566,1,0,0:0:0:0:s_066.ogg
51,192,60650,1,0,0:0:0:0:s_042.ogg
358,192,60650,1,0,0:0:0:0:s_073.ogg
460,192,60650,1,0,0:0:0:0:s_038.ogg
256,192,60733,1,0,0:0:0:0:s_059.ogg
460,192,60816,1,0,0:0:0:0:s_071.ogg
153,192,60900,1,0,0:0:0:0:m_028.ogg
256,192,60900,1,0,0:0:0:0:s_059.ogg
460,192,60983,1,0,0:0:0:0:s_071.ogg
358,192,61066,1,0,0:0:0:0:s_064.ogg
51,192,61150,1,0,0:0:0:0:s_040.ogg
256,192,61150,1,0,0:0:0:0:s_037.ogg
460,192,61150,1,0,0:0:0:0:s_071.ogg
153,192,61233,1,0,0:0:0:0:s_057.ogg
358,192,61316,1,0,0:0:0:0:s_069.ogg
51,192,61400,1,0,0:0:0:0:s_052.ogg
460,192,61400,1,0,0:0:0:0:m_026.ogg
256,192,61483,1,0,0:0:0:0:s_064.ogg
153,192,61566,1,0,0:0:0:0:s_059.ogg
51,192,61650,1,0,0:0:0:0:s_044.ogg
256,192,61650,1,0,0:0:0:0:s_064.ogg
358,192,61650,1,0,0:0:0:0:s_038.ogg
153,192,61733,1,0,0:0:0:0:s_059.ogg
460,192,61816,1,0,0:0:0:0:s_071.ogg
51,192,61900,1,0,0:0:0:0:s_057.ogg
256,192,61900,1,0,0:0:0:0:m_025.ogg
358,192,61983,1,0,0:0:0:0:s_069.ogg
256,192,62066,1,0,0:0:0:0:s_064.ogg
51,192,62150,1,0,0:0:0:0:s_045.ogg
153,192,62150,1,0,0:0:0:0:s_049.ogg
358,192,62150,1,0,0:0:0:0:s_069.ogg
256,192,62233,1,0,0:0:0:0:s_064.ogg
460,192,62316,1,0,0:0:0:0:s_076.ogg
153,192,62400,1,0,0:0:0:0:s_061.ogg
358,192,62400,1,0,0:0:0:0:m_026.ogg
460,192,62483,1,0,0:0:0:0:s_073.ogg
256,192,62566,1,0,0:0:0:0:s_069.ogg
153,192,62650,1,0,0:0:0:0:m_047.ogg
358,192,62650,1,0,0:0:0:0:m_035.ogg
460,192,62650,1,0,0:0:0:0:s_073.ogg
51,192,62733,1,0,0:0:0:0:s_059.ogg
358,192,62816,1,0,0:0:0:0:s_071.ogg
153,192,62900,1,0,0:0:0:0:s_061.ogg
460,192,62983,1,0,0:0:0:0:s_073.ogg
256,192,63066,1,0,0:0:0:0:s_066.ogg
153,192,63150,1,0,0:0:0:0:s_026.ogg
460,192,63150,1,0,0:0:0:0:s_073.ogg
51,192,63233,1,0,0:0:0:0:s_059.ogg
358,192,63316,1,0,0:0:0:0:s_071.ogg
153,192,63400,1,0,0:0:0:0:s_061.ogg
256,192,63400,1,0,0:0:0:0:m_027.ogg
460,192,63483,1,0,0:0:0:0:s_073.ogg
256,192,63566,1,0,0:0:0:0:s_069.ogg
153,192,63650,1,0,0:0:0:0:m_045.ogg
358,192,63650,1,0,0:0:0:0:m_047.ogg
460,192,63650,1,0,0:0:0:0:s_073.ogg
51,192,63733,1,0,0:0:0:0:s_059.ogg
358,192,63816,1,0,0:0:0:0:s_071.ogg
153,192,63900,1,0,0:0:0:0:s_061.ogg
460,192,63983,1,0,0:0:0:0:s_073.ogg
256,192,64066,1,0,0:0:0:0:s_066.ogg
153,192,64150,1,0,0:0:0:0:s_027.ogg
460,192,64150,1,0,0:0:0:0:s_073.ogg
51,192,64233,1,0,0:0:0:0:s_059.ogg
358,192,64316,1,0,0:0:0:0:s_071.ogg
153,192,64400,1,0,0:0:0:0:s_064.ogg
256,192,64400,1,0,0:0:0:0:m_028.ogg
460,192,64483,1,0,0:0:0:0:s_073.ogg
51,192,64566,1,0,0:0:0:0:s_059.ogg
358,192,64650,1,0,0:0:0:0:s_071.ogg
153,192,64733,1,0,0:0:0:0:s_064.ogg
460,192,64816,1,0,0:0:0:0:s_073.ogg
51,192,64900,1,0,0:0:0:0:s_059.ogg
153,192,64900,1,0,0:0:0:0:m_040.ogg
256,192,64900,1,0,0:0:0:0:m_035.ogg
358,192,64983,1,0,0:0:0:0:s_071.ogg
153,192,65066,1,0,0:0:0:0:s_064.ogg
460,192,65150,1,0,0:0:0:0:s_073.ogg
51,192,65233,1,0,0:0:0:0:s_059.ogg
358,192,65316,1,0,0:0:0:0:s_071.ogg
51,192,65400,1,0,0:0:0:0:m_052.ogg
153,192,65400,1,0,0:0:0:0:s_064.ogg
256,192,65400,1,0,0:0:0:0:m_045.ogg
460,192,65483,1,0,0:0:0:0:s_073.ogg
51,192,65566,1,0,0:0:0:0:s_059.ogg
358,192,65650,1,0,0:0:0:0:s_071.ogg
153,192,65733,1,0,0:0:0:0:s_064.ogg
460,192,65816,1,0,0:0:0:0:s_073.ogg
51,192,65900,1,0,0:0:0:0:s_059.ogg
358,192,65983,1,0,0:0:0:0:s_071.ogg
153,192,66066,1,0,0:0:0:0:s_064.ogg
460,192,66150,1,0,0:0:0:0:s_073.ogg
51,192,66233,1,0,0:0:0:0:s_059.ogg
358,192,66316,1,0,0:0:0:0:s_071.ogg
51,192,66400,1,0,0:0:0:0:s_078.ogg
153,192,66400,1,0,0:0:0:0:m_016.ogg
256,192,66493,1,0,0:0:0:0:m_028.ogg
358,192,66587,1,0,0:0:0:0:m_035.ogg
460,192,66681,1,0,0:0:0:0:m_040.ogg
51,192,66775,1,0,0:0:0:0:m_045.ogg
153,192,66775,1,0,0:0:0:0:s_076.ogg
256,192,66825,1,0,0:0:0:0:s_073.ogg
153,192,66925,1,0,0:0:0:0:s_071.ogg
51,192,67025,1,0,0:0:0:0:s_069.ogg
460,192,67125,1,0,0:0:0:0:s_066.ogg
358,192,67225,1,0,0:0:0:0:s_064.ogg
256,192,67325,1,0,0:0:0:0:s_061.ogg
153,192,67425,1,0,0:0:0:0:s_059.ogg
358,192,67525,1,0,0:0:0:0:s_057.ogg
256,192,67625,1,0,0:0:0:0:s_054.ogg
153,192,67725,1,0,0:0:0:0:s_052.ogg
51,192,67825,1,0,0:0:0:0:m_028.ogg
256,192,67825,1,0,0:0:0:0:m_045.ogg
358,192,67825,1,0,0:0:0:0:m_038.ogg
460,192,67825,1,0,0:0:0:0:m_035.ogg
153,192,68425,1,0,0:0:0:0:m_049.ogg
460,192,68425,1,0,0:0:0:0:m_044.ogg
358,192,68875,1,0,0:0:0:0:s_047.ogg
51,192,69025,1,0,0:0:0:0:s_037.ogg
256,192,69025,1,0,0:0:0:0:m_033.ogg
153,192,69275,1,0,0:0:0:0:s_040.ogg
51,192,69525,1,0,0:0:0:0:s_047.ogg
256,192,69525,1,0,0:0:0:0:s_071.ogg
460,192,69525,1,0,0:0:0:0:s_038.ogg
358,192,69608,1,0,0:0:0:0:s_073.ogg
256,192,69691,1,0,0:0:0:0:s_071.ogg
51,192,69775,1,0,0:0:0:0:s_044.ogg
153,192,69775,1,0,0:0:0:0:s_064.ogg
358,192,69775,1,0,0:0:0:0:s_035.ogg
460,192,69858,1,0,0:0:0:0:s_076.ogg
256,192,69941,1,0,0:0:0:0:s_064.ogg
51,192,70025,1,0,0:0:0:0:s_037.ogg
153,192,70025,1,0,0:0:0:0:s_064.ogg
358,192,70025,1,0,0:0:0:0:s_045.ogg
256,192,70108,1,0,0:0:0:0:s_066.ogg
153,192,70191,1,0,0:0:0:0:s_064.ogg
51,192,70275,1,0,0:0:0:0:s_057.ogg
460,192,70275,1,0,0:0:0:0:s_040.ogg
358,192,70358,1,0,0:0:0:0:s_069.ogg
51,192,70441,1,0,0:0:0:0:s_057.ogg
153,192,70525,1,0,0:0:0:0:s_059.ogg
358,192,70525,1,0,0:0:0:0:s_047.ogg
460,192,70525,1,0,0:0:0:0:s_038.ogg
256,192,70608,1,0,0:0:0:0:s_061.ogg
153,192,70691,1,0,0:0:0:0:s_059.ogg
358,192,70775,1,0,0:0:0:0:s_035.ogg
460,192,70775,1,0,0:0:0:0:s_044.ogg
51,192,70775,128,0,71025:0:0:0:0:m_052.ogg
358,192,71025,1,0,0:0:0:0:s_045.ogg
460,192,71025,1,0,0:0:0:0:s_033.ogg
153,192,71108,1,0,0:0:0:0:s_057.ogg
256,192,71191,1,0,0:0:0:0:s_059.ogg
358,192,71275,1,0,0:0:0:0:s_061.ogg
256,192,71358,1,0,0:0:0:0:s_059.ogg
153,192,71441,1,0,0:0:0:0:s_057.ogg
51,192,71525,1,0,0:0:0:0:s_052.ogg
358,192,71525,1,0,0:0:0:0:s_032.ogg
460,192,71525,1,0,0:0:0:0:s_038.ogg
153,192,71608,1,0,0:0:0:0:s_059.ogg
256,192,71691,1,0,0:0:0:0:s_064.ogg
51,192,71775,1,0,0:0:0:0:s_040.ogg
358,192,71775,1,0,0:0:0:0:s_028.ogg
460,192,71775,1,0,0:0:0:0:s_066.ogg
256,192,71858,1,0,0:0:0:0:s_064.ogg
153,192,71941,1,0,0:0:0:0:s_059.ogg
51,192,72025,1,0,0:0:0:0:s_057.ogg
358,192,72025,1,0,0:0:0:0:s_037.ogg
460,192,72025,1,0,0:0:0:0:s_033.ogg
256,192,72108,1,0,0:0:0:0:s_064.ogg
358,192,72191,1,0,0:0:0:0:s_069.ogg
51,192,72275,1,0,0:0:0:0:s_040.ogg
153,192,72275,1,0,0:0:0:0:s_028.ogg
460,192,72275,1,0,0:0:0:0:s_071.ogg
358,192,72358,1,0,0:0:0:0:s_069.ogg
256,192,72441,1,0,0:0:0:0:s_066.ogg
51,192,72525,1,0,0:0:0:0:s_032.ogg
153,192,72525,1,0,0:0:0:0:s_064.ogg
460,192,72525,1,0,0:0:0:0:s_042.ogg
256,192,72608,1,0,0:0:0:0:s_071.ogg
358,192,72691,1,0,0:0:0:0:s_076.ogg
51,192,72775,1,0,0:0:0:0:s_028.ogg
153,192,72775,1,0,0:0:0:0:s_040.ogg
460,192,72775,1,0,0:0:0:0:s_078.ogg
358,192,72858,1,0,0:0:0:0:s_076.ogg
256,192,72941,1,0,0:0:0:0:s_071.ogg
51,192,73025,1,0,0:0:0:0:s_045.ogg
153,192,73025,1,0,0:0:0:0:s_069.ogg
460,192,73025,1,0,0:0:0:0:m_033.ogg
256,192,73108,1,0,0:0:0:0:s_071.ogg
153,192,73191,1,0,0:0:0:0:s_069.ogg
51,192,73275,1,0,0:0:0:0:s_064.ogg
358,192,73275,1,0,0:0:0:0:s_040.ogg
460,192,73358,1,0,0:0:0:0:s_076.ogg
153,192,73441,1,0,0:0:0:0:s_064.ogg
51,192,73525,1,0,0:0:0:0:s_064.ogg
256,192,73525,1,0,0:0:0:0:s_038.ogg
358,192,73525,1,0,0:0:0:0:s_047.ogg
153,192,73608,1,0,0:0:0:0:s_066.ogg
51,192,73691,1,0,0:0:0:0:s_064.ogg
153,192,73775,1,0,0:0:0:0:s_035.ogg
256,192,73775,1,0,0:0:0:0:s_059.ogg
358,192,73775,1,0,0:0:0:0:s_044.ogg
460,192,73858,1,0,0:0:0:0:s_071.ogg
358,192,73941,1,0,0:0:0:0:s_059.ogg
51,192,74025,1,0,0:0:0:0:s_045.ogg
153,192,74025,1,0,0:0:0:0:s_037.ogg
256,192,74025,1,0,0:0:0:0:s_059.ogg
358,192,74108,1,0,0:0:0:0:s_061.ogg
256,192,74191,1,0,0:0:0:0:s_059.ogg
51,192,74275,1,0,0:0:0:0:s_040.ogg
153,192,74275,1,0,0:0:0:0:s_057.ogg
460,192,74358,1,0,0:0:0:0:s_069.ogg
153,192,74441,1,0,0:0:0:0:s_057.ogg
51,192,74525,128,0,75025:0:0:0:0:m_052.ogg
358,192,74525,1,0,0:0:0:0:s_038.ogg
256,192,74525,1,0,0:0:0:0:s_047.ogg
153,192,74775,1,0,0:0:0:0:s_044.ogg
460,192,74775,1,0,0:0:0:0:s_035.ogg
358,192,75025,1,0,0:0:0:0:s_037.ogg
460,192,75025,1,0,0:0:0:0:s_045.ogg
153,192,75108,1,0,0:0:0:0:s_057.ogg
256,192,75191,1,0,0:0:0:0:s_059.ogg
358,192,75275,1,0,0:0:0:0:s_061.ogg
460,192,75275,1,0,0:0:0:0:s_040.ogg
256,192,75358,1,0,0:0:0:0:s_059.ogg
153,192,75441,1,0,0:0:0:0:s_057.ogg
51,192,75525,1,0,0:0:0:0:s_052.ogg
358,192,75525,1,0,0:0:0:0:s_032.ogg
460,192,75525,1,0,0:0:0:0:s_042.ogg
153,192,75608,1,0,0:0:0:0:s_059.ogg
256,192,75691,1,0,0:0:0:0:s_064.ogg
51,192,75775,1,0,0:0:0:0:s_040.ogg
358,192,75775,1,0,0:0:0:0:s_028.ogg
460,192,75775,1,0,0:0:0:0:s_066.ogg
256,192,75858,1,0,0:0:0:0:s_064.ogg
153,192,75941,1,0,0:0:0:0:s_059.ogg
51,192,76025,1,0,0:0:0:0:s_057.ogg
358,192,76025,1,0,0:0:0:0:s_042.ogg
460,192,76025,1,0,0:0:0:0:s_037.ogg
256,192,76108,1,0,0:0:0:0:s_064.ogg
358,192,76191,1,0,0:0:0:0:s_069.ogg
51,192,76275,1,0,0:0:0:0:s_028.ogg
153,192,76275,1,0,0:0:0:0:s_040.ogg
460,192,76275,1,0,0:0:0:0:s_071.ogg
358,192,76358,1,0,0:0:0:0:s_069.ogg
256,192,76441,1,0,0:0:0:0:s_064.ogg
51,192,76525,1,0,0:0:0:0:s_038.ogg
153,192,76525,1,0,0:0:0:0:s_059.ogg
460,192,76525,1,0,0:0:0:0:s_042.ogg
256,192,76608,1,0,0:0:0:0:s_064.ogg
358,192,76691,1,0,0:0:0:0:s_071.ogg
51,192,76775,1,0,0:0:0:0:s_028.ogg
153,192,76775,1,0,0:0:0:0:s_040.ogg
460,192,76775,1,0,0:0:0:0:s_073.ogg
358,192,76858,1,0,0:0:0:0:s_071.ogg
256,192,76941,1,0,0:0:0:0:s_064.ogg
51,192,77025,1,0,0:0:0:0:m_033.ogg
460,192,77025,1,0,0:0:0:0:s_073.ogg
358,192,77066,1,0,0:0:0:0:m_040.ogg
153,192,77108,1,0,0:0:0:0:s_064.ogg
256,192,77108,1,0,0:0:0:0:m_049.ogg
358,192,77191,1,0,0:0:0:0:s_071.ogg
51,192,77275,1,0,0:0:0:0:s_061.ogg
358,192,77358,1,0,0:0:0:0:s_071.ogg
256,192,77441,1,0,0:0:0:0:s_064.ogg
460,192,77525,1,0,0:0:0:0:s_069.ogg
153,192,77608,1,0,0:0:0:0:s_061.ogg
358,192,77691,1,0,0:0:0:0:s_066.ogg
51,192,77775,1,0,0:0:0:0:s_059.ogg
153,192,77775,1,0,0:0:0:0:s_038.ogg
460,192,77775,1,0,0:0:0:0:s_044.ogg
256,192,77858,1,0,0:0:0:0:s_064.ogg
153,192,77941,1,0,0:0:0:0:s_052.ogg
51,192,78025,1,0,0:0:0:0:m_037.ogg
358,192,78025,1,0,0:0:0:0:m_033.ogg
460,192,78025,1,0,0:0:0:0:s_061.ogg
153,192,78108,1,0,0:0:0:0:s_052.ogg
358,192,78191,1,0,0:0:0:0:s_059.ogg
51,192,78275,1,0,0:0:0:0:s_049.ogg
358,192,78358,1,0,0:0:0:0:s_059.ogg
256,192,78441,1,0,0:0:0:0:s_052.ogg
460,192,78525,1,0,0:0:0:0:s_057.ogg
153,192,78608,1,0,0:0:0:0:s_049.ogg
358,192,78691,1,0,0:0:0:0:s_054.ogg
51,192,78775,1,0,0:0:0:0:s_047.ogg
153,192,78775,1,0,0:0:0:0:s_032.ogg
460,192,78775,1,0,0:0:0:0:s_026.ogg
256,192,78858,1,0,0:0:0:0:s_052.ogg
153,192,78941,1,0,0:0:0:0:s_040.ogg
51,192,79025,1,0,0:0:0:0:m_025.ogg
358,192,79025,1,0,0:0:0:0:m_021.ogg
460,192,79025,1,0,0:0:0:0:s_049.ogg
153,192,79108,1,0,0:0:0:0:s_040.ogg
358,192,79191,1,0,0:0:0:0:s_047.ogg
51,192,79275,1,0,0:0:0:0:s_037.ogg
358,192,79358,1,0,0:0:0:0:s_047.ogg
256,192,79441,1,0,0:0:0:0:s_040.ogg
460,192,79525,1,0,0:0:0:0:s_045.ogg
153,192,79608,1,0,0:0:0:0:s_037.ogg
358,192,79691,1,0,0:0:0:0:s_042.ogg
51,192,79775,1,0,0:0:0:0:s_035.ogg
460,192,79775,1,0,0:0:0:0:s_016.ogg
256,192,79858,1,0,0:0:0:0:s_040.ogg
153,192,79941,1,0,0:0:0:0:s_028.ogg
51,192,80025,1,0,0:0:0:0:s_021.ogg
358,192,80025,1,0,0:0:0:0:s_037.ogg
460,192,80025,1,0,0:0:0:0:s_009.ogg
256,192,80108,1,0,0:0:0:0:s_033.ogg
460,192,80191,1,0,0:0:0:0:s_042.ogg
51,192,80275,1,0,0:0:0:0:s_028.ogg
358,192,80275,1,0,0:0:0:0:s_016.ogg
256,192,80358,1,0,0:0:0:0:s_040.ogg
153,192,80441,1,0,0:0:0:0:s_035.ogg
51,192,80525,1,0,0:0:0:0:s_021.ogg
358,192,80525,1,0,0:0:0:0:s_037.ogg
460,192,80525,1,0,0:0:0:0:s_009.ogg
256,192,80608,1,0,0:0:0:0:s_033.ogg
460,192,80691,1,0,0:0:0:0:s_042.ogg
51,192,80775,1,0,0:0:0:0:s_028.ogg
358,192,80775,1,0,0:0:0:0:s_016.ogg
256,192,80858,1,0,0:0:0:0:s_040.ogg
153,192,80941,1,0,0:0:0:0:s_035.ogg
51,192,81025,1,0,0:0:0:0:s_021.ogg
358,192,81025,1,0,0:0:0:0:s_037.ogg
460,192,81025,1,0,0:0:0:0:s_009.ogg
256,192,81275,1,0,0:0:0:0:s_037.ogg
460,192,81275,1,0,0:0:0:0:s_040.ogg
153,192,81358,1,0,0:0:0:0:s_035.ogg
51,192,81441,1,0,0:0:0:0:s_033.ogg
256,192,81525,1,0,0:0:0:0:s_042.ogg
358,192,81525,1,0,0:0:0:0:s_045.ogg
153,192,81608,1,0,0:0:0:0:s_040.ogg
51,192,81691,1,0,0:0:0:0:s_037.ogg
358,192,81775,1,0,0:0:0:0:s_045.ogg
460,192,81775,1,0,0:0:0:0:s_049.ogg
153,192,81858,1,0,0:0:0:0:s_042.ogg
256,192,81858,1,0,0:0:0:0:s_028.ogg
51,192,81941,1,0,0:0:0:0:s_040.ogg
358,192,81941,1,0,0:0:0:0:s_037.ogg
256,192,82025,1,0,0:0:0:0:s_052.ogg
460,192,82025,1,0,0:0:0:0:s_049.ogg
153,192,82108,1,0,0:0:0:0:s_047.ogg
358,192,82108,1,0,0:0:0:0:s_028.ogg
51,192,82191,1,0,0:0:0:0:s_045.ogg
460,192,82191,1,0,0:0:0:0:s_037.ogg
256,192,82275,1,0,0:0:0:0:s_054.ogg
358,192,82275,1,0,0:0:0:0:s_057.ogg
153,192,82358,1,0,0:0:0:0:s_052.ogg
460,192,82358,1,0,0:0:0:0:s_033.ogg
51,192,82441,1,0,0:0:0:0:s_049.ogg
256,192,82441,1,0,0:0:0:0:s_040.ogg
358,192,82525,1,0,0:0:0:0:s_057.ogg
460,192,82525,1,0,0:0:0:0:s_061.ogg
153,192,82608,1,0,0:0:0:0:s_054.ogg
256,192,82608,1,0,0:0:0:0:s_037.ogg
51,192,82691,1,0,0:0:0:0:s_052.ogg
358,192,82691,1,0,0:0:0:0:s_045.ogg
256,192,82775,1,0,0:0:0:0:s_061.ogg
460,192,82775,1,0,0:0:0:0:s_064.ogg
153,192,82858,1,0,0:0:0:0:s_059.ogg
358,192,82858,1,0,0:0:0:0:s_040.ogg
51,192,82941,1,0,0:0:0:0:s_057.ogg
460,192,82941,1,0,0:0:0:0:s_049.ogg
256,192,83025,1,0,0:0:0:0:s_066.ogg
358,192,83025,1,0,0:0:0:0:s_069.ogg
153,192,83108,1,0,0:0:0:0:s_064.ogg
460,192,83108,1,0,0:0:0:0:s_045.ogg
51,192,83191,1,0,0:0:0:0:s_061.ogg
256,192,83191,1,0,0:0:0:0:s_052.ogg
358,192,83275,1,0,0:0:0:0:s_069.ogg
460,192,83275,1,0,0:0:0:0:s_073.ogg
51,192,83358,1,0,0:0:0:0:s_049.ogg
256,192,83358,1,0,0:0:0:0:s_066.ogg
153,192,83441,1,0,0:0:0:0:s_064.ogg
460,192,83441,1,0,0:0:0:0:s_057.ogg
256,192,83525,1,0,0:0:0:0:s_066.ogg
358,192,83525,1,0,0:0:0:0:s_069.ogg
153,192,83608,1,0,0:0:0:0:s_064.ogg
460,192,83608,1,0,0:0:0:0:s_049.ogg
51,192,83691,1,0,0:0:0:0:s_061.ogg
256,192,83691,1,0,0:0:0:0:s_057.ogg
358,192,83775,1,0,0:0:0:0:s_069.ogg
460,192,83775,1,0,0:0:0:0:s_073.ogg
51,192,83858,1,0,0:0:0:0:s_049.ogg
256,192,83858,1,0,0:0:0:0:s_066.ogg
153,192,83941,1,0,0:0:0:0:s_064.ogg
460,192,83941,1,0,0:0:0:0:s_057.ogg
256,192,84025,1,0,0:0:0:0:s_066.ogg
358,192,84025,1,0,0:0:0:0:s_069.ogg
153,192,84108,1,0,0:0:0:0:s_064.ogg
460,192,84108,1,0,0:0:0:0:s_049.ogg
51,192,84191,1,0,0:0:0:0:s_061.ogg
256,192,84191,1,0,0:0:0:0:s_057.ogg
358,192,84275,1,0,0:0:0:0:s_069.ogg
460,192,84275,1,0,0:0:0:0:s_073.ogg
51,192,84358,1,0,0:0:0:0:s_049.ogg
256,192,84358,1,0,0:0:0:0:s_066.ogg
153,192,84441,1,0,0:0:0:0:s_064.ogg
460,192,84441,1,0,0:0:0:0:s_057.ogg
256,192,84525,1,0,0:0:0:0:s_066.ogg
358,192,84525,1,0,0:0:0:0:s_069.ogg
153,192,84608,1,0,0:0:0:0:s_064.ogg
460,192,84608,1,0,0:0:0:0:s_049.ogg
51,192,84691,1,0,0:0:0:0:s_061.ogg
256,192,84691,1,0,0:0:0:0:s_057.ogg
358,192,84775,1,0,0:0:0:0:s_069.ogg
460,192,84775,1,0,0:0:0:0:s_073.ogg
51,192,84858,1,0,0:0:0:0:s_049.ogg
256,192,84858,1,0,0:0:0:0:s_066.ogg
153,192,84941,1,0,0:0:0:0:s_064.ogg
460,192,84941,1,0,0:0:0:0:s_057.ogg
256,192,85025,1,0,0:0:0:0:s_069.ogg
358,192,85025,1,0,0:0:0:0:s_061.ogg
51,192,85425,1,0,0:0:0:0:s_069.ogg
153,192,85425,1,0,0:0:0:0:s_033.ogg
358,192,85425,1,0,0:0:0:0:s_057.ogg
51,192,85525,1,0,0:0:0:0:s_042.ogg
256,192,85525,1,0,0:0:0:0:s_066.ogg
460,192,85525,1,0,0:0:0:0:s_054.ogg
153,192,85625,1,0,0:0:0:0:s_064.ogg
358,192,85625,1,0,0:0:0:0:s_052.ogg
460,192,85625,1,0,0:0:0:0:s_040.ogg
51,192,85725,1,0,0:0:0:0:s_061.ogg
256,192,85725,1,0,0:0:0:0:s_049.ogg
358,192,85725,1,0,0:0:0:0:s_037.ogg
153,192,85825,1,0,0:0:0:0:s_059.ogg
256,192,85825,1,0,0:0:0:0:s_023.ogg
460,192,85825,1,0,0:0:0:0:s_047.ogg
51,192,85925,1,0,0:0:0:0:s_057.ogg
153,192,85925,1,0,0:0:0:0:s_033.ogg
358,192,85925,1,0,0:0:0:0:s_045.ogg
51,192,86025,1,0,0:0:0:0:s_030.ogg
256,192,86025,1,0,0:0:0:0:s_054.ogg
460,192,86025,1,0,0:0:0:0:s_042.ogg
153,192,86125,1,0,0:0:0:0:s_040.ogg
358,192,86125,1,0,0:0:0:0:s_052.ogg
460,192,86125,1,0,0:0:0:0:s_016.ogg
51,192,86225,1,0,0:0:0:0:s_049.ogg
256,192,86225,1,0,0:0:0:0:s_037.ogg
358,192,86225,1,0,0:0:0:0:s_013.ogg
153,192,86325,1,0,0:0:0:0:s_047.ogg
256,192,86325,1,0,0:0:0:0:s_023.ogg
460,192,86325,1,0,0:0:0:0:s_035.ogg
51,192,86425,1,0,0:0:0:0:s_033.ogg
153,192,86425,1,0,0:0:0:0:s_021.ogg
358,192,86425,1,0,0:0:0:0:s_045.ogg
51,192,87175,1,0,0:0:0:0:l_061.ogg
256,192,87175,1,0,0:0:0:0:m_033.ogg
153,192,87237,1,0,0:0:0:0:l_064.ogg
358,192,87237,1,0,0:0:0:0:l_040.ogg
256,192,87300,1,0,0:0:0:0:l_069.ogg
460,192,87300,1,0,0:0:0:0:l_049.ogg
358,192,87362,1,0,0:0:0:0:l_073.ogg
51,192,87925,1,0,0:0:0:0:l_009.ogg
153,192,87925,1,0,0:0:0:0:l_021.ogg
460,192,87925,1,0,0:0:0:0:l_033.ogg
