osu file format v14

[General]
AudioFilename: virtual
AudioLeadIn: 0
PreviewTime: 0
Countdown: 0
SampleSet: None
StackLeniency: 0.7
Mode: 3
LetterboxInBreaks: 0
SpecialStyle: 0
WidescreenStoryboard: 1

[Editor]
DistanceSpacing: 0.8
BeatDivisor: 6
GridSize: 16
TimelineZoom: 1.000007

[Metadata]
Title:Piano Beatmap Set
TitleUnicode:Piano Beatmap Set
Artist:Collection
ArtistUnicode:Collection
Creator:CircusGalop
Version:Black Key - 10K EZ
Source:BMS
Tags:
BeatmapID:1316759
BeatmapSetID:332673

[Difficulty]
HPDrainRate:0
CircleSize:10
OverallDifficulty:5
ApproachRate:5
SliderMultiplier:1.4
SliderTickRate:1

[Events]
//Background and Video events
0,0,"CircusGalop.jpg",0,0
//Break Periods
//Storyboard Layer 0 (Background)
//Storyboard Layer 1 (Fail)
//Storyboard Layer 2 (Pass)
//Storyboard Layer 3 (Foreground)
//Storyboard Sound Samples
Sample,2000,0,"s_040.ogg",100
Sample,2000,0,"s_033.ogg",100
Sample,2000,0,"s_037.ogg",100
Sample,2000,0,"s_069.ogg",100
Sample,2083,0,"s_073.ogg",100
Sample,2166,0,"s_064.ogg",100
Sample,2250,0,"s_069.ogg",100
Sample,2250,0,"s_045.ogg",100
Sample,2250,0,"s_033.ogg",100
Sample,2250,0,"s_038.ogg",100
Sample,2333,0,"s_066.ogg",100
Sample,2416,0,"s_069.ogg",100
Sample,2500,0,"s_064.ogg",100
Sample,2500,0,"s_033.ogg",100
Sample,2500,0,"s_045.ogg",100
Sample,2500,0,"s_037.ogg",100
Sample,2583,0,"s_069.ogg",100
Sample,2666,0,"s_061.ogg",100
Sample,2750,0,"s_064.ogg",100
Sample,2833,0,"s_057.ogg",100
Sample,2916,0,"s_061.ogg",100
Sample,3000,0,"s_057.ogg",100
Sample,3000,0,"m_021.ogg",100
Sample,3000,0,"m_033.ogg",100
Sample,3083,0,"s_061.ogg",100
Sample,3166,0,"s_052.ogg",100
Sample,3250,0,"s_042.ogg",100
Sample,3250,0,"s_057.ogg",100
Sample,3250,0,"s_045.ogg",100
Sample,3333,0,"s_054.ogg",100
Sample,3416,0,"s_057.ogg",100
Sample,3500,0,"s_045.ogg",100
Sample,3500,0,"s_037.ogg",100
Sample,3500,0,"s_052.ogg",100
Sample,3583,0,"s_057.ogg",100
Sample,3666,0,"s_049.ogg",100
Sample,3750,0,"s_052.ogg",100
Sample,3833,0,"s_045.ogg",100
Sample,3916,0,"s_049.ogg",100
Sample,4000,0,"s_040.ogg",100
Sample,4000,0,"m_016.ogg",100
Sample,4000,0,"m_028.ogg",100
Sample,4083,0,"s_052.ogg",100
Sample,4166,0,"s_047.ogg",100
Sample,4250,0,"s_052.ogg",100
Sample,4250,0,"s_044.ogg",100
Sample,4250,0,"s_040.ogg",100
Sample,4333,0,"s_047.ogg",100
Sample,4416,0,"s_059.ogg",100
Sample,4500,0,"s_047.ogg",100
Sample,4500,0,"m_035.ogg",100
Sample,4500,0,"m_042.ogg",100
Sample,4583,0,"s_059.ogg",100
Sample,4666,0,"s_054.ogg",100
Sample,4750,0,"m_023.ogg",100
Sample,4750,0,"s_059.ogg",100
Sample,4833,0,"s_054.ogg",100
Sample,4916,0,"s_066.ogg",100
Sample,5000,0,"s_054.ogg",100
Sample,5000,0,"m_028.ogg",100
Sample,5083,0,"s_066.ogg",100
Sample,5166,0,"s_059.ogg",100
Sample,5250,0,"s_066.ogg",100
Sample,5250,0,"s_042.ogg",100
Sample,5250,0,"s_038.ogg",100
Sample,5333,0,"s_059.ogg",100
Sample,5416,0,"s_071.ogg",100
Sample,5500,0,"s_059.ogg",100
Sample,5500,0,"m_038.ogg",100
Sample,5500,0,"m_035.ogg",100
Sample,5583,0,"s_071.ogg",100
Sample,5666,0,"s_064.ogg",100
Sample,5750,0,"s_071.ogg",100
Sample,5833,0,"s_064.ogg",100
Sample,5916,0,"s_076.ogg",100
Sample,6000,0,"s_037.ogg",100
Sample,6000,0,"s_033.ogg",100
Sample,6000,0,"s_040.ogg",100
Sample,6000,0,"s_069.ogg",100
Sample,6083,0,"s_073.ogg",100
Sample,6166,0,"s_064.ogg",100
Sample,6250,0,"s_069.ogg",100
Sample,6250,0,"s_038.ogg",100
Sample,6250,0,"s_033.ogg",100
Sample,6250,0,"s_045.ogg",100
Sample,6333,0,"s_066.ogg",100
Sample,6416,0,"s_069.ogg",100
Sample,6500,0,"s_045.ogg",100
Sample,6500,0,"s_033.ogg",100
Sample,6500,0,"s_037.ogg",100
Sample,6500,0,"s_064.ogg",100
Sample,6583,0,"s_069.ogg",100
Sample,6666,0,"s_061.ogg",100
Sample,6750,0,"s_064.ogg",100
Sample,6833,0,"s_057.ogg",100
Sample,6916,0,"s_061.ogg",100
Sample,7000,0,"m_021.ogg",100
Sample,7000,0,"s_057.ogg",100
Sample,7000,0,"m_033.ogg",100
Sample,7083,0,"s_061.ogg",100
Sample,7166,0,"s_052.ogg",100
Sample,7250,0,"s_045.ogg",100
Sample,7250,0,"s_057.ogg",100
Sample,7250,0,"s_042.ogg",100
Sample,7333,0,"s_054.ogg",100
Sample,7416,0,"s_057.ogg",100
Sample,7500,0,"s_052.ogg",100
Sample,7500,0,"s_037.ogg",100
Sample,7500,0,"s_045.ogg",100
Sample,7583,0,"s_057.ogg",100
Sample,7666,0,"s_049.ogg",100
Sample,7750,0,"s_052.ogg",100
Sample,7833,0,"s_045.ogg",100
Sample,7916,0,"s_049.ogg",100
Sample,8000,0,"s_042.ogg",100
Sample,8083,0,"s_054.ogg",100
Sample,8166,0,"s_047.ogg",100
Sample,8250,0,"s_054.ogg",100
Sample,8250,0,"m_035.ogg",100
Sample,8333,0,"s_047.ogg",100
Sample,8416,0,"s_059.ogg",100
Sample,8500,0,"s_054.ogg",100
Sample,8583,0,"s_059.ogg",100
Sample,8666,0,"s_054.ogg",100
Sample,8750,0,"s_066.ogg",100
Sample,8833,0,"s_059.ogg",100
Sample,8916,0,"s_071.ogg",100
Sample,9000,0,"s_061.ogg",100
Sample,9041,0,"m_032.ogg",100
Sample,9083,0,"s_073.ogg",100
Sample,9083,0,"m_041.ogg",100
Sample,9166,0,"s_061.ogg",100
Sample,9250,0,"m_037.ogg",100
Sample,9250,0,"s_073.ogg",100
Sample,9291,0,"m_044.ogg",100
Sample,9333,0,"m_053.ogg",100
Sample,9333,0,"s_061.ogg",100
Sample,9416,0,"s_073.ogg",100
Sample,9500,0,"s_061.ogg",100
Sample,9600,0,"s_073.ogg",100
Sample,9700,0,"s_061.ogg",100
Sample,9800,0,"s_073.ogg",100
Sample,9900,0,"s_061.ogg",100
Sample,10000,0,"s_073.ogg",100
Sample,10200,0,"s_045.ogg",100
Sample,10200,0,"s_037.ogg",100
Sample,10200,0,"s_033.ogg",100
Sample,10200,0,"s_069.ogg",100
Sample,10283,0,"s_073.ogg",100
Sample,10366,0,"s_064.ogg",100
Sample,10450,0,"s_033.ogg",100
Sample,10450,0,"s_038.ogg",100
Sample,10450,0,"s_069.ogg",100
Sample,10450,0,"s_045.ogg",100
Sample,10533,0,"s_066.ogg",100
Sample,10616,0,"s_069.ogg",100
Sample,10700,0,"s_045.ogg",100
Sample,10700,0,"s_033.ogg",100
Sample,10700,0,"s_037.ogg",100
Sample,10700,0,"s_064.ogg",100
Sample,10783,0,"s_069.ogg",100
Sample,10866,0,"s_061.ogg",100
Sample,10950,0,"s_064.ogg",100
Sample,11033,0,"s_057.ogg",100
Sample,11116,0,"s_061.ogg",100
Sample,11200,0,"s_057.ogg",100
Sample,11200,0,"m_033.ogg",100
Sample,11200,0,"m_021.ogg",100
Sample,11283,0,"s_061.ogg",100
Sample,11366,0,"s_052.ogg",100
Sample,11450,0,"s_042.ogg",100
Sample,11450,0,"s_057.ogg",100
Sample,11450,0,"s_045.ogg",100
Sample,11533,0,"s_054.ogg",100
Sample,11616,0,"s_057.ogg",100
Sample,11700,0,"s_037.ogg",100
Sample,11700,0,"s_052.ogg",100
Sample,11700,0,"s_045.ogg",100
Sample,11783,0,"s_057.ogg",100
Sample,11866,0,"s_049.ogg",100
Sample,11950,0,"s_052.ogg",100
Sample,12033,0,"s_045.ogg",100
Sample,12116,0,"s_049.ogg",100
Sample,12200,0,"s_040.ogg",100
Sample,12200,0,"m_016.ogg",100
Sample,12200,0,"m_028.ogg",100
Sample,12283,0,"s_052.ogg",100
Sample,12366,0,"s_047.ogg",100
Sample,12450,0,"s_035.ogg",100
Sample,12450,0,"s_052.ogg",100
Sample,12450,0,"s_044.ogg",100
Sample,12533,0,"s_047.ogg",100
Sample,12616,0,"s_059.ogg",100
Sample,12700,0,"m_035.ogg",100
Sample,12700,0,"s_047.ogg",100
Sample,12700,0,"m_042.ogg",100
Sample,12783,0,"s_059.ogg",100
Sample,12866,0,"s_054.ogg",100
Sample,12950,0,"m_023.ogg",100
Sample,12950,0,"s_059.ogg",100
Sample,13033,0,"s_054.ogg",100
Sample,13116,0,"s_066.ogg",100
Sample,13200,0,"m_028.ogg",100
Sample,13200,0,"s_054.ogg",100
Sample,13283,0,"s_066.ogg",100
Sample,13366,0,"s_059.ogg",100
Sample,13450,0,"s_042.ogg",100
Sample,13450,0,"s_066.ogg",100
Sample,13450,0,"s_038.ogg",100
Sample,13533,0,"s_059.ogg",100
Sample,13616,0,"s_071.ogg",100
Sample,13700,0,"m_035.ogg",100
Sample,13700,0,"m_038.ogg",100
Sample,13700,0,"s_059.ogg",100
Sample,13783,0,"s_071.ogg",100
Sample,13866,0,"s_064.ogg",100
Sample,13950,0,"s_071.ogg",100
Sample,14033,0,"s_064.ogg",100
Sample,14116,0,"s_076.ogg",100
Sample,14200,0,"s_045.ogg",100
Sample,14200,0,"s_033.ogg",100
Sample,14200,0,"s_040.ogg",100
Sample,14200,0,"s_069.ogg",100
Sample,14283,0,"s_073.ogg",100
Sample,14366,0,"s_064.ogg",100
Sample,14450,0,"s_045.ogg",100
Sample,14450,0,"s_038.ogg",100
Sample,14450,0,"s_069.ogg",100
Sample,14450,0,"s_033.ogg",100
Sample,14533,0,"s_066.ogg",100
Sample,14616,0,"s_069.ogg",100
Sample,14700,0,"s_033.ogg",100
Sample,14700,0,"s_064.ogg",100
Sample,14700,0,"s_037.ogg",100
Sample,14700,0,"s_045.ogg",100
Sample,14783,0,"s_069.ogg",100
Sample,14866,0,"s_061.ogg",100
Sample,14950,0,"s_064.ogg",100
Sample,15033,0,"s_057.ogg",100
Sample,15116,0,"s_061.ogg",100
Sample,15200,0,"m_021.ogg",100
Sample,15200,0,"s_057.ogg",100
Sample,15200,0,"m_033.ogg",100
Sample,15283,0,"s_061.ogg",100
Sample,15366,0,"s_052.ogg",100
Sample,15450,0,"s_038.ogg",100
Sample,15450,0,"s_057.ogg",100
Sample,15450,0,"s_045.ogg",100
Sample,15533,0,"s_054.ogg",100
Sample,15616,0,"s_057.ogg",100
Sample,15700,0,"s_037.ogg",100
Sample,15700,0,"s_052.ogg",100
Sample,15700,0,"s_045.ogg",100
Sample,15783,0,"s_057.ogg",100
Sample,15866,0,"s_049.ogg",100
Sample,15950,0,"s_052.ogg",100
Sample,16033,0,"s_045.ogg",100
Sample,16116,0,"s_049.ogg",100
Sample,16200,0,"s_042.ogg",100
Sample,16283,0,"s_054.ogg",100
Sample,16366,0,"s_047.ogg",100
Sample,16450,0,"s_054.ogg",100
Sample,16450,0,"m_045.ogg",100
Sample,16533,0,"s_047.ogg",100
Sample,16616,0,"s_059.ogg",100
Sample,16700,0,"s_054.ogg",100
Sample,16783,0,"s_059.ogg",100
Sample,16866,0,"s_054.ogg",100
Sample,16950,0,"m_027.ogg",100
Sample,16950,0,"s_066.ogg",100
Sample,17033,0,"s_059.ogg",100
Sample,17116,0,"s_066.ogg",100
Sample,17200,0,"s_054.ogg",100
Sample,17283,0,"s_066.ogg",100
Sample,17366,0,"s_059.ogg",100
Sample,17450,0,"s_066.ogg",100
Sample,17450,0,"m_035.ogg",100
Sample,17533,0,"s_052.ogg",100
Sample,17616,0,"s_064.ogg",100
Sample,17700,0,"s_059.ogg",100
Sample,17783,0,"s_064.ogg",100
Sample,17866,0,"s_059.ogg",100
Sample,17950,0,"s_071.ogg",100
Sample,18033,0,"s_064.ogg",100
Sample,18116,0,"s_076.ogg",100
Sample,18200,0,"s_071.ogg",100
Sample,18200,0,"s_047.ogg",100
Sample,18200,0,"s_039.ogg",100
Sample,18283,0,"s_073.ogg",100
Sample,18366,0,"s_071.ogg",100
Sample,18450,0,"s_047.ogg",100
Sample,18450,0,"s_035.ogg",100
Sample,18450,0,"s_066.ogg",100
Sample,18533,0,"s_078.ogg",100
Sample,18616,0,"s_066.ogg",100
Sample,18700,0,"s_064.ogg",100
Sample,18700,0,"s_044.ogg",100
Sample,18700,0,"s_040.ogg",100
Sample,18783,0,"s_066.ogg",100
Sample,18866,0,"s_064.ogg",100
Sample,18950,0,"s_044.ogg",100
Sample,18950,0,"s_059.ogg",100
Sample,18950,0,"s_035.ogg",100
Sample,19033,0,"s_071.ogg",100
Sample,19116,0,"s_059.ogg",100
Sample,19200,0,"s_059.ogg",100
Sample,19200,0,"s_045.ogg",100
Sample,19200,0,"s_039.ogg",100
Sample,19283,0,"s_061.ogg",100
Sample,19366,0,"s_059.ogg",100
Sample,19450,0,"s_045.ogg",100
Sample,19450,0,"s_054.ogg",100
Sample,19450,0,"s_047.ogg",100
Sample,19533,0,"s_066.ogg",100
Sample,19616,0,"s_054.ogg",100
Sample,19700,0,"s_052.ogg",100
Sample,19700,0,"s_044.ogg",100
Sample,19783,0,"s_054.ogg",100
Sample,19866,0,"s_052.ogg",100
Sample,19950,0,"s_035.ogg",100
Sample,20200,0,"m_027.ogg",100
Sample,20283,0,"s_054.ogg",100
Sample,20366,0,"s_059.ogg",100
Sample,20450,0,"s_045.ogg",100
Sample,20450,0,"s_035.ogg",100
Sample,20450,0,"s_061.ogg",100
Sample,20533,0,"s_059.ogg",100
Sample,20616,0,"s_054.ogg",100
Sample,20700,0,"s_052.ogg",100
Sample,20700,0,"m_035.ogg",100
Sample,20700,0,"m_044.ogg",100
Sample,20783,0,"s_059.ogg",100
Sample,20866,0,"s_064.ogg",100
Sample,20950,0,"m_028.ogg",100
Sample,20950,0,"s_066.ogg",100
Sample,21033,0,"s_064.ogg",100
Sample,21116,0,"s_061.ogg",100
Sample,21200,0,"s_059.ogg",100
Sample,21200,0,"m_023.ogg",100
Sample,21283,0,"s_066.ogg",100
Sample,21366,0,"s_071.ogg",100
Sample,21450,0,"s_035.ogg",100
Sample,21450,0,"s_073.ogg",100
Sample,21450,0,"s_045.ogg",100
Sample,21533,0,"s_071.ogg",100
Sample,21616,0,"s_066.ogg",100
Sample,21700,0,"s_064.ogg",100
Sample,21700,0,"m_016.ogg",100
Sample,21783,0,"s_071.ogg",100
Sample,21866,0,"s_076.ogg",100
Sample,21950,0,"s_040.ogg",100
Sample,21950,0,"s_044.ogg",100
Sample,21950,0,"s_078.ogg",100
Sample,22033,0,"s_076.ogg",100
Sample,22116,0,"s_073.ogg",100
Sample,22200,0,"s_071.ogg",100
Sample,22200,0,"m_023.ogg",100
Sample,22283,0,"s_073.ogg",100
Sample,22366,0,"s_071.ogg",100
Sample,22450,0,"s_047.ogg",100
Sample,22450,0,"s_066.ogg",100
Sample,22450,0,"s_039.ogg",100
Sample,22533,0,"s_078.ogg",100
Sample,22616,0,"s_066.ogg",100
Sample,22700,0,"s_040.ogg",100
Sample,22700,0,"s_044.ogg",100
Sample,22700,0,"s_064.ogg",100
Sample,22783,0,"s_066.ogg",100
Sample,22866,0,"s_064.ogg",100
Sample,22950,0,"s_044.ogg",100
Sample,22950,0,"s_035.ogg",100
Sample,22950,0,"s_059.ogg",100
Sample,23033,0,"s_071.ogg",100
Sample,23116,0,"s_059.ogg",100
Sample,23200,0,"s_039.ogg",100
Sample,23200,0,"s_045.ogg",100
Sample,23200,0,"s_059.ogg",100
Sample,23283,0,"s_061.ogg",100
Sample,23366,0,"s_059.ogg",100
Sample,23450,0,"s_035.ogg",100
Sample,23450,0,"s_047.ogg",100
Sample,23450,0,"s_054.ogg",100
Sample,23533,0,"s_066.ogg",100
Sample,23616,0,"s_054.ogg",100
Sample,23700,0,"s_052.ogg",100
Sample,23700,0,"s_044.ogg",100
Sample,23783,0,"s_054.ogg",100
Sample,23866,0,"s_052.ogg",100
Sample,23950,0,"s_035.ogg",100
Sample,24283,0,"s_059.ogg",100
Sample,24366,0,"s_057.ogg",100
Sample,24450,0,"m_045.ogg",100
Sample,24450,0,"m_042.ogg",100
Sample,24450,0,"s_059.ogg",100
Sample,24450,0,"m_035.ogg",100
Sample,24533,0,"s_057.ogg",100
Sample,24616,0,"s_059.ogg",100
Sample,24783,0,"s_059.ogg",100
Sample,24866,0,"s_057.ogg",100
Sample,24950,0,"s_059.ogg",100
Sample,24950,0,"m_015.ogg",100
Sample,25033,0,"s_057.ogg",100
Sample,25116,0,"s_059.ogg",100
Sample,25200,0,"s_047.ogg",100
Sample,25283,0,"s_059.ogg",100
Sample,25366,0,"s_057.ogg",100
Sample,25450,0,"m_035.ogg",100
Sample,25450,0,"m_042.ogg",100
Sample,25450,0,"s_059.ogg",100
Sample,25450,0,"m_045.ogg",100
Sample,25533,0,"s_057.ogg",100
Sample,25616,0,"s_059.ogg",100
Sample,25783,0,"s_059.ogg",100
Sample,25866,0,"s_057.ogg",100
Sample,25950,0,"s_015.ogg",100
Sample,25950,0,"s_027.ogg",100
Sample,25950,0,"s_059.ogg",100
Sample,26033,0,"s_057.ogg",100
Sample,26116,0,"s_059.ogg",100
Sample,26200,0,"s_049.ogg",100
Sample,26200,0,"m_016.ogg",100
Sample,26283,0,"s_061.ogg",100
Sample,26366,0,"s_057.ogg",100
Sample,26450,0,"s_061.ogg",100
Sample,26450,0,"s_045.ogg",100
Sample,26450,0,"s_037.ogg",100
Sample,26450,0,"s_040.ogg",100
Sample,26533,0,"s_057.ogg",100
Sample,26616,0,"s_061.ogg",100
Sample,26700,0,"s_027.ogg",100
Sample,26700,0,"s_015.ogg",100
Sample,26783,0,"s_061.ogg",100
Sample,26866,0,"s_057.ogg",100
Sample,26950,0,"s_028.ogg",100
Sample,26950,0,"s_061.ogg",100
Sample,26950,0,"s_016.ogg",100
Sample,27033,0,"s_057.ogg",100
Sample,27116,0,"s_061.ogg",100
Sample,27200,0,"m_017.ogg",100
Sample,27200,0,"s_049.ogg",100
Sample,27283,0,"s_061.ogg",100
Sample,27366,0,"s_057.ogg",100
Sample,27450,0,"s_061.ogg",100
Sample,27450,0,"s_045.ogg",100
Sample,27450,0,"s_037.ogg",100
Sample,27533,0,"s_057.ogg",100
Sample,27616,0,"s_061.ogg",100
Sample,27700,0,"s_028.ogg",100
Sample,27700,0,"s_016.ogg",100
Sample,27783,0,"s_061.ogg",100
Sample,27866,0,"s_057.ogg",100
Sample,27950,0,"s_017.ogg",100
Sample,27950,0,"s_029.ogg",100
Sample,27950,0,"s_061.ogg",100
Sample,28033,0,"s_057.ogg",100
Sample,28116,0,"s_061.ogg",100
Sample,28200,0,"m_018.ogg",100
Sample,28200,0,"m_030.ogg",100
Sample,28200,0,"s_057.ogg",100
Sample,28283,0,"s_061.ogg",100
Sample,28366,0,"s_057.ogg",100
Sample,28450,0,"m_037.ogg",100
Sample,28450,0,"m_045.ogg",100
Sample,28533,0,"s_061.ogg",100
Sample,28616,0,"s_057.ogg",100
Sample,28783,0,"s_061.ogg",100
Sample,28866,0,"s_057.ogg",100
Sample,28950,0,"s_018.ogg",100
Sample,28950,0,"s_030.ogg",100
Sample,29033,0,"s_061.ogg",100
Sample,29116,0,"s_057.ogg",100
Sample,29200,0,"m_031.ogg",100
Sample,29200,0,"m_019.ogg",100
Sample,29283,0,"s_061.ogg",100
Sample,29366,0,"s_057.ogg",100
Sample,29450,0,"m_037.ogg",100
Sample,29450,0,"m_045.ogg",100
Sample,29533,0,"s_061.ogg",100
Sample,29616,0,"s_057.ogg",100
Sample,29783,0,"s_061.ogg",100
Sample,29866,0,"s_057.ogg",100
Sample,29950,0,"s_031.ogg",100
Sample,29950,0,"s_019.ogg",100
Sample,30033,0,"s_061.ogg",100
Sample,30116,0,"s_057.ogg",100
Sample,30200,0,"m_032.ogg",100
Sample,30200,0,"s_052.ogg",100
Sample,30283,0,"s_064.ogg",100
Sample,30366,0,"s_061.ogg",100
Sample,30450,0,"s_064.ogg",100
Sample,30450,0,"s_044.ogg",100
Sample,30450,0,"s_037.ogg",100
Sample,30450,0,"s_040.ogg",100
Sample,30533,0,"s_064.ogg",100
Sample,30616,0,"s_076.ogg",100
Sample,30700,0,"s_031.ogg",100
Sample,30700,0,"s_073.ogg",100
Sample,30783,0,"s_076.ogg",100
Sample,30866,0,"s_064.ogg",100
Sample,30950,0,"s_064.ogg",100
Sample,30950,0,"s_032.ogg",100
Sample,31033,0,"s_061.ogg",100
Sample,31116,0,"s_064.ogg",100
Sample,31200,0,"s_052.ogg",100
Sample,31200,0,"m_033.ogg",100
Sample,31283,0,"s_064.ogg",100
Sample,31366,0,"s_061.ogg",100
Sample,31450,0,"s_064.ogg",100
Sample,31450,0,"s_043.ogg",100
Sample,31450,0,"s_040.ogg",100
Sample,31450,0,"s_037.ogg",100
Sample,31533,0,"s_064.ogg",100
Sample,31616,0,"s_076.ogg",100
Sample,31700,0,"s_032.ogg",100
Sample,31700,0,"s_073.ogg",100
Sample,31783,0,"s_076.ogg",100
Sample,31866,0,"s_064.ogg",100
Sample,31950,0,"s_064.ogg",100
Sample,31950,0,"s_033.ogg",100
Sample,32033,0,"s_061.ogg",100
Sample,32116,0,"s_064.ogg",100
Sample,32200,0,"s_034.ogg",100
Sample,32200,0,"s_052.ogg",100
Sample,32283,0,"s_064.ogg",100
Sample,32366,0,"s_061.ogg",100
Sample,32450,0,"s_064.ogg",100
Sample,32450,0,"s_043.ogg",100
Sample,32450,0,"s_040.ogg",100
Sample,32450,0,"s_034.ogg",100
Sample,32533,0,"s_064.ogg",100
Sample,32616,0,"s_076.ogg",100
Sample,32700,0,"s_071.ogg",100
Sample,32700,0,"s_035.ogg",100
Sample,32783,0,"s_076.ogg",100
Sample,32866,0,"s_064.ogg",100
Sample,32950,0,"s_035.ogg",100
Sample,32950,0,"s_040.ogg",100
Sample,32950,0,"s_044.ogg",100
Sample,32950,0,"s_064.ogg",100
Sample,33033,0,"s_059.ogg",100
Sample,33116,0,"s_064.ogg",100
Sample,33200,0,"s_036.ogg",100
Sample,33200,0,"s_052.ogg",100
Sample,33283,0,"s_064.ogg",100
Sample,33366,0,"s_057.ogg",100
Sample,33450,0,"s_064.ogg",100
Sample,33450,0,"m_045.ogg",100
Sample,33450,0,"m_042.ogg",100
Sample,33450,0,"m_036.ogg",100
Sample,33533,0,"s_052.ogg",100
Sample,33616,0,"s_052.ogg",100
Sample,33700,0,"s_045.ogg",100
Sample,33783,0,"s_052.ogg",100
Sample,33866,0,"s_040.ogg",100
Sample,33950,0,"s_040.ogg",100
Sample,33950,0,"s_012.ogg",100
Sample,33950,0,"s_024.ogg",100
Sample,34033,0,"s_033.ogg",100
Sample,34116,0,"s_040.ogg",100
Sample,34200,0,"m_030.ogg",100
Sample,34283,0,"m_033.ogg",100
Sample,34366,0,"m_040.ogg",100
Sample,34450,0,"m_042.ogg",100
Sample,34533,0,"m_033.ogg",100
Sample,34616,0,"m_040.ogg",100
Sample,34700,0,"m_042.ogg",100
Sample,34783,0,"m_045.ogg",100
Sample,34866,0,"m_040.ogg",100
Sample,34950,0,"m_042.ogg",100
Sample,35033,0,"m_045.ogg",100
Sample,35116,0,"m_052.ogg",100
Sample,35200,0,"m_042.ogg",100
Sample,35283,0,"m_045.ogg",100
Sample,35366,0,"m_052.ogg",100
Sample,35450,0,"m_054.ogg",100
Sample,35533,0,"m_045.ogg",100
Sample,35616,0,"m_052.ogg",100
Sample,35700,0,"m_035.ogg",100
Sample,35700,0,"m_054.ogg",100
Sample,35700,0,"m_040.ogg",100
Sample,35783,0,"m_057.ogg",100
Sample,35866,0,"m_052.ogg",100
Sample,35950,0,"m_054.ogg",100
Sample,36033,0,"m_064.ogg",100
Sample,36075,0,"s_035.ogg",100
Sample,36075,0,"s_040.ogg",100
Sample,36116,0,"s_057.ogg",100
Sample,36200,0,"m_054.ogg",100
Sample,36200,0,"l_035.ogg",100
Sample,36200,0,"l_045.ogg",100
Sample,36283,0,"m_057.ogg",100
Sample,36366,0,"m_066.ogg",100
Sample,36450,0,"m_064.ogg",100
Sample,36533,0,"m_057.ogg",100
Sample,36616,0,"m_054.ogg",100
Sample,36700,0,"m_064.ogg",100
Sample,36783,0,"m_057.ogg",100
Sample,36866,0,"m_054.ogg",100
Sample,36950,0,"m_052.ogg",100
Sample,37033,0,"m_057.ogg",100
Sample,37116,0,"m_054.ogg",100
Sample,37200,0,"m_052.ogg",100
Sample,37283,0,"m_045.ogg",100
Sample,37366,0,"m_054.ogg",100
Sample,37450,0,"m_052.ogg",100
Sample,37533,0,"m_045.ogg",100
Sample,37616,0,"m_042.ogg",100
Sample,37700,0,"m_052.ogg",100
Sample,37783,0,"m_045.ogg",100
Sample,37866,0,"m_042.ogg",100
Sample,37950,0,"m_040.ogg",100
Sample,38033,0,"m_045.ogg",100
Sample,38116,0,"s_042.ogg",100
Sample,38200,0,"m_035.ogg",100
Sample,38283,0,"m_042.ogg",100
Sample,38366,0,"m_045.ogg",100
Sample,38450,0,"m_047.ogg",100
Sample,38533,0,"m_042.ogg",100
Sample,38616,0,"m_045.ogg",100
Sample,38700,0,"m_047.ogg",100
Sample,38783,0,"m_054.ogg",100
Sample,38866,0,"m_045.ogg",100
Sample,38950,0,"m_047.ogg",100
Sample,39033,0,"m_054.ogg",100
Sample,39116,0,"m_057.ogg",100
Sample,39200,0,"m_047.ogg",100
Sample,39283,0,"m_054.ogg",100
Sample,39366,0,"m_057.ogg",100
Sample,39450,0,"m_059.ogg",100
Sample,39533,0,"m_054.ogg",100
Sample,39616,0,"m_057.ogg",100
Sample,39700,0,"m_045.ogg",100
Sample,39700,0,"m_059.ogg",100
Sample,39700,0,"m_035.ogg",100
Sample,39700,0,"m_047.ogg",100
Sample,39783,0,"m_066.ogg",100
Sample,39866,0,"m_057.ogg",100
Sample,39950,0,"m_059.ogg",100
Sample,40033,0,"m_069.ogg",100
Sample,40075,0,"s_035.ogg",100
Sample,40075,0,"s_045.ogg",100
Sample,40075,0,"s_047.ogg",100
Sample,40116,0,"m_066.ogg",100
Sample,40200,0,"l_045.ogg",100
Sample,40200,0,"l_035.ogg",100
Sample,40200,0,"l_047.ogg",100
Sample,40200,0,"m_059.ogg",100
Sample,40283,0,"m_057.ogg",100
Sample,40366,0,"m_066.ogg",100
Sample,40450,0,"m_059.ogg",100
Sample,40533,0,"m_057.ogg",100
Sample,40616,0,"m_054.ogg",100
Sample,40700,0,"m_059.ogg",100
Sample,40783,0,"m_057.ogg",100
Sample,40866,0,"m_054.ogg",100
Sample,40950,0,"m_047.ogg",100
Sample,41033,0,"m_057.ogg",100
Sample,41116,0,"s_054.ogg",100
Sample,41200,0,"m_047.ogg",100
Sample,41283,0,"m_054.ogg",100
Sample,41366,0,"s_045.ogg",100
Sample,41450,0,"m_047.ogg",100
Sample,41533,0,"m_045.ogg",100
Sample,41616,0,"m_042.ogg",100
Sample,41700,0,"m_047.ogg",100
Sample,41783,0,"m_045.ogg",100
Sample,41866,0,"m_042.ogg",100
Sample,41950,0,"m_035.ogg",100
Sample,42033,0,"m_045.ogg",100
Sample,42116,0,"m_042.ogg",100
Sample,42200,0,"s_040.ogg",100
Sample,42200,0,"l_016.ogg",100
Sample,42283,0,"s_052.ogg",100
Sample,42366,0,"s_047.ogg",100
Sample,42450,0,"s_052.ogg",100
Sample,42533,0,"s_047.ogg",100
Sample,42616,0,"s_059.ogg",100
Sample,42700,0,"m_035.ogg",100
Sample,42700,0,"s_052.ogg",100
Sample,42783,0,"s_059.ogg",100
Sample,42866,0,"s_047.ogg",100
Sample,42950,0,"s_052.ogg",100
Sample,43033,0,"s_047.ogg",100
Sample,43116,0,"s_052.ogg",100
Sample,43200,0,"s_040.ogg",100
Sample,43283,0,"s_052.ogg",100
Sample,43366,0,"s_047.ogg",100
Sample,43450,0,"s_052.ogg",100
Sample,43533,0,"s_047.ogg",100
Sample,43616,0,"s_059.ogg",100
Sample,43700,0,"m_034.ogg",100
Sample,43700,0,"s_052.ogg",100
Sample,43783,0,"s_059.ogg",100
Sample,43866,0,"s_047.ogg",100
Sample,43950,0,"s_052.ogg",100
Sample,44033,0,"s_047.ogg",100
Sample,44075,0,"m_035.ogg",100
Sample,44116,0,"s_052.ogg",100
Sample,44200,0,"s_040.ogg",100
Sample,44200,0,"m_028.ogg",100
Sample,44283,0,"s_052.ogg",100
Sample,44366,0,"s_047.ogg",100
Sample,44450,0,"s_052.ogg",100
Sample,44533,0,"s_052.ogg",100
Sample,44616,0,"s_064.ogg",100
Sample,44700,0,"m_035.ogg",100
Sample,44700,0,"s_059.ogg",100
Sample,44783,0,"s_064.ogg",100
Sample,44866,0,"s_052.ogg",100
Sample,44950,0,"s_052.ogg",100
Sample,45033,0,"s_047.ogg",100
Sample,45116,0,"s_052.ogg",100
Sample,45200,0,"s_047.ogg",100
Sample,45283,0,"s_059.ogg",100
Sample,45366,0,"s_052.ogg",100
Sample,45450,0,"s_059.ogg",100
Sample,45533,0,"s_059.ogg",100
Sample,45616,0,"s_071.ogg",100
Sample,45700,0,"m_034.ogg",100
Sample,45700,0,"s_064.ogg",100
Sample,45783,0,"s_071.ogg",100
Sample,45866,0,"s_059.ogg",100
Sample,45950,0,"s_059.ogg",100
Sample,46033,0,"s_052.ogg",100
Sample,46075,0,"m_035.ogg",100
Sample,46116,0,"s_059.ogg",100
Sample,46200,0,"s_052.ogg",100
Sample,46200,0,"m_028.ogg",100
Sample,46283,0,"s_054.ogg",100
Sample,46366,0,"s_052.ogg",100
Sample,46450,0,"s_066.ogg",100
Sample,46450,0,"s_044.ogg",100
Sample,46450,0,"s_032.ogg",100
Sample,46533,0,"s_064.ogg",100
Sample,46616,0,"s_078.ogg",100
Sample,46700,0,"s_076.ogg",100
Sample,46700,0,"s_040.ogg",100
Sample,46700,0,"s_036.ogg",100
Sample,46783,0,"s_078.ogg",100
Sample,46866,0,"s_076.ogg",100
Sample,46950,0,"s_040.ogg",100
Sample,46950,0,"s_046.ogg",100
Sample,46950,0,"s_064.ogg",100
Sample,47033,0,"s_066.ogg",100
Sample,47116,0,"s_064.ogg",100
Sample,47200,0,"s_052.ogg",100
Sample,47200,0,"m_038.ogg",100
Sample,47200,0,"m_040.ogg",100
Sample,47283,0,"s_054.ogg",100
Sample,47366,0,"s_052.ogg",100
Sample,47450,0,"s_066.ogg",100
Sample,47533,0,"s_064.ogg",100
Sample,47616,0,"s_078.ogg",100
Sample,47700,0,"s_037.ogg",100
Sample,47700,0,"s_076.ogg",100
Sample,47700,0,"s_040.ogg",100
Sample,47783,0,"s_078.ogg",100
Sample,47866,0,"s_076.ogg",100
Sample,47950,0,"s_064.ogg",100
Sample,47950,0,"s_036.ogg",100
Sample,47950,0,"s_040.ogg",100
Sample,48033,0,"s_066.ogg",100
Sample,48116,0,"s_064.ogg",100
Sample,48200,0,"s_076.ogg",100
Sample,48200,0,"m_040.ogg",100
Sample,48200,0,"m_032.ogg",100
Sample,48283,0,"s_078.ogg",100
Sample,48366,0,"s_076.ogg",100
Sample,48450,0,"s_064.ogg",100
Sample,48450,0,"s_028.ogg",100
Sample,48533,0,"s_066.ogg",100
Sample,48616,0,"s_064.ogg",100
Sample,48700,0,"s_076.ogg",100
Sample,48700,0,"m_040.ogg",100
Sample,48700,0,"s_047.ogg",100
Sample,48700,0,"m_044.ogg",100
Sample,48783,0,"s_078.ogg",100
Sample,48866,0,"s_076.ogg",100
Sample,48950,0,"s_064.ogg",100
Sample,49033,0,"s_066.ogg",100
Sample,49116,0,"s_064.ogg",100
Sample,49200,0,"m_044.ogg",100
Sample,49200,0,"m_040.ogg",100
Sample,49200,0,"m_038.ogg",100
Sample,49200,0,"s_076.ogg",100
Sample,49283,0,"s_078.ogg",100
Sample,49366,0,"s_076.ogg",100
Sample,49450,0,"s_064.ogg",100
Sample,49533,0,"s_066.ogg",100
Sample,49616,0,"s_064.ogg",100
Sample,49700,0,"s_076.ogg",100
Sample,49800,0,"s_078.ogg",100
Sample,49900,0,"s_076.ogg",100
Sample,50000,0,"s_064.ogg",100
Sample,50100,0,"s_066.ogg",100
Sample,50200,0,"s_064.ogg",100
Sample,50400,0,"s_033.ogg",100
Sample,50400,0,"s_040.ogg",100
Sample,50400,0,"s_037.ogg",100
Sample,50400,0,"s_069.ogg",100
Sample,50483,0,"s_073.ogg",100
Sample,50566,0,"s_064.ogg",100
Sample,50650,0,"s_069.ogg",100
Sample,50650,0,"s_033.ogg",100
Sample,50650,0,"s_045.ogg",100
Sample,50650,0,"s_042.ogg",100
Sample,50733,0,"s_066.ogg",100
Sample,50816,0,"s_069.ogg",100
Sample,50900,0,"s_040.ogg",100
Sample,50900,0,"s_033.ogg",100
Sample,50900,0,"s_037.ogg",100
Sample,50900,0,"s_064.ogg",100
Sample,50983,0,"s_069.ogg",100
Sample,51066,0,"s_061.ogg",100
Sample,51150,0,"s_064.ogg",100
Sample,51233,0,"s_057.ogg",100
Sample,51316,0,"s_061.ogg",100
Sample,51400,0,"s_057.ogg",100
Sample,51400,0,"m_021.ogg",100
Sample,51400,0,"m_033.ogg",100
Sample,51483,0,"s_061.ogg",100
Sample,51566,0,"s_052.ogg",100
Sample,51650,0,"s_057.ogg",100
Sample,51650,0,"s_042.ogg",100
Sample,51650,0,"s_045.ogg",100
Sample,51733,0,"s_054.ogg",100
Sample,51816,0,"s_057.ogg",100
Sample,51900,0,"s_052.ogg",100
Sample,51900,0,"s_037.ogg",100
Sample,51900,0,"s_045.ogg",100
Sample,51983,0,"s_057.ogg",100
Sample,52066,0,"s_049.ogg",100
Sample,52150,0,"s_052.ogg",100
Sample,52233,0,"s_045.ogg",100
Sample,52316,0,"s_049.ogg",100
Sample,52400,0,"s_040.ogg",100
Sample,52400,0,"m_016.ogg",100
Sample,52400,0,"m_028.ogg",100
Sample,52483,0,"s_052.ogg",100
Sample,52566,0,"s_047.ogg",100
Sample,52650,0,"s_040.ogg",100
Sample,52650,0,"s_035.ogg",100
Sample,52650,0,"s_052.ogg",100
Sample,52733,0,"s_047.ogg",100
Sample,52816,0,"s_059.ogg",100
Sample,52900,0,"m_035.ogg",100
Sample,52900,0,"s_047.ogg",100
Sample,52900,0,"m_038.ogg",100
Sample,52983,0,"s_059.ogg",100
Sample,53066,0,"s_054.ogg",100
Sample,53150,0,"m_023.ogg",100
Sample,53150,0,"s_059.ogg",100
Sample,53233,0,"s_054.ogg",100
Sample,53316,0,"s_066.ogg",100
Sample,53400,0,"m_028.ogg",100
Sample,53400,0,"s_054.ogg",100
Sample,53483,0,"s_066.ogg",100
Sample,53566,0,"s_059.ogg",100
Sample,53650,0,"s_035.ogg",100
Sample,53650,0,"s_066.ogg",100
Sample,53650,0,"s_038.ogg",100
Sample,53733,0,"s_059.ogg",100
Sample,53816,0,"s_071.ogg",100
Sample,53900,0,"m_038.ogg",100
Sample,53900,0,"m_035.ogg",100
Sample,53900,0,"s_059.ogg",100
Sample,53983,0,"s_071.ogg",100
Sample,54066,0,"s_064.ogg",100
Sample,54150,0,"s_071.ogg",100
Sample,54233,0,"s_064.ogg",100
Sample,54316,0,"s_076.ogg",100
Sample,54400,0,"s_033.ogg",100
Sample,54400,0,"s_045.ogg",100
Sample,54400,0,"s_040.ogg",100
Sample,54400,0,"s_069.ogg",100
Sample,54483,0,"s_073.ogg",100
Sample,54566,0,"s_064.ogg",100
Sample,54650,0,"s_033.ogg",100
Sample,54650,0,"s_069.ogg",100
Sample,54650,0,"s_038.ogg",100
Sample,54650,0,"s_045.ogg",100
Sample,54733,0,"s_066.ogg",100
Sample,54816,0,"s_069.ogg",100
Sample,54900,0,"s_040.ogg",100
Sample,54900,0,"s_033.ogg",100
Sample,54900,0,"s_064.ogg",100
Sample,54900,0,"s_037.ogg",100
Sample,54983,0,"s_069.ogg",100
Sample,55066,0,"s_061.ogg",100
Sample,55150,0,"s_064.ogg",100
Sample,55233,0,"s_057.ogg",100
Sample,55316,0,"s_061.ogg",100
Sample,55400,0,"m_021.ogg",100
Sample,55400,0,"s_057.ogg",100
Sample,55400,0,"m_033.ogg",100
Sample,55483,0,"s_061.ogg",100
Sample,55566,0,"s_052.ogg",100
Sample,55650,0,"s_045.ogg",100
Sample,55650,0,"s_057.ogg",100
Sample,55650,0,"s_042.ogg",100
Sample,55733,0,"s_054.ogg",100
Sample,55816,0,"s_057.ogg",100
Sample,55900,0,"s_052.ogg",100
Sample,55900,0,"s_037.ogg",100
Sample,55900,0,"s_045.ogg",100
Sample,55983,0,"s_057.ogg",100
Sample,56066,0,"s_049.ogg",100
Sample,56150,0,"s_052.ogg",100
Sample,56233,0,"s_045.ogg",100
Sample,56316,0,"s_049.ogg",100
Sample,56400,0,"s_042.ogg",100
Sample,56400,0,"m_026.ogg",100
Sample,56483,0,"s_054.ogg",100
Sample,56566,0,"s_047.ogg",100
Sample,56650,0,"s_035.ogg",100
Sample,56650,0,"s_054.ogg",100
Sample,56733,0,"s_047.ogg",100
Sample,56816,0,"s_059.ogg",100
Sample,56900,0,"s_032.ogg",100
Sample,56900,0,"s_037.ogg",100
Sample,56900,0,"s_049.ogg",100
Sample,56983,0,"s_061.ogg",100
Sample,57066,0,"s_049.ogg",100
Sample,57150,0,"s_025.ogg",100
Sample,57150,0,"s_061.ogg",100
Sample,57233,0,"s_049.ogg",100
Sample,57316,0,"s_061.ogg",100
Sample,57400,0,"m_026.ogg",100
Sample,57400,0,"s_054.ogg",100
Sample,57483,0,"s_066.ogg",100
Sample,57566,0,"s_059.ogg",100
Sample,57650,0,"s_035.ogg",100
Sample,57650,0,"s_066.ogg",100
Sample,57733,0,"s_059.ogg",100
Sample,57816,0,"s_071.ogg",100
Sample,57900,0,"s_061.ogg",100
Sample,57900,0,"m_037.ogg",100
Sample,57900,0,"m_032.ogg",100
Sample,57983,0,"s_073.ogg",100
Sample,58066,0,"s_061.ogg",100
Sample,58150,0,"s_025.ogg",100
Sample,58150,0,"s_073.ogg",100
Sample,58233,0,"s_061.ogg",100
Sample,58316,0,"s_073.ogg",100
Sample,58400,0,"s_061.ogg",100
Sample,58400,0,"m_026.ogg",100
Sample,58483,0,"s_073.ogg",100
Sample,58566,0,"s_066.ogg",100
Sample,58650,0,"s_073.ogg",100
Sample,58650,0,"s_038.ogg",100
Sample,58650,0,"s_047.ogg",100
Sample,58733,0,"s_059.ogg",100
Sample,58816,0,"s_071.ogg",100
Sample,58900,0,"m_028.ogg",100
Sample,58900,0,"s_059.ogg",100
Sample,58983,0,"s_071.ogg",100
Sample,59066,0,"s_064.ogg",100
Sample,59150,0,"s_045.ogg",100
Sample,59150,0,"s_071.ogg",100
Sample,59150,0,"s_040.ogg",100
Sample,59233,0,"s_057.ogg",100
Sample,59316,0,"s_069.ogg",100
Sample,59400,0,"s_052.ogg",100
Sample,59400,0,"m_026.ogg",100
Sample,59483,0,"s_064.ogg",100
Sample,59566,0,"s_059.ogg",100
Sample,59650,0,"s_038.ogg",100
Sample,59650,0,"s_044.ogg",100
Sample,59650,0,"s_064.ogg",100
Sample,59650,0,"s_040.ogg",100
Sample,59733,0,"s_059.ogg",100
Sample,59816,0,"s_071.ogg",100
Sample,59900,0,"m_025.ogg",100
Sample,59900,0,"s_057.ogg",100
Sample,59983,0,"s_069.ogg",100
Sample,60066,0,"s_064.ogg",100
Sample,60150,0,"s_040.ogg",100
Sample,60150,0,"s_069.ogg",100
Sample,60150,0,"s_049.ogg",100
Sample,60150,0,"s_037.ogg",100
Sample,60233,0,"s_064.ogg",100
Sample,60316,0,"s_076.ogg",100
Sample,60400,0,"s_061.ogg",100
Sample,60400,0,"m_026.ogg",100
Sample,60483,0,"s_073.ogg",100
Sample,60566,0,"s_066.ogg",100
Sample,60650,0,"s_047.ogg",100
Sample,60650,0,"s_042.ogg",100
Sample,60650,0,"s_073.ogg",100
Sample,60733,0,"s_059.ogg",100
Sample,60816,0,"s_071.ogg",100
Sample,60900,0,"m_028.ogg",100
Sample,60900,0,"s_059.ogg",100
Sample,60983,0,"s_071.ogg",100
Sample,61066,0,"s_064.ogg",100
Sample,61150,0,"s_045.ogg",100
Sample,61150,0,"s_040.ogg",100
Sample,61150,0,"s_071.ogg",100
Sample,61233,0,"s_057.ogg",100
Sample,61316,0,"s_069.ogg",100
Sample,61400,0,"s_052.ogg",100
Sample,61400,0,"m_026.ogg",100
Sample,61483,0,"s_064.ogg",100
Sample,61566,0,"s_059.ogg",100
Sample,61650,0,"s_040.ogg",100
Sample,61650,0,"s_064.ogg",100
Sample,61650,0,"s_038.ogg",100
Sample,61650,0,"s_047.ogg",100
Sample,61733,0,"s_059.ogg",100
Sample,61816,0,"s_071.ogg",100
Sample,61900,0,"m_025.ogg",100
Sample,61900,0,"s_057.ogg",100
Sample,61983,0,"s_069.ogg",100
Sample,62066,0,"s_064.ogg",100
Sample,62150,0,"s_037.ogg",100
Sample,62150,0,"s_069.ogg",100
Sample,62150,0,"s_045.ogg",100
Sample,62150,0,"s_040.ogg",100
Sample,62233,0,"s_064.ogg",100
Sample,62316,0,"s_076.ogg",100
Sample,62400,0,"s_061.ogg",100
Sample,62400,0,"m_026.ogg",100
Sample,62483,0,"s_073.ogg",100
Sample,62566,0,"s_069.ogg",100
Sample,62650,0,"m_047.ogg",100
Sample,62650,0,"s_073.ogg",100
Sample,62733,0,"s_059.ogg",100
Sample,62816,0,"s_071.ogg",100
Sample,62900,0,"s_061.ogg",100
Sample,62983,0,"s_073.ogg",100
Sample,63066,0,"s_066.ogg",100
Sample,63150,0,"s_073.ogg",100
Sample,63150,0,"s_026.ogg",100
Sample,63233,0,"s_059.ogg",100
Sample,63316,0,"s_071.ogg",100
Sample,63400,0,"s_061.ogg",100
Sample,63400,0,"m_027.ogg",100
Sample,63483,0,"s_073.ogg",100
Sample,63566,0,"s_069.ogg",100
Sample,63650,0,"s_073.ogg",100
Sample,63650,0,"m_042.ogg",100
Sample,63650,0,"m_035.ogg",100
Sample,63733,0,"s_059.ogg",100
Sample,63816,0,"s_071.ogg",100
Sample,63900,0,"s_061.ogg",100
Sample,63983,0,"s_073.ogg",100
Sample,64066,0,"s_066.ogg",100
Sample,64150,0,"s_073.ogg",100
Sample,64150,0,"s_027.ogg",100
Sample,64233,0,"s_059.ogg",100
Sample,64316,0,"s_071.ogg",100
Sample,64400,0,"m_028.ogg",100
Sample,64400,0,"s_064.ogg",100
Sample,64483,0,"s_073.ogg",100
Sample,64566,0,"s_059.ogg",100
Sample,64650,0,"s_071.ogg",100
Sample,64733,0,"s_064.ogg",100
Sample,64816,0,"s_073.ogg",100
Sample,64900,0,"s_059.ogg",100
Sample,64900,0,"m_047.ogg",100
Sample,64900,0,"m_045.ogg",100
Sample,64983,0,"s_071.ogg",100
Sample,65066,0,"s_064.ogg",100
Sample,65150,0,"s_073.ogg",100
Sample,65233,0,"s_059.ogg",100
Sample,65316,0,"s_071.ogg",100
Sample,65400,0,"m_047.ogg",100
Sample,65400,0,"s_064.ogg",100
Sample,65483,0,"s_073.ogg",100
Sample,65566,0,"s_059.ogg",100
Sample,65650,0,"s_071.ogg",100
Sample,65733,0,"s_064.ogg",100
Sample,65816,0,"s_073.ogg",100
Sample,65900,0,"s_059.ogg",100
Sample,65983,0,"s_071.ogg",100
Sample,66066,0,"s_064.ogg",100
Sample,66150,0,"s_073.ogg",100
Sample,66233,0,"s_059.ogg",100
Sample,66316,0,"s_071.ogg",100
Sample,66493,0,"m_028.ogg",100
Sample,66587,0,"m_035.ogg",100
Sample,66681,0,"m_040.ogg",100
Sample,66775,0,"m_045.ogg",100
Sample,66775,0,"s_076.ogg",100
Sample,66825,0,"s_073.ogg",100
Sample,66925,0,"s_071.ogg",100
Sample,67025,0,"s_069.ogg",100
Sample,67125,0,"s_066.ogg",100
Sample,67225,0,"s_064.ogg",100
Sample,67325,0,"s_061.ogg",100
Sample,67425,0,"s_059.ogg",100
Sample,67525,0,"s_057.ogg",100
Sample,67625,0,"s_054.ogg",100
Sample,67725,0,"s_052.ogg",100
Sample,67825,0,"m_045.ogg",100
Sample,67825,0,"m_042.ogg",100
Sample,67825,0,"m_038.ogg",100
Sample,67825,0,"m_035.ogg",100
Sample,67825,0,"m_028.ogg",100
Sample,68425,0,"m_044.ogg",100
Sample,68425,0,"m_040.ogg",100
Sample,69025,0,"s_037.ogg",100
Sample,69275,0,"s_040.ogg",100
Sample,69525,0,"s_047.ogg",100
Sample,69525,0,"s_071.ogg",100
Sample,69525,0,"s_038.ogg",100
Sample,69608,0,"s_073.ogg",100
Sample,69691,0,"s_071.ogg",100
Sample,69775,0,"s_064.ogg",100
Sample,69775,0,"s_044.ogg",100
Sample,69775,0,"s_035.ogg",100
Sample,69858,0,"s_076.ogg",100
Sample,69941,0,"s_064.ogg",100
Sample,70025,0,"s_064.ogg",100
Sample,70025,0,"s_037.ogg",100
Sample,70025,0,"s_045.ogg",100
Sample,70108,0,"s_066.ogg",100
Sample,70191,0,"s_064.ogg",100
Sample,70275,0,"s_057.ogg",100
Sample,70275,0,"s_040.ogg",100
Sample,70358,0,"s_069.ogg",100
Sample,70441,0,"s_057.ogg",100
Sample,70525,0,"s_059.ogg",100
Sample,70525,0,"s_047.ogg",100
Sample,70525,0,"s_038.ogg",100
Sample,70608,0,"s_061.ogg",100
Sample,70691,0,"s_059.ogg",100
Sample,70775,0,"s_035.ogg",100
Sample,70775,0,"s_044.ogg",100
Sample,70775,0,"m_052.ogg",100
Sample,71025,0,"s_037.ogg",100
Sample,71025,0,"s_045.ogg",100
Sample,71108,0,"s_057.ogg",100
Sample,71191,0,"s_059.ogg",100
Sample,71275,0,"s_061.ogg",100
Sample,71358,0,"s_059.ogg",100
Sample,71441,0,"s_057.ogg",100
Sample,71525,0,"s_042.ogg",100
Sample,71525,0,"s_052.ogg",100
Sample,71525,0,"s_032.ogg",100
Sample,71608,0,"s_059.ogg",100
Sample,71691,0,"s_064.ogg",100
Sample,71775,0,"s_066.ogg",100
Sample,71775,0,"s_040.ogg",100
Sample,71858,0,"s_064.ogg",100
Sample,71941,0,"s_059.ogg",100
Sample,72025,0,"s_057.ogg",100
Sample,72025,0,"s_042.ogg",100
Sample,72025,0,"s_037.ogg",100
Sample,72108,0,"s_064.ogg",100
Sample,72191,0,"s_069.ogg",100
Sample,72275,0,"s_071.ogg",100
Sample,72275,0,"s_040.ogg",100
Sample,72358,0,"s_069.ogg",100
Sample,72441,0,"s_066.ogg",100
Sample,72525,0,"s_064.ogg",100
Sample,72525,0,"s_038.ogg",100
Sample,72525,0,"s_032.ogg",100
Sample,72608,0,"s_071.ogg",100
Sample,72691,0,"s_076.ogg",100
Sample,72775,0,"s_028.ogg",100
Sample,72775,0,"s_078.ogg",100
Sample,72858,0,"s_076.ogg",100
Sample,72941,0,"s_071.ogg",100
Sample,73025,0,"s_069.ogg",100
Sample,73025,0,"s_037.ogg",100
Sample,73025,0,"s_045.ogg",100
Sample,73108,0,"s_071.ogg",100
Sample,73191,0,"s_069.ogg",100
Sample,73275,0,"s_064.ogg",100
Sample,73275,0,"s_040.ogg",100
Sample,73358,0,"s_076.ogg",100
Sample,73441,0,"s_064.ogg",100
Sample,73525,0,"s_064.ogg",100
Sample,73525,0,"s_038.ogg",100
Sample,73525,0,"s_047.ogg",100
Sample,73608,0,"s_066.ogg",100
Sample,73691,0,"s_064.ogg",100
Sample,73775,0,"s_044.ogg",100
Sample,73775,0,"s_059.ogg",100
Sample,73775,0,"s_035.ogg",100
Sample,73858,0,"s_071.ogg",100
Sample,73941,0,"s_059.ogg",100
Sample,74025,0,"s_059.ogg",100
Sample,74025,0,"s_045.ogg",100
Sample,74025,0,"s_037.ogg",100
Sample,74108,0,"s_061.ogg",100
Sample,74191,0,"s_059.ogg",100
Sample,74275,0,"s_057.ogg",100
Sample,74275,0,"s_040.ogg",100
Sample,74358,0,"s_069.ogg",100
Sample,74441,0,"s_057.ogg",100
Sample,74525,0,"s_038.ogg",100
Sample,74525,0,"s_047.ogg",100
Sample,74525,0,"m_052.ogg",100
Sample,74775,0,"s_044.ogg",100
Sample,74775,0,"s_035.ogg",100
Sample,75025,0,"s_037.ogg",100
Sample,75025,0,"s_033.ogg",100
Sample,75108,0,"s_057.ogg",100
Sample,75191,0,"s_059.ogg",100
Sample,75275,0,"s_061.ogg",100
Sample,75275,0,"s_040.ogg",100
Sample,75358,0,"s_059.ogg",100
Sample,75441,0,"s_057.ogg",100
Sample,75525,0,"s_038.ogg",100
Sample,75525,0,"s_052.ogg",100
Sample,75525,0,"s_032.ogg",100
Sample,75608,0,"s_059.ogg",100
Sample,75691,0,"s_064.ogg",100
Sample,75775,0,"s_066.ogg",100
Sample,75775,0,"s_040.ogg",100
Sample,75858,0,"s_064.ogg",100
Sample,75941,0,"s_059.ogg",100
Sample,76025,0,"s_033.ogg",100
Sample,76025,0,"s_057.ogg",100
Sample,76025,0,"s_042.ogg",100
Sample,76108,0,"s_064.ogg",100
Sample,76191,0,"s_069.ogg",100
Sample,76275,0,"s_071.ogg",100
Sample,76275,0,"s_028.ogg",100
Sample,76358,0,"s_069.ogg",100
Sample,76441,0,"s_064.ogg",100
Sample,76525,0,"s_059.ogg",100
Sample,76525,0,"s_032.ogg",100
Sample,76525,0,"s_038.ogg",100
Sample,76608,0,"s_064.ogg",100
Sample,76691,0,"s_071.ogg",100
Sample,76775,0,"s_028.ogg",100
Sample,76775,0,"s_073.ogg",100
Sample,76858,0,"s_071.ogg",100
Sample,76941,0,"s_064.ogg",100
Sample,77066,0,"m_040.ogg",100
Sample,77108,0,"m_049.ogg",100
Sample,77108,0,"s_064.ogg",100
Sample,77191,0,"s_071.ogg",100
Sample,77275,0,"s_061.ogg",100
Sample,77358,0,"s_071.ogg",100
Sample,77441,0,"s_064.ogg",100
Sample,77525,0,"s_069.ogg",100
Sample,77608,0,"s_061.ogg",100
Sample,77691,0,"s_066.ogg",100
Sample,77775,0,"s_038.ogg",100
Sample,77775,0,"s_028.ogg",100
Sample,77775,0,"s_035.ogg",100
Sample,77775,0,"s_059.ogg",100
Sample,77858,0,"s_064.ogg",100
Sample,77941,0,"s_052.ogg",100
Sample,78025,0,"m_037.ogg",100
Sample,78025,0,"s_061.ogg",100
Sample,78025,0,"m_045.ogg",100
Sample,78108,0,"s_052.ogg",100
Sample,78191,0,"s_059.ogg",100
Sample,78275,0,"s_049.ogg",100
Sample,78358,0,"s_059.ogg",100
Sample,78441,0,"s_052.ogg",100
Sample,78525,0,"s_057.ogg",100
Sample,78608,0,"s_049.ogg",100
Sample,78691,0,"s_054.ogg",100
Sample,78775,0,"s_026.ogg",100
Sample,78775,0,"s_047.ogg",100
Sample,78775,0,"s_016.ogg",100
Sample,78858,0,"s_052.ogg",100
Sample,78941,0,"s_040.ogg",100
Sample,79025,0,"m_033.ogg",100
Sample,79025,0,"s_049.ogg",100
Sample,79025,0,"m_025.ogg",100
Sample,79108,0,"s_040.ogg",100
Sample,79191,0,"s_047.ogg",100
Sample,79275,0,"s_037.ogg",100
Sample,79358,0,"s_047.ogg",100
Sample,79441,0,"s_040.ogg",100
Sample,79525,0,"s_045.ogg",100
Sample,79608,0,"s_037.ogg",100
Sample,79691,0,"s_042.ogg",100
Sample,79775,0,"s_016.ogg",100
Sample,79775,0,"s_035.ogg",100
Sample,79858,0,"s_040.ogg",100
Sample,79941,0,"s_028.ogg",100
Sample,80025,0,"s_021.ogg",100
Sample,80025,0,"s_037.ogg",100
Sample,80108,0,"s_033.ogg",100
Sample,80191,0,"s_042.ogg",100
Sample,80275,0,"s_028.ogg",100
Sample,80275,0,"s_016.ogg",100
Sample,80358,0,"s_040.ogg",100
Sample,80441,0,"s_035.ogg",100
Sample,80525,0,"s_021.ogg",100
Sample,80525,0,"s_037.ogg",100
Sample,80608,0,"s_033.ogg",100
Sample,80691,0,"s_042.ogg",100
Sample,80775,0,"s_028.ogg",100
Sample,80775,0,"s_016.ogg",100
Sample,80858,0,"s_040.ogg",100
Sample,80941,0,"s_035.ogg",100
Sample,81025,0,"s_021.ogg",100
Sample,81025,0,"s_037.ogg",100
Sample,81275,0,"s_037.ogg",100
Sample,81358,0,"s_035.ogg",100
Sample,81441,0,"s_033.ogg",100
Sample,81525,0,"s_042.ogg",100
Sample,81608,0,"s_040.ogg",100
Sample,81691,0,"s_037.ogg",100
Sample,81775,0,"s_021.ogg",100
Sample,81775,0,"s_045.ogg",100
Sample,81858,0,"s_028.ogg",100
Sample,81858,0,"s_042.ogg",100
Sample,81941,0,"s_037.ogg",100
Sample,81941,0,"s_040.ogg",100
Sample,82025,0,"s_021.ogg",100
Sample,82025,0,"s_052.ogg",100
Sample,82108,0,"s_047.ogg",100
Sample,82108,0,"s_028.ogg",100
Sample,82191,0,"s_045.ogg",100
Sample,82191,0,"s_037.ogg",100
Sample,82275,0,"s_025.ogg",100
Sample,82275,0,"s_054.ogg",100
Sample,82358,0,"s_052.ogg",100
Sample,82358,0,"s_033.ogg",100
Sample,82441,0,"s_049.ogg",100
Sample,82441,0,"s_040.ogg",100
Sample,82525,0,"s_057.ogg",100
Sample,82525,0,"s_028.ogg",100
Sample,82608,0,"s_054.ogg",100
Sample,82608,0,"s_037.ogg",100
Sample,82691,0,"s_052.ogg",100
Sample,82691,0,"s_045.ogg",100
Sample,82775,0,"s_061.ogg",100
Sample,82775,0,"s_033.ogg",100
Sample,82858,0,"s_059.ogg",100
Sample,82858,0,"s_040.ogg",100
Sample,82941,0,"s_049.ogg",100
Sample,82941,0,"s_057.ogg",100
Sample,83025,0,"s_066.ogg",100
Sample,83025,0,"s_037.ogg",100
Sample,83108,0,"s_045.ogg",100
Sample,83108,0,"s_064.ogg",100
Sample,83191,0,"s_061.ogg",100
Sample,83191,0,"s_052.ogg",100
Sample,83275,0,"s_040.ogg",100
Sample,83275,0,"s_069.ogg",100
Sample,83358,0,"s_066.ogg",100
Sample,83358,0,"s_049.ogg",100
Sample,83441,0,"s_057.ogg",100
Sample,83441,0,"s_064.ogg",100
Sample,83525,0,"s_066.ogg",100
Sample,83525,0,"s_045.ogg",100
Sample,83608,0,"s_049.ogg",100
Sample,83608,0,"s_064.ogg",100
Sample,83691,0,"s_061.ogg",100
Sample,83691,0,"s_057.ogg",100
Sample,83775,0,"s_040.ogg",100
Sample,83775,0,"s_069.ogg",100
Sample,83858,0,"s_066.ogg",100
Sample,83858,0,"s_049.ogg",100
Sample,83941,0,"s_057.ogg",100
Sample,83941,0,"s_064.ogg",100
Sample,84025,0,"s_066.ogg",100
Sample,84025,0,"s_045.ogg",100
Sample,84108,0,"s_049.ogg",100
Sample,84108,0,"s_064.ogg",100
Sample,84191,0,"s_061.ogg",100
Sample,84191,0,"s_057.ogg",100
Sample,84275,0,"s_040.ogg",100
Sample,84275,0,"s_069.ogg",100
Sample,84358,0,"s_066.ogg",100
Sample,84358,0,"s_049.ogg",100
Sample,84441,0,"s_057.ogg",100
Sample,84441,0,"s_064.ogg",100
Sample,84525,0,"s_066.ogg",100
Sample,84525,0,"s_045.ogg",100
Sample,84608,0,"s_049.ogg",100
Sample,84608,0,"s_064.ogg",100
Sample,84691,0,"s_061.ogg",100
Sample,84691,0,"s_057.ogg",100
Sample,84775,0,"s_040.ogg",100
Sample,84775,0,"s_069.ogg",100
Sample,84858,0,"s_066.ogg",100
Sample,84858,0,"s_049.ogg",100
Sample,84941,0,"s_057.ogg",100
Sample,84941,0,"s_064.ogg",100
Sample,85025,0,"s_061.ogg",100
Sample,85025,0,"s_045.ogg",100
Sample,85425,0,"s_045.ogg",100
Sample,85425,0,"s_057.ogg",100
Sample,85425,0,"s_033.ogg",100
Sample,85525,0,"s_042.ogg",100
Sample,85525,0,"s_030.ogg",100
Sample,85525,0,"s_054.ogg",100
Sample,85525,0,"s_066.ogg",100
Sample,85625,0,"s_064.ogg",100
Sample,85625,0,"s_052.ogg",100
Sample,85625,0,"s_028.ogg",100
Sample,85625,0,"s_040.ogg",100
Sample,85725,0,"s_037.ogg",100
Sample,85725,0,"s_025.ogg",100
Sample,85725,0,"s_061.ogg",100
Sample,85725,0,"s_049.ogg",100
Sample,85825,0,"s_023.ogg",100
Sample,85825,0,"s_059.ogg",100
Sample,85825,0,"s_047.ogg",100
Sample,85825,0,"s_035.ogg",100
Sample,85925,0,"s_033.ogg",100
Sample,85925,0,"s_021.ogg",100
Sample,85925,0,"s_045.ogg",100
Sample,85925,0,"s_057.ogg",100
Sample,86025,0,"s_054.ogg",100
Sample,86025,0,"s_018.ogg",100
Sample,86025,0,"s_042.ogg",100
Sample,86025,0,"s_030.ogg",100
Sample,86125,0,"s_016.ogg",100
Sample,86125,0,"s_028.ogg",100
Sample,86125,0,"s_052.ogg",100
Sample,86125,0,"s_040.ogg",100
Sample,86225,0,"s_037.ogg",100
Sample,86225,0,"s_025.ogg",100
Sample,86225,0,"s_049.ogg",100
Sample,86225,0,"s_013.ogg",100
Sample,86325,0,"s_011.ogg",100
Sample,86325,0,"s_023.ogg",100
Sample,86325,0,"s_035.ogg",100
Sample,86325,0,"s_047.ogg",100
Sample,86425,0,"s_033.ogg",100
Sample,86425,0,"s_045.ogg",100
Sample,86425,0,"s_021.ogg",100
Sample,86425,0,"s_009.ogg",100
Sample,87237,0,"l_040.ogg",100
Sample,87237,0,"l_064.ogg",100
Sample,87300,0,"l_069.ogg",100
Sample,87300,0,"l_049.ogg",100
Sample,87362,0,"l_073.ogg",100
Sample,87925,0,"l_033.ogg",100

[TimingPoints]
0,500.000000000004,4,2,0,100,1,0
9500,600,4,2,0,100,1,0
9500,-83.3333333333333,4,2,0,100,0,0
10000,1200,4,2,0,100,1,0
10000,-41.6666666666667,4,2,0,100,0,0
10200,500.000000000004,4,2,0,100,1,0
49700,600,4,2,0,100,1,0
49700,-83.3333333333333,4,2,0,100,0,0
50200,1200,4,2,0,100,1,0
50200,-41.6666666666667,4,2,0,100,0,0
50400,500.000000000004,4,2,0,100,1,0
66400,1500,4,2,0,100,1,0
66400,-33.3333333333333,4,2,0,100,0,0
66775,600,4,2,0,100,1,0
66775,-83.3333333333333,4,2,0,100,0,0
67825,600,4,2,0,100,1,0
67825,-83.3333333333333,4,2,0,100,0,0
69025,500.000000000004,4,2,0,100,1,0
85025,1200,4,2,0,100,1,0
85025,-41.6666666666667,4,2,0,100,0,0
85425,600,4,2,0,100,1,0
85425,-83.3333333333333,4,2,0,100,0,0
86425,750,4,2,0,100,1,0
86425,-66.6666666666667,4,2,0,100,0,0

[HitObjects]
128,192,2000,5,0,0:0:0:0:s_045.ogg
230,192,2250,1,0,0:0:0:0:s_042.ogg
128,192,2500,1,0,0:0:0:0:s_040.ogg
486,192,3250,1,0,0:0:0:0:s_038.ogg
384,192,3500,1,0,0:0:0:0:s_040.ogg
435,192,4250,1,0,0:0:0:0:s_035.ogg
332,192,4500,1,0,0:0:0:0:m_038.ogg
179,192,5250,1,0,0:0:0:0:s_035.ogg
76,192,5500,1,0,0:0:0:0:m_040.ogg
128,192,6000,1,0,0:0:0:0:s_045.ogg
230,192,6250,1,0,0:0:0:0:s_042.ogg
128,192,6500,1,0,0:0:0:0:s_040.ogg
486,192,7250,1,0,0:0:0:0:s_038.ogg
384,192,7500,1,0,0:0:0:0:s_040.ogg
25,192,8000,1,0,0:0:0:0:m_026.ogg
128,192,8250,1,0,0:0:0:0:m_042.ogg
281,192,8750,1,0,0:0:0:0:m_026.ogg
384,192,9000,1,0,0:0:0:0:m_025.ogg
128,192,10200,1,0,0:0:0:0:s_040.ogg
230,192,10450,1,0,0:0:0:0:s_042.ogg
128,192,10700,1,0,0:0:0:0:s_040.ogg
486,192,11450,1,0,0:0:0:0:s_038.ogg
384,192,11700,1,0,0:0:0:0:s_040.ogg
435,192,12450,1,0,0:0:0:0:s_040.ogg
332,192,12700,1,0,0:0:0:0:m_038.ogg
179,192,13450,1,0,0:0:0:0:s_035.ogg
76,192,13700,1,0,0:0:0:0:m_040.ogg
128,192,14200,1,0,0:0:0:0:s_037.ogg
230,192,14450,1,0,0:0:0:0:s_042.ogg
128,192,14700,1,0,0:0:0:0:s_040.ogg
486,192,15450,1,0,0:0:0:0:s_042.ogg
384,192,15700,1,0,0:0:0:0:s_040.ogg
25,192,16200,1,0,0:0:0:0:m_027.ogg
128,192,16450,1,0,0:0:0:0:m_035.ogg
281,192,17200,1,0,0:0:0:0:m_028.ogg
332,192,17450,1,0,0:0:0:0:m_044.ogg
179,192,18200,1,0,0:0:0:0:s_045.ogg
179,192,18450,1,0,0:0:0:0:s_045.ogg
384,192,18700,1,0,0:0:0:0:s_049.ogg
128,192,18950,1,0,0:0:0:0:s_047.ogg
384,192,19200,1,0,0:0:0:0:s_049.ogg
128,192,19450,1,0,0:0:0:0:s_035.ogg
384,192,19700,1,0,0:0:0:0:s_040.ogg
128,192,19950,1,0,0:0:0:0:s_047.ogg
435,192,20450,1,0,0:0:0:0:s_042.ogg
332,192,20700,1,0,0:0:0:0:m_040.ogg
435,192,21450,1,0,0:0:0:0:s_039.ogg
332,192,21950,1,0,0:0:0:0:s_035.ogg
128,192,22450,1,0,0:0:0:0:s_045.ogg
384,192,22700,1,0,0:0:0:0:s_049.ogg
128,192,22950,1,0,0:0:0:0:s_047.ogg
384,192,23200,1,0,0:0:0:0:s_049.ogg
128,192,23450,1,0,0:0:0:0:s_045.ogg
384,192,23700,1,0,0:0:0:0:s_040.ogg
128,192,23950,1,0,0:0:0:0:s_047.ogg
76,192,24200,1,0,0:0:0:0:m_027.ogg
435,192,24700,1,0,0:0:0:0:s_069.ogg
76,192,25200,1,0,0:0:0:0:m_027.ogg
435,192,25700,1,0,0:0:0:0:s_069.ogg
76,192,26200,1,0,0:0:0:0:m_028.ogg
435,192,26700,1,0,0:0:0:0:s_069.ogg
76,192,27200,1,0,0:0:0:0:m_029.ogg
435,192,27700,1,0,0:0:0:0:s_069.ogg
384,192,28450,1,0,0:0:0:0:s_073.ogg
281,192,28700,1,0,0:0:0:0:s_071.ogg
230,192,28950,1,0,0:0:0:0:s_069.ogg
128,192,29200,1,0,0:0:0:0:s_064.ogg
384,192,29450,1,0,0:0:0:0:s_073.ogg
281,192,29700,1,0,0:0:0:0:s_071.ogg
230,192,29950,1,0,0:0:0:0:s_069.ogg
128,192,30200,1,0,0:0:0:0:m_020.ogg
76,192,30700,1,0,0:0:0:0:s_019.ogg
128,192,30950,1,0,0:0:0:0:s_020.ogg
179,192,31200,1,0,0:0:0:0:m_021.ogg
332,192,31700,1,0,0:0:0:0:s_020.ogg
384,192,31950,1,0,0:0:0:0:s_021.ogg
435,192,32200,1,0,0:0:0:0:m_022.ogg
230,192,32700,1,0,0:0:0:0:m_023.ogg
486,192,33200,1,0,0:0:0:0:m_024.ogg
25,192,34200,1,0,0:0:0:0:l_023.ogg
281,192,34200,1,0,0:0:0:0:l_011.ogg
179,192,35700,1,0,0:0:0:0:m_045.ogg
179,192,36075,1,0,0:0:0:0:s_045.ogg
179,192,36200,1,0,0:0:0:0:l_040.ogg
25,192,38200,1,0,0:0:0:0:l_011.ogg
281,192,38200,1,0,0:0:0:0:l_023.ogg
435,192,39700,1,0,0:0:0:0:m_039.ogg
435,192,40075,1,0,0:0:0:0:s_039.ogg
435,192,40200,1,0,0:0:0:0:l_039.ogg
384,192,42700,1,0,0:0:0:0:m_044.ogg
128,192,43700,1,0,0:0:0:0:m_043.ogg
384,192,44075,1,0,0:0:0:0:m_044.ogg
384,192,44700,1,0,0:0:0:0:m_044.ogg
128,192,45700,1,0,0:0:0:0:m_043.ogg
384,192,46075,1,0,0:0:0:0:m_044.ogg
25,192,46450,1,0,0:0:0:0:s_040.ogg
76,192,46700,1,0,0:0:0:0:s_045.ogg
128,192,46950,1,0,0:0:0:0:s_037.ogg
179,192,47200,1,0,0:0:0:0:m_047.ogg
486,192,47700,1,0,0:0:0:0:s_046.ogg
435,192,47950,1,0,0:0:0:0:s_045.ogg
384,192,48200,1,0,0:0:0:0:m_044.ogg
128,192,48700,1,0,0:0:0:0:m_038.ogg
179,192,48950,1,0,0:0:0:0:s_049.ogg
230,192,49200,1,0,0:0:0:0:m_050.ogg
332,192,49700,1,0,0:0:0:0:s_049.ogg
281,192,50000,1,0,0:0:0:0:s_047.ogg
128,192,50400,1,0,0:0:0:0:s_045.ogg
230,192,50650,1,0,0:0:0:0:s_038.ogg
128,192,50900,1,0,0:0:0:0:s_045.ogg
486,192,51650,1,0,0:0:0:0:s_038.ogg
384,192,51900,1,0,0:0:0:0:s_040.ogg
435,192,52650,1,0,0:0:0:0:s_044.ogg
332,192,52900,1,0,0:0:0:0:m_042.ogg
179,192,53650,1,0,0:0:0:0:s_042.ogg
76,192,53900,1,0,0:0:0:0:m_040.ogg
128,192,54400,1,0,0:0:0:0:s_037.ogg
230,192,54650,1,0,0:0:0:0:s_042.ogg
128,192,54900,1,0,0:0:0:0:s_045.ogg
486,192,55650,1,0,0:0:0:0:s_038.ogg
384,192,55900,1,0,0:0:0:0:s_040.ogg
281,192,56650,1,0,0:0:0:0:s_042.ogg
25,192,56900,1,0,0:0:0:0:s_041.ogg
281,192,57650,1,0,0:0:0:0:s_042.ogg
25,192,57900,1,0,0:0:0:0:m_041.ogg
435,192,58650,1,0,0:0:0:0:s_042.ogg
332,192,59150,1,0,0:0:0:0:s_037.ogg
76,192,59650,1,0,0:0:0:0:s_047.ogg
179,192,60150,1,0,0:0:0:0:s_045.ogg
435,192,60650,1,0,0:0:0:0:s_038.ogg
332,192,61150,1,0,0:0:0:0:s_037.ogg
76,192,61650,1,0,0:0:0:0:s_044.ogg
179,192,62150,1,0,0:0:0:0:s_049.ogg
128,192,62650,1,0,0:0:0:0:m_042.ogg
384,192,62650,1,0,0:0:0:0:m_035.ogg
128,192,63650,1,0,0:0:0:0:m_047.ogg
435,192,63650,1,0,0:0:0:0:m_045.ogg
76,192,64900,1,0,0:0:0:0:m_040.ogg
435,192,64900,1,0,0:0:0:0:m_035.ogg
230,192,65400,1,0,0:0:0:0:m_052.ogg
486,192,65400,1,0,0:0:0:0:m_045.ogg
25,192,66400,1,0,0:0:0:0:m_016.ogg
281,192,66400,1,0,0:0:0:0:s_078.ogg
230,192,67825,1,0,0:0:0:0:m_047.ogg
486,192,68425,1,0,0:0:0:0:m_049.ogg
384,192,68875,1,0,0:0:0:0:s_047.ogg
25,192,69025,1,0,0:0:0:0:m_033.ogg
332,192,69025,1,0,0:0:0:0:m_045.ogg
25,192,70025,1,0,0:0:0:0:m_033.ogg
25,192,71025,1,0,0:0:0:0:s_033.ogg
332,192,71525,1,0,0:0:0:0:s_038.ogg
179,192,71775,1,0,0:0:0:0:s_028.ogg
332,192,72025,1,0,0:0:0:0:s_033.ogg
179,192,72275,1,0,0:0:0:0:s_028.ogg
332,192,72525,1,0,0:0:0:0:s_042.ogg
179,192,72775,1,0,0:0:0:0:s_040.ogg
25,192,73025,1,0,0:0:0:0:m_033.ogg
25,192,74025,1,0,0:0:0:0:m_033.ogg
25,192,75025,1,0,0:0:0:0:s_045.ogg
332,192,75525,1,0,0:0:0:0:s_042.ogg
179,192,75775,1,0,0:0:0:0:s_028.ogg
332,192,76025,1,0,0:0:0:0:s_037.ogg
179,192,76275,1,0,0:0:0:0:s_040.ogg
332,192,76525,1,0,0:0:0:0:s_042.ogg
179,192,76775,1,0,0:0:0:0:s_040.ogg
128,192,77025,1,0,0:0:0:0:s_073.ogg
384,192,77025,1,0,0:0:0:0:m_033.ogg
230,192,77775,1,0,0:0:0:0:s_044.ogg
332,192,78025,1,0,0:0:0:0:m_033.ogg
179,192,78775,1,0,0:0:0:0:s_032.ogg
281,192,79025,1,0,0:0:0:0:m_021.ogg
25,192,80025,1,0,0:0:0:0:s_009.ogg
25,192,80525,1,0,0:0:0:0:s_009.ogg
25,192,81025,1,0,0:0:0:0:s_009.ogg
281,192,81275,1,0,0:0:0:0:s_040.ogg
76,192,81525,1,0,0:0:0:0:s_045.ogg
332,192,81775,1,0,0:0:0:0:s_049.ogg
128,192,82025,1,0,0:0:0:0:s_049.ogg
384,192,82275,1,0,0:0:0:0:s_057.ogg
179,192,82525,1,0,0:0:0:0:s_061.ogg
435,192,82775,1,0,0:0:0:0:s_064.ogg
230,192,83025,1,0,0:0:0:0:s_069.ogg
486,192,83275,1,0,0:0:0:0:s_073.ogg
230,192,83525,1,0,0:0:0:0:s_069.ogg
486,192,83775,1,0,0:0:0:0:s_073.ogg
230,192,84025,1,0,0:0:0:0:s_069.ogg
486,192,84275,1,0,0:0:0:0:s_073.ogg
230,192,84525,1,0,0:0:0:0:s_069.ogg
486,192,84775,1,0,0:0:0:0:s_073.ogg
230,192,85025,1,0,0:0:0:0:s_069.ogg
384,192,85425,128,0,86425:0:0:0:0:s_069.ogg
230,192,87175,1,0,0:0:0:0:m_033.ogg
486,192,87175,1,0,0:0:0:0:l_061.ogg
25,192,87925,1,0,0:0:0:0:l_009.ogg
281,192,87925,1,0,0:0:0:0:l_021.ogg
