osu file format v14

[General]
AudioFilename: virtual
AudioLeadIn: 0
PreviewTime: 0
Countdown: 0
SampleSet: None
StackLeniency: 0.7
Mode: 3
LetterboxInBreaks: 0
SpecialStyle: 0
WidescreenStoryboard: 1

[Editor]
DistanceSpacing: 0.8
BeatDivisor: 4
GridSize: 32
TimelineZoom: 2.100006

[Metadata]
Title:Piano Beatmap Set
TitleUnicode:Piano Beatmap Set
Artist:Collection
ArtistUnicode:Collection
Creator:CircusGalop
Version:Turkish March - 10K HD
Source:BMS
Tags:
BeatmapID:1321644
BeatmapSetID:332673

[Difficulty]
HPDrainRate:7
CircleSize:10
OverallDifficulty:5
ApproachRate:5
SliderMultiplier:1.4
SliderTickRate:1

[Events]
//Background and Video events
0,0,"CircusGalop.jpg",0,0
//Break Periods
//Storyboard Layer 0 (Background)
//Storyboard Layer 1 (Fail)
//Storyboard Layer 2 (Pass)
//Storyboard Layer 3 (Foreground)
//Storyboard Sound Samples
Sample,1928,0,"s_039.ogg",100
Sample,2142,0,"s_043.ogg",100
Sample,2357,0,"s_043.ogg",100
Sample,2785,0,"s_039.ogg",100
Sample,3000,0,"s_043.ogg",100
Sample,3214,0,"s_043.ogg",100
Sample,3642,0,"s_039.ogg",100
Sample,4071,0,"s_039.ogg",100
Sample,4500,0,"s_039.ogg",100
Sample,4714,0,"s_043.ogg",100
Sample,4928,0,"s_043.ogg",100
Sample,5357,0,"s_043.ogg",100
Sample,5357,0,"s_057.ogg",100
Sample,5571,0,"s_055.ogg",100
Sample,5571,0,"s_038.ogg",100
Sample,5785,0,"s_038.ogg",100
Sample,5785,0,"s_057.ogg",100
Sample,6214,0,"s_057.ogg",100
Sample,6214,0,"s_043.ogg",100
Sample,6428,0,"s_038.ogg",100
Sample,6428,0,"s_055.ogg",100
Sample,6642,0,"s_057.ogg",100
Sample,6642,0,"s_038.ogg",100
Sample,7071,0,"s_060.ogg",100
Sample,7071,0,"s_038.ogg",100
Sample,7285,0,"s_055.ogg",100
Sample,7500,0,"s_054.ogg",100
Sample,8785,0,"s_039.ogg",100
Sample,9000,0,"s_043.ogg",100
Sample,9214,0,"s_043.ogg",100
Sample,9642,0,"s_039.ogg",100
Sample,9857,0,"s_043.ogg",100
Sample,10071,0,"s_043.ogg",100
Sample,10500,0,"s_039.ogg",100
Sample,10928,0,"s_039.ogg",100
Sample,11357,0,"s_039.ogg",100
Sample,11571,0,"s_043.ogg",100
Sample,11785,0,"s_043.ogg",100
Sample,12214,0,"s_057.ogg",100
Sample,12214,0,"s_043.ogg",100
Sample,12428,0,"s_055.ogg",100
Sample,12428,0,"s_038.ogg",100
Sample,12642,0,"s_038.ogg",100
Sample,12642,0,"s_057.ogg",100
Sample,13071,0,"s_057.ogg",100
Sample,13071,0,"s_043.ogg",100
Sample,13285,0,"s_038.ogg",100
Sample,13285,0,"s_055.ogg",100
Sample,13500,0,"s_057.ogg",100
Sample,13500,0,"s_038.ogg",100
Sample,13928,0,"s_038.ogg",100
Sample,13928,0,"s_057.ogg",100
Sample,14142,0,"s_058.ogg",100
Sample,14357,0,"s_057.ogg",100
Sample,15000,0,"s_055.ogg",100
Sample,15214,0,"s_053.ogg",100
Sample,15428,0,"s_055.ogg",100
Sample,15642,0,"s_055.ogg",100
Sample,16285,0,"s_050.ogg",100
Sample,16714,0,"s_051.ogg",100
Sample,16928,0,"s_056.ogg",100
Sample,17142,0,"s_055.ogg",100
Sample,17357,0,"s_055.ogg",100
Sample,18000,0,"m_050.ogg",100
Sample,18428,0,"s_051.ogg",100
Sample,18642,0,"s_053.ogg",100
Sample,18857,0,"s_055.ogg",100
Sample,19071,0,"s_055.ogg",100
Sample,19714,0,"s_047.ogg",100
Sample,20142,0,"s_051.ogg",100
Sample,20357,0,"s_053.ogg",100
Sample,20571,0,"s_055.ogg",100
Sample,20785,0,"s_055.ogg",100
Sample,21428,0,"m_050.ogg",100
Sample,22500,0,"s_039.ogg",100
Sample,22714,0,"s_043.ogg",100
Sample,22928,0,"s_043.ogg",100
Sample,23357,0,"s_039.ogg",100
Sample,23571,0,"s_043.ogg",100
Sample,23785,0,"s_043.ogg",100
Sample,24214,0,"s_039.ogg",100
Sample,24642,0,"s_039.ogg",100
Sample,25071,0,"s_042.ogg",100
Sample,25285,0,"s_036.ogg",100
Sample,25500,0,"s_042.ogg",100
Sample,25928,0,"s_043.ogg",100
Sample,26357,0,"s_038.ogg",100
Sample,26785,0,"s_036.ogg",100
Sample,27214,0,"s_038.ogg",100
Sample,27428,0,"s_036.ogg",100
Sample,27642,0,"s_036.ogg",100
Sample,27857,0,"s_031.ogg",100
Sample,28071,0,"s_035.ogg",100
Sample,28285,0,"m_024.ogg",100
Sample,28714,0,"s_048.ogg",100
Sample,28928,0,"s_050.ogg",100
Sample,29142,0,"m_064.ogg",100
Sample,29357,0,"s_036.ogg",100
Sample,29571,0,"s_060.ogg",100
Sample,29571,0,"s_036.ogg",100
Sample,29785,0,"s_036.ogg",100
Sample,29785,0,"s_050.ogg",100
Sample,30000,0,"m_064.ogg",100
Sample,30214,0,"s_036.ogg",100
Sample,30214,0,"s_050.ogg",100
Sample,30428,0,"s_060.ogg",100
Sample,30428,0,"s_036.ogg",100
Sample,30642,0,"s_036.ogg",100
Sample,30642,0,"s_047.ogg",100
Sample,30857,0,"s_045.ogg",100
Sample,31071,0,"s_029.ogg",100
Sample,31071,0,"s_059.ogg",100
Sample,31285,0,"s_048.ogg",100
Sample,31500,0,"s_030.ogg",100
Sample,31500,0,"s_062.ogg",100
Sample,31714,0,"m_059.ogg",100
Sample,31928,0,"s_055.ogg",100
Sample,31928,0,"s_031.ogg",100
Sample,32142,0,"s_060.ogg",100
Sample,32142,0,"s_031.ogg",100
Sample,32357,0,"s_050.ogg",100
Sample,32357,0,"s_031.ogg",100
Sample,32571,0,"m_052.ogg",100
Sample,32785,0,"s_036.ogg",100
Sample,33000,0,"s_036.ogg",100
Sample,33000,0,"s_060.ogg",100
Sample,33214,0,"s_062.ogg",100
Sample,33214,0,"s_036.ogg",100
Sample,33428,0,"m_064.ogg",100
Sample,33642,0,"s_036.ogg",100
Sample,33642,0,"s_062.ogg",100
Sample,33857,0,"s_036.ogg",100
Sample,33857,0,"s_048.ogg",100
Sample,34071,0,"s_036.ogg",100
Sample,34071,0,"s_059.ogg",100
Sample,34285,0,"s_057.ogg",100
Sample,34500,0,"s_029.ogg",100
Sample,34500,0,"s_062.ogg",100
Sample,34714,0,"s_047.ogg",100
Sample,34928,0,"s_031.ogg",100
Sample,34928,0,"s_043.ogg",100
Sample,35142,0,"m_048.ogg",100
Sample,35571,0,"s_060.ogg",100
Sample,35785,0,"s_062.ogg",100
Sample,36000,0,"m_052.ogg",100
Sample,36214,0,"s_036.ogg",100
Sample,36428,0,"s_048.ogg",100
Sample,36428,0,"s_036.ogg",100
Sample,36642,0,"s_036.ogg",100
Sample,36642,0,"s_062.ogg",100
Sample,36857,0,"m_052.ogg",100
Sample,37071,0,"s_036.ogg",100
Sample,37071,0,"s_062.ogg",100
Sample,37285,0,"s_048.ogg",100
Sample,37285,0,"s_036.ogg",100
Sample,37500,0,"s_036.ogg",100
Sample,37500,0,"s_047.ogg",100
Sample,37714,0,"s_045.ogg",100
Sample,37928,0,"s_059.ogg",100
Sample,37928,0,"s_029.ogg",100
Sample,38142,0,"s_048.ogg",100
Sample,38357,0,"s_050.ogg",100
Sample,38357,0,"s_030.ogg",100
Sample,38571,0,"m_047.ogg",100
Sample,38785,0,"s_043.ogg",100
Sample,38785,0,"s_031.ogg",100
Sample,39000,0,"s_031.ogg",100
Sample,39000,0,"s_048.ogg",100
Sample,39214,0,"s_062.ogg",100
Sample,39214,0,"s_031.ogg",100
Sample,39428,0,"m_064.ogg",100
Sample,39642,0,"s_036.ogg",100
Sample,39857,0,"s_048.ogg",100
Sample,39857,0,"s_036.ogg",100
Sample,40071,0,"s_036.ogg",100
Sample,40071,0,"s_050.ogg",100
Sample,40285,0,"m_052.ogg",100
Sample,40500,0,"s_036.ogg",100
Sample,40500,0,"s_050.ogg",100
Sample,40714,0,"s_060.ogg",100
Sample,40714,0,"s_036.ogg",100
Sample,40928,0,"s_036.ogg",100
Sample,40928,0,"s_059.ogg",100
Sample,41142,0,"s_057.ogg",100
Sample,41357,0,"s_029.ogg",100
Sample,41357,0,"s_050.ogg",100
Sample,41571,0,"s_059.ogg",100
Sample,41785,0,"s_031.ogg",100
Sample,41785,0,"s_043.ogg",100
Sample,42000,0,"m_060.ogg",100
Sample,43071,0,"s_036.ogg",100
Sample,43285,0,"s_040.ogg",100
Sample,43500,0,"s_040.ogg",100
Sample,43928,0,"s_038.ogg",100
Sample,44142,0,"s_040.ogg",100
Sample,44357,0,"s_040.ogg",100
Sample,44785,0,"s_036.ogg",100
Sample,45000,0,"s_040.ogg",100
Sample,45214,0,"s_040.ogg",100
Sample,45642,0,"s_040.ogg",100
Sample,45857,0,"s_040.ogg",100
Sample,46071,0,"s_040.ogg",100
Sample,46500,0,"s_040.ogg",100
Sample,46714,0,"s_040.ogg",100
Sample,46928,0,"s_040.ogg",100
Sample,47357,0,"s_040.ogg",100
Sample,47571,0,"s_043.ogg",100
Sample,47785,0,"s_043.ogg",100
Sample,48214,0,"s_045.ogg",100
Sample,48428,0,"s_045.ogg",100
Sample,48642,0,"s_045.ogg",100
Sample,48857,0,"m_040.ogg",100
Sample,49928,0,"s_036.ogg",100
Sample,50142,0,"s_040.ogg",100
Sample,50357,0,"s_040.ogg",100
Sample,50785,0,"s_038.ogg",100
Sample,51000,0,"s_040.ogg",100
Sample,51214,0,"s_040.ogg",100
Sample,51642,0,"s_036.ogg",100
Sample,51857,0,"s_040.ogg",100
Sample,52071,0,"s_040.ogg",100
Sample,52500,0,"s_040.ogg",100
Sample,52714,0,"s_040.ogg",100
Sample,52928,0,"s_040.ogg",100
Sample,53357,0,"s_040.ogg",100
Sample,53571,0,"s_040.ogg",100
Sample,53785,0,"s_040.ogg",100
Sample,54214,0,"s_040.ogg",100
Sample,54428,0,"s_043.ogg",100
Sample,54642,0,"s_043.ogg",100
Sample,55071,0,"s_045.ogg",100
Sample,55285,0,"s_045.ogg",100
Sample,55500,0,"s_045.ogg",100
Sample,55714,0,"m_040.ogg",100
Sample,56785,0,"s_040.ogg",100
Sample,57000,0,"s_043.ogg",100
Sample,57214,0,"s_043.ogg",100
Sample,57642,0,"s_041.ogg",100
Sample,58071,0,"s_041.ogg",100
Sample,58500,0,"s_040.ogg",100
Sample,58714,0,"s_043.ogg",100
Sample,58928,0,"s_043.ogg",100
Sample,59357,0,"s_041.ogg",100
Sample,59571,0,"s_035.ogg",100
Sample,59785,0,"s_035.ogg",100
Sample,60214,0,"s_040.ogg",100
Sample,60428,0,"s_043.ogg",100
Sample,60642,0,"s_043.ogg",100
Sample,61071,0,"s_041.ogg",100
Sample,61500,0,"s_041.ogg",100
Sample,63642,0,"s_036.ogg",100
Sample,63857,0,"s_040.ogg",100
Sample,64071,0,"s_040.ogg",100
Sample,64500,0,"s_038.ogg",100
Sample,64714,0,"s_040.ogg",100
Sample,64928,0,"s_040.ogg",100
Sample,65357,0,"s_036.ogg",100
Sample,65571,0,"s_040.ogg",100
Sample,65785,0,"s_040.ogg",100
Sample,66214,0,"s_040.ogg",100
Sample,66428,0,"s_040.ogg",100
Sample,66642,0,"s_040.ogg",100
Sample,67071,0,"s_038.ogg",100
Sample,67285,0,"s_038.ogg",100
Sample,67500,0,"s_038.ogg",100
Sample,67928,0,"s_038.ogg",100
Sample,68142,0,"s_038.ogg",100
Sample,68357,0,"s_038.ogg",100
Sample,68785,0,"s_036.ogg",100
Sample,69214,0,"s_038.ogg",100
Sample,69428,0,"m_036.ogg",100
Sample,70500,0,"s_036.ogg",100
Sample,70714,0,"s_036.ogg",100
Sample,70928,0,"s_036.ogg",100
Sample,71357,0,"s_036.ogg",100
Sample,71571,0,"s_036.ogg",100
Sample,71785,0,"s_036.ogg",100
Sample,72214,0,"s_029.ogg",100
Sample,72642,0,"s_030.ogg",100
Sample,73071,0,"s_031.ogg",100
Sample,73285,0,"s_031.ogg",100
Sample,73500,0,"s_031.ogg",100
Sample,73928,0,"s_036.ogg",100
Sample,74142,0,"s_036.ogg",100
Sample,74357,0,"s_036.ogg",100
Sample,74785,0,"s_036.ogg",100
Sample,75000,0,"s_036.ogg",100
Sample,75214,0,"s_036.ogg",100
Sample,75642,0,"s_029.ogg",100
Sample,76071,0,"s_031.ogg",100
Sample,76285,0,"m_048.ogg",100
Sample,77357,0,"s_036.ogg",100
Sample,77571,0,"s_036.ogg",100
Sample,77785,0,"s_036.ogg",100
Sample,78214,0,"s_036.ogg",100
Sample,78428,0,"s_036.ogg",100
Sample,78642,0,"s_036.ogg",100
Sample,79071,0,"s_029.ogg",100
Sample,79500,0,"s_030.ogg",100
Sample,79928,0,"s_031.ogg",100
Sample,80142,0,"s_031.ogg",100
Sample,80357,0,"s_031.ogg",100
Sample,80785,0,"s_036.ogg",100
Sample,81000,0,"s_036.ogg",100
Sample,81214,0,"s_036.ogg",100
Sample,81642,0,"s_036.ogg",100
Sample,81857,0,"s_036.ogg",100
Sample,82071,0,"s_036.ogg",100
Sample,82500,0,"s_029.ogg",100
Sample,82928,0,"s_031.ogg",100
Sample,83142,0,"m_060.ogg",100
Sample,83357,0,"s_036.ogg",100
Sample,83571,0,"s_036.ogg",100
Sample,83571,0,"m_052.ogg",100
Sample,83785,0,"s_036.ogg",100
Sample,84214,0,"s_036.ogg",100
Sample,84428,0,"s_036.ogg",100
Sample,84642,0,"s_036.ogg",100
Sample,85071,0,"s_036.ogg",100
Sample,85285,0,"s_036.ogg",100
Sample,85500,0,"s_036.ogg",100
Sample,85928,0,"s_036.ogg",100
Sample,86142,0,"s_036.ogg",100
Sample,86357,0,"s_036.ogg",100
Sample,86571,0,"m_060.ogg",100
Sample,86785,0,"s_029.ogg",100
Sample,87000,0,"s_029.ogg",100
Sample,87214,0,"s_029.ogg",100
Sample,87482,0,"s_060.ogg",100
Sample,87642,0,"s_036.ogg",100
Sample,87696,0,"s_060.ogg",100
Sample,87857,0,"s_036.ogg",100
Sample,87910,0,"s_060.ogg",100
Sample,88071,0,"s_036.ogg",100
Sample,88125,0,"s_060.ogg",100
Sample,88285,0,"m_062.ogg",100
Sample,88500,0,"s_031.ogg",100
Sample,88714,0,"s_031.ogg",100
Sample,88928,0,"s_031.ogg",100
Sample,89357,0,"s_036.ogg",100
Sample,89571,0,"s_036.ogg",100
Sample,89785,0,"s_036.ogg",100
Sample,90214,0,"s_036.ogg",100
Sample,90428,0,"s_036.ogg",100
Sample,90642,0,"s_036.ogg",100
Sample,91071,0,"s_036.ogg",100
Sample,91285,0,"s_036.ogg",100
Sample,91500,0,"s_036.ogg",100
Sample,91714,0,"m_060.ogg",100
Sample,91928,0,"s_029.ogg",100
Sample,92142,0,"s_029.ogg",100
Sample,92357,0,"s_029.ogg",100
Sample,92625,0,"m_060.ogg",100
Sample,92785,0,"s_036.ogg",100
Sample,93000,0,"s_036.ogg",100
Sample,93214,0,"s_036.ogg",100
Sample,93482,0,"s_055.ogg",100
Sample,93642,0,"s_031.ogg",100
Sample,93696,0,"s_055.ogg",100
Sample,93857,0,"s_031.ogg",100
Sample,93910,0,"s_055.ogg",100
Sample,94071,0,"s_031.ogg",100
Sample,94125,0,"s_055.ogg",100
Sample,100500,0,"s_036.ogg",100
Sample,100714,0,"s_036.ogg",100
Sample,100928,0,"s_036.ogg",100
Sample,101357,0,"s_036.ogg",100
Sample,101571,0,"s_036.ogg",100
Sample,101785,0,"s_036.ogg",100
Sample,102214,0,"s_036.ogg",100
Sample,102428,0,"s_036.ogg",100
Sample,102642,0,"s_036.ogg",100
Sample,102857,0,"m_060.ogg",100
Sample,103071,0,"s_029.ogg",100
Sample,103285,0,"s_029.ogg",100
Sample,103500,0,"s_029.ogg",100
Sample,103767,0,"m_064.ogg",100
Sample,103928,0,"s_036.ogg",100
Sample,104142,0,"s_036.ogg",100
Sample,104357,0,"s_036.ogg",100
Sample,104625,0,"s_059.ogg",100
Sample,104785,0,"s_031.ogg",100
Sample,104839,0,"s_059.ogg",100
Sample,105000,0,"s_031.ogg",100
Sample,105053,0,"s_059.ogg",100
Sample,105214,0,"s_031.ogg",100
Sample,105267,0,"s_059.ogg",100
Sample,105428,0,"m_055.ogg",100
Sample,105428,0,"m_052.ogg",100
Sample,105642,0,"s_036.ogg",100
Sample,105857,0,"s_036.ogg",100
Sample,106071,0,"s_036.ogg",100
Sample,106500,0,"s_036.ogg",100
Sample,106714,0,"s_036.ogg",100
Sample,106928,0,"s_036.ogg",100
Sample,107357,0,"s_036.ogg",100
Sample,107571,0,"s_036.ogg",100
Sample,107785,0,"s_036.ogg",100
Sample,108214,0,"s_036.ogg",100
Sample,108642,0,"s_036.ogg",100
Sample,109285,0,"m_052.ogg",100
Sample,109285,0,"m_055.ogg",100
Sample,109714,0,"m_052.ogg",100
Sample,109714,0,"m_055.ogg",100

[TimingPoints]
0,428.571428571432,4,2,0,100,1,0

[HitObjects]
384,192,1285,5,0,0:0:0:0:s_050.ogg
332,192,1392,1,0,0:0:0:0:s_048.ogg
281,192,1500,1,0,0:0:0:0:s_047.ogg
384,192,1607,1,0,0:0:0:0:s_048.ogg
76,192,1714,5,0,0:0:0:0:s_036.ogg
435,192,1714,1,0,0:0:0:0:s_051.ogg
179,192,1928,1,0,0:0:0:0:s_043.ogg
179,192,2142,1,0,0:0:0:0:s_039.ogg
435,192,2142,1,0,0:0:0:0:s_053.ogg
384,192,2250,1,0,0:0:0:0:s_051.ogg
179,192,2357,1,0,0:0:0:0:s_039.ogg
332,192,2357,1,0,0:0:0:0:s_050.ogg
435,192,2464,1,0,0:0:0:0:s_051.ogg
76,192,2571,1,0,0:0:0:0:s_036.ogg
486,192,2571,1,0,0:0:0:0:s_055.ogg
179,192,2785,1,0,0:0:0:0:s_043.ogg
179,192,3000,1,0,0:0:0:0:s_039.ogg
435,192,3000,1,0,0:0:0:0:s_056.ogg
384,192,3107,1,0,0:0:0:0:s_055.ogg
179,192,3214,1,0,0:0:0:0:s_039.ogg
332,192,3214,1,0,0:0:0:0:s_054.ogg
384,192,3321,1,0,0:0:0:0:s_055.ogg
76,192,3428,1,0,0:0:0:0:s_036.ogg
486,192,3428,1,0,0:0:0:0:s_062.ogg
435,192,3535,1,0,0:0:0:0:s_060.ogg
179,192,3642,1,0,0:0:0:0:s_043.ogg
281,192,3642,1,0,0:0:0:0:s_059.ogg
332,192,3750,1,0,0:0:0:0:s_060.ogg
76,192,3857,1,0,0:0:0:0:s_036.ogg
486,192,3857,1,0,0:0:0:0:s_062.ogg
435,192,3964,1,0,0:0:0:0:s_060.ogg
179,192,4071,1,0,0:0:0:0:s_043.ogg
281,192,4071,1,0,0:0:0:0:s_059.ogg
332,192,4178,1,0,0:0:0:0:s_060.ogg
76,192,4285,1,0,0:0:0:0:s_036.ogg
384,192,4285,1,0,0:0:0:0:m_063.ogg
179,192,4500,1,0,0:0:0:0:s_043.ogg
179,192,4714,1,0,0:0:0:0:s_039.ogg
435,192,4714,1,0,0:0:0:0:s_060.ogg
179,192,4928,1,0,0:0:0:0:s_039.ogg
486,192,4928,1,0,0:0:0:0:s_063.ogg
76,192,5142,1,0,0:0:0:0:s_031.ogg
384,192,5142,1,0,0:0:0:0:s_058.ogg
435,192,5169,1,0,0:0:0:0:s_060.ogg
486,192,5196,1,0,0:0:0:0:s_062.ogg
230,192,5357,1,0,0:0:0:0:s_038.ogg
332,192,5357,1,0,0:0:0:0:s_060.ogg
230,192,5571,1,0,0:0:0:0:s_043.ogg
281,192,5571,1,0,0:0:0:0:s_058.ogg
230,192,5785,1,0,0:0:0:0:s_043.ogg
332,192,5785,1,0,0:0:0:0:s_060.ogg
76,192,6000,1,0,0:0:0:0:s_031.ogg
384,192,6000,1,0,0:0:0:0:s_058.ogg
435,192,6026,1,0,0:0:0:0:s_060.ogg
486,192,6053,1,0,0:0:0:0:s_062.ogg
230,192,6214,1,0,0:0:0:0:s_038.ogg
332,192,6214,1,0,0:0:0:0:s_060.ogg
230,192,6428,1,0,0:0:0:0:s_043.ogg
281,192,6428,1,0,0:0:0:0:s_058.ogg
230,192,6642,1,0,0:0:0:0:s_043.ogg
332,192,6642,1,0,0:0:0:0:s_060.ogg
76,192,6857,1,0,0:0:0:0:s_031.ogg
384,192,6857,1,0,0:0:0:0:s_058.ogg
435,192,6883,1,0,0:0:0:0:s_060.ogg
486,192,6910,1,0,0:0:0:0:s_062.ogg
230,192,7071,1,0,0:0:0:0:s_043.ogg
281,192,7071,1,0,0:0:0:0:s_057.ogg
25,192,7285,1,0,0:0:0:0:s_026.ogg
435,192,7285,1,0,0:0:0:0:s_058.ogg
179,192,7500,1,0,0:0:0:0:s_038.ogg
384,192,7500,1,0,0:0:0:0:s_057.ogg
128,192,7714,1,0,0:0:0:0:m_031.ogg
332,192,7714,1,0,0:0:0:0:m_055.ogg
384,192,8142,1,0,0:0:0:0:s_050.ogg
332,192,8250,1,0,0:0:0:0:s_048.ogg
281,192,8357,1,0,0:0:0:0:s_047.ogg
384,192,8464,1,0,0:0:0:0:s_048.ogg
76,192,8571,1,0,0:0:0:0:s_036.ogg
435,192,8571,1,0,0:0:0:0:s_051.ogg
179,192,8785,1,0,0:0:0:0:s_043.ogg
179,192,9000,1,0,0:0:0:0:s_039.ogg
435,192,9000,1,0,0:0:0:0:s_053.ogg
384,192,9107,1,0,0:0:0:0:s_051.ogg
179,192,9214,1,0,0:0:0:0:s_039.ogg
332,192,9214,1,0,0:0:0:0:s_050.ogg
435,192,9321,1,0,0:0:0:0:s_051.ogg
76,192,9428,1,0,0:0:0:0:s_036.ogg
486,192,9428,1,0,0:0:0:0:s_055.ogg
179,192,9642,1,0,0:0:0:0:s_043.ogg
179,192,9857,1,0,0:0:0:0:s_039.ogg
435,192,9857,1,0,0:0:0:0:s_056.ogg
384,192,9964,1,0,0:0:0:0:s_055.ogg
179,192,10071,1,0,0:0:0:0:s_039.ogg
332,192,10071,1,0,0:0:0:0:s_054.ogg
384,192,10178,1,0,0:0:0:0:s_055.ogg
76,192,10285,1,0,0:0:0:0:s_036.ogg
486,192,10285,1,0,0:0:0:0:s_062.ogg
435,192,10392,1,0,0:0:0:0:s_060.ogg
179,192,10500,1,0,0:0:0:0:s_043.ogg
281,192,10500,1,0,0:0:0:0:s_059.ogg
332,192,10607,1,0,0:0:0:0:s_060.ogg
76,192,10714,1,0,0:0:0:0:s_036.ogg
486,192,10714,1,0,0:0:0:0:s_062.ogg
435,192,10821,1,0,0:0:0:0:s_060.ogg
179,192,10928,1,0,0:0:0:0:s_043.ogg
281,192,10928,1,0,0:0:0:0:s_059.ogg
332,192,11035,1,0,0:0:0:0:s_060.ogg
76,192,11142,1,0,0:0:0:0:s_036.ogg
384,192,11142,1,0,0:0:0:0:m_063.ogg
179,192,11357,1,0,0:0:0:0:s_043.ogg
179,192,11571,1,0,0:0:0:0:s_039.ogg
435,192,11571,1,0,0:0:0:0:s_060.ogg
179,192,11785,1,0,0:0:0:0:s_039.ogg
486,192,11785,1,0,0:0:0:0:s_063.ogg
76,192,12000,1,0,0:0:0:0:s_031.ogg
384,192,12000,1,0,0:0:0:0:s_058.ogg
435,192,12026,1,0,0:0:0:0:s_060.ogg
486,192,12053,1,0,0:0:0:0:s_062.ogg
230,192,12214,1,0,0:0:0:0:s_038.ogg
332,192,12214,1,0,0:0:0:0:s_060.ogg
230,192,12428,1,0,0:0:0:0:s_043.ogg
281,192,12428,1,0,0:0:0:0:s_058.ogg
230,192,12642,1,0,0:0:0:0:s_043.ogg
332,192,12642,1,0,0:0:0:0:s_060.ogg
76,192,12857,1,0,0:0:0:0:s_031.ogg
384,192,12857,1,0,0:0:0:0:s_058.ogg
435,192,12883,1,0,0:0:0:0:s_060.ogg
486,192,12910,1,0,0:0:0:0:s_062.ogg
230,192,13071,1,0,0:0:0:0:s_038.ogg
332,192,13071,1,0,0:0:0:0:s_060.ogg
230,192,13285,1,0,0:0:0:0:s_043.ogg
281,192,13285,1,0,0:0:0:0:s_058.ogg
230,192,13500,1,0,0:0:0:0:s_043.ogg
332,192,13500,1,0,0:0:0:0:s_060.ogg
76,192,13714,1,0,0:0:0:0:s_031.ogg
384,192,13714,1,0,0:0:0:0:s_058.ogg
435,192,13741,1,0,0:0:0:0:s_060.ogg
486,192,13767,1,0,0:0:0:0:s_062.ogg
230,192,13928,1,0,0:0:0:0:s_043.ogg
281,192,13928,1,0,0:0:0:0:s_060.ogg
25,192,14142,1,0,0:0:0:0:s_026.ogg
435,192,14142,1,0,0:0:0:0:s_055.ogg
179,192,14357,1,0,0:0:0:0:s_038.ogg
384,192,14357,1,0,0:0:0:0:s_054.ogg
128,192,14571,1,0,0:0:0:0:m_031.ogg
332,192,14571,1,0,0:0:0:0:m_055.ogg
332,192,15000,1,0,0:0:0:0:s_051.ogg
384,192,15214,1,0,0:0:0:0:s_056.ogg
25,192,15428,1,0,0:0:0:0:s_027.ogg
435,192,15428,1,0,0:0:0:0:s_058.ogg
179,192,15642,1,0,0:0:0:0:s_039.ogg
435,192,15642,1,0,0:0:0:0:s_058.ogg
76,192,15857,1,0,0:0:0:0:s_031.ogg
486,192,15857,1,0,0:0:0:0:s_060.ogg
435,192,15964,1,0,0:0:0:0:s_058.ogg
230,192,16071,1,0,0:0:0:0:s_043.ogg
384,192,16071,1,0,0:0:0:0:s_056.ogg
332,192,16178,1,0,0:0:0:0:s_055.ogg
281,192,16285,128,0,16714:0:0:0:0:m_053.ogg
128,192,16285,128,0,16714:0:0:0:0:m_034.ogg
486,192,16500,1,0,0:0:0:0:s_046.ogg
332,192,16714,1,0,0:0:0:0:s_055.ogg
384,192,16928,1,0,0:0:0:0:s_053.ogg
25,192,17142,1,0,0:0:0:0:s_027.ogg
435,192,17142,1,0,0:0:0:0:s_058.ogg
179,192,17357,1,0,0:0:0:0:s_039.ogg
435,192,17357,1,0,0:0:0:0:s_058.ogg
76,192,17571,1,0,0:0:0:0:s_031.ogg
486,192,17571,1,0,0:0:0:0:s_060.ogg
435,192,17678,1,0,0:0:0:0:s_058.ogg
230,192,17785,1,0,0:0:0:0:s_043.ogg
384,192,17785,1,0,0:0:0:0:s_056.ogg
332,192,17892,1,0,0:0:0:0:s_055.ogg
281,192,18000,128,0,18428:0:0:0:0:m_053.ogg
128,192,18000,128,0,18428:0:0:0:0:m_034.ogg
332,192,18428,1,0,0:0:0:0:s_048.ogg
384,192,18642,1,0,0:0:0:0:s_050.ogg
25,192,18857,1,0,0:0:0:0:s_024.ogg
435,192,18857,1,0,0:0:0:0:s_051.ogg
128,192,19071,1,0,0:0:0:0:s_036.ogg
435,192,19071,1,0,0:0:0:0:s_051.ogg
76,192,19285,1,0,0:0:0:0:s_027.ogg
486,192,19285,1,0,0:0:0:0:s_056.ogg
435,192,19392,1,0,0:0:0:0:s_055.ogg
179,192,19500,1,0,0:0:0:0:s_039.ogg
384,192,19500,1,0,0:0:0:0:s_053.ogg
332,192,19607,1,0,0:0:0:0:s_051.ogg
281,192,19714,128,0,20142:0:0:0:0:m_050.ogg
128,192,19714,128,0,20142:0:0:0:0:m_031.ogg
486,192,19928,1,0,0:0:0:0:s_043.ogg
332,192,20142,1,0,0:0:0:0:s_048.ogg
384,192,20357,1,0,0:0:0:0:s_050.ogg
25,192,20571,1,0,0:0:0:0:s_024.ogg
435,192,20571,1,0,0:0:0:0:s_051.ogg
128,192,20785,1,0,0:0:0:0:s_036.ogg
435,192,20785,1,0,0:0:0:0:s_051.ogg
76,192,21000,1,0,0:0:0:0:s_027.ogg
486,192,21000,1,0,0:0:0:0:s_056.ogg
435,192,21107,1,0,0:0:0:0:s_055.ogg
179,192,21214,1,0,0:0:0:0:s_039.ogg
384,192,21214,1,0,0:0:0:0:s_053.ogg
332,192,21321,1,0,0:0:0:0:s_051.ogg
281,192,21428,128,0,21857:0:0:0:0:m_031.ogg
128,192,21428,128,0,21857:0:0:0:0:m_047.ogg
384,192,21857,1,0,0:0:0:0:s_050.ogg
332,192,21964,1,0,0:0:0:0:s_048.ogg
281,192,22071,1,0,0:0:0:0:s_047.ogg
384,192,22178,1,0,0:0:0:0:s_048.ogg
76,192,22285,1,0,0:0:0:0:s_036.ogg
435,192,22285,1,0,0:0:0:0:s_051.ogg
179,192,22500,1,0,0:0:0:0:s_043.ogg
179,192,22714,1,0,0:0:0:0:s_039.ogg
435,192,22714,1,0,0:0:0:0:s_053.ogg
384,192,22821,1,0,0:0:0:0:s_051.ogg
179,192,22928,1,0,0:0:0:0:s_039.ogg
332,192,22928,1,0,0:0:0:0:s_050.ogg
435,192,23035,1,0,0:0:0:0:s_051.ogg
76,192,23142,1,0,0:0:0:0:s_036.ogg
486,192,23142,1,0,0:0:0:0:s_055.ogg
179,192,23357,1,0,0:0:0:0:s_043.ogg
179,192,23571,1,0,0:0:0:0:s_039.ogg
435,192,23571,1,0,0:0:0:0:s_056.ogg
384,192,23678,1,0,0:0:0:0:s_055.ogg
179,192,23785,1,0,0:0:0:0:s_039.ogg
332,192,23785,1,0,0:0:0:0:s_054.ogg
384,192,23892,1,0,0:0:0:0:s_055.ogg
76,192,24000,1,0,0:0:0:0:s_036.ogg
486,192,24000,1,0,0:0:0:0:s_062.ogg
435,192,24107,1,0,0:0:0:0:s_060.ogg
179,192,24214,1,0,0:0:0:0:s_043.ogg
281,192,24214,1,0,0:0:0:0:s_059.ogg
332,192,24321,1,0,0:0:0:0:s_060.ogg
76,192,24428,1,0,0:0:0:0:s_036.ogg
486,192,24428,1,0,0:0:0:0:s_062.ogg
435,192,24535,1,0,0:0:0:0:s_060.ogg
179,192,24642,1,0,0:0:0:0:s_043.ogg
281,192,24642,1,0,0:0:0:0:s_059.ogg
332,192,24750,1,0,0:0:0:0:s_060.ogg
25,192,24857,1,0,0:0:0:0:s_032.ogg
384,192,24857,1,0,0:0:0:0:m_063.ogg
179,192,25071,1,0,0:0:0:0:s_036.ogg
179,192,25285,1,0,0:0:0:0:s_042.ogg
384,192,25285,1,0,0:0:0:0:s_060.ogg
179,192,25500,1,0,0:0:0:0:s_036.ogg
435,192,25500,1,0,0:0:0:0:s_062.ogg
128,192,25714,1,0,0:0:0:0:s_031.ogg
486,192,25714,1,0,0:0:0:0:s_063.ogg
230,192,25928,1,0,0:0:0:0:s_036.ogg
435,192,25928,1,0,0:0:0:0:s_062.ogg
76,192,26142,1,0,0:0:0:0:s_029.ogg
384,192,26142,1,0,0:0:0:0:s_060.ogg
179,192,26357,1,0,0:0:0:0:s_032.ogg
332,192,26357,1,0,0:0:0:0:s_059.ogg
25,192,26571,1,0,0:0:0:0:s_027.ogg
486,192,26571,1,0,0:0:0:0:s_060.ogg
128,192,26785,1,0,0:0:0:0:s_031.ogg
332,192,26785,1,0,0:0:0:0:s_055.ogg
76,192,27000,1,0,0:0:0:0:s_029.ogg
435,192,27000,1,0,0:0:0:0:s_056.ogg
179,192,27214,1,0,0:0:0:0:s_032.ogg
332,192,27214,1,0,0:0:0:0:s_053.ogg
128,192,27428,1,0,0:0:0:0:s_031.ogg
281,192,27428,1,0,0:0:0:0:m_051.ogg
128,192,27642,1,0,0:0:0:0:s_031.ogg
76,192,27857,1,0,0:0:0:0:s_035.ogg
281,192,27857,1,0,0:0:0:0:s_050.ogg
332,192,27910,1,0,0:0:0:0:s_051.ogg
384,192,27964,1,0,0:0:0:0:s_050.ogg
435,192,28017,1,0,0:0:0:0:s_051.ogg
76,192,28071,1,0,0:0:0:0:s_031.ogg
332,192,28071,1,0,0:0:0:0:s_050.ogg
384,192,28125,1,0,0:0:0:0:s_051.ogg
435,192,28178,1,0,0:0:0:0:s_048.ogg
486,192,28232,1,0,0:0:0:0:s_050.ogg
25,192,28285,1,0,0:0:0:0:m_036.ogg
281,192,28285,1,0,0:0:0:0:m_048.ogg
384,192,28714,1,0,0:0:0:0:s_060.ogg
435,192,28928,1,0,0:0:0:0:s_062.ogg
76,192,29142,1,0,0:0:0:0:m_024.ogg
486,192,29142,1,0,0:0:0:0:m_052.ogg
128,192,29178,1,0,0:0:0:0:m_028.ogg
179,192,29214,1,0,0:0:0:0:m_031.ogg
230,192,29250,1,0,0:0:0:0:s_036.ogg
384,192,29571,1,0,0:0:0:0:s_048.ogg
435,192,29785,1,0,0:0:0:0:s_062.ogg
76,192,30000,1,0,0:0:0:0:m_024.ogg
486,192,30000,1,0,0:0:0:0:m_052.ogg
128,192,30035,1,0,0:0:0:0:m_028.ogg
179,192,30071,1,0,0:0:0:0:m_031.ogg
230,192,30107,1,0,0:0:0:0:s_036.ogg
435,192,30214,1,0,0:0:0:0:s_062.ogg
384,192,30428,1,0,0:0:0:0:s_048.ogg
332,192,30642,1,0,0:0:0:0:s_059.ogg
25,192,30857,1,0,0:0:0:0:s_017.ogg
281,192,30857,1,0,0:0:0:0:s_057.ogg
76,192,30892,1,0,0:0:0:0:s_021.ogg
128,192,30928,1,0,0:0:0:0:s_024.ogg
179,192,30964,1,0,0:0:0:0:s_029.ogg
384,192,31071,1,0,0:0:0:0:s_047.ogg
25,192,31285,1,0,0:0:0:0:s_018.ogg
435,192,31285,1,0,0:0:0:0:s_060.ogg
76,192,31321,1,0,0:0:0:0:s_021.ogg
128,192,31357,1,0,0:0:0:0:s_024.ogg
179,192,31392,1,0,0:0:0:0:s_030.ogg
486,192,31500,1,0,0:0:0:0:s_050.ogg
25,192,31714,1,0,0:0:0:0:m_019.ogg
332,192,31714,1,0,0:0:0:0:m_047.ogg
76,192,31750,1,0,0:0:0:0:m_023.ogg
128,192,31785,1,0,0:0:0:0:m_026.ogg
179,192,31821,1,0,0:0:0:0:s_031.ogg
281,192,31928,1,0,0:0:0:0:s_043.ogg
384,192,32142,1,0,0:0:0:0:s_048.ogg
435,192,32357,1,0,0:0:0:0:s_062.ogg
76,192,32571,1,0,0:0:0:0:m_024.ogg
486,192,32571,1,0,0:0:0:0:m_064.ogg
128,192,32607,1,0,0:0:0:0:m_028.ogg
179,192,32642,1,0,0:0:0:0:m_031.ogg
230,192,32678,1,0,0:0:0:0:s_036.ogg
384,192,33000,1,0,0:0:0:0:s_048.ogg
435,192,33214,1,0,0:0:0:0:s_050.ogg
76,192,33428,1,0,0:0:0:0:m_024.ogg
486,192,33428,1,0,0:0:0:0:m_052.ogg
128,192,33464,1,0,0:0:0:0:m_028.ogg
179,192,33500,1,0,0:0:0:0:m_031.ogg
230,192,33535,1,0,0:0:0:0:s_036.ogg
435,192,33642,1,0,0:0:0:0:s_050.ogg
384,192,33857,1,0,0:0:0:0:s_060.ogg
332,192,34071,1,0,0:0:0:0:s_047.ogg
25,192,34285,1,0,0:0:0:0:s_017.ogg
281,192,34285,1,0,0:0:0:0:s_045.ogg
76,192,34321,1,0,0:0:0:0:s_021.ogg
128,192,34357,1,0,0:0:0:0:s_024.ogg
179,192,34392,1,0,0:0:0:0:s_029.ogg
486,192,34500,1,0,0:0:0:0:s_050.ogg
25,192,34714,1,0,0:0:0:0:s_019.ogg
384,192,34714,1,0,0:0:0:0:s_059.ogg
76,192,34750,1,0,0:0:0:0:s_023.ogg
128,192,34785,1,0,0:0:0:0:s_026.ogg
179,192,34821,1,0,0:0:0:0:s_031.ogg
332,192,34928,1,0,0:0:0:0:s_055.ogg
230,192,35142,1,0,0:0:0:0:m_024.ogg
435,192,35142,1,0,0:0:0:0:m_060.ogg
128,192,35571,1,0,0:0:0:0:s_048.ogg
179,192,35785,1,0,0:0:0:0:s_050.ogg
230,192,36000,1,0,0:0:0:0:m_064.ogg
332,192,36000,1,0,0:0:0:0:m_024.ogg
384,192,36035,1,0,0:0:0:0:m_028.ogg
435,192,36071,1,0,0:0:0:0:m_031.ogg
486,192,36107,1,0,0:0:0:0:s_036.ogg
128,192,36428,1,0,0:0:0:0:s_060.ogg
179,192,36642,1,0,0:0:0:0:s_050.ogg
230,192,36857,1,0,0:0:0:0:m_064.ogg
332,192,36857,1,0,0:0:0:0:m_024.ogg
384,192,36892,1,0,0:0:0:0:m_028.ogg
435,192,36928,1,0,0:0:0:0:m_031.ogg
486,192,36964,1,0,0:0:0:0:s_036.ogg
179,192,37071,1,0,0:0:0:0:s_050.ogg
128,192,37285,1,0,0:0:0:0:s_060.ogg
76,192,37500,1,0,0:0:0:0:s_059.ogg
25,192,37714,1,0,0:0:0:0:s_057.ogg
281,192,37714,1,0,0:0:0:0:s_017.ogg
332,192,37750,1,0,0:0:0:0:s_021.ogg
384,192,37785,1,0,0:0:0:0:s_024.ogg
435,192,37821,1,0,0:0:0:0:s_029.ogg
128,192,37928,1,0,0:0:0:0:s_047.ogg
179,192,38142,1,0,0:0:0:0:s_060.ogg
281,192,38142,1,0,0:0:0:0:s_018.ogg
332,192,38178,1,0,0:0:0:0:s_021.ogg
384,192,38214,1,0,0:0:0:0:s_024.ogg
435,192,38250,1,0,0:0:0:0:s_030.ogg
230,192,38357,1,0,0:0:0:0:s_062.ogg
76,192,38571,1,0,0:0:0:0:m_059.ogg
281,192,38571,1,0,0:0:0:0:m_019.ogg
332,192,38607,1,0,0:0:0:0:m_023.ogg
384,192,38642,1,0,0:0:0:0:m_026.ogg
435,192,38678,1,0,0:0:0:0:s_031.ogg
25,192,38785,1,0,0:0:0:0:s_055.ogg
128,192,39000,1,0,0:0:0:0:s_060.ogg
179,192,39214,1,0,0:0:0:0:s_050.ogg
230,192,39428,1,0,0:0:0:0:m_052.ogg
332,192,39428,1,0,0:0:0:0:m_024.ogg
384,192,39464,1,0,0:0:0:0:m_028.ogg
435,192,39500,1,0,0:0:0:0:m_031.ogg
486,192,39535,1,0,0:0:0:0:s_036.ogg
128,192,39857,1,0,0:0:0:0:s_060.ogg
179,192,40071,1,0,0:0:0:0:s_062.ogg
230,192,40285,1,0,0:0:0:0:m_064.ogg
332,192,40285,1,0,0:0:0:0:m_024.ogg
384,192,40321,1,0,0:0:0:0:m_028.ogg
435,192,40357,1,0,0:0:0:0:m_031.ogg
486,192,40392,1,0,0:0:0:0:s_036.ogg
179,192,40500,1,0,0:0:0:0:s_062.ogg
128,192,40714,1,0,0:0:0:0:s_048.ogg
76,192,40928,1,0,0:0:0:0:s_047.ogg
25,192,41142,1,0,0:0:0:0:s_045.ogg
281,192,41142,1,0,0:0:0:0:s_017.ogg
332,192,41178,1,0,0:0:0:0:s_021.ogg
384,192,41214,1,0,0:0:0:0:s_024.ogg
435,192,41250,1,0,0:0:0:0:s_029.ogg
230,192,41357,1,0,0:0:0:0:s_062.ogg
128,192,41571,1,0,0:0:0:0:s_047.ogg
281,192,41571,1,0,0:0:0:0:s_019.ogg
332,192,41607,1,0,0:0:0:0:s_023.ogg
384,192,41642,1,0,0:0:0:0:s_026.ogg
435,192,41678,1,0,0:0:0:0:s_031.ogg
76,192,41785,1,0,0:0:0:0:s_055.ogg
179,192,42000,1,0,0:0:0:0:m_048.ogg
486,192,42000,1,0,0:0:0:0:m_024.ogg
384,192,42428,1,0,0:0:0:0:s_064.ogg
486,192,42535,1,0,0:0:0:0:s_065.ogg
435,192,42642,1,0,0:0:0:0:s_064.ogg
384,192,42750,1,0,0:0:0:0:s_062.ogg
25,192,42857,1,0,0:0:0:0:s_033.ogg
332,192,42857,1,0,0:0:0:0:s_060.ogg
435,192,42964,1,0,0:0:0:0:s_062.ogg
128,192,43071,1,0,0:0:0:0:s_040.ogg
384,192,43071,1,0,0:0:0:0:s_060.ogg
332,192,43178,1,0,0:0:0:0:s_059.ogg
128,192,43285,1,0,0:0:0:0:s_036.ogg
281,192,43285,1,0,0:0:0:0:s_057.ogg
486,192,43392,1,0,0:0:0:0:s_060.ogg
128,192,43500,1,0,0:0:0:0:s_036.ogg
435,192,43500,1,0,0:0:0:0:s_059.ogg
384,192,43607,1,0,0:0:0:0:s_057.ogg
25,192,43714,1,0,0:0:0:0:s_035.ogg
281,192,43714,1,0,0:0:0:0:s_056.ogg
332,192,43821,1,0,0:0:0:0:s_057.ogg
179,192,43928,1,0,0:0:0:0:s_040.ogg
486,192,43928,1,0,0:0:0:0:s_059.ogg
435,192,44035,1,0,0:0:0:0:s_056.ogg
179,192,44142,1,0,0:0:0:0:s_038.ogg
332,192,44142,1,0,0:0:0:0:s_052.ogg
384,192,44250,1,0,0:0:0:0:s_054.ogg
179,192,44357,1,0,0:0:0:0:s_038.ogg
435,192,44357,1,0,0:0:0:0:s_056.ogg
332,192,44464,1,0,0:0:0:0:s_052.ogg
25,192,44571,1,0,0:0:0:0:s_033.ogg
384,192,44571,1,0,0:0:0:0:s_057.ogg
281,192,44678,1,0,0:0:0:0:s_056.ogg
128,192,44785,1,0,0:0:0:0:s_040.ogg
332,192,44785,1,0,0:0:0:0:s_057.ogg
384,192,44892,1,0,0:0:0:0:s_059.ogg
128,192,45000,1,0,0:0:0:0:s_036.ogg
435,192,45000,1,0,0:0:0:0:s_060.ogg
281,192,45107,1,0,0:0:0:0:s_059.ogg
128,192,45214,1,0,0:0:0:0:s_036.ogg
332,192,45214,1,0,0:0:0:0:s_060.ogg
384,192,45321,1,0,0:0:0:0:s_062.ogg
25,192,45428,1,0,0:0:0:0:s_032.ogg
435,192,45428,1,0,0:0:0:0:s_064.ogg
332,192,45535,1,0,0:0:0:0:s_063.ogg
76,192,45642,1,0,0:0:0:0:s_035.ogg
435,192,45642,1,0,0:0:0:0:s_064.ogg
332,192,45750,1,0,0:0:0:0:s_063.ogg
76,192,45857,1,0,0:0:0:0:s_035.ogg
384,192,45857,1,0,0:0:0:0:s_064.ogg
486,192,45964,1,0,0:0:0:0:s_065.ogg
76,192,46071,1,0,0:0:0:0:s_035.ogg
435,192,46071,1,0,0:0:0:0:s_064.ogg
384,192,46178,1,0,0:0:0:0:s_062.ogg
25,192,46285,1,0,0:0:0:0:s_033.ogg
332,192,46285,1,0,0:0:0:0:s_060.ogg
435,192,46392,1,0,0:0:0:0:s_062.ogg
128,192,46500,1,0,0:0:0:0:s_036.ogg
384,192,46500,1,0,0:0:0:0:s_060.ogg
332,192,46607,1,0,0:0:0:0:s_059.ogg
128,192,46714,1,0,0:0:0:0:s_036.ogg
281,192,46714,1,0,0:0:0:0:s_057.ogg
486,192,46821,1,0,0:0:0:0:s_060.ogg
128,192,46928,1,0,0:0:0:0:s_036.ogg
435,192,46928,1,0,0:0:0:0:s_059.ogg
384,192,47035,1,0,0:0:0:0:s_057.ogg
25,192,47142,1,0,0:0:0:0:s_035.ogg
332,192,47142,1,0,0:0:0:0:s_055.ogg
435,192,47250,1,0,0:0:0:0:s_057.ogg
179,192,47357,1,0,0:0:0:0:s_043.ogg
486,192,47357,1,0,0:0:0:0:s_059.ogg
384,192,47464,1,0,0:0:0:0:s_055.ogg
179,192,47571,1,0,0:0:0:0:s_040.ogg
332,192,47571,1,0,0:0:0:0:s_052.ogg
435,192,47678,1,0,0:0:0:0:s_054.ogg
179,192,47785,1,0,0:0:0:0:s_040.ogg
486,192,47785,1,0,0:0:0:0:s_055.ogg
281,192,47892,1,0,0:0:0:0:s_052.ogg
25,192,48000,1,0,0:0:0:0:s_035.ogg
332,192,48000,1,0,0:0:0:0:s_054.ogg
384,192,48107,1,0,0:0:0:0:s_055.ogg
230,192,48214,1,0,0:0:0:0:s_042.ogg
435,192,48214,1,0,0:0:0:0:s_057.ogg
332,192,48321,1,0,0:0:0:0:s_054.ogg
230,192,48428,1,0,0:0:0:0:s_042.ogg
281,192,48428,1,0,0:0:0:0:s_051.ogg
384,192,48535,1,0,0:0:0:0:s_052.ogg
230,192,48642,1,0,0:0:0:0:s_042.ogg
435,192,48642,1,0,0:0:0:0:s_054.ogg
281,192,48750,1,0,0:0:0:0:s_051.ogg
128,192,48857,1,0,0:0:0:0:m_043.ogg
332,192,48857,1,0,0:0:0:0:m_052.ogg
128,192,49285,1,0,0:0:0:0:s_064.ogg
230,192,49392,1,0,0:0:0:0:s_065.ogg
179,192,49500,1,0,0:0:0:0:s_064.ogg
128,192,49607,1,0,0:0:0:0:s_062.ogg
76,192,49714,1,0,0:0:0:0:s_060.ogg
281,192,49714,1,0,0:0:0:0:s_033.ogg
179,192,49821,1,0,0:0:0:0:s_062.ogg
128,192,49928,1,0,0:0:0:0:s_060.ogg
384,192,49928,1,0,0:0:0:0:s_040.ogg
76,192,50035,1,0,0:0:0:0:s_059.ogg
25,192,50142,1,0,0:0:0:0:s_057.ogg
384,192,50142,1,0,0:0:0:0:s_036.ogg
230,192,50250,1,0,0:0:0:0:s_060.ogg
179,192,50357,1,0,0:0:0:0:s_059.ogg
384,192,50357,1,0,0:0:0:0:s_036.ogg
128,192,50464,1,0,0:0:0:0:s_057.ogg
25,192,50571,1,0,0:0:0:0:s_056.ogg
281,192,50571,1,0,0:0:0:0:s_035.ogg
76,192,50678,1,0,0:0:0:0:s_057.ogg
230,192,50785,1,0,0:0:0:0:s_059.ogg
435,192,50785,1,0,0:0:0:0:s_040.ogg
179,192,50892,1,0,0:0:0:0:s_056.ogg
76,192,51000,1,0,0:0:0:0:s_052.ogg
435,192,51000,1,0,0:0:0:0:s_038.ogg
128,192,51107,1,0,0:0:0:0:s_054.ogg
179,192,51214,1,0,0:0:0:0:s_056.ogg
435,192,51214,1,0,0:0:0:0:s_038.ogg
76,192,51321,1,0,0:0:0:0:s_052.ogg
128,192,51428,1,0,0:0:0:0:s_057.ogg
281,192,51428,1,0,0:0:0:0:s_033.ogg
25,192,51535,1,0,0:0:0:0:s_056.ogg
76,192,51642,1,0,0:0:0:0:s_057.ogg
384,192,51642,1,0,0:0:0:0:s_040.ogg
128,192,51750,1,0,0:0:0:0:s_059.ogg
179,192,51857,1,0,0:0:0:0:s_060.ogg
384,192,51857,1,0,0:0:0:0:s_036.ogg
25,192,51964,1,0,0:0:0:0:s_059.ogg
76,192,52071,1,0,0:0:0:0:s_060.ogg
384,192,52071,1,0,0:0:0:0:s_036.ogg
128,192,52178,1,0,0:0:0:0:s_062.ogg
179,192,52285,1,0,0:0:0:0:s_064.ogg
281,192,52285,1,0,0:0:0:0:s_032.ogg
76,192,52392,1,0,0:0:0:0:s_063.ogg
179,192,52500,1,0,0:0:0:0:s_064.ogg
332,192,52500,1,0,0:0:0:0:s_035.ogg
76,192,52607,1,0,0:0:0:0:s_063.ogg
128,192,52714,1,0,0:0:0:0:s_064.ogg
332,192,52714,1,0,0:0:0:0:s_035.ogg
230,192,52821,1,0,0:0:0:0:s_065.ogg
179,192,52928,1,0,0:0:0:0:s_064.ogg
332,192,52928,1,0,0:0:0:0:s_035.ogg
128,192,53035,1,0,0:0:0:0:s_062.ogg
76,192,53142,1,0,0:0:0:0:s_060.ogg
281,192,53142,1,0,0:0:0:0:s_033.ogg
179,192,53250,1,0,0:0:0:0:s_062.ogg
128,192,53357,1,0,0:0:0:0:s_060.ogg
384,192,53357,1,0,0:0:0:0:s_036.ogg
76,192,53464,1,0,0:0:0:0:s_059.ogg
25,192,53571,1,0,0:0:0:0:s_057.ogg
384,192,53571,1,0,0:0:0:0:s_036.ogg
230,192,53678,1,0,0:0:0:0:s_060.ogg
179,192,53785,1,0,0:0:0:0:s_059.ogg
384,192,53785,1,0,0:0:0:0:s_036.ogg
128,192,53892,1,0,0:0:0:0:s_057.ogg
76,192,54000,1,0,0:0:0:0:s_055.ogg
281,192,54000,1,0,0:0:0:0:s_035.ogg
179,192,54107,1,0,0:0:0:0:s_057.ogg
230,192,54214,1,0,0:0:0:0:s_059.ogg
435,192,54214,1,0,0:0:0:0:s_043.ogg
128,192,54321,1,0,0:0:0:0:s_055.ogg
76,192,54428,1,0,0:0:0:0:s_052.ogg
435,192,54428,1,0,0:0:0:0:s_040.ogg
179,192,54535,1,0,0:0:0:0:s_054.ogg
230,192,54642,1,0,0:0:0:0:s_055.ogg
435,192,54642,1,0,0:0:0:0:s_040.ogg
25,192,54750,1,0,0:0:0:0:s_052.ogg
76,192,54857,1,0,0:0:0:0:s_054.ogg
281,192,54857,1,0,0:0:0:0:s_035.ogg
128,192,54964,1,0,0:0:0:0:s_055.ogg
179,192,55071,1,0,0:0:0:0:s_057.ogg
486,192,55071,1,0,0:0:0:0:s_042.ogg
76,192,55178,1,0,0:0:0:0:s_054.ogg
25,192,55285,1,0,0:0:0:0:s_051.ogg
486,192,55285,1,0,0:0:0:0:s_042.ogg
128,192,55392,1,0,0:0:0:0:s_052.ogg
179,192,55500,1,0,0:0:0:0:s_054.ogg
486,192,55500,1,0,0:0:0:0:s_042.ogg
25,192,55607,1,0,0:0:0:0:s_051.ogg
76,192,55714,1,0,0:0:0:0:m_052.ogg
384,192,55714,1,0,0:0:0:0:m_043.ogg
486,192,56142,1,0,0:0:0:0:s_055.ogg
435,192,56250,1,0,0:0:0:0:s_053.ogg
384,192,56357,1,0,0:0:0:0:s_052.ogg
332,192,56464,1,0,0:0:0:0:s_050.ogg
76,192,56571,1,0,0:0:0:0:s_036.ogg
281,192,56571,1,0,0:0:0:0:s_048.ogg
332,192,56678,1,0,0:0:0:0:s_050.ogg
179,192,56785,1,0,0:0:0:0:s_043.ogg
384,192,56785,1,0,0:0:0:0:s_052.ogg
435,192,56892,1,0,0:0:0:0:s_053.ogg
179,192,57000,1,0,0:0:0:0:s_040.ogg
281,192,57000,1,0,0:0:0:0:s_055.ogg
332,192,57107,1,0,0:0:0:0:s_057.ogg
179,192,57214,1,0,0:0:0:0:s_040.ogg
384,192,57214,1,0,0:0:0:0:s_059.ogg
435,192,57321,1,0,0:0:0:0:s_060.ogg
128,192,57428,1,0,0:0:0:0:s_038.ogg
486,192,57428,1,0,0:0:0:0:s_060.ogg
435,192,57535,1,0,0:0:0:0:s_059.ogg
230,192,57642,1,0,0:0:0:0:s_043.ogg
384,192,57642,1,0,0:0:0:0:s_057.ogg
332,192,57750,1,0,0:0:0:0:s_055.ogg
25,192,57857,1,0,0:0:0:0:s_035.ogg
281,192,57857,1,0,0:0:0:0:s_055.ogg
435,192,57964,1,0,0:0:0:0:s_053.ogg
230,192,58071,1,0,0:0:0:0:s_043.ogg
384,192,58071,1,0,0:0:0:0:s_052.ogg
332,192,58178,1,0,0:0:0:0:s_050.ogg
76,192,58285,1,0,0:0:0:0:s_036.ogg
281,192,58285,1,0,0:0:0:0:s_048.ogg
332,192,58392,1,0,0:0:0:0:s_050.ogg
179,192,58500,1,0,0:0:0:0:s_043.ogg
384,192,58500,1,0,0:0:0:0:s_052.ogg
435,192,58607,1,0,0:0:0:0:s_053.ogg
179,192,58714,1,0,0:0:0:0:s_040.ogg
486,192,58714,1,0,0:0:0:0:s_055.ogg
281,192,58821,1,0,0:0:0:0:s_057.ogg
179,192,58928,1,0,0:0:0:0:s_040.ogg
332,192,58928,1,0,0:0:0:0:s_059.ogg
384,192,59035,1,0,0:0:0:0:s_060.ogg
25,192,59142,1,0,0:0:0:0:s_031.ogg
435,192,59142,1,0,0:0:0:0:s_061.ogg
128,192,59357,1,0,0:0:0:0:s_035.ogg
486,192,59357,1,0,0:0:0:0:s_062.ogg
128,192,59571,1,0,0:0:0:0:s_041.ogg
435,192,59571,1,0,0:0:0:0:s_055.ogg
384,192,59678,1,0,0:0:0:0:s_053.ogg
128,192,59785,1,0,0:0:0:0:s_041.ogg
332,192,59785,1,0,0:0:0:0:s_052.ogg
281,192,59892,1,0,0:0:0:0:s_050.ogg
76,192,60000,1,0,0:0:0:0:s_036.ogg
332,192,60000,1,0,0:0:0:0:s_048.ogg
384,192,60107,1,0,0:0:0:0:s_050.ogg
179,192,60214,1,0,0:0:0:0:s_043.ogg
435,192,60214,1,0,0:0:0:0:s_052.ogg
486,192,60321,1,0,0:0:0:0:s_053.ogg
179,192,60428,1,0,0:0:0:0:s_040.ogg
281,192,60428,1,0,0:0:0:0:s_055.ogg
332,192,60535,1,0,0:0:0:0:s_057.ogg
179,192,60642,1,0,0:0:0:0:s_040.ogg
384,192,60642,1,0,0:0:0:0:s_059.ogg
435,192,60750,1,0,0:0:0:0:s_060.ogg
76,192,60857,1,0,0:0:0:0:s_038.ogg
486,192,60857,1,0,0:0:0:0:s_060.ogg
435,192,60964,1,0,0:0:0:0:s_059.ogg
230,192,61071,1,0,0:0:0:0:s_043.ogg
384,192,61071,1,0,0:0:0:0:s_057.ogg
332,192,61178,1,0,0:0:0:0:s_055.ogg
25,192,61285,1,0,0:0:0:0:s_035.ogg
281,192,61285,1,0,0:0:0:0:s_055.ogg
435,192,61392,1,0,0:0:0:0:s_053.ogg
230,192,61500,1,0,0:0:0:0:s_043.ogg
384,192,61500,1,0,0:0:0:0:s_052.ogg
332,192,61607,1,0,0:0:0:0:s_050.ogg
179,192,61714,1,0,0:0:0:0:s_036.ogg
435,192,61714,1,0,0:0:0:0:s_052.ogg
486,192,61821,1,0,0:0:0:0:s_055.ogg
128,192,61928,1,0,0:0:0:0:s_033.ogg
332,192,61928,1,0,0:0:0:0:s_048.ogg
435,192,62035,1,0,0:0:0:0:s_052.ogg
76,192,62142,1,0,0:0:0:0:s_029.ogg
384,192,62142,1,0,0:0:0:0:s_050.ogg
486,192,62250,1,0,0:0:0:0:s_053.ogg
128,192,62357,1,0,0:0:0:0:s_031.ogg
281,192,62357,1,0,0:0:0:0:s_047.ogg
384,192,62464,1,0,0:0:0:0:s_050.ogg
25,192,62571,1,0,0:0:0:0:s_024.ogg
332,192,62571,1,0,0:0:0:0:m_048.ogg
179,192,62785,1,0,0:0:0:0:s_036.ogg
384,192,63000,1,0,0:0:0:0:s_064.ogg
486,192,63107,1,0,0:0:0:0:s_065.ogg
435,192,63214,1,0,0:0:0:0:s_064.ogg
384,192,63321,1,0,0:0:0:0:s_062.ogg
76,192,63428,1,0,0:0:0:0:s_033.ogg
332,192,63428,1,0,0:0:0:0:s_060.ogg
435,192,63535,1,0,0:0:0:0:s_062.ogg
179,192,63642,1,0,0:0:0:0:s_040.ogg
384,192,63642,1,0,0:0:0:0:s_060.ogg
332,192,63750,1,0,0:0:0:0:s_059.ogg
179,192,63857,1,0,0:0:0:0:s_036.ogg
281,192,63857,1,0,0:0:0:0:s_057.ogg
384,192,63964,1,0,0:0:0:0:s_060.ogg
179,192,64071,1,0,0:0:0:0:s_036.ogg
332,192,64071,1,0,0:0:0:0:s_059.ogg
281,192,64178,1,0,0:0:0:0:s_057.ogg
128,192,64285,1,0,0:0:0:0:s_035.ogg
384,192,64285,1,0,0:0:0:0:s_056.ogg
435,192,64392,1,0,0:0:0:0:s_057.ogg
230,192,64500,1,0,0:0:0:0:s_040.ogg
486,192,64500,1,0,0:0:0:0:s_059.ogg
384,192,64607,1,0,0:0:0:0:s_056.ogg
230,192,64714,1,0,0:0:0:0:s_038.ogg
281,192,64714,1,0,0:0:0:0:s_052.ogg
332,192,64821,1,0,0:0:0:0:s_054.ogg
230,192,64928,1,0,0:0:0:0:s_038.ogg
384,192,64928,1,0,0:0:0:0:s_056.ogg
281,192,65035,1,0,0:0:0:0:s_052.ogg
76,192,65142,1,0,0:0:0:0:s_033.ogg
435,192,65142,1,0,0:0:0:0:s_057.ogg
332,192,65250,1,0,0:0:0:0:s_056.ogg
179,192,65357,1,0,0:0:0:0:s_040.ogg
384,192,65357,1,0,0:0:0:0:s_057.ogg
435,192,65464,1,0,0:0:0:0:s_059.ogg
179,192,65571,1,0,0:0:0:0:s_036.ogg
486,192,65571,1,0,0:0:0:0:s_060.ogg
281,192,65678,1,0,0:0:0:0:s_059.ogg
179,192,65785,1,0,0:0:0:0:s_036.ogg
332,192,65785,1,0,0:0:0:0:s_060.ogg
384,192,65892,1,0,0:0:0:0:s_062.ogg
76,192,66000,1,0,0:0:0:0:s_028.ogg
435,192,66000,1,0,0:0:0:0:s_064.ogg
332,192,66107,1,0,0:0:0:0:s_063.ogg
230,192,66214,1,0,0:0:0:0:s_035.ogg
435,192,66214,1,0,0:0:0:0:s_064.ogg
332,192,66321,1,0,0:0:0:0:s_063.ogg
179,192,66428,1,0,0:0:0:0:s_034.ogg
435,192,66428,1,0,0:0:0:0:s_064.ogg
332,192,66535,1,0,0:0:0:0:s_063.ogg
128,192,66642,1,0,0:0:0:0:s_033.ogg
435,192,66642,1,0,0:0:0:0:s_064.ogg
281,192,66750,1,0,0:0:0:0:s_061.ogg
25,192,66857,1,0,0:0:0:0:s_026.ogg
486,192,66857,1,0,0:0:0:0:s_065.ogg
384,192,66964,1,0,0:0:0:0:s_064.ogg
76,192,67071,1,0,0:0:0:0:s_033.ogg
486,192,67071,1,0,0:0:0:0:s_065.ogg
384,192,67178,1,0,0:0:0:0:s_064.ogg
76,192,67285,1,0,0:0:0:0:s_033.ogg
486,192,67285,1,0,0:0:0:0:s_065.ogg
384,192,67392,1,0,0:0:0:0:s_064.ogg
76,192,67500,1,0,0:0:0:0:s_033.ogg
486,192,67500,1,0,0:0:0:0:s_065.ogg
384,192,67607,1,0,0:0:0:0:s_064.ogg
25,192,67714,1,0,0:0:0:0:s_026.ogg
486,192,67714,1,0,0:0:0:0:s_065.ogg
435,192,67821,1,0,0:0:0:0:s_064.ogg
128,192,67928,1,0,0:0:0:0:s_035.ogg
384,192,67928,1,0,0:0:0:0:s_062.ogg
332,192,68035,1,0,0:0:0:0:s_060.ogg
128,192,68142,1,0,0:0:0:0:s_035.ogg
281,192,68142,1,0,0:0:0:0:s_059.ogg
384,192,68250,1,0,0:0:0:0:s_060.ogg
128,192,68357,1,0,0:0:0:0:s_035.ogg
435,192,68357,1,0,0:0:0:0:s_062.ogg
332,192,68464,1,0,0:0:0:0:s_059.ogg
76,192,68571,1,0,0:0:0:0:s_028.ogg
384,192,68571,1,0,0:0:0:0:s_060.ogg
435,192,68678,1,0,0:0:0:0:s_062.ogg
128,192,68785,1,0,0:0:0:0:s_033.ogg
486,192,68785,1,0,0:0:0:0:s_064.ogg
332,192,68892,1,0,0:0:0:0:s_057.ogg
76,192,69000,1,0,0:0:0:0:s_028.ogg
281,192,69000,1,0,0:0:0:0:s_056.ogg
384,192,69107,1,0,0:0:0:0:s_057.ogg
179,192,69214,1,0,0:0:0:0:s_035.ogg
435,192,69214,1,0,0:0:0:0:s_059.ogg
281,192,69321,1,0,0:0:0:0:s_056.ogg
128,192,69428,1,0,0:0:0:0:m_033.ogg
332,192,69428,1,0,0:0:0:0:m_057.ogg
281,192,69857,1,0,0:0:0:0:s_048.ogg
384,192,69964,1,0,0:0:0:0:s_060.ogg
332,192,70071,1,0,0:0:0:0:s_050.ogg
435,192,70178,1,0,0:0:0:0:s_062.ogg
76,192,70285,1,0,0:0:0:0:m_024.ogg
384,192,70285,1,0,0:0:0:0:m_052.ogg
128,192,70321,1,0,0:0:0:0:m_028.ogg
179,192,70357,1,0,0:0:0:0:m_031.ogg
230,192,70392,1,0,0:0:0:0:s_036.ogg
486,192,70392,1,0,0:0:0:0:m_064.ogg
281,192,70714,1,0,0:0:0:0:s_048.ogg
384,192,70821,1,0,0:0:0:0:s_060.ogg
332,192,70928,1,0,0:0:0:0:s_050.ogg
435,192,71035,1,0,0:0:0:0:s_062.ogg
76,192,71142,1,0,0:0:0:0:m_024.ogg
384,192,71142,1,0,0:0:0:0:m_052.ogg
128,192,71178,1,0,0:0:0:0:m_028.ogg
179,192,71214,1,0,0:0:0:0:m_031.ogg
230,192,71250,1,0,0:0:0:0:s_036.ogg
486,192,71250,1,0,0:0:0:0:m_064.ogg
332,192,71357,1,0,0:0:0:0:s_050.ogg
435,192,71464,1,0,0:0:0:0:s_062.ogg
281,192,71571,1,0,0:0:0:0:s_048.ogg
384,192,71678,1,0,0:0:0:0:s_060.ogg
486,192,71785,1,0,0:0:0:0:s_047.ogg
332,192,71892,1,0,0:0:0:0:s_059.ogg
25,192,72000,1,0,0:0:0:0:s_017.ogg
435,192,72000,1,0,0:0:0:0:s_045.ogg
76,192,72035,1,0,0:0:0:0:s_021.ogg
128,192,72071,1,0,0:0:0:0:s_024.ogg
179,192,72107,1,0,0:0:0:0:s_029.ogg
281,192,72107,1,0,0:0:0:0:s_057.ogg
384,192,72214,1,0,0:0:0:0:s_047.ogg
332,192,72321,1,0,0:0:0:0:s_059.ogg
25,192,72428,1,0,0:0:0:0:s_018.ogg
435,192,72428,1,0,0:0:0:0:s_048.ogg
76,192,72464,1,0,0:0:0:0:s_021.ogg
128,192,72500,1,0,0:0:0:0:s_024.ogg
179,192,72535,1,0,0:0:0:0:s_030.ogg
384,192,72535,1,0,0:0:0:0:s_060.ogg
486,192,72642,1,0,0:0:0:0:s_050.ogg
435,192,72750,1,0,0:0:0:0:s_062.ogg
25,192,72857,1,0,0:0:0:0:m_019.ogg
332,192,72857,1,0,0:0:0:0:m_047.ogg
76,192,72892,1,0,0:0:0:0:m_023.ogg
128,192,72928,1,0,0:0:0:0:m_026.ogg
179,192,72964,1,0,0:0:0:0:s_031.ogg
384,192,72964,1,0,0:0:0:0:m_059.ogg
281,192,73071,1,0,0:0:0:0:s_043.ogg
332,192,73178,1,0,0:0:0:0:s_055.ogg
281,192,73285,1,0,0:0:0:0:s_048.ogg
384,192,73392,1,0,0:0:0:0:s_060.ogg
332,192,73500,1,0,0:0:0:0:s_050.ogg
435,192,73607,1,0,0:0:0:0:s_062.ogg
76,192,73714,1,0,0:0:0:0:m_024.ogg
384,192,73714,1,0,0:0:0:0:m_052.ogg
128,192,73750,1,0,0:0:0:0:m_028.ogg
179,192,73785,1,0,0:0:0:0:m_031.ogg
230,192,73821,1,0,0:0:0:0:s_036.ogg
486,192,73821,1,0,0:0:0:0:m_064.ogg
281,192,74142,1,0,0:0:0:0:s_048.ogg
384,192,74250,1,0,0:0:0:0:s_060.ogg
332,192,74357,1,0,0:0:0:0:s_050.ogg
435,192,74464,1,0,0:0:0:0:s_062.ogg
76,192,74571,1,0,0:0:0:0:m_024.ogg
384,192,74571,1,0,0:0:0:0:m_052.ogg
128,192,74607,1,0,0:0:0:0:m_028.ogg
179,192,74642,1,0,0:0:0:0:m_031.ogg
230,192,74678,1,0,0:0:0:0:s_036.ogg
486,192,74678,1,0,0:0:0:0:m_064.ogg
332,192,74785,1,0,0:0:0:0:s_050.ogg
435,192,74892,1,0,0:0:0:0:s_062.ogg
281,192,75000,1,0,0:0:0:0:s_048.ogg
384,192,75107,1,0,0:0:0:0:s_060.ogg
486,192,75214,1,0,0:0:0:0:s_047.ogg
332,192,75321,1,0,0:0:0:0:s_059.ogg
25,192,75428,1,0,0:0:0:0:s_017.ogg
435,192,75428,1,0,0:0:0:0:s_045.ogg
76,192,75464,1,0,0:0:0:0:s_021.ogg
128,192,75500,1,0,0:0:0:0:s_024.ogg
179,192,75535,1,0,0:0:0:0:s_029.ogg
281,192,75535,1,0,0:0:0:0:s_057.ogg
486,192,75642,1,0,0:0:0:0:s_050.ogg
384,192,75750,1,0,0:0:0:0:s_062.ogg
25,192,75857,1,0,0:0:0:0:s_019.ogg
435,192,75857,1,0,0:0:0:0:s_047.ogg
76,192,75892,1,0,0:0:0:0:s_023.ogg
128,192,75928,1,0,0:0:0:0:s_026.ogg
179,192,75964,1,0,0:0:0:0:s_031.ogg
332,192,75964,1,0,0:0:0:0:s_059.ogg
384,192,76071,1,0,0:0:0:0:s_043.ogg
281,192,76178,1,0,0:0:0:0:s_055.ogg
230,192,76285,1,0,0:0:0:0:m_024.ogg
435,192,76285,1,0,0:0:0:0:m_060.ogg
25,192,76714,1,0,0:0:0:0:s_048.ogg
128,192,76821,1,0,0:0:0:0:s_060.ogg
76,192,76928,1,0,0:0:0:0:s_050.ogg
179,192,77035,1,0,0:0:0:0:s_062.ogg
128,192,77142,1,0,0:0:0:0:m_052.ogg
332,192,77142,1,0,0:0:0:0:m_024.ogg
384,192,77178,1,0,0:0:0:0:m_028.ogg
435,192,77214,1,0,0:0:0:0:m_031.ogg
230,192,77250,1,0,0:0:0:0:m_064.ogg
486,192,77250,1,0,0:0:0:0:s_036.ogg
25,192,77571,1,0,0:0:0:0:s_048.ogg
128,192,77678,1,0,0:0:0:0:s_060.ogg
76,192,77785,1,0,0:0:0:0:s_050.ogg
179,192,77892,1,0,0:0:0:0:s_062.ogg
128,192,78000,1,0,0:0:0:0:m_052.ogg
332,192,78000,1,0,0:0:0:0:m_024.ogg
384,192,78035,1,0,0:0:0:0:m_028.ogg
435,192,78071,1,0,0:0:0:0:m_031.ogg
230,192,78107,1,0,0:0:0:0:m_064.ogg
486,192,78107,1,0,0:0:0:0:s_036.ogg
76,192,78214,1,0,0:0:0:0:s_050.ogg
179,192,78321,1,0,0:0:0:0:s_062.ogg
25,192,78428,1,0,0:0:0:0:s_048.ogg
128,192,78535,1,0,0:0:0:0:s_060.ogg
230,192,78642,1,0,0:0:0:0:s_047.ogg
76,192,78750,1,0,0:0:0:0:s_059.ogg
179,192,78857,1,0,0:0:0:0:s_045.ogg
281,192,78857,1,0,0:0:0:0:s_017.ogg
332,192,78892,1,0,0:0:0:0:s_021.ogg
384,192,78928,1,0,0:0:0:0:s_024.ogg
25,192,78964,1,0,0:0:0:0:s_057.ogg
435,192,78964,1,0,0:0:0:0:s_029.ogg
128,192,79071,1,0,0:0:0:0:s_047.ogg
76,192,79178,1,0,0:0:0:0:s_059.ogg
179,192,79285,1,0,0:0:0:0:s_048.ogg
281,192,79285,1,0,0:0:0:0:s_018.ogg
332,192,79321,1,0,0:0:0:0:s_021.ogg
384,192,79357,1,0,0:0:0:0:s_024.ogg
128,192,79392,1,0,0:0:0:0:s_060.ogg
435,192,79392,1,0,0:0:0:0:s_030.ogg
230,192,79500,1,0,0:0:0:0:s_050.ogg
179,192,79607,1,0,0:0:0:0:s_062.ogg
76,192,79714,1,0,0:0:0:0:m_047.ogg
281,192,79714,1,0,0:0:0:0:m_019.ogg
332,192,79750,1,0,0:0:0:0:m_023.ogg
384,192,79785,1,0,0:0:0:0:m_026.ogg
128,192,79821,1,0,0:0:0:0:m_059.ogg
435,192,79821,1,0,0:0:0:0:s_031.ogg
25,192,79928,1,0,0:0:0:0:s_043.ogg
76,192,80035,1,0,0:0:0:0:s_055.ogg
25,192,80142,1,0,0:0:0:0:s_048.ogg
128,192,80250,1,0,0:0:0:0:s_060.ogg
76,192,80357,1,0,0:0:0:0:s_050.ogg
179,192,80464,1,0,0:0:0:0:s_062.ogg
128,192,80571,1,0,0:0:0:0:m_052.ogg
332,192,80571,1,0,0:0:0:0:m_024.ogg
384,192,80607,1,0,0:0:0:0:m_028.ogg
435,192,80642,1,0,0:0:0:0:m_031.ogg
230,192,80678,1,0,0:0:0:0:m_064.ogg
486,192,80678,1,0,0:0:0:0:s_036.ogg
25,192,81000,1,0,0:0:0:0:s_048.ogg
128,192,81107,1,0,0:0:0:0:s_060.ogg
76,192,81214,1,0,0:0:0:0:s_050.ogg
179,192,81321,1,0,0:0:0:0:s_062.ogg
128,192,81428,1,0,0:0:0:0:m_052.ogg
332,192,81428,1,0,0:0:0:0:m_024.ogg
384,192,81464,1,0,0:0:0:0:m_028.ogg
435,192,81500,1,0,0:0:0:0:m_031.ogg
230,192,81535,1,0,0:0:0:0:m_064.ogg
486,192,81535,1,0,0:0:0:0:s_036.ogg
76,192,81642,1,0,0:0:0:0:s_050.ogg
179,192,81750,1,0,0:0:0:0:s_062.ogg
25,192,81857,1,0,0:0:0:0:s_048.ogg
128,192,81964,1,0,0:0:0:0:s_060.ogg
230,192,82071,1,0,0:0:0:0:s_047.ogg
76,192,82178,1,0,0:0:0:0:s_059.ogg
179,192,82285,1,0,0:0:0:0:s_045.ogg
281,192,82285,1,0,0:0:0:0:s_017.ogg
332,192,82321,1,0,0:0:0:0:s_021.ogg
384,192,82357,1,0,0:0:0:0:s_024.ogg
25,192,82392,1,0,0:0:0:0:s_057.ogg
435,192,82392,1,0,0:0:0:0:s_029.ogg
230,192,82500,1,0,0:0:0:0:s_050.ogg
128,192,82607,1,0,0:0:0:0:s_062.ogg
179,192,82714,1,0,0:0:0:0:s_047.ogg
281,192,82714,1,0,0:0:0:0:s_019.ogg
332,192,82750,1,0,0:0:0:0:s_023.ogg
384,192,82785,1,0,0:0:0:0:s_026.ogg
76,192,82821,1,0,0:0:0:0:s_059.ogg
435,192,82821,1,0,0:0:0:0:s_031.ogg
128,192,82928,1,0,0:0:0:0:s_043.ogg
25,192,83035,1,0,0:0:0:0:s_055.ogg
179,192,83142,1,0,0:0:0:0:m_048.ogg
281,192,83142,1,0,0:0:0:0:m_024.ogg
332,192,83178,1,0,0:0:0:0:m_028.ogg
384,192,83214,1,0,0:0:0:0:m_031.ogg
435,192,83250,1,0,0:0:0:0:s_036.ogg
486,192,83571,1,0,0:0:0:0:m_064.ogg
486,192,83892,1,0,0:0:0:0:s_064.ogg
76,192,84000,1,0,0:0:0:0:m_024.ogg
281,192,84000,1,0,0:0:0:0:m_048.ogg
128,192,84035,1,0,0:0:0:0:m_028.ogg
332,192,84053,1,0,0:0:0:0:m_052.ogg
179,192,84071,1,0,0:0:0:0:m_031.ogg
230,192,84107,1,0,0:0:0:0:s_036.ogg
384,192,84107,1,0,0:0:0:0:m_060.ogg
435,192,84160,1,0,0:0:0:0:m_064.ogg
76,192,84857,1,0,0:0:0:0:m_024.ogg
281,192,84857,1,0,0:0:0:0:m_048.ogg
128,192,84892,1,0,0:0:0:0:m_028.ogg
332,192,84910,1,0,0:0:0:0:m_052.ogg
179,192,84928,1,0,0:0:0:0:m_031.ogg
230,192,84964,1,0,0:0:0:0:s_036.ogg
384,192,84964,1,0,0:0:0:0:m_060.ogg
435,192,85017,1,0,0:0:0:0:m_064.ogg
76,192,85714,1,0,0:0:0:0:m_024.ogg
486,192,85714,1,0,0:0:0:0:m_065.ogg
128,192,85750,1,0,0:0:0:0:m_028.ogg
179,192,85785,1,0,0:0:0:0:m_031.ogg
230,192,85821,1,0,0:0:0:0:s_036.ogg
435,192,85821,1,0,0:0:0:0:s_064.ogg
281,192,85928,1,0,0:0:0:0:s_062.ogg
332,192,86035,1,0,0:0:0:0:s_064.ogg
486,192,86142,1,0,0:0:0:0:s_065.ogg
435,192,86250,1,0,0:0:0:0:s_064.ogg
281,192,86357,1,0,0:0:0:0:s_062.ogg
332,192,86464,1,0,0:0:0:0:s_064.ogg
179,192,86571,1,0,0:0:0:0:m_017.ogg
384,192,86571,1,0,0:0:0:0:m_065.ogg
486,192,86571,1,0,0:0:0:0:m_053.ogg
128,192,86607,1,0,0:0:0:0:m_021.ogg
76,192,86642,1,0,0:0:0:0:m_024.ogg
25,192,86678,1,0,0:0:0:0:s_029.ogg
76,192,87428,1,0,0:0:0:0:m_024.ogg
486,192,87428,1,0,0:0:0:0:s_065.ogg
128,192,87464,1,0,0:0:0:0:m_028.ogg
332,192,87482,1,0,0:0:0:0:s_055.ogg
435,192,87482,1,0,0:0:0:0:s_064.ogg
179,192,87500,1,0,0:0:0:0:m_031.ogg
230,192,87535,1,0,0:0:0:0:s_036.ogg
486,192,87642,1,0,0:0:0:0:s_065.ogg
332,192,87696,1,0,0:0:0:0:s_055.ogg
435,192,87696,1,0,0:0:0:0:s_064.ogg
486,192,87857,1,0,0:0:0:0:s_065.ogg
332,192,87910,1,0,0:0:0:0:s_055.ogg
435,192,87910,1,0,0:0:0:0:s_064.ogg
486,192,88071,1,0,0:0:0:0:s_065.ogg
332,192,88125,1,0,0:0:0:0:s_055.ogg
435,192,88125,1,0,0:0:0:0:s_064.ogg
179,192,88285,1,0,0:0:0:0:m_019.ogg
281,192,88285,1,0,0:0:0:0:m_059.ogg
384,192,88285,1,0,0:0:0:0:m_055.ogg
128,192,88321,1,0,0:0:0:0:m_023.ogg
76,192,88357,1,0,0:0:0:0:m_026.ogg
25,192,88392,1,0,0:0:0:0:s_031.ogg
486,192,88928,1,0,0:0:0:0:s_067.ogg
76,192,89142,1,0,0:0:0:0:m_024.ogg
281,192,89142,1,0,0:0:0:0:m_048.ogg
128,192,89178,1,0,0:0:0:0:m_028.ogg
332,192,89196,1,0,0:0:0:0:m_052.ogg
179,192,89214,1,0,0:0:0:0:m_031.ogg
230,192,89250,1,0,0:0:0:0:s_036.ogg
384,192,89250,1,0,0:0:0:0:m_060.ogg
435,192,89303,1,0,0:0:0:0:m_064.ogg
76,192,90000,1,0,0:0:0:0:m_024.ogg
281,192,90000,1,0,0:0:0:0:m_048.ogg
128,192,90035,1,0,0:0:0:0:m_028.ogg
332,192,90053,1,0,0:0:0:0:m_052.ogg
179,192,90071,1,0,0:0:0:0:m_031.ogg
230,192,90107,1,0,0:0:0:0:s_036.ogg
384,192,90107,1,0,0:0:0:0:m_060.ogg
435,192,90160,1,0,0:0:0:0:m_064.ogg
76,192,90857,1,0,0:0:0:0:m_024.ogg
486,192,90857,1,0,0:0:0:0:m_065.ogg
128,192,90892,1,0,0:0:0:0:m_028.ogg
179,192,90928,1,0,0:0:0:0:m_031.ogg
230,192,90964,1,0,0:0:0:0:s_036.ogg
435,192,90964,1,0,0:0:0:0:s_064.ogg
281,192,91071,1,0,0:0:0:0:s_062.ogg
332,192,91178,1,0,0:0:0:0:s_064.ogg
486,192,91285,1,0,0:0:0:0:s_065.ogg
435,192,91392,1,0,0:0:0:0:s_064.ogg
281,192,91500,1,0,0:0:0:0:s_062.ogg
332,192,91607,1,0,0:0:0:0:s_064.ogg
179,192,91714,1,0,0:0:0:0:m_017.ogg
384,192,91714,1,0,0:0:0:0:m_053.ogg
486,192,91714,1,0,0:0:0:0:m_065.ogg
128,192,91750,1,0,0:0:0:0:m_021.ogg
76,192,91785,1,0,0:0:0:0:m_024.ogg
25,192,91821,1,0,0:0:0:0:s_029.ogg
76,192,92571,1,0,0:0:0:0:m_024.ogg
486,192,92571,1,0,0:0:0:0:m_065.ogg
128,192,92607,1,0,0:0:0:0:m_028.ogg
384,192,92625,1,0,0:0:0:0:m_064.ogg
435,192,92625,1,0,0:0:0:0:m_055.ogg
179,192,92642,1,0,0:0:0:0:m_031.ogg
230,192,92678,1,0,0:0:0:0:s_036.ogg
179,192,93428,1,0,0:0:0:0:m_019.ogg
486,192,93428,1,0,0:0:0:0:s_064.ogg
128,192,93464,1,0,0:0:0:0:m_023.ogg
332,192,93482,1,0,0:0:0:0:s_059.ogg
435,192,93482,1,0,0:0:0:0:s_062.ogg
76,192,93500,1,0,0:0:0:0:m_026.ogg
25,192,93535,1,0,0:0:0:0:s_031.ogg
486,192,93642,1,0,0:0:0:0:s_064.ogg
332,192,93696,1,0,0:0:0:0:s_059.ogg
435,192,93696,1,0,0:0:0:0:s_062.ogg
486,192,93857,1,0,0:0:0:0:s_064.ogg
332,192,93910,1,0,0:0:0:0:s_059.ogg
435,192,93910,1,0,0:0:0:0:s_062.ogg
486,192,94071,1,0,0:0:0:0:s_064.ogg
332,192,94125,1,0,0:0:0:0:s_059.ogg
435,192,94125,1,0,0:0:0:0:s_062.ogg
25,192,94285,1,0,0:0:0:0:s_036.ogg
281,192,94285,1,0,0:0:0:0:m_060.ogg
179,192,94392,1,0,0:0:0:0:s_043.ogg
76,192,94500,1,0,0:0:0:0:s_040.ogg
128,192,94607,1,0,0:0:0:0:s_043.ogg
25,192,94714,1,0,0:0:0:0:s_036.ogg
332,192,94714,1,0,0:0:0:0:s_055.ogg
384,192,94741,1,0,0:0:0:0:s_060.ogg
435,192,94767,1,0,0:0:0:0:m_064.ogg
179,192,94821,1,0,0:0:0:0:s_043.ogg
76,192,94928,1,0,0:0:0:0:s_040.ogg
128,192,95035,1,0,0:0:0:0:s_043.ogg
281,192,95035,1,0,0:0:0:0:s_064.ogg
25,192,95142,1,0,0:0:0:0:s_036.ogg
332,192,95142,1,0,0:0:0:0:s_055.ogg
384,192,95169,1,0,0:0:0:0:s_060.ogg
435,192,95196,1,0,0:0:0:0:m_064.ogg
179,192,95250,1,0,0:0:0:0:s_043.ogg
76,192,95357,1,0,0:0:0:0:s_040.ogg
128,192,95464,1,0,0:0:0:0:s_043.ogg
25,192,95571,1,0,0:0:0:0:s_036.ogg
179,192,95678,1,0,0:0:0:0:s_043.ogg
76,192,95785,1,0,0:0:0:0:s_040.ogg
128,192,95892,1,0,0:0:0:0:s_043.ogg
25,192,96000,1,0,0:0:0:0:s_036.ogg
332,192,96000,1,0,0:0:0:0:s_055.ogg
384,192,96026,1,0,0:0:0:0:s_060.ogg
435,192,96053,1,0,0:0:0:0:m_064.ogg
179,192,96107,1,0,0:0:0:0:s_043.ogg
76,192,96214,1,0,0:0:0:0:s_040.ogg
128,192,96321,1,0,0:0:0:0:s_043.ogg
25,192,96428,1,0,0:0:0:0:s_036.ogg
179,192,96535,1,0,0:0:0:0:s_043.ogg
76,192,96642,1,0,0:0:0:0:s_040.ogg
128,192,96750,1,0,0:0:0:0:s_043.ogg
25,192,96857,1,0,0:0:0:0:s_036.ogg
486,192,96857,1,0,0:0:0:0:s_065.ogg
179,192,96964,1,0,0:0:0:0:s_043.ogg
435,192,96964,1,0,0:0:0:0:s_064.ogg
76,192,97071,1,0,0:0:0:0:s_040.ogg
281,192,97071,1,0,0:0:0:0:s_062.ogg
128,192,97178,1,0,0:0:0:0:s_043.ogg
332,192,97178,1,0,0:0:0:0:s_064.ogg
25,192,97285,1,0,0:0:0:0:s_036.ogg
486,192,97285,1,0,0:0:0:0:s_065.ogg
179,192,97392,1,0,0:0:0:0:s_043.ogg
435,192,97392,1,0,0:0:0:0:s_064.ogg
76,192,97500,1,0,0:0:0:0:s_040.ogg
281,192,97500,1,0,0:0:0:0:s_062.ogg
128,192,97607,1,0,0:0:0:0:s_043.ogg
332,192,97607,1,0,0:0:0:0:s_064.ogg
25,192,97714,1,0,0:0:0:0:s_036.ogg
384,192,97714,1,0,0:0:0:0:m_065.ogg
230,192,97821,1,0,0:0:0:0:s_045.ogg
128,192,97928,1,0,0:0:0:0:s_041.ogg
179,192,98035,1,0,0:0:0:0:s_045.ogg
25,192,98142,1,0,0:0:0:0:s_036.ogg
230,192,98250,1,0,0:0:0:0:s_045.ogg
128,192,98357,1,0,0:0:0:0:s_041.ogg
179,192,98464,1,0,0:0:0:0:s_045.ogg
76,192,98571,1,0,0:0:0:0:s_036.ogg
486,192,98571,1,0,0:0:0:0:s_065.ogg
435,192,98625,1,0,0:0:0:0:s_064.ogg
230,192,98678,1,0,0:0:0:0:s_043.ogg
128,192,98785,1,0,0:0:0:0:s_040.ogg
486,192,98785,1,0,0:0:0:0:s_065.ogg
435,192,98839,1,0,0:0:0:0:s_064.ogg
179,192,98892,1,0,0:0:0:0:s_043.ogg
76,192,99000,1,0,0:0:0:0:s_036.ogg
486,192,99000,1,0,0:0:0:0:s_065.ogg
435,192,99053,1,0,0:0:0:0:s_064.ogg
230,192,99107,1,0,0:0:0:0:s_043.ogg
128,192,99214,1,0,0:0:0:0:s_040.ogg
486,192,99214,1,0,0:0:0:0:s_065.ogg
435,192,99267,1,0,0:0:0:0:s_064.ogg
179,192,99321,1,0,0:0:0:0:s_043.ogg
25,192,99428,1,0,0:0:0:0:s_031.ogg
281,192,99428,1,0,0:0:0:0:m_062.ogg
230,192,99535,1,0,0:0:0:0:s_043.ogg
76,192,99642,1,0,0:0:0:0:s_038.ogg
179,192,99750,1,0,0:0:0:0:s_043.ogg
25,192,99857,1,0,0:0:0:0:s_031.ogg
230,192,99964,1,0,0:0:0:0:s_043.ogg
76,192,100071,1,0,0:0:0:0:s_038.ogg
486,192,100071,1,0,0:0:0:0:s_067.ogg
179,192,100178,1,0,0:0:0:0:s_043.ogg
25,192,100285,1,0,0:0:0:0:m_024.ogg
281,192,100285,1,0,0:0:0:0:m_048.ogg
76,192,100321,1,0,0:0:0:0:m_028.ogg
332,192,100339,1,0,0:0:0:0:m_052.ogg
128,192,100357,1,0,0:0:0:0:m_031.ogg
179,192,100392,1,0,0:0:0:0:s_036.ogg
384,192,100392,1,0,0:0:0:0:m_060.ogg
435,192,100446,1,0,0:0:0:0:m_064.ogg
25,192,101142,1,0,0:0:0:0:m_024.ogg
281,192,101142,1,0,0:0:0:0:m_048.ogg
76,192,101178,1,0,0:0:0:0:m_028.ogg
332,192,101196,1,0,0:0:0:0:m_052.ogg
128,192,101214,1,0,0:0:0:0:m_031.ogg
179,192,101250,1,0,0:0:0:0:s_036.ogg
384,192,101250,1,0,0:0:0:0:m_060.ogg
435,192,101303,1,0,0:0:0:0:m_064.ogg
25,192,102000,1,0,0:0:0:0:m_024.ogg
486,192,102000,1,0,0:0:0:0:m_065.ogg
76,192,102035,1,0,0:0:0:0:m_028.ogg
128,192,102071,1,0,0:0:0:0:m_031.ogg
179,192,102107,1,0,0:0:0:0:s_036.ogg
435,192,102107,1,0,0:0:0:0:s_064.ogg
281,192,102214,1,0,0:0:0:0:s_062.ogg
332,192,102321,1,0,0:0:0:0:s_064.ogg
486,192,102428,1,0,0:0:0:0:s_065.ogg
435,192,102535,1,0,0:0:0:0:s_064.ogg
281,192,102642,1,0,0:0:0:0:s_062.ogg
332,192,102750,1,0,0:0:0:0:s_064.ogg
230,192,102857,1,0,0:0:0:0:m_017.ogg
384,192,102857,1,0,0:0:0:0:m_065.ogg
435,192,102857,1,0,0:0:0:0:m_053.ogg
179,192,102892,1,0,0:0:0:0:m_021.ogg
128,192,102928,1,0,0:0:0:0:m_024.ogg
76,192,102964,1,0,0:0:0:0:s_029.ogg
25,192,103714,1,0,0:0:0:0:m_024.ogg
486,192,103714,1,0,0:0:0:0:m_065.ogg
76,192,103750,1,0,0:0:0:0:m_028.ogg
384,192,103767,1,0,0:0:0:0:m_060.ogg
435,192,103767,1,0,0:0:0:0:m_055.ogg
128,192,103785,1,0,0:0:0:0:m_031.ogg
179,192,103821,1,0,0:0:0:0:s_036.ogg
230,192,104571,1,0,0:0:0:0:m_019.ogg
486,192,104571,1,0,0:0:0:0:s_064.ogg
179,192,104607,1,0,0:0:0:0:m_023.ogg
332,192,104625,1,0,0:0:0:0:s_055.ogg
435,192,104625,1,0,0:0:0:0:s_062.ogg
128,192,104642,1,0,0:0:0:0:m_026.ogg
76,192,104678,1,0,0:0:0:0:s_031.ogg
486,192,104785,1,0,0:0:0:0:s_064.ogg
332,192,104839,1,0,0:0:0:0:s_055.ogg
435,192,104839,1,0,0:0:0:0:s_062.ogg
486,192,105000,1,0,0:0:0:0:s_064.ogg
332,192,105053,1,0,0:0:0:0:s_055.ogg
435,192,105053,1,0,0:0:0:0:s_062.ogg
486,192,105214,1,0,0:0:0:0:s_064.ogg
332,192,105267,1,0,0:0:0:0:s_055.ogg
435,192,105267,1,0,0:0:0:0:s_062.ogg
25,192,105428,1,0,0:0:0:0:m_024.ogg
281,192,105428,1,0,0:0:0:0:m_048.ogg
384,192,105428,1,0,0:0:0:0:m_060.ogg
76,192,105464,1,0,0:0:0:0:m_028.ogg
128,192,105500,1,0,0:0:0:0:m_031.ogg
179,192,105535,1,0,0:0:0:0:s_036.ogg
384,192,106071,1,0,0:0:0:0:s_052.ogg
435,192,106071,1,0,0:0:0:0:s_064.ogg
25,192,106285,1,0,0:0:0:0:m_024.ogg
281,192,106285,1,0,0:0:0:0:m_060.ogg
332,192,106285,1,0,0:0:0:0:m_048.ogg
76,192,106321,1,0,0:0:0:0:m_028.ogg
128,192,106357,1,0,0:0:0:0:m_031.ogg
179,192,106392,1,0,0:0:0:0:s_036.ogg
435,192,106928,1,0,0:0:0:0:s_055.ogg
486,192,106928,1,0,0:0:0:0:s_067.ogg
25,192,107142,1,0,0:0:0:0:m_024.ogg
281,192,107142,1,0,0:0:0:0:m_060.ogg
332,192,107142,1,0,0:0:0:0:m_048.ogg
76,192,107178,1,0,0:0:0:0:m_028.ogg
128,192,107214,1,0,0:0:0:0:m_031.ogg
179,192,107250,1,0,0:0:0:0:s_036.ogg
384,192,107785,1,0,0:0:0:0:s_052.ogg
435,192,107785,1,0,0:0:0:0:s_064.ogg
25,192,108000,1,0,0:0:0:0:s_024.ogg
281,192,108000,1,0,0:0:0:0:s_048.ogg
332,192,108000,1,0,0:0:0:0:s_060.ogg
76,192,108035,1,0,0:0:0:0:s_028.ogg
128,192,108071,1,0,0:0:0:0:s_031.ogg
179,192,108107,1,0,0:0:0:0:s_036.ogg
384,192,108214,1,0,0:0:0:0:s_052.ogg
435,192,108214,1,0,0:0:0:0:s_064.ogg
25,192,108428,1,0,0:0:0:0:s_024.ogg
281,192,108428,1,0,0:0:0:0:s_048.ogg
332,192,108428,1,0,0:0:0:0:s_060.ogg
76,192,108464,1,0,0:0:0:0:s_028.ogg
128,192,108500,1,0,0:0:0:0:s_031.ogg
179,192,108535,1,0,0:0:0:0:s_036.ogg
435,192,108642,1,0,0:0:0:0:s_055.ogg
486,192,108642,1,0,0:0:0:0:s_067.ogg
25,192,108857,1,0,0:0:0:0:s_024.ogg
281,192,108857,1,0,0:0:0:0:s_048.ogg
332,192,108857,1,0,0:0:0:0:s_060.ogg
128,192,109285,1,0,0:0:0:0:m_036.ogg
179,192,109285,1,0,0:0:0:0:m_060.ogg
230,192,109285,1,0,0:0:0:0:m_024.ogg
384,192,109285,1,0,0:0:0:0:m_028.ogg
435,192,109285,1,0,0:0:0:0:m_031.ogg
486,192,109285,1,0,0:0:0:0:m_048.ogg
128,192,109714,1,0,0:0:0:0:m_024.ogg
179,192,109714,1,0,0:0:0:0:m_060.ogg
230,192,109714,1,0,0:0:0:0:m_036.ogg
384,192,109714,1,0,0:0:0:0:m_031.ogg
435,192,109714,1,0,0:0:0:0:m_028.ogg
486,192,109714,1,0,0:0:0:0:m_048.ogg
