osu file format v14

[General]
AudioFilename: virtual
AudioLeadIn: 0
PreviewTime: 0
Countdown: 0
SampleSet: None
StackLeniency: 0.7
Mode: 3
LetterboxInBreaks: 0
SpecialStyle: 0
WidescreenStoryboard: 1

[Editor]
DistanceSpacing: 0.8
BeatDivisor: 4
GridSize: 32
TimelineZoom: 2.100006

[Metadata]
Title:Piano Beatmap Set
TitleUnicode:Piano Beatmap Set
Artist:Collection
ArtistUnicode:Collection
Creator:CircusGalop
Version:Turkish March - 10K EZ
Source:BMS
Tags:
BeatmapID:1322125
BeatmapSetID:332673

[Difficulty]
HPDrainRate:0
CircleSize:10
OverallDifficulty:5
ApproachRate:5
SliderMultiplier:1.4
SliderTickRate:1

[Events]
//Background and Video events
0,0,"CircusGalop.jpg",0,0
//Break Periods
//Storyboard Layer 0 (Background)
//Storyboard Layer 1 (Fail)
//Storyboard Layer 2 (Pass)
//Storyboard Layer 3 (Foreground)
//Storyboard Sound Samples
Sample,1285,0,"s_050.ogg",100
Sample,1392,0,"s_048.ogg",100
Sample,1500,0,"s_047.ogg",100
Sample,1607,0,"s_048.ogg",100
Sample,1714,0,"s_051.ogg",100
Sample,1928,0,"s_039.ogg",100
Sample,2142,0,"s_053.ogg",100
Sample,2142,0,"s_043.ogg",100
Sample,2250,0,"s_051.ogg",100
Sample,2357,0,"s_043.ogg",100
Sample,2357,0,"s_050.ogg",100
Sample,2464,0,"s_051.ogg",100
Sample,2571,0,"s_055.ogg",100
Sample,2785,0,"s_039.ogg",100
Sample,3000,0,"s_056.ogg",100
Sample,3000,0,"s_043.ogg",100
Sample,3107,0,"s_055.ogg",100
Sample,3214,0,"s_043.ogg",100
Sample,3214,0,"s_054.ogg",100
Sample,3321,0,"s_055.ogg",100
Sample,3428,0,"s_062.ogg",100
Sample,3535,0,"s_060.ogg",100
Sample,3642,0,"s_039.ogg",100
Sample,3642,0,"s_059.ogg",100
Sample,3750,0,"s_060.ogg",100
Sample,3857,0,"s_062.ogg",100
Sample,3964,0,"s_060.ogg",100
Sample,4071,0,"s_039.ogg",100
Sample,4071,0,"s_059.ogg",100
Sample,4178,0,"s_060.ogg",100
Sample,4285,0,"m_063.ogg",100
Sample,4500,0,"s_039.ogg",100
Sample,4714,0,"s_060.ogg",100
Sample,4714,0,"s_043.ogg",100
Sample,4928,0,"s_043.ogg",100
Sample,4928,0,"s_063.ogg",100
Sample,5142,0,"s_058.ogg",100
Sample,5169,0,"s_060.ogg",100
Sample,5196,0,"s_062.ogg",100
Sample,5357,0,"s_060.ogg",100
Sample,5357,0,"s_043.ogg",100
Sample,5357,0,"s_057.ogg",100
Sample,5571,0,"s_058.ogg",100
Sample,5571,0,"s_038.ogg",100
Sample,5571,0,"s_055.ogg",100
Sample,5785,0,"s_060.ogg",100
Sample,5785,0,"s_057.ogg",100
Sample,5785,0,"s_038.ogg",100
Sample,6000,0,"s_058.ogg",100
Sample,6026,0,"s_060.ogg",100
Sample,6053,0,"s_062.ogg",100
Sample,6214,0,"s_043.ogg",100
Sample,6214,0,"s_057.ogg",100
Sample,6214,0,"s_060.ogg",100
Sample,6428,0,"s_058.ogg",100
Sample,6428,0,"s_055.ogg",100
Sample,6428,0,"s_038.ogg",100
Sample,6642,0,"s_038.ogg",100
Sample,6642,0,"s_057.ogg",100
Sample,6642,0,"s_060.ogg",100
Sample,6857,0,"s_058.ogg",100
Sample,6883,0,"s_060.ogg",100
Sample,6910,0,"s_062.ogg",100
Sample,7071,0,"s_057.ogg",100
Sample,7071,0,"s_060.ogg",100
Sample,7071,0,"s_038.ogg",100
Sample,7285,0,"s_058.ogg",100
Sample,7285,0,"s_055.ogg",100
Sample,7500,0,"s_054.ogg",100
Sample,7500,0,"s_057.ogg",100
Sample,7714,0,"m_055.ogg",100
Sample,8142,0,"s_050.ogg",100
Sample,8250,0,"s_048.ogg",100
Sample,8357,0,"s_047.ogg",100
Sample,8464,0,"s_048.ogg",100
Sample,8571,0,"s_051.ogg",100
Sample,8785,0,"s_039.ogg",100
Sample,9000,0,"s_043.ogg",100
Sample,9000,0,"s_053.ogg",100
Sample,9107,0,"s_051.ogg",100
Sample,9214,0,"s_043.ogg",100
Sample,9214,0,"s_050.ogg",100
Sample,9321,0,"s_051.ogg",100
Sample,9428,0,"s_055.ogg",100
Sample,9642,0,"s_039.ogg",100
Sample,9857,0,"s_043.ogg",100
Sample,9857,0,"s_056.ogg",100
Sample,9964,0,"s_055.ogg",100
Sample,10071,0,"s_043.ogg",100
Sample,10071,0,"s_054.ogg",100
Sample,10178,0,"s_055.ogg",100
Sample,10285,0,"s_062.ogg",100
Sample,10392,0,"s_060.ogg",100
Sample,10500,0,"s_059.ogg",100
Sample,10500,0,"s_039.ogg",100
Sample,10607,0,"s_060.ogg",100
Sample,10714,0,"s_062.ogg",100
Sample,10821,0,"s_060.ogg",100
Sample,10928,0,"s_039.ogg",100
Sample,10928,0,"s_059.ogg",100
Sample,11035,0,"s_060.ogg",100
Sample,11142,0,"m_063.ogg",100
Sample,11357,0,"s_039.ogg",100
Sample,11571,0,"s_043.ogg",100
Sample,11571,0,"s_060.ogg",100
Sample,11785,0,"s_063.ogg",100
Sample,11785,0,"s_043.ogg",100
Sample,12000,0,"s_058.ogg",100
Sample,12026,0,"s_060.ogg",100
Sample,12053,0,"s_062.ogg",100
Sample,12214,0,"s_057.ogg",100
Sample,12214,0,"s_060.ogg",100
Sample,12214,0,"s_043.ogg",100
Sample,12428,0,"s_058.ogg",100
Sample,12428,0,"s_038.ogg",100
Sample,12428,0,"s_055.ogg",100
Sample,12642,0,"s_038.ogg",100
Sample,12642,0,"s_057.ogg",100
Sample,12642,0,"s_060.ogg",100
Sample,12857,0,"s_058.ogg",100
Sample,12883,0,"s_060.ogg",100
Sample,12910,0,"s_062.ogg",100
Sample,13071,0,"s_060.ogg",100
Sample,13071,0,"s_043.ogg",100
Sample,13071,0,"s_057.ogg",100
Sample,13285,0,"s_055.ogg",100
Sample,13285,0,"s_038.ogg",100
Sample,13285,0,"s_058.ogg",100
Sample,13500,0,"s_057.ogg",100
Sample,13500,0,"s_060.ogg",100
Sample,13500,0,"s_038.ogg",100
Sample,13714,0,"s_058.ogg",100
Sample,13741,0,"s_060.ogg",100
Sample,13767,0,"s_062.ogg",100
Sample,13928,0,"s_038.ogg",100
Sample,13928,0,"s_060.ogg",100
Sample,13928,0,"s_057.ogg",100
Sample,14142,0,"s_058.ogg",100
Sample,14142,0,"s_055.ogg",100
Sample,14357,0,"s_057.ogg",100
Sample,14357,0,"s_054.ogg",100
Sample,14571,0,"m_055.ogg",100
Sample,15000,0,"s_051.ogg",100
Sample,15000,0,"s_055.ogg",100
Sample,15214,0,"s_053.ogg",100
Sample,15214,0,"s_056.ogg",100
Sample,15428,0,"s_058.ogg",100
Sample,15428,0,"s_055.ogg",100
Sample,15642,0,"s_055.ogg",100
Sample,15642,0,"s_058.ogg",100
Sample,15857,0,"s_060.ogg",100
Sample,15964,0,"s_058.ogg",100
Sample,16071,0,"s_056.ogg",100
Sample,16178,0,"s_055.ogg",100
Sample,16285,0,"s_050.ogg",100
Sample,16285,0,"m_053.ogg",100
Sample,16500,0,"s_046.ogg",100
Sample,16714,0,"s_055.ogg",100
Sample,16714,0,"s_051.ogg",100
Sample,16928,0,"s_053.ogg",100
Sample,16928,0,"s_056.ogg",100
Sample,17142,0,"s_055.ogg",100
Sample,17142,0,"s_058.ogg",100
Sample,17357,0,"s_058.ogg",100
Sample,17357,0,"s_055.ogg",100
Sample,17571,0,"s_060.ogg",100
Sample,17678,0,"s_058.ogg",100
Sample,17785,0,"s_056.ogg",100
Sample,17892,0,"s_055.ogg",100
Sample,18000,0,"m_053.ogg",100
Sample,18000,0,"m_050.ogg",100
Sample,18428,0,"s_051.ogg",100
Sample,18428,0,"s_048.ogg",100
Sample,18642,0,"s_050.ogg",100
Sample,18642,0,"s_053.ogg",100
Sample,18857,0,"s_051.ogg",100
Sample,18857,0,"s_055.ogg",100
Sample,19071,0,"s_055.ogg",100
Sample,19071,0,"s_051.ogg",100
Sample,19285,0,"s_056.ogg",100
Sample,19392,0,"s_055.ogg",100
Sample,19500,0,"s_053.ogg",100
Sample,19607,0,"s_051.ogg",100
Sample,19714,0,"s_047.ogg",100
Sample,19714,0,"m_050.ogg",100
Sample,19928,0,"s_043.ogg",100
Sample,20142,0,"s_051.ogg",100
Sample,20142,0,"s_048.ogg",100
Sample,20357,0,"s_053.ogg",100
Sample,20357,0,"s_050.ogg",100
Sample,20571,0,"s_055.ogg",100
Sample,20571,0,"s_051.ogg",100
Sample,20785,0,"s_051.ogg",100
Sample,20785,0,"s_055.ogg",100
Sample,21000,0,"s_056.ogg",100
Sample,21107,0,"s_055.ogg",100
Sample,21214,0,"s_053.ogg",100
Sample,21321,0,"s_051.ogg",100
Sample,21428,0,"m_031.ogg",100
Sample,21428,0,"m_050.ogg",100
Sample,21857,0,"s_050.ogg",100
Sample,21964,0,"s_048.ogg",100
Sample,22071,0,"s_047.ogg",100
Sample,22178,0,"s_048.ogg",100
Sample,22285,0,"s_051.ogg",100
Sample,22500,0,"s_039.ogg",100
Sample,22714,0,"s_053.ogg",100
Sample,22714,0,"s_043.ogg",100
Sample,22821,0,"s_051.ogg",100
Sample,22928,0,"s_050.ogg",100
Sample,22928,0,"s_043.ogg",100
Sample,23035,0,"s_051.ogg",100
Sample,23142,0,"s_055.ogg",100
Sample,23357,0,"s_039.ogg",100
Sample,23571,0,"s_043.ogg",100
Sample,23571,0,"s_056.ogg",100
Sample,23678,0,"s_055.ogg",100
Sample,23785,0,"s_043.ogg",100
Sample,23785,0,"s_054.ogg",100
Sample,23892,0,"s_055.ogg",100
Sample,24000,0,"s_062.ogg",100
Sample,24107,0,"s_060.ogg",100
Sample,24214,0,"s_039.ogg",100
Sample,24214,0,"s_059.ogg",100
Sample,24321,0,"s_060.ogg",100
Sample,24428,0,"s_062.ogg",100
Sample,24535,0,"s_060.ogg",100
Sample,24642,0,"s_059.ogg",100
Sample,24642,0,"s_039.ogg",100
Sample,24750,0,"s_060.ogg",100
Sample,24857,0,"m_063.ogg",100
Sample,25071,0,"s_042.ogg",100
Sample,25285,0,"s_060.ogg",100
Sample,25285,0,"s_036.ogg",100
Sample,25500,0,"s_042.ogg",100
Sample,25500,0,"s_062.ogg",100
Sample,25714,0,"s_063.ogg",100
Sample,25928,0,"s_043.ogg",100
Sample,25928,0,"s_062.ogg",100
Sample,26142,0,"s_060.ogg",100
Sample,26357,0,"s_038.ogg",100
Sample,26357,0,"s_059.ogg",100
Sample,26571,0,"s_060.ogg",100
Sample,26785,0,"s_036.ogg",100
Sample,26785,0,"s_055.ogg",100
Sample,27000,0,"s_056.ogg",100
Sample,27214,0,"s_038.ogg",100
Sample,27214,0,"s_053.ogg",100
Sample,27428,0,"s_036.ogg",100
Sample,27428,0,"m_051.ogg",100
Sample,27642,0,"s_036.ogg",100
Sample,27857,0,"s_050.ogg",100
Sample,27857,0,"s_031.ogg",100
Sample,27910,0,"s_051.ogg",100
Sample,27964,0,"s_050.ogg",100
Sample,28017,0,"s_051.ogg",100
Sample,28071,0,"s_035.ogg",100
Sample,28071,0,"s_050.ogg",100
Sample,28125,0,"s_051.ogg",100
Sample,28178,0,"s_048.ogg",100
Sample,28232,0,"s_050.ogg",100
Sample,28285,0,"m_024.ogg",100
Sample,28285,0,"m_048.ogg",100
Sample,28714,0,"s_048.ogg",100
Sample,28928,0,"s_050.ogg",100
Sample,29142,0,"m_024.ogg",100
Sample,29142,0,"m_064.ogg",100
Sample,29178,0,"m_028.ogg",100
Sample,29214,0,"m_031.ogg",100
Sample,29250,0,"s_036.ogg",100
Sample,29357,0,"s_036.ogg",100
Sample,29571,0,"s_036.ogg",100
Sample,29571,0,"s_060.ogg",100
Sample,29785,0,"s_050.ogg",100
Sample,29785,0,"s_036.ogg",100
Sample,30000,0,"m_064.ogg",100
Sample,30000,0,"m_024.ogg",100
Sample,30035,0,"m_028.ogg",100
Sample,30071,0,"m_031.ogg",100
Sample,30107,0,"s_036.ogg",100
Sample,30214,0,"s_036.ogg",100
Sample,30214,0,"s_050.ogg",100
Sample,30428,0,"s_060.ogg",100
Sample,30428,0,"s_036.ogg",100
Sample,30642,0,"s_036.ogg",100
Sample,30642,0,"s_047.ogg",100
Sample,30857,0,"s_045.ogg",100
Sample,30857,0,"s_017.ogg",100
Sample,30892,0,"s_021.ogg",100
Sample,30928,0,"s_024.ogg",100
Sample,30964,0,"s_029.ogg",100
Sample,31071,0,"s_029.ogg",100
Sample,31071,0,"s_059.ogg",100
Sample,31285,0,"s_018.ogg",100
Sample,31285,0,"s_048.ogg",100
Sample,31321,0,"s_021.ogg",100
Sample,31357,0,"s_024.ogg",100
Sample,31392,0,"s_030.ogg",100
Sample,31500,0,"s_062.ogg",100
Sample,31500,0,"s_030.ogg",100
Sample,31714,0,"m_019.ogg",100
Sample,31714,0,"m_059.ogg",100
Sample,31750,0,"m_023.ogg",100
Sample,31785,0,"m_026.ogg",100
Sample,31821,0,"s_031.ogg",100
Sample,31928,0,"s_055.ogg",100
Sample,31928,0,"s_031.ogg",100
Sample,32142,0,"s_031.ogg",100
Sample,32142,0,"s_060.ogg",100
Sample,32357,0,"s_050.ogg",100
Sample,32357,0,"s_031.ogg",100
Sample,32571,0,"m_024.ogg",100
Sample,32571,0,"m_052.ogg",100
Sample,32607,0,"m_028.ogg",100
Sample,32642,0,"m_031.ogg",100
Sample,32678,0,"s_036.ogg",100
Sample,32785,0,"s_036.ogg",100
Sample,33000,0,"s_036.ogg",100
Sample,33000,0,"s_060.ogg",100
Sample,33214,0,"s_062.ogg",100
Sample,33214,0,"s_036.ogg",100
Sample,33428,0,"m_024.ogg",100
Sample,33428,0,"m_064.ogg",100
Sample,33464,0,"m_028.ogg",100
Sample,33500,0,"m_031.ogg",100
Sample,33535,0,"s_036.ogg",100
Sample,33642,0,"s_036.ogg",100
Sample,33642,0,"s_062.ogg",100
Sample,33857,0,"s_036.ogg",100
Sample,33857,0,"s_048.ogg",100
Sample,34071,0,"s_036.ogg",100
Sample,34071,0,"s_059.ogg",100
Sample,34285,0,"s_017.ogg",100
Sample,34285,0,"s_057.ogg",100
Sample,34321,0,"s_021.ogg",100
Sample,34357,0,"s_024.ogg",100
Sample,34392,0,"s_029.ogg",100
Sample,34500,0,"s_062.ogg",100
Sample,34500,0,"s_029.ogg",100
Sample,34714,0,"s_047.ogg",100
Sample,34714,0,"s_019.ogg",100
Sample,34750,0,"s_023.ogg",100
Sample,34785,0,"s_026.ogg",100
Sample,34821,0,"s_031.ogg",100
Sample,34928,0,"s_043.ogg",100
Sample,34928,0,"s_031.ogg",100
Sample,35142,0,"m_024.ogg",100
Sample,35142,0,"m_048.ogg",100
Sample,35571,0,"s_060.ogg",100
Sample,35785,0,"s_062.ogg",100
Sample,36000,0,"m_052.ogg",100
Sample,36000,0,"m_024.ogg",100
Sample,36035,0,"m_028.ogg",100
Sample,36071,0,"m_031.ogg",100
Sample,36107,0,"s_036.ogg",100
Sample,36214,0,"s_036.ogg",100
Sample,36428,0,"s_048.ogg",100
Sample,36428,0,"s_036.ogg",100
Sample,36642,0,"s_036.ogg",100
Sample,36642,0,"s_062.ogg",100
Sample,36857,0,"m_052.ogg",100
Sample,36857,0,"m_024.ogg",100
Sample,36892,0,"m_028.ogg",100
Sample,36928,0,"m_031.ogg",100
Sample,36964,0,"s_036.ogg",100
Sample,37071,0,"s_036.ogg",100
Sample,37071,0,"s_062.ogg",100
Sample,37285,0,"s_036.ogg",100
Sample,37285,0,"s_048.ogg",100
Sample,37500,0,"s_047.ogg",100
Sample,37500,0,"s_036.ogg",100
Sample,37714,0,"s_017.ogg",100
Sample,37714,0,"s_045.ogg",100
Sample,37750,0,"s_021.ogg",100
Sample,37785,0,"s_024.ogg",100
Sample,37821,0,"s_029.ogg",100
Sample,37928,0,"s_029.ogg",100
Sample,37928,0,"s_059.ogg",100
Sample,38142,0,"s_048.ogg",100
Sample,38142,0,"s_018.ogg",100
Sample,38178,0,"s_021.ogg",100
Sample,38214,0,"s_024.ogg",100
Sample,38250,0,"s_030.ogg",100
Sample,38357,0,"s_050.ogg",100
Sample,38357,0,"s_030.ogg",100
Sample,38571,0,"m_019.ogg",100
Sample,38571,0,"m_047.ogg",100
Sample,38607,0,"m_023.ogg",100
Sample,38642,0,"m_026.ogg",100
Sample,38678,0,"s_031.ogg",100
Sample,38785,0,"s_043.ogg",100
Sample,38785,0,"s_031.ogg",100
Sample,39000,0,"s_031.ogg",100
Sample,39000,0,"s_048.ogg",100
Sample,39214,0,"s_031.ogg",100
Sample,39214,0,"s_062.ogg",100
Sample,39428,0,"m_064.ogg",100
Sample,39428,0,"m_024.ogg",100
Sample,39464,0,"m_028.ogg",100
Sample,39500,0,"m_031.ogg",100
Sample,39535,0,"s_036.ogg",100
Sample,39642,0,"s_036.ogg",100
Sample,39857,0,"s_048.ogg",100
Sample,39857,0,"s_036.ogg",100
Sample,40071,0,"s_036.ogg",100
Sample,40071,0,"s_050.ogg",100
Sample,40285,0,"m_024.ogg",100
Sample,40285,0,"m_052.ogg",100
Sample,40321,0,"m_028.ogg",100
Sample,40357,0,"m_031.ogg",100
Sample,40392,0,"s_036.ogg",100
Sample,40500,0,"s_050.ogg",100
Sample,40500,0,"s_036.ogg",100
Sample,40714,0,"s_036.ogg",100
Sample,40714,0,"s_060.ogg",100
Sample,40928,0,"s_059.ogg",100
Sample,40928,0,"s_036.ogg",100
Sample,41142,0,"s_017.ogg",100
Sample,41142,0,"s_057.ogg",100
Sample,41178,0,"s_021.ogg",100
Sample,41214,0,"s_024.ogg",100
Sample,41250,0,"s_029.ogg",100
Sample,41357,0,"s_029.ogg",100
Sample,41357,0,"s_050.ogg",100
Sample,41571,0,"s_059.ogg",100
Sample,41571,0,"s_019.ogg",100
Sample,41607,0,"s_023.ogg",100
Sample,41642,0,"s_026.ogg",100
Sample,41678,0,"s_031.ogg",100
Sample,41785,0,"s_031.ogg",100
Sample,41785,0,"s_043.ogg",100
Sample,42000,0,"m_060.ogg",100
Sample,42000,0,"m_024.ogg",100
Sample,42428,0,"s_064.ogg",100
Sample,42535,0,"s_065.ogg",100
Sample,42642,0,"s_064.ogg",100
Sample,42750,0,"s_062.ogg",100
Sample,42857,0,"s_060.ogg",100
Sample,42964,0,"s_062.ogg",100
Sample,43071,0,"s_060.ogg",100
Sample,43071,0,"s_036.ogg",100
Sample,43178,0,"s_059.ogg",100
Sample,43285,0,"s_057.ogg",100
Sample,43285,0,"s_040.ogg",100
Sample,43392,0,"s_060.ogg",100
Sample,43500,0,"s_040.ogg",100
Sample,43500,0,"s_059.ogg",100
Sample,43607,0,"s_057.ogg",100
Sample,43714,0,"s_056.ogg",100
Sample,43821,0,"s_057.ogg",100
Sample,43928,0,"s_059.ogg",100
Sample,43928,0,"s_038.ogg",100
Sample,44035,0,"s_056.ogg",100
Sample,44142,0,"s_040.ogg",100
Sample,44142,0,"s_052.ogg",100
Sample,44250,0,"s_054.ogg",100
Sample,44357,0,"s_056.ogg",100
Sample,44357,0,"s_040.ogg",100
Sample,44464,0,"s_052.ogg",100
Sample,44571,0,"s_057.ogg",100
Sample,44678,0,"s_056.ogg",100
Sample,44785,0,"s_057.ogg",100
Sample,44785,0,"s_036.ogg",100
Sample,44892,0,"s_059.ogg",100
Sample,45000,0,"s_060.ogg",100
Sample,45000,0,"s_040.ogg",100
Sample,45107,0,"s_059.ogg",100
Sample,45214,0,"s_060.ogg",100
Sample,45214,0,"s_040.ogg",100
Sample,45321,0,"s_062.ogg",100
Sample,45428,0,"s_064.ogg",100
Sample,45535,0,"s_063.ogg",100
Sample,45642,0,"s_064.ogg",100
Sample,45642,0,"s_040.ogg",100
Sample,45750,0,"s_063.ogg",100
Sample,45857,0,"s_040.ogg",100
Sample,45857,0,"s_064.ogg",100
Sample,45964,0,"s_065.ogg",100
Sample,46071,0,"s_040.ogg",100
Sample,46071,0,"s_064.ogg",100
Sample,46178,0,"s_062.ogg",100
Sample,46285,0,"s_060.ogg",100
Sample,46392,0,"s_062.ogg",100
Sample,46500,0,"s_060.ogg",100
Sample,46500,0,"s_040.ogg",100
Sample,46607,0,"s_059.ogg",100
Sample,46714,0,"s_057.ogg",100
Sample,46714,0,"s_040.ogg",100
Sample,46821,0,"s_060.ogg",100
Sample,46928,0,"s_059.ogg",100
Sample,46928,0,"s_040.ogg",100
Sample,47035,0,"s_057.ogg",100
Sample,47142,0,"s_055.ogg",100
Sample,47250,0,"s_057.ogg",100
Sample,47357,0,"s_040.ogg",100
Sample,47357,0,"s_059.ogg",100
Sample,47464,0,"s_055.ogg",100
Sample,47571,0,"s_043.ogg",100
Sample,47571,0,"s_052.ogg",100
Sample,47678,0,"s_054.ogg",100
Sample,47785,0,"s_055.ogg",100
Sample,47785,0,"s_043.ogg",100
Sample,47892,0,"s_052.ogg",100
Sample,48000,0,"s_054.ogg",100
Sample,48107,0,"s_055.ogg",100
Sample,48214,0,"s_057.ogg",100
Sample,48214,0,"s_045.ogg",100
Sample,48321,0,"s_054.ogg",100
Sample,48428,0,"s_045.ogg",100
Sample,48428,0,"s_051.ogg",100
Sample,48535,0,"s_052.ogg",100
Sample,48642,0,"s_045.ogg",100
Sample,48642,0,"s_054.ogg",100
Sample,48750,0,"s_051.ogg",100
Sample,48857,0,"m_040.ogg",100
Sample,48857,0,"m_052.ogg",100
Sample,49285,0,"s_064.ogg",100
Sample,49392,0,"s_065.ogg",100
Sample,49500,0,"s_064.ogg",100
Sample,49607,0,"s_062.ogg",100
Sample,49714,0,"s_060.ogg",100
Sample,49821,0,"s_062.ogg",100
Sample,49928,0,"s_060.ogg",100
Sample,49928,0,"s_036.ogg",100
Sample,50035,0,"s_059.ogg",100
Sample,50142,0,"s_057.ogg",100
Sample,50142,0,"s_040.ogg",100
Sample,50250,0,"s_060.ogg",100
Sample,50357,0,"s_059.ogg",100
Sample,50357,0,"s_040.ogg",100
Sample,50464,0,"s_057.ogg",100
Sample,50571,0,"s_056.ogg",100
Sample,50678,0,"s_057.ogg",100
Sample,50785,0,"s_038.ogg",100
Sample,50785,0,"s_059.ogg",100
Sample,50892,0,"s_056.ogg",100
Sample,51000,0,"s_052.ogg",100
Sample,51000,0,"s_040.ogg",100
Sample,51107,0,"s_054.ogg",100
Sample,51214,0,"s_056.ogg",100
Sample,51214,0,"s_040.ogg",100
Sample,51321,0,"s_052.ogg",100
Sample,51428,0,"s_057.ogg",100
Sample,51535,0,"s_056.ogg",100
Sample,51642,0,"s_057.ogg",100
Sample,51642,0,"s_036.ogg",100
Sample,51750,0,"s_059.ogg",100
Sample,51857,0,"s_040.ogg",100
Sample,51857,0,"s_060.ogg",100
Sample,51964,0,"s_059.ogg",100
Sample,52071,0,"s_060.ogg",100
Sample,52071,0,"s_040.ogg",100
Sample,52178,0,"s_062.ogg",100
Sample,52285,0,"s_064.ogg",100
Sample,52392,0,"s_063.ogg",100
Sample,52500,0,"s_040.ogg",100
Sample,52500,0,"s_064.ogg",100
Sample,52607,0,"s_063.ogg",100
Sample,52714,0,"s_040.ogg",100
Sample,52714,0,"s_064.ogg",100
Sample,52821,0,"s_065.ogg",100
Sample,52928,0,"s_064.ogg",100
Sample,52928,0,"s_040.ogg",100
Sample,53035,0,"s_062.ogg",100
Sample,53142,0,"s_060.ogg",100
Sample,53250,0,"s_062.ogg",100
Sample,53357,0,"s_040.ogg",100
Sample,53357,0,"s_060.ogg",100
Sample,53464,0,"s_059.ogg",100
Sample,53571,0,"s_040.ogg",100
Sample,53571,0,"s_057.ogg",100
Sample,53678,0,"s_060.ogg",100
Sample,53785,0,"s_040.ogg",100
Sample,53785,0,"s_059.ogg",100
Sample,53892,0,"s_057.ogg",100
Sample,54000,0,"s_055.ogg",100
Sample,54107,0,"s_057.ogg",100
Sample,54214,0,"s_059.ogg",100
Sample,54214,0,"s_040.ogg",100
Sample,54321,0,"s_055.ogg",100
Sample,54428,0,"s_052.ogg",100
Sample,54428,0,"s_043.ogg",100
Sample,54535,0,"s_054.ogg",100
Sample,54642,0,"s_043.ogg",100
Sample,54642,0,"s_055.ogg",100
Sample,54750,0,"s_052.ogg",100
Sample,54857,0,"s_054.ogg",100
Sample,54964,0,"s_055.ogg",100
Sample,55071,0,"s_045.ogg",100
Sample,55071,0,"s_057.ogg",100
Sample,55178,0,"s_054.ogg",100
Sample,55285,0,"s_045.ogg",100
Sample,55285,0,"s_051.ogg",100
Sample,55392,0,"s_052.ogg",100
Sample,55500,0,"s_054.ogg",100
Sample,55500,0,"s_045.ogg",100
Sample,55607,0,"s_051.ogg",100
Sample,55714,0,"m_052.ogg",100
Sample,55714,0,"m_040.ogg",100
Sample,56142,0,"s_055.ogg",100
Sample,56250,0,"s_053.ogg",100
Sample,56357,0,"s_052.ogg",100
Sample,56464,0,"s_050.ogg",100
Sample,56571,0,"s_048.ogg",100
Sample,56678,0,"s_050.ogg",100
Sample,56785,0,"s_040.ogg",100
Sample,56785,0,"s_052.ogg",100
Sample,56892,0,"s_053.ogg",100
Sample,57000,0,"s_043.ogg",100
Sample,57000,0,"s_055.ogg",100
Sample,57107,0,"s_057.ogg",100
Sample,57214,0,"s_043.ogg",100
Sample,57214,0,"s_059.ogg",100
Sample,57321,0,"s_060.ogg",100
Sample,57428,0,"s_060.ogg",100
Sample,57535,0,"s_059.ogg",100
Sample,57642,0,"s_057.ogg",100
Sample,57642,0,"s_041.ogg",100
Sample,57750,0,"s_055.ogg",100
Sample,57857,0,"s_055.ogg",100
Sample,57964,0,"s_053.ogg",100
Sample,58071,0,"s_041.ogg",100
Sample,58071,0,"s_052.ogg",100
Sample,58178,0,"s_050.ogg",100
Sample,58285,0,"s_048.ogg",100
Sample,58392,0,"s_050.ogg",100
Sample,58500,0,"s_052.ogg",100
Sample,58500,0,"s_040.ogg",100
Sample,58607,0,"s_053.ogg",100
Sample,58714,0,"s_055.ogg",100
Sample,58714,0,"s_043.ogg",100
Sample,58821,0,"s_057.ogg",100
Sample,58928,0,"s_059.ogg",100
Sample,58928,0,"s_043.ogg",100
Sample,59035,0,"s_060.ogg",100
Sample,59142,0,"s_061.ogg",100
Sample,59357,0,"s_041.ogg",100
Sample,59357,0,"s_062.ogg",100
Sample,59571,0,"s_055.ogg",100
Sample,59571,0,"s_035.ogg",100
Sample,59678,0,"s_053.ogg",100
Sample,59785,0,"s_035.ogg",100
Sample,59785,0,"s_052.ogg",100
Sample,59892,0,"s_050.ogg",100
Sample,60000,0,"s_048.ogg",100
Sample,60107,0,"s_050.ogg",100
Sample,60214,0,"s_040.ogg",100
Sample,60214,0,"s_052.ogg",100
Sample,60321,0,"s_053.ogg",100
Sample,60428,0,"s_043.ogg",100
Sample,60428,0,"s_055.ogg",100
Sample,60535,0,"s_057.ogg",100
Sample,60642,0,"s_043.ogg",100
Sample,60642,0,"s_059.ogg",100
Sample,60750,0,"s_060.ogg",100
Sample,60857,0,"s_060.ogg",100
Sample,60964,0,"s_059.ogg",100
Sample,61071,0,"s_057.ogg",100
Sample,61071,0,"s_041.ogg",100
Sample,61178,0,"s_055.ogg",100
Sample,61285,0,"s_055.ogg",100
Sample,61392,0,"s_053.ogg",100
Sample,61500,0,"s_041.ogg",100
Sample,61500,0,"s_052.ogg",100
Sample,61607,0,"s_050.ogg",100
Sample,61714,0,"s_052.ogg",100
Sample,61821,0,"s_055.ogg",100
Sample,61928,0,"s_048.ogg",100
Sample,62035,0,"s_052.ogg",100
Sample,62142,0,"s_050.ogg",100
Sample,62250,0,"s_053.ogg",100
Sample,62357,0,"s_047.ogg",100
Sample,62464,0,"s_050.ogg",100
Sample,62571,0,"m_048.ogg",100
Sample,63000,0,"s_064.ogg",100
Sample,63107,0,"s_065.ogg",100
Sample,63214,0,"s_064.ogg",100
Sample,63321,0,"s_062.ogg",100
Sample,63428,0,"s_060.ogg",100
Sample,63535,0,"s_062.ogg",100
Sample,63642,0,"s_036.ogg",100
Sample,63642,0,"s_060.ogg",100
Sample,63750,0,"s_059.ogg",100
Sample,63857,0,"s_057.ogg",100
Sample,63857,0,"s_040.ogg",100
Sample,63964,0,"s_060.ogg",100
Sample,64071,0,"s_040.ogg",100
Sample,64071,0,"s_059.ogg",100
Sample,64178,0,"s_057.ogg",100
Sample,64285,0,"s_056.ogg",100
Sample,64392,0,"s_057.ogg",100
Sample,64500,0,"s_038.ogg",100
Sample,64500,0,"s_059.ogg",100
Sample,64607,0,"s_056.ogg",100
Sample,64714,0,"s_040.ogg",100
Sample,64714,0,"s_052.ogg",100
Sample,64821,0,"s_054.ogg",100
Sample,64928,0,"s_040.ogg",100
Sample,64928,0,"s_056.ogg",100
Sample,65035,0,"s_052.ogg",100
Sample,65142,0,"s_057.ogg",100
Sample,65250,0,"s_056.ogg",100
Sample,65357,0,"s_057.ogg",100
Sample,65357,0,"s_036.ogg",100
Sample,65464,0,"s_059.ogg",100
Sample,65571,0,"s_040.ogg",100
Sample,65571,0,"s_060.ogg",100
Sample,65678,0,"s_059.ogg",100
Sample,65785,0,"s_060.ogg",100
Sample,65785,0,"s_040.ogg",100
Sample,65892,0,"s_062.ogg",100
Sample,66000,0,"s_064.ogg",100
Sample,66107,0,"s_063.ogg",100
Sample,66214,0,"s_064.ogg",100
Sample,66214,0,"s_040.ogg",100
Sample,66321,0,"s_063.ogg",100
Sample,66428,0,"s_040.ogg",100
Sample,66428,0,"s_064.ogg",100
Sample,66535,0,"s_063.ogg",100
Sample,66642,0,"s_064.ogg",100
Sample,66642,0,"s_040.ogg",100
Sample,66750,0,"s_061.ogg",100
Sample,66857,0,"s_065.ogg",100
Sample,66964,0,"s_064.ogg",100
Sample,67071,0,"s_065.ogg",100
Sample,67071,0,"s_038.ogg",100
Sample,67178,0,"s_064.ogg",100
Sample,67285,0,"s_038.ogg",100
Sample,67285,0,"s_065.ogg",100
Sample,67392,0,"s_064.ogg",100
Sample,67500,0,"s_065.ogg",100
Sample,67500,0,"s_038.ogg",100
Sample,67607,0,"s_064.ogg",100
Sample,67714,0,"s_065.ogg",100
Sample,67821,0,"s_064.ogg",100
Sample,67928,0,"s_062.ogg",100
Sample,67928,0,"s_038.ogg",100
Sample,68035,0,"s_060.ogg",100
Sample,68142,0,"s_038.ogg",100
Sample,68142,0,"s_059.ogg",100
Sample,68250,0,"s_060.ogg",100
Sample,68357,0,"s_038.ogg",100
Sample,68357,0,"s_062.ogg",100
Sample,68464,0,"s_059.ogg",100
Sample,68571,0,"s_060.ogg",100
Sample,68678,0,"s_062.ogg",100
Sample,68785,0,"s_036.ogg",100
Sample,68785,0,"s_064.ogg",100
Sample,68892,0,"s_057.ogg",100
Sample,69000,0,"s_056.ogg",100
Sample,69107,0,"s_057.ogg",100
Sample,69214,0,"s_059.ogg",100
Sample,69214,0,"s_038.ogg",100
Sample,69321,0,"s_056.ogg",100
Sample,69428,0,"m_036.ogg",100
Sample,69428,0,"m_057.ogg",100
Sample,69964,0,"s_060.ogg",100
Sample,70178,0,"s_062.ogg",100
Sample,70285,0,"m_024.ogg",100
Sample,70321,0,"m_028.ogg",100
Sample,70357,0,"m_031.ogg",100
Sample,70392,0,"s_036.ogg",100
Sample,70392,0,"m_064.ogg",100
Sample,70500,0,"s_036.ogg",100
Sample,70714,0,"s_036.ogg",100
Sample,70821,0,"s_060.ogg",100
Sample,70928,0,"s_036.ogg",100
Sample,71035,0,"s_062.ogg",100
Sample,71142,0,"m_024.ogg",100
Sample,71178,0,"m_028.ogg",100
Sample,71214,0,"m_031.ogg",100
Sample,71250,0,"m_064.ogg",100
Sample,71250,0,"s_036.ogg",100
Sample,71357,0,"s_036.ogg",100
Sample,71464,0,"s_062.ogg",100
Sample,71571,0,"s_036.ogg",100
Sample,71678,0,"s_060.ogg",100
Sample,71785,0,"s_036.ogg",100
Sample,71892,0,"s_059.ogg",100
Sample,72000,0,"s_017.ogg",100
Sample,72035,0,"s_021.ogg",100
Sample,72071,0,"s_024.ogg",100
Sample,72107,0,"s_057.ogg",100
Sample,72107,0,"s_029.ogg",100
Sample,72214,0,"s_029.ogg",100
Sample,72321,0,"s_059.ogg",100
Sample,72428,0,"s_018.ogg",100
Sample,72464,0,"s_021.ogg",100
Sample,72500,0,"s_024.ogg",100
Sample,72535,0,"s_030.ogg",100
Sample,72535,0,"s_060.ogg",100
Sample,72642,0,"s_030.ogg",100
Sample,72750,0,"s_062.ogg",100
Sample,72857,0,"m_019.ogg",100
Sample,72892,0,"m_023.ogg",100
Sample,72928,0,"m_026.ogg",100
Sample,72964,0,"m_059.ogg",100
Sample,72964,0,"s_031.ogg",100
Sample,73071,0,"s_031.ogg",100
Sample,73178,0,"s_055.ogg",100
Sample,73285,0,"s_031.ogg",100
Sample,73392,0,"s_060.ogg",100
Sample,73500,0,"s_031.ogg",100
Sample,73607,0,"s_062.ogg",100
Sample,73714,0,"m_024.ogg",100
Sample,73750,0,"m_028.ogg",100
Sample,73785,0,"m_031.ogg",100
Sample,73821,0,"s_036.ogg",100
Sample,73821,0,"m_064.ogg",100
Sample,73928,0,"s_036.ogg",100
Sample,74142,0,"s_036.ogg",100
Sample,74250,0,"s_060.ogg",100
Sample,74357,0,"s_036.ogg",100
Sample,74464,0,"s_062.ogg",100
Sample,74571,0,"m_024.ogg",100
Sample,74607,0,"m_028.ogg",100
Sample,74642,0,"m_031.ogg",100
Sample,74678,0,"m_064.ogg",100
Sample,74678,0,"s_036.ogg",100
Sample,74785,0,"s_036.ogg",100
Sample,74892,0,"s_062.ogg",100
Sample,75000,0,"s_036.ogg",100
Sample,75107,0,"s_060.ogg",100
Sample,75214,0,"s_036.ogg",100
Sample,75321,0,"s_059.ogg",100
Sample,75428,0,"s_017.ogg",100
Sample,75464,0,"s_021.ogg",100
Sample,75500,0,"s_024.ogg",100
Sample,75535,0,"s_057.ogg",100
Sample,75535,0,"s_029.ogg",100
Sample,75642,0,"s_029.ogg",100
Sample,75750,0,"s_062.ogg",100
Sample,75857,0,"s_019.ogg",100
Sample,75892,0,"s_023.ogg",100
Sample,75928,0,"s_026.ogg",100
Sample,75964,0,"s_031.ogg",100
Sample,75964,0,"s_059.ogg",100
Sample,76071,0,"s_031.ogg",100
Sample,76178,0,"s_055.ogg",100
Sample,76285,0,"m_024.ogg",100
Sample,76285,0,"m_048.ogg",100
Sample,76821,0,"s_060.ogg",100
Sample,77035,0,"s_062.ogg",100
Sample,77142,0,"m_024.ogg",100
Sample,77178,0,"m_028.ogg",100
Sample,77214,0,"m_031.ogg",100
Sample,77250,0,"s_036.ogg",100
Sample,77250,0,"m_064.ogg",100
Sample,77357,0,"s_036.ogg",100
Sample,77571,0,"s_036.ogg",100
Sample,77678,0,"s_060.ogg",100
Sample,77785,0,"s_036.ogg",100
Sample,77892,0,"s_062.ogg",100
Sample,78000,0,"m_024.ogg",100
Sample,78035,0,"m_028.ogg",100
Sample,78071,0,"m_031.ogg",100
Sample,78107,0,"m_064.ogg",100
Sample,78107,0,"s_036.ogg",100
Sample,78214,0,"s_036.ogg",100
Sample,78321,0,"s_062.ogg",100
Sample,78428,0,"s_036.ogg",100
Sample,78535,0,"s_060.ogg",100
Sample,78642,0,"s_036.ogg",100
Sample,78750,0,"s_059.ogg",100
Sample,78857,0,"s_017.ogg",100
Sample,78892,0,"s_021.ogg",100
Sample,78928,0,"s_024.ogg",100
Sample,78964,0,"s_029.ogg",100
Sample,78964,0,"s_057.ogg",100
Sample,79071,0,"s_029.ogg",100
Sample,79178,0,"s_059.ogg",100
Sample,79285,0,"s_018.ogg",100
Sample,79321,0,"s_021.ogg",100
Sample,79357,0,"s_024.ogg",100
Sample,79392,0,"s_060.ogg",100
Sample,79392,0,"s_030.ogg",100
Sample,79500,0,"s_030.ogg",100
Sample,79607,0,"s_062.ogg",100
Sample,79714,0,"m_019.ogg",100
Sample,79750,0,"m_023.ogg",100
Sample,79785,0,"m_026.ogg",100
Sample,79821,0,"s_031.ogg",100
Sample,79821,0,"m_059.ogg",100
Sample,79928,0,"s_031.ogg",100
Sample,80035,0,"s_055.ogg",100
Sample,80142,0,"s_031.ogg",100
Sample,80250,0,"s_060.ogg",100
Sample,80357,0,"s_031.ogg",100
Sample,80464,0,"s_062.ogg",100
Sample,80571,0,"m_024.ogg",100
Sample,80607,0,"m_028.ogg",100
Sample,80642,0,"m_031.ogg",100
Sample,80678,0,"s_036.ogg",100
Sample,80678,0,"m_064.ogg",100
Sample,80785,0,"s_036.ogg",100
Sample,81000,0,"s_036.ogg",100
Sample,81107,0,"s_060.ogg",100
Sample,81214,0,"s_036.ogg",100
Sample,81321,0,"s_062.ogg",100
Sample,81428,0,"m_024.ogg",100
Sample,81464,0,"m_028.ogg",100
Sample,81500,0,"m_031.ogg",100
Sample,81535,0,"m_064.ogg",100
Sample,81535,0,"s_036.ogg",100
Sample,81642,0,"s_036.ogg",100
Sample,81750,0,"s_062.ogg",100
Sample,81857,0,"s_036.ogg",100
Sample,81964,0,"s_060.ogg",100
Sample,82071,0,"s_036.ogg",100
Sample,82178,0,"s_059.ogg",100
Sample,82285,0,"s_017.ogg",100
Sample,82321,0,"s_021.ogg",100
Sample,82357,0,"s_024.ogg",100
Sample,82392,0,"s_029.ogg",100
Sample,82392,0,"s_057.ogg",100
Sample,82500,0,"s_029.ogg",100
Sample,82607,0,"s_062.ogg",100
Sample,82714,0,"s_019.ogg",100
Sample,82750,0,"s_023.ogg",100
Sample,82785,0,"s_026.ogg",100
Sample,82821,0,"s_059.ogg",100
Sample,82821,0,"s_031.ogg",100
Sample,82928,0,"s_031.ogg",100
Sample,83035,0,"s_055.ogg",100
Sample,83142,0,"m_024.ogg",100
Sample,83142,0,"m_060.ogg",100
Sample,83178,0,"m_028.ogg",100
Sample,83214,0,"m_031.ogg",100
Sample,83250,0,"s_036.ogg",100
Sample,83357,0,"s_036.ogg",100
Sample,83571,0,"m_052.ogg",100
Sample,83571,0,"s_036.ogg",100
Sample,83785,0,"s_036.ogg",100
Sample,84035,0,"m_028.ogg",100
Sample,84053,0,"m_052.ogg",100
Sample,84071,0,"m_031.ogg",100
Sample,84107,0,"s_036.ogg",100
Sample,84107,0,"m_060.ogg",100
Sample,84160,0,"m_064.ogg",100
Sample,84214,0,"s_036.ogg",100
Sample,84428,0,"s_036.ogg",100
Sample,84642,0,"s_036.ogg",100
Sample,84892,0,"m_028.ogg",100
Sample,84910,0,"m_052.ogg",100
Sample,84928,0,"m_031.ogg",100
Sample,84964,0,"s_036.ogg",100
Sample,84964,0,"m_060.ogg",100
Sample,85017,0,"m_064.ogg",100
Sample,85071,0,"s_036.ogg",100
Sample,85285,0,"s_036.ogg",100
Sample,85500,0,"s_036.ogg",100
Sample,85750,0,"m_028.ogg",100
Sample,85785,0,"m_031.ogg",100
Sample,85821,0,"s_064.ogg",100
Sample,85821,0,"s_036.ogg",100
Sample,85928,0,"s_036.ogg",100
Sample,85928,0,"s_062.ogg",100
Sample,86035,0,"s_064.ogg",100
Sample,86142,0,"s_065.ogg",100
Sample,86142,0,"s_036.ogg",100
Sample,86250,0,"s_064.ogg",100
Sample,86357,0,"s_036.ogg",100
Sample,86357,0,"s_062.ogg",100
Sample,86464,0,"s_064.ogg",100
Sample,86571,0,"m_060.ogg",100
Sample,86571,0,"m_053.ogg",100
Sample,86607,0,"m_021.ogg",100
Sample,86642,0,"m_024.ogg",100
Sample,86678,0,"s_029.ogg",100
Sample,86785,0,"s_029.ogg",100
Sample,87000,0,"s_029.ogg",100
Sample,87214,0,"s_029.ogg",100
Sample,87464,0,"m_028.ogg",100
Sample,87482,0,"s_064.ogg",100
Sample,87482,0,"s_060.ogg",100
Sample,87482,0,"s_055.ogg",100
Sample,87500,0,"m_031.ogg",100
Sample,87535,0,"s_036.ogg",100
Sample,87642,0,"s_036.ogg",100
Sample,87696,0,"s_055.ogg",100
Sample,87696,0,"s_060.ogg",100
Sample,87696,0,"s_064.ogg",100
Sample,87857,0,"s_036.ogg",100
Sample,87910,0,"s_064.ogg",100
Sample,87910,0,"s_055.ogg",100
Sample,87910,0,"s_060.ogg",100
Sample,88071,0,"s_036.ogg",100
Sample,88125,0,"s_055.ogg",100
Sample,88125,0,"s_060.ogg",100
Sample,88125,0,"s_064.ogg",100
Sample,88285,0,"m_055.ogg",100
Sample,88285,0,"m_062.ogg",100
Sample,88321,0,"m_023.ogg",100
Sample,88357,0,"m_026.ogg",100
Sample,88392,0,"s_031.ogg",100
Sample,88500,0,"s_031.ogg",100
Sample,88714,0,"s_031.ogg",100
Sample,88928,0,"s_031.ogg",100
Sample,89178,0,"m_028.ogg",100
Sample,89196,0,"m_052.ogg",100
Sample,89214,0,"m_031.ogg",100
Sample,89250,0,"m_060.ogg",100
Sample,89250,0,"s_036.ogg",100
Sample,89303,0,"m_064.ogg",100
Sample,89357,0,"s_036.ogg",100
Sample,89571,0,"s_036.ogg",100
Sample,89785,0,"s_036.ogg",100
Sample,90035,0,"m_028.ogg",100
Sample,90053,0,"m_052.ogg",100
Sample,90071,0,"m_031.ogg",100
Sample,90107,0,"m_060.ogg",100
Sample,90107,0,"s_036.ogg",100
Sample,90160,0,"m_064.ogg",100
Sample,90214,0,"s_036.ogg",100
Sample,90428,0,"s_036.ogg",100
Sample,90642,0,"s_036.ogg",100
Sample,90892,0,"m_028.ogg",100
Sample,90928,0,"m_031.ogg",100
Sample,90964,0,"s_064.ogg",100
Sample,90964,0,"s_036.ogg",100
Sample,91071,0,"s_062.ogg",100
Sample,91071,0,"s_036.ogg",100
Sample,91178,0,"s_064.ogg",100
Sample,91285,0,"s_065.ogg",100
Sample,91285,0,"s_036.ogg",100
Sample,91392,0,"s_064.ogg",100
Sample,91500,0,"s_036.ogg",100
Sample,91500,0,"s_062.ogg",100
Sample,91607,0,"s_064.ogg",100
Sample,91714,0,"m_053.ogg",100
Sample,91714,0,"m_060.ogg",100
Sample,91750,0,"m_021.ogg",100
Sample,91785,0,"m_024.ogg",100
Sample,91821,0,"s_029.ogg",100
Sample,91928,0,"s_029.ogg",100
Sample,92142,0,"s_029.ogg",100
Sample,92357,0,"s_029.ogg",100
Sample,92607,0,"m_028.ogg",100
Sample,92625,0,"m_055.ogg",100
Sample,92625,0,"m_064.ogg",100
Sample,92625,0,"m_060.ogg",100
Sample,92642,0,"m_031.ogg",100
Sample,92678,0,"s_036.ogg",100
Sample,92785,0,"s_036.ogg",100
Sample,93000,0,"s_036.ogg",100
Sample,93214,0,"s_036.ogg",100
Sample,93464,0,"m_023.ogg",100
Sample,93482,0,"s_062.ogg",100
Sample,93482,0,"s_059.ogg",100
Sample,93482,0,"s_055.ogg",100
Sample,93500,0,"m_026.ogg",100
Sample,93535,0,"s_031.ogg",100
Sample,93642,0,"s_031.ogg",100
Sample,93696,0,"s_059.ogg",100
Sample,93696,0,"s_055.ogg",100
Sample,93696,0,"s_062.ogg",100
Sample,93857,0,"s_031.ogg",100
Sample,93910,0,"s_062.ogg",100
Sample,93910,0,"s_059.ogg",100
Sample,93910,0,"s_055.ogg",100
Sample,94071,0,"s_031.ogg",100
Sample,94125,0,"s_059.ogg",100
Sample,94125,0,"s_055.ogg",100
Sample,94125,0,"s_062.ogg",100
Sample,94285,0,"m_060.ogg",100
Sample,94392,0,"s_043.ogg",100
Sample,94607,0,"s_043.ogg",100
Sample,94714,0,"s_055.ogg",100
Sample,94741,0,"s_060.ogg",100
Sample,94767,0,"m_064.ogg",100
Sample,94821,0,"s_043.ogg",100
Sample,95035,0,"s_064.ogg",100
Sample,95035,0,"s_043.ogg",100
Sample,95142,0,"s_055.ogg",100
Sample,95169,0,"s_060.ogg",100
Sample,95196,0,"m_064.ogg",100
Sample,95250,0,"s_043.ogg",100
Sample,95464,0,"s_043.ogg",100
Sample,95678,0,"s_043.ogg",100
Sample,95892,0,"s_043.ogg",100
Sample,96000,0,"s_055.ogg",100
Sample,96026,0,"s_060.ogg",100
Sample,96053,0,"m_064.ogg",100
Sample,96107,0,"s_043.ogg",100
Sample,96321,0,"s_043.ogg",100
Sample,96535,0,"s_043.ogg",100
Sample,96750,0,"s_043.ogg",100
Sample,96857,0,"s_065.ogg",100
Sample,96964,0,"s_064.ogg",100
Sample,96964,0,"s_043.ogg",100
Sample,97071,0,"s_062.ogg",100
Sample,97178,0,"s_043.ogg",100
Sample,97178,0,"s_064.ogg",100
Sample,97285,0,"s_065.ogg",100
Sample,97392,0,"s_043.ogg",100
Sample,97392,0,"s_064.ogg",100
Sample,97500,0,"s_062.ogg",100
Sample,97607,0,"s_064.ogg",100
Sample,97607,0,"s_043.ogg",100
Sample,97714,0,"m_065.ogg",100
Sample,97821,0,"s_045.ogg",100
Sample,98035,0,"s_045.ogg",100
Sample,98250,0,"s_045.ogg",100
Sample,98464,0,"s_045.ogg",100
Sample,98571,0,"s_065.ogg",100
Sample,98625,0,"s_064.ogg",100
Sample,98678,0,"s_043.ogg",100
Sample,98785,0,"s_065.ogg",100
Sample,98839,0,"s_064.ogg",100
Sample,98892,0,"s_043.ogg",100
Sample,99000,0,"s_065.ogg",100
Sample,99053,0,"s_064.ogg",100
Sample,99107,0,"s_043.ogg",100
Sample,99214,0,"s_065.ogg",100
Sample,99267,0,"s_064.ogg",100
Sample,99321,0,"s_043.ogg",100
Sample,99428,0,"m_062.ogg",100
Sample,99535,0,"s_043.ogg",100
Sample,99750,0,"s_043.ogg",100
Sample,99964,0,"s_043.ogg",100
Sample,100071,0,"s_067.ogg",100
Sample,100178,0,"s_043.ogg",100
Sample,100321,0,"m_028.ogg",100
Sample,100339,0,"m_052.ogg",100
Sample,100357,0,"m_031.ogg",100
Sample,100392,0,"m_060.ogg",100
Sample,100392,0,"s_036.ogg",100
Sample,100446,0,"m_064.ogg",100
Sample,100500,0,"s_036.ogg",100
Sample,100714,0,"s_036.ogg",100
Sample,100928,0,"s_036.ogg",100
Sample,101178,0,"m_028.ogg",100
Sample,101196,0,"m_052.ogg",100
Sample,101214,0,"m_031.ogg",100
Sample,101250,0,"m_060.ogg",100
Sample,101250,0,"s_036.ogg",100
Sample,101303,0,"m_064.ogg",100
Sample,101357,0,"s_036.ogg",100
Sample,101571,0,"s_036.ogg",100
Sample,101785,0,"s_036.ogg",100
Sample,102035,0,"m_028.ogg",100
Sample,102071,0,"m_031.ogg",100
Sample,102107,0,"s_064.ogg",100
Sample,102107,0,"s_036.ogg",100
Sample,102214,0,"s_036.ogg",100
Sample,102214,0,"s_062.ogg",100
Sample,102321,0,"s_064.ogg",100
Sample,102428,0,"s_065.ogg",100
Sample,102428,0,"s_036.ogg",100
Sample,102535,0,"s_064.ogg",100
Sample,102642,0,"s_062.ogg",100
Sample,102642,0,"s_036.ogg",100
Sample,102750,0,"s_064.ogg",100
Sample,102857,0,"m_060.ogg",100
Sample,102857,0,"m_053.ogg",100
Sample,102892,0,"m_021.ogg",100
Sample,102928,0,"m_024.ogg",100
Sample,102964,0,"s_029.ogg",100
Sample,103071,0,"s_029.ogg",100
Sample,103285,0,"s_029.ogg",100
Sample,103500,0,"s_029.ogg",100
Sample,103750,0,"m_028.ogg",100
Sample,103767,0,"m_060.ogg",100
Sample,103767,0,"m_064.ogg",100
Sample,103767,0,"m_055.ogg",100
Sample,103785,0,"m_031.ogg",100
Sample,103821,0,"s_036.ogg",100
Sample,103928,0,"s_036.ogg",100
Sample,104142,0,"s_036.ogg",100
Sample,104357,0,"s_036.ogg",100
Sample,104607,0,"m_023.ogg",100
Sample,104625,0,"s_059.ogg",100
Sample,104625,0,"s_062.ogg",100
Sample,104625,0,"s_055.ogg",100
Sample,104642,0,"m_026.ogg",100
Sample,104678,0,"s_031.ogg",100
Sample,104785,0,"s_031.ogg",100
Sample,104839,0,"s_055.ogg",100
Sample,104839,0,"s_059.ogg",100
Sample,104839,0,"s_062.ogg",100
Sample,105000,0,"s_031.ogg",100
Sample,105053,0,"s_062.ogg",100
Sample,105053,0,"s_059.ogg",100
Sample,105053,0,"s_055.ogg",100
Sample,105214,0,"s_031.ogg",100
Sample,105267,0,"s_055.ogg",100
Sample,105267,0,"s_059.ogg",100
Sample,105267,0,"s_062.ogg",100
Sample,105428,0,"m_052.ogg",100
Sample,105428,0,"m_048.ogg",100
Sample,105428,0,"m_055.ogg",100
Sample,105464,0,"m_028.ogg",100
Sample,105500,0,"m_031.ogg",100
Sample,105535,0,"s_036.ogg",100
Sample,105642,0,"s_036.ogg",100
Sample,105857,0,"s_036.ogg",100
Sample,106071,0,"s_036.ogg",100
Sample,106071,0,"s_064.ogg",100
Sample,106285,0,"m_060.ogg",100
Sample,106321,0,"m_028.ogg",100
Sample,106357,0,"m_031.ogg",100
Sample,106392,0,"s_036.ogg",100
Sample,106500,0,"s_036.ogg",100
Sample,106714,0,"s_036.ogg",100
Sample,106928,0,"s_036.ogg",100
Sample,106928,0,"s_067.ogg",100
Sample,107142,0,"m_060.ogg",100
Sample,107178,0,"m_028.ogg",100
Sample,107214,0,"m_031.ogg",100
Sample,107250,0,"s_036.ogg",100
Sample,107357,0,"s_036.ogg",100
Sample,107571,0,"s_036.ogg",100
Sample,107785,0,"s_036.ogg",100
Sample,107785,0,"s_064.ogg",100
Sample,108000,0,"s_048.ogg",100
Sample,108035,0,"s_028.ogg",100
Sample,108071,0,"s_031.ogg",100
Sample,108107,0,"s_036.ogg",100
Sample,108214,0,"s_036.ogg",100
Sample,108214,0,"s_064.ogg",100
Sample,108428,0,"s_048.ogg",100
Sample,108464,0,"s_028.ogg",100
Sample,108500,0,"s_031.ogg",100
Sample,108535,0,"s_036.ogg",100
Sample,108642,0,"s_036.ogg",100
Sample,108642,0,"s_067.ogg",100
Sample,108857,0,"s_048.ogg",100
Sample,109285,0,"m_028.ogg",100
Sample,109285,0,"m_024.ogg",100
Sample,109285,0,"m_048.ogg",100
Sample,109285,0,"m_055.ogg",100
Sample,109285,0,"m_031.ogg",100
Sample,109285,0,"m_052.ogg",100
Sample,109714,0,"m_031.ogg",100
Sample,109714,0,"m_055.ogg",100
Sample,109714,0,"m_048.ogg",100
Sample,109714,0,"m_052.ogg",100
Sample,109714,0,"m_028.ogg",100
Sample,109714,0,"m_036.ogg",100

[TimingPoints]
0,428.571428571432,4,2,0,100,1,0

[HitObjects]
76,192,1714,5,0,0:0:0:0:s_036.ogg
435,192,1928,1,0,0:0:0:0:s_043.ogg
435,192,2142,1,0,0:0:0:0:s_039.ogg
435,192,2357,1,0,0:0:0:0:s_039.ogg
76,192,2571,1,0,0:0:0:0:s_036.ogg
435,192,2785,1,0,0:0:0:0:s_043.ogg
435,192,3000,1,0,0:0:0:0:s_039.ogg
435,192,3214,1,0,0:0:0:0:s_039.ogg
76,192,3428,1,0,0:0:0:0:s_036.ogg
435,192,3642,1,0,0:0:0:0:s_043.ogg
76,192,3857,1,0,0:0:0:0:s_036.ogg
435,192,4071,1,0,0:0:0:0:s_043.ogg
76,192,4285,1,0,0:0:0:0:s_036.ogg
435,192,4500,1,0,0:0:0:0:s_043.ogg
435,192,4714,1,0,0:0:0:0:s_039.ogg
435,192,4928,1,0,0:0:0:0:s_039.ogg
128,192,5142,1,0,0:0:0:0:s_031.ogg
384,192,5357,1,0,0:0:0:0:s_038.ogg
384,192,5571,1,0,0:0:0:0:s_043.ogg
384,192,5785,1,0,0:0:0:0:s_043.ogg
128,192,6000,1,0,0:0:0:0:s_031.ogg
384,192,6214,1,0,0:0:0:0:s_038.ogg
384,192,6428,1,0,0:0:0:0:s_043.ogg
384,192,6642,1,0,0:0:0:0:s_043.ogg
128,192,6857,1,0,0:0:0:0:s_031.ogg
384,192,7071,1,0,0:0:0:0:s_043.ogg
179,192,7285,1,0,0:0:0:0:s_026.ogg
332,192,7500,1,0,0:0:0:0:s_038.ogg
281,192,7714,1,0,0:0:0:0:m_031.ogg
435,192,8571,1,0,0:0:0:0:s_036.ogg
76,192,8785,1,0,0:0:0:0:s_043.ogg
76,192,9000,1,0,0:0:0:0:s_039.ogg
76,192,9214,1,0,0:0:0:0:s_039.ogg
435,192,9428,1,0,0:0:0:0:s_036.ogg
76,192,9642,1,0,0:0:0:0:s_043.ogg
76,192,9857,1,0,0:0:0:0:s_039.ogg
76,192,10071,1,0,0:0:0:0:s_039.ogg
435,192,10285,1,0,0:0:0:0:s_036.ogg
76,192,10500,1,0,0:0:0:0:s_043.ogg
435,192,10714,1,0,0:0:0:0:s_036.ogg
76,192,10928,1,0,0:0:0:0:s_043.ogg
435,192,11142,1,0,0:0:0:0:s_036.ogg
76,192,11357,1,0,0:0:0:0:s_043.ogg
76,192,11571,1,0,0:0:0:0:s_039.ogg
76,192,11785,1,0,0:0:0:0:s_039.ogg
384,192,12000,1,0,0:0:0:0:s_031.ogg
128,192,12214,1,0,0:0:0:0:s_038.ogg
128,192,12428,1,0,0:0:0:0:s_043.ogg
128,192,12642,1,0,0:0:0:0:s_043.ogg
384,192,12857,1,0,0:0:0:0:s_031.ogg
128,192,13071,1,0,0:0:0:0:s_038.ogg
128,192,13285,1,0,0:0:0:0:s_043.ogg
128,192,13500,1,0,0:0:0:0:s_043.ogg
384,192,13714,1,0,0:0:0:0:s_031.ogg
128,192,13928,1,0,0:0:0:0:s_043.ogg
332,192,14142,1,0,0:0:0:0:s_026.ogg
179,192,14357,1,0,0:0:0:0:s_038.ogg
230,192,14571,1,0,0:0:0:0:m_031.ogg
281,192,15428,1,0,0:0:0:0:s_027.ogg
435,192,15642,1,0,0:0:0:0:s_039.ogg
332,192,15857,1,0,0:0:0:0:s_031.ogg
486,192,16071,1,0,0:0:0:0:s_043.ogg
384,192,16285,1,0,0:0:0:0:m_034.ogg
281,192,17142,1,0,0:0:0:0:s_027.ogg
435,192,17357,1,0,0:0:0:0:s_039.ogg
332,192,17571,1,0,0:0:0:0:s_031.ogg
486,192,17785,1,0,0:0:0:0:s_043.ogg
384,192,18000,1,0,0:0:0:0:m_034.ogg
25,192,18857,1,0,0:0:0:0:s_024.ogg
179,192,19071,1,0,0:0:0:0:s_036.ogg
76,192,19285,1,0,0:0:0:0:s_027.ogg
230,192,19500,1,0,0:0:0:0:s_039.ogg
128,192,19714,1,0,0:0:0:0:m_031.ogg
25,192,20571,1,0,0:0:0:0:s_024.ogg
179,192,20785,1,0,0:0:0:0:s_036.ogg
76,192,21000,1,0,0:0:0:0:s_027.ogg
230,192,21214,1,0,0:0:0:0:s_039.ogg
128,192,21428,1,0,0:0:0:0:m_047.ogg
179,192,22285,1,0,0:0:0:0:s_036.ogg
435,192,22500,1,0,0:0:0:0:s_043.ogg
435,192,22714,1,0,0:0:0:0:s_039.ogg
435,192,22928,1,0,0:0:0:0:s_039.ogg
179,192,23142,1,0,0:0:0:0:s_036.ogg
435,192,23357,1,0,0:0:0:0:s_043.ogg
435,192,23571,1,0,0:0:0:0:s_039.ogg
435,192,23785,1,0,0:0:0:0:s_039.ogg
179,192,24000,1,0,0:0:0:0:s_036.ogg
435,192,24214,1,0,0:0:0:0:s_043.ogg
179,192,24428,1,0,0:0:0:0:s_036.ogg
435,192,24642,1,0,0:0:0:0:s_043.ogg
230,192,24857,1,0,0:0:0:0:s_032.ogg
486,192,25071,1,0,0:0:0:0:s_036.ogg
486,192,25285,1,0,0:0:0:0:s_042.ogg
486,192,25500,1,0,0:0:0:0:s_036.ogg
128,192,25714,1,0,0:0:0:0:s_031.ogg
384,192,25928,1,0,0:0:0:0:s_036.ogg
76,192,26142,1,0,0:0:0:0:s_029.ogg
332,192,26357,1,0,0:0:0:0:s_032.ogg
25,192,26571,1,0,0:0:0:0:s_027.ogg
281,192,26785,1,0,0:0:0:0:s_031.ogg
76,192,27000,1,0,0:0:0:0:s_029.ogg
332,192,27214,1,0,0:0:0:0:s_032.ogg
384,192,27428,1,0,0:0:0:0:s_031.ogg
384,192,27642,1,0,0:0:0:0:s_031.ogg
128,192,27857,1,0,0:0:0:0:s_035.ogg
128,192,28071,1,0,0:0:0:0:s_031.ogg
25,192,28285,1,0,0:0:0:0:m_036.ogg
384,192,28714,1,0,0:0:0:0:s_060.ogg
435,192,28928,1,0,0:0:0:0:s_062.ogg
486,192,29142,1,0,0:0:0:0:m_052.ogg
384,192,29571,1,0,0:0:0:0:s_048.ogg
435,192,29785,1,0,0:0:0:0:s_062.ogg
486,192,30000,1,0,0:0:0:0:m_052.ogg
435,192,30214,1,0,0:0:0:0:s_062.ogg
384,192,30428,1,0,0:0:0:0:s_048.ogg
332,192,30642,1,0,0:0:0:0:s_059.ogg
281,192,30857,1,0,0:0:0:0:s_057.ogg
384,192,31071,1,0,0:0:0:0:s_047.ogg
435,192,31285,1,0,0:0:0:0:s_060.ogg
486,192,31500,1,0,0:0:0:0:s_050.ogg
332,192,31714,1,0,0:0:0:0:m_047.ogg
281,192,31928,1,0,0:0:0:0:s_043.ogg
128,192,32142,1,0,0:0:0:0:s_048.ogg
179,192,32357,1,0,0:0:0:0:s_062.ogg
230,192,32571,1,0,0:0:0:0:m_064.ogg
128,192,33000,1,0,0:0:0:0:s_048.ogg
179,192,33214,1,0,0:0:0:0:s_050.ogg
230,192,33428,1,0,0:0:0:0:m_052.ogg
179,192,33642,1,0,0:0:0:0:s_050.ogg
128,192,33857,1,0,0:0:0:0:s_060.ogg
76,192,34071,1,0,0:0:0:0:s_047.ogg
25,192,34285,1,0,0:0:0:0:s_045.ogg
230,192,34500,1,0,0:0:0:0:s_050.ogg
128,192,34714,1,0,0:0:0:0:s_059.ogg
76,192,34928,1,0,0:0:0:0:s_055.ogg
179,192,35142,1,0,0:0:0:0:m_060.ogg
384,192,35571,1,0,0:0:0:0:s_048.ogg
435,192,35785,1,0,0:0:0:0:s_050.ogg
486,192,36000,1,0,0:0:0:0:m_064.ogg
384,192,36428,1,0,0:0:0:0:s_060.ogg
435,192,36642,1,0,0:0:0:0:s_050.ogg
486,192,36857,1,0,0:0:0:0:m_064.ogg
435,192,37071,1,0,0:0:0:0:s_050.ogg
384,192,37285,1,0,0:0:0:0:s_060.ogg
332,192,37500,1,0,0:0:0:0:s_059.ogg
281,192,37714,1,0,0:0:0:0:s_057.ogg
384,192,37928,1,0,0:0:0:0:s_047.ogg
435,192,38142,1,0,0:0:0:0:s_060.ogg
486,192,38357,1,0,0:0:0:0:s_062.ogg
332,192,38571,1,0,0:0:0:0:m_059.ogg
281,192,38785,1,0,0:0:0:0:s_055.ogg
128,192,39000,1,0,0:0:0:0:s_060.ogg
179,192,39214,1,0,0:0:0:0:s_050.ogg
230,192,39428,1,0,0:0:0:0:m_052.ogg
128,192,39857,1,0,0:0:0:0:s_060.ogg
179,192,40071,1,0,0:0:0:0:s_062.ogg
230,192,40285,1,0,0:0:0:0:m_064.ogg
179,192,40500,1,0,0:0:0:0:s_062.ogg
128,192,40714,1,0,0:0:0:0:s_048.ogg
76,192,40928,1,0,0:0:0:0:s_047.ogg
25,192,41142,1,0,0:0:0:0:s_045.ogg
230,192,41357,1,0,0:0:0:0:s_062.ogg
128,192,41571,1,0,0:0:0:0:s_047.ogg
76,192,41785,1,0,0:0:0:0:s_055.ogg
179,192,42000,1,0,0:0:0:0:m_048.ogg
128,192,42857,1,0,0:0:0:0:s_033.ogg
384,192,43071,1,0,0:0:0:0:s_040.ogg
384,192,43285,1,0,0:0:0:0:s_036.ogg
384,192,43500,1,0,0:0:0:0:s_036.ogg
128,192,43714,1,0,0:0:0:0:s_035.ogg
435,192,43928,1,0,0:0:0:0:s_040.ogg
435,192,44142,1,0,0:0:0:0:s_038.ogg
435,192,44357,1,0,0:0:0:0:s_038.ogg
128,192,44571,1,0,0:0:0:0:s_033.ogg
384,192,44785,1,0,0:0:0:0:s_040.ogg
384,192,45000,1,0,0:0:0:0:s_036.ogg
384,192,45214,1,0,0:0:0:0:s_036.ogg
128,192,45428,1,0,0:0:0:0:s_032.ogg
332,192,45642,1,0,0:0:0:0:s_035.ogg
332,192,45857,1,0,0:0:0:0:s_035.ogg
332,192,46071,1,0,0:0:0:0:s_035.ogg
128,192,46285,1,0,0:0:0:0:s_033.ogg
384,192,46500,1,0,0:0:0:0:s_036.ogg
384,192,46714,1,0,0:0:0:0:s_036.ogg
384,192,46928,1,0,0:0:0:0:s_036.ogg
128,192,47142,1,0,0:0:0:0:s_035.ogg
435,192,47357,1,0,0:0:0:0:s_043.ogg
435,192,47571,1,0,0:0:0:0:s_040.ogg
435,192,47785,1,0,0:0:0:0:s_040.ogg
128,192,48000,1,0,0:0:0:0:s_035.ogg
486,192,48214,1,0,0:0:0:0:s_042.ogg
486,192,48428,1,0,0:0:0:0:s_042.ogg
486,192,48642,1,0,0:0:0:0:s_042.ogg
281,192,48857,1,0,0:0:0:0:m_043.ogg
384,192,49714,1,0,0:0:0:0:s_033.ogg
128,192,49928,1,0,0:0:0:0:s_040.ogg
128,192,50142,1,0,0:0:0:0:s_036.ogg
128,192,50357,1,0,0:0:0:0:s_036.ogg
384,192,50571,1,0,0:0:0:0:s_035.ogg
179,192,50785,1,0,0:0:0:0:s_040.ogg
179,192,51000,1,0,0:0:0:0:s_038.ogg
179,192,51214,1,0,0:0:0:0:s_038.ogg
384,192,51428,1,0,0:0:0:0:s_033.ogg
128,192,51642,1,0,0:0:0:0:s_040.ogg
128,192,51857,1,0,0:0:0:0:s_036.ogg
128,192,52071,1,0,0:0:0:0:s_036.ogg
384,192,52285,1,0,0:0:0:0:s_032.ogg
76,192,52500,1,0,0:0:0:0:s_035.ogg
76,192,52714,1,0,0:0:0:0:s_035.ogg
76,192,52928,1,0,0:0:0:0:s_035.ogg
384,192,53142,1,0,0:0:0:0:s_033.ogg
128,192,53357,1,0,0:0:0:0:s_036.ogg
128,192,53571,1,0,0:0:0:0:s_036.ogg
128,192,53785,1,0,0:0:0:0:s_036.ogg
384,192,54000,1,0,0:0:0:0:s_035.ogg
179,192,54214,1,0,0:0:0:0:s_043.ogg
179,192,54428,1,0,0:0:0:0:s_040.ogg
179,192,54642,1,0,0:0:0:0:s_040.ogg
384,192,54857,1,0,0:0:0:0:s_035.ogg
230,192,55071,1,0,0:0:0:0:s_042.ogg
230,192,55285,1,0,0:0:0:0:s_042.ogg
230,192,55500,1,0,0:0:0:0:s_042.ogg
25,192,55714,1,0,0:0:0:0:m_043.ogg
332,192,56571,1,0,0:0:0:0:s_036.ogg
435,192,56785,1,0,0:0:0:0:s_043.ogg
435,192,57000,1,0,0:0:0:0:s_040.ogg
435,192,57214,1,0,0:0:0:0:s_040.ogg
384,192,57428,1,0,0:0:0:0:s_038.ogg
486,192,57642,1,0,0:0:0:0:s_043.ogg
281,192,57857,1,0,0:0:0:0:s_035.ogg
486,192,58071,1,0,0:0:0:0:s_043.ogg
76,192,58285,1,0,0:0:0:0:s_036.ogg
179,192,58500,1,0,0:0:0:0:s_043.ogg
179,192,58714,1,0,0:0:0:0:s_040.ogg
179,192,58928,1,0,0:0:0:0:s_040.ogg
25,192,59142,1,0,0:0:0:0:s_031.ogg
128,192,59357,1,0,0:0:0:0:s_035.ogg
128,192,59571,1,0,0:0:0:0:s_041.ogg
128,192,59785,1,0,0:0:0:0:s_041.ogg
332,192,60000,1,0,0:0:0:0:s_036.ogg
435,192,60214,1,0,0:0:0:0:s_043.ogg
435,192,60428,1,0,0:0:0:0:s_040.ogg
435,192,60642,1,0,0:0:0:0:s_040.ogg
384,192,60857,1,0,0:0:0:0:s_038.ogg
486,192,61071,1,0,0:0:0:0:s_043.ogg
281,192,61285,1,0,0:0:0:0:s_035.ogg
486,192,61500,1,0,0:0:0:0:s_043.ogg
230,192,61714,1,0,0:0:0:0:s_036.ogg
179,192,61928,1,0,0:0:0:0:s_033.ogg
76,192,62142,1,0,0:0:0:0:s_029.ogg
128,192,62357,1,0,0:0:0:0:s_031.ogg
25,192,62571,1,0,0:0:0:0:s_024.ogg
179,192,62785,1,0,0:0:0:0:s_036.ogg
128,192,63428,1,0,0:0:0:0:s_033.ogg
384,192,63642,1,0,0:0:0:0:s_040.ogg
384,192,63857,1,0,0:0:0:0:s_036.ogg
384,192,64071,1,0,0:0:0:0:s_036.ogg
128,192,64285,1,0,0:0:0:0:s_035.ogg
435,192,64500,1,0,0:0:0:0:s_040.ogg
435,192,64714,1,0,0:0:0:0:s_038.ogg
435,192,64928,1,0,0:0:0:0:s_038.ogg
128,192,65142,1,0,0:0:0:0:s_033.ogg
384,192,65357,1,0,0:0:0:0:s_040.ogg
384,192,65571,1,0,0:0:0:0:s_036.ogg
384,192,65785,1,0,0:0:0:0:s_036.ogg
128,192,66000,1,0,0:0:0:0:s_028.ogg
435,192,66214,1,0,0:0:0:0:s_035.ogg
384,192,66428,1,0,0:0:0:0:s_034.ogg
332,192,66642,1,0,0:0:0:0:s_033.ogg
281,192,66857,1,0,0:0:0:0:s_026.ogg
76,192,67071,1,0,0:0:0:0:s_033.ogg
76,192,67285,1,0,0:0:0:0:s_033.ogg
76,192,67500,1,0,0:0:0:0:s_033.ogg
281,192,67714,1,0,0:0:0:0:s_026.ogg
179,192,67928,1,0,0:0:0:0:s_035.ogg
179,192,68142,1,0,0:0:0:0:s_035.ogg
179,192,68357,1,0,0:0:0:0:s_035.ogg
25,192,68571,1,0,0:0:0:0:s_028.ogg
384,192,68785,1,0,0:0:0:0:s_033.ogg
230,192,69000,1,0,0:0:0:0:s_028.ogg
486,192,69214,1,0,0:0:0:0:s_035.ogg
128,192,69428,1,0,0:0:0:0:m_033.ogg
384,192,69857,1,0,0:0:0:0:s_048.ogg
435,192,70071,1,0,0:0:0:0:s_050.ogg
486,192,70285,1,0,0:0:0:0:m_052.ogg
384,192,70714,1,0,0:0:0:0:s_048.ogg
435,192,70928,1,0,0:0:0:0:s_050.ogg
486,192,71142,1,0,0:0:0:0:m_052.ogg
435,192,71357,1,0,0:0:0:0:s_050.ogg
384,192,71571,1,0,0:0:0:0:s_048.ogg
332,192,71785,1,0,0:0:0:0:s_047.ogg
281,192,72000,1,0,0:0:0:0:s_045.ogg
384,192,72214,1,0,0:0:0:0:s_047.ogg
435,192,72428,1,0,0:0:0:0:s_048.ogg
486,192,72642,1,0,0:0:0:0:s_050.ogg
332,192,72857,1,0,0:0:0:0:m_047.ogg
281,192,73071,1,0,0:0:0:0:s_043.ogg
128,192,73285,1,0,0:0:0:0:s_048.ogg
179,192,73500,1,0,0:0:0:0:s_050.ogg
230,192,73714,1,0,0:0:0:0:m_052.ogg
128,192,74142,1,0,0:0:0:0:s_048.ogg
179,192,74357,1,0,0:0:0:0:s_050.ogg
230,192,74571,1,0,0:0:0:0:m_052.ogg
179,192,74785,1,0,0:0:0:0:s_050.ogg
128,192,75000,1,0,0:0:0:0:s_048.ogg
76,192,75214,1,0,0:0:0:0:s_047.ogg
25,192,75428,1,0,0:0:0:0:s_045.ogg
230,192,75642,1,0,0:0:0:0:s_050.ogg
128,192,75857,1,0,0:0:0:0:s_047.ogg
76,192,76071,1,0,0:0:0:0:s_043.ogg
179,192,76285,1,0,0:0:0:0:m_060.ogg
384,192,76714,1,0,0:0:0:0:s_048.ogg
435,192,76928,1,0,0:0:0:0:s_050.ogg
486,192,77142,1,0,0:0:0:0:m_052.ogg
384,192,77571,1,0,0:0:0:0:s_048.ogg
435,192,77785,1,0,0:0:0:0:s_050.ogg
486,192,78000,1,0,0:0:0:0:m_052.ogg
435,192,78214,1,0,0:0:0:0:s_050.ogg
384,192,78428,1,0,0:0:0:0:s_048.ogg
332,192,78642,1,0,0:0:0:0:s_047.ogg
281,192,78857,1,0,0:0:0:0:s_045.ogg
384,192,79071,1,0,0:0:0:0:s_047.ogg
435,192,79285,1,0,0:0:0:0:s_048.ogg
486,192,79500,1,0,0:0:0:0:s_050.ogg
332,192,79714,1,0,0:0:0:0:m_047.ogg
281,192,79928,1,0,0:0:0:0:s_043.ogg
128,192,80142,1,0,0:0:0:0:s_048.ogg
179,192,80357,1,0,0:0:0:0:s_050.ogg
230,192,80571,1,0,0:0:0:0:m_052.ogg
128,192,81000,1,0,0:0:0:0:s_048.ogg
179,192,81214,1,0,0:0:0:0:s_050.ogg
230,192,81428,1,0,0:0:0:0:m_052.ogg
179,192,81642,1,0,0:0:0:0:s_050.ogg
128,192,81857,1,0,0:0:0:0:s_048.ogg
76,192,82071,1,0,0:0:0:0:s_047.ogg
25,192,82285,1,0,0:0:0:0:s_045.ogg
230,192,82500,1,0,0:0:0:0:s_050.ogg
128,192,82714,1,0,0:0:0:0:s_047.ogg
76,192,82928,1,0,0:0:0:0:s_043.ogg
179,192,83142,1,0,0:0:0:0:m_048.ogg
281,192,83571,1,0,0:0:0:0:m_064.ogg
281,192,83892,1,0,0:0:0:0:s_064.ogg
128,192,84000,1,0,0:0:0:0:m_024.ogg
332,192,84000,1,0,0:0:0:0:m_048.ogg
128,192,84857,1,0,0:0:0:0:m_024.ogg
332,192,84857,1,0,0:0:0:0:m_048.ogg
128,192,85714,1,0,0:0:0:0:m_024.ogg
486,192,85714,128,0,86571:0:0:0:0:m_065.ogg
25,192,86571,1,0,0:0:0:0:m_017.ogg
435,192,86571,1,0,0:0:0:0:m_065.ogg
128,192,87428,1,0,0:0:0:0:m_024.ogg
384,192,87428,1,0,0:0:0:0:s_065.ogg
384,192,87642,1,0,0:0:0:0:s_065.ogg
384,192,87857,1,0,0:0:0:0:s_065.ogg
384,192,88071,1,0,0:0:0:0:s_065.ogg
76,192,88285,1,0,0:0:0:0:m_019.ogg
281,192,88285,1,0,0:0:0:0:m_059.ogg
486,192,88928,1,0,0:0:0:0:s_067.ogg
128,192,89142,1,0,0:0:0:0:m_024.ogg
332,192,89142,1,0,0:0:0:0:m_048.ogg
128,192,90000,1,0,0:0:0:0:m_024.ogg
332,192,90000,1,0,0:0:0:0:m_048.ogg
128,192,90857,1,0,0:0:0:0:m_024.ogg
486,192,90857,128,0,91714:0:0:0:0:m_065.ogg
25,192,91714,1,0,0:0:0:0:m_017.ogg
435,192,91714,1,0,0:0:0:0:m_065.ogg
128,192,92571,1,0,0:0:0:0:m_024.ogg
384,192,92571,1,0,0:0:0:0:m_065.ogg
76,192,93428,1,0,0:0:0:0:m_019.ogg
332,192,93428,1,0,0:0:0:0:s_064.ogg
332,192,93642,1,0,0:0:0:0:s_064.ogg
332,192,93857,1,0,0:0:0:0:s_064.ogg
332,192,94071,1,0,0:0:0:0:s_064.ogg
179,192,94285,1,0,0:0:0:0:s_036.ogg
435,192,94500,1,0,0:0:0:0:s_040.ogg
179,192,94714,1,0,0:0:0:0:s_036.ogg
435,192,94928,1,0,0:0:0:0:s_040.ogg
179,192,95142,1,0,0:0:0:0:s_036.ogg
435,192,95357,1,0,0:0:0:0:s_040.ogg
179,192,95571,1,0,0:0:0:0:s_036.ogg
435,192,95785,1,0,0:0:0:0:s_040.ogg
179,192,96000,1,0,0:0:0:0:s_036.ogg
435,192,96214,1,0,0:0:0:0:s_040.ogg
179,192,96428,1,0,0:0:0:0:s_036.ogg
435,192,96642,1,0,0:0:0:0:s_040.ogg
179,192,96857,1,0,0:0:0:0:s_036.ogg
435,192,97071,1,0,0:0:0:0:s_040.ogg
179,192,97285,1,0,0:0:0:0:s_036.ogg
435,192,97500,1,0,0:0:0:0:s_040.ogg
230,192,97714,1,0,0:0:0:0:s_036.ogg
486,192,97928,1,0,0:0:0:0:s_041.ogg
230,192,98142,1,0,0:0:0:0:s_036.ogg
486,192,98357,1,0,0:0:0:0:s_041.ogg
179,192,98571,1,0,0:0:0:0:s_036.ogg
435,192,98785,1,0,0:0:0:0:s_040.ogg
179,192,99000,1,0,0:0:0:0:s_036.ogg
435,192,99214,1,0,0:0:0:0:s_040.ogg
128,192,99428,1,0,0:0:0:0:s_031.ogg
384,192,99642,1,0,0:0:0:0:s_038.ogg
128,192,99857,1,0,0:0:0:0:s_031.ogg
384,192,100071,1,0,0:0:0:0:s_038.ogg
179,192,100285,1,0,0:0:0:0:m_048.ogg
332,192,100285,1,0,0:0:0:0:m_024.ogg
179,192,101142,1,0,0:0:0:0:m_048.ogg
332,192,101142,1,0,0:0:0:0:m_024.ogg
179,192,102000,1,0,0:0:0:0:m_024.ogg
486,192,102000,128,0,102857:0:0:0:0:m_065.ogg
76,192,102857,1,0,0:0:0:0:m_017.ogg
435,192,102857,1,0,0:0:0:0:m_065.ogg
179,192,103714,1,0,0:0:0:0:m_024.ogg
384,192,103714,1,0,0:0:0:0:m_065.ogg
128,192,104571,1,0,0:0:0:0:m_019.ogg
332,192,104571,1,0,0:0:0:0:s_064.ogg
332,192,104785,1,0,0:0:0:0:s_064.ogg
332,192,105000,1,0,0:0:0:0:s_064.ogg
332,192,105214,1,0,0:0:0:0:s_064.ogg
25,192,105428,1,0,0:0:0:0:m_060.ogg
281,192,105428,1,0,0:0:0:0:m_024.ogg
384,192,106071,1,0,0:0:0:0:s_052.ogg
25,192,106285,1,0,0:0:0:0:m_024.ogg
281,192,106285,1,0,0:0:0:0:m_048.ogg
435,192,106928,1,0,0:0:0:0:s_055.ogg
25,192,107142,1,0,0:0:0:0:m_024.ogg
281,192,107142,1,0,0:0:0:0:m_048.ogg
384,192,107785,1,0,0:0:0:0:s_052.ogg
25,192,108000,1,0,0:0:0:0:s_024.ogg
281,192,108000,1,0,0:0:0:0:s_060.ogg
384,192,108214,1,0,0:0:0:0:s_052.ogg
25,192,108428,1,0,0:0:0:0:s_024.ogg
281,192,108428,1,0,0:0:0:0:s_060.ogg
435,192,108642,1,0,0:0:0:0:s_055.ogg
25,192,108857,1,0,0:0:0:0:s_024.ogg
281,192,108857,1,0,0:0:0:0:s_060.ogg
230,192,109285,1,0,0:0:0:0:m_036.ogg
486,192,109285,1,0,0:0:0:0:m_060.ogg
230,192,109714,1,0,0:0:0:0:m_024.ogg
486,192,109714,1,0,0:0:0:0:m_060.ogg
