osu file format v14

[General]
AudioFilename: virtual
AudioLeadIn: 0
PreviewTime: 0
Countdown: 0
SampleSet: Soft
StackLeniency: 0.7
Mode: 3
LetterboxInBreaks: 0
SpecialStyle: 0
WidescreenStoryboard: 1

[Editor]
DistanceSpacing: 0.8
BeatDivisor: 4
GridSize: 32
TimelineZoom: 1.000006

[Metadata]
Title:Piano Beatmap Set
TitleUnicode:Piano Beatmap Set
Artist:Collection
ArtistUnicode:Collection
Creator:CircusGalop
Version:Moonlight 3rd movement - 10K EZ
Source:BMS
Tags:
BeatmapID:1316780
BeatmapSetID:332673

[Difficulty]
HPDrainRate:0
CircleSize:10
OverallDifficulty:5
ApproachRate:5
SliderMultiplier:1.4
SliderTickRate:1

[Events]
//Background and Video events
0,0,"CircusGalop.jpg",0,0
//Break Periods
//Storyboard Layer 0 (Background)
//Storyboard Layer 1 (Fail)
//Storyboard Layer 2 (Pass)
//Storyboard Layer 3 (Foreground)
//Storyboard Sound Samples
Sample,1545,0,"s_023.ogg",100
Sample,1636,0,"s_023.ogg",100
Sample,1636,0,"s_028.ogg",100
Sample,1727,0,"s_031.ogg",100
Sample,1818,0,"s_035.ogg",100
Sample,1909,0,"s_028.ogg",100
Sample,2000,0,"s_023.ogg",100
Sample,2000,0,"s_031.ogg",100
Sample,2090,0,"s_035.ogg",100
Sample,2181,0,"s_040.ogg",100
Sample,2272,0,"s_031.ogg",100
Sample,2363,0,"s_023.ogg",100
Sample,2363,0,"s_035.ogg",100
Sample,2454,0,"s_040.ogg",100
Sample,2545,0,"s_043.ogg",100
Sample,2636,0,"s_035.ogg",100
Sample,2727,0,"s_023.ogg",100
Sample,2727,0,"s_040.ogg",100
Sample,2818,0,"s_043.ogg",100
Sample,2909,0,"s_047.ogg",100
Sample,3000,0,"s_040.ogg",100
Sample,3090,0,"s_043.ogg",100
Sample,3090,0,"s_023.ogg",100
Sample,3181,0,"s_047.ogg",100
Sample,3272,0,"s_052.ogg",100
Sample,3363,0,"s_043.ogg",100
Sample,3454,0,"s_047.ogg",100
Sample,3454,0,"s_023.ogg",100
Sample,3545,0,"s_052.ogg",100
Sample,3636,0,"s_055.ogg",100
Sample,3727,0,"s_047.ogg",100
Sample,3818,0,"s_052.ogg",100
Sample,3818,0,"s_023.ogg",100
Sample,3909,0,"s_055.ogg",100
Sample,4000,0,"s_047.ogg",100
Sample,4000,0,"s_055.ogg",100
Sample,4000,0,"s_059.ogg",100
Sample,4000,0,"s_052.ogg",100
Sample,4000,0,"s_028.ogg",100
Sample,4181,0,"s_059.ogg",100
Sample,4181,0,"s_055.ogg",100
Sample,4181,0,"s_052.ogg",100
Sample,4181,0,"s_047.ogg",100
Sample,4454,0,"s_023.ogg",100
Sample,4545,0,"s_023.ogg",100
Sample,4545,0,"s_027.ogg",100
Sample,4636,0,"s_030.ogg",100
Sample,4727,0,"s_035.ogg",100
Sample,4818,0,"s_027.ogg",100
Sample,4909,0,"s_023.ogg",100
Sample,4909,0,"s_030.ogg",100
Sample,5000,0,"s_035.ogg",100
Sample,5090,0,"s_039.ogg",100
Sample,5181,0,"s_030.ogg",100
Sample,5272,0,"s_023.ogg",100
Sample,5272,0,"s_035.ogg",100
Sample,5363,0,"s_039.ogg",100
Sample,5454,0,"s_042.ogg",100
Sample,5545,0,"s_035.ogg",100
Sample,5636,0,"s_023.ogg",100
Sample,5636,0,"s_039.ogg",100
Sample,5727,0,"s_042.ogg",100
Sample,5818,0,"s_047.ogg",100
Sample,5909,0,"s_039.ogg",100
Sample,6000,0,"s_042.ogg",100
Sample,6000,0,"s_023.ogg",100
Sample,6090,0,"s_047.ogg",100
Sample,6181,0,"s_051.ogg",100
Sample,6272,0,"s_042.ogg",100
Sample,6363,0,"s_047.ogg",100
Sample,6363,0,"s_023.ogg",100
Sample,6454,0,"s_051.ogg",100
Sample,6545,0,"s_054.ogg",100
Sample,6636,0,"s_047.ogg",100
Sample,6727,0,"s_051.ogg",100
Sample,6727,0,"s_023.ogg",100
Sample,6818,0,"s_054.ogg",100
Sample,6909,0,"s_027.ogg",100
Sample,6909,0,"s_059.ogg",100
Sample,6909,0,"s_051.ogg",100
Sample,6909,0,"s_054.ogg",100
Sample,6909,0,"s_047.ogg",100
Sample,7090,0,"s_047.ogg",100
Sample,7090,0,"s_054.ogg",100
Sample,7090,0,"s_059.ogg",100
Sample,7090,0,"s_051.ogg",100
Sample,7363,0,"s_028.ogg",100
Sample,7454,0,"s_023.ogg",100
Sample,7454,0,"s_032.ogg",100
Sample,7545,0,"s_035.ogg",100
Sample,7636,0,"s_040.ogg",100
Sample,7727,0,"s_032.ogg",100
Sample,7818,0,"s_023.ogg",100
Sample,7818,0,"s_035.ogg",100
Sample,7909,0,"s_040.ogg",100
Sample,8000,0,"s_044.ogg",100
Sample,8090,0,"s_035.ogg",100
Sample,8181,0,"s_023.ogg",100
Sample,8181,0,"s_040.ogg",100
Sample,8272,0,"s_044.ogg",100
Sample,8363,0,"s_047.ogg",100
Sample,8454,0,"s_040.ogg",100
Sample,8545,0,"s_023.ogg",100
Sample,8545,0,"s_044.ogg",100
Sample,8636,0,"s_047.ogg",100
Sample,8727,0,"s_052.ogg",100
Sample,8818,0,"s_044.ogg",100
Sample,8909,0,"s_047.ogg",100
Sample,8909,0,"s_023.ogg",100
Sample,9000,0,"s_052.ogg",100
Sample,9090,0,"s_056.ogg",100
Sample,9181,0,"s_047.ogg",100
Sample,9272,0,"s_052.ogg",100
Sample,9272,0,"s_023.ogg",100
Sample,9363,0,"s_056.ogg",100
Sample,9454,0,"s_059.ogg",100
Sample,9545,0,"s_052.ogg",100
Sample,9636,0,"s_056.ogg",100
Sample,9636,0,"s_023.ogg",100
Sample,9727,0,"s_059.ogg",100
Sample,9818,0,"s_056.ogg",100
Sample,9818,0,"s_052.ogg",100
Sample,9818,0,"s_064.ogg",100
Sample,9818,0,"s_014.ogg",100
Sample,9818,0,"s_059.ogg",100
Sample,10000,0,"s_064.ogg",100
Sample,10000,0,"s_059.ogg",100
Sample,10000,0,"s_052.ogg",100
Sample,10000,0,"s_056.ogg",100
Sample,10272,0,"s_028.ogg",100
Sample,10363,0,"s_024.ogg",100
Sample,10363,0,"s_033.ogg",100
Sample,10454,0,"s_036.ogg",100
Sample,10545,0,"s_040.ogg",100
Sample,10636,0,"s_040.ogg",100
Sample,10727,0,"s_024.ogg",100
Sample,10727,0,"s_045.ogg",100
Sample,10818,0,"s_048.ogg",100
Sample,10909,0,"s_052.ogg",100
Sample,11000,0,"s_052.ogg",100
Sample,11090,0,"s_024.ogg",100
Sample,11090,0,"s_057.ogg",100
Sample,11181,0,"s_060.ogg",100
Sample,11272,0,"s_064.ogg",100
Sample,11272,0,"s_057.ogg",100
Sample,11272,0,"s_052.ogg",100
Sample,11454,0,"s_064.ogg",100
Sample,11454,0,"s_057.ogg",100
Sample,11454,0,"s_052.ogg",100
Sample,11727,0,"s_028.ogg",100
Sample,11818,0,"s_024.ogg",100
Sample,11818,0,"s_031.ogg",100
Sample,11909,0,"s_034.ogg",100
Sample,12000,0,"s_040.ogg",100
Sample,12090,0,"s_040.ogg",100
Sample,12181,0,"s_024.ogg",100
Sample,12181,0,"s_043.ogg",100
Sample,12272,0,"s_046.ogg",100
Sample,12363,0,"s_052.ogg",100
Sample,12454,0,"s_052.ogg",100
Sample,12545,0,"s_024.ogg",100
Sample,12545,0,"s_055.ogg",100
Sample,12636,0,"s_058.ogg",100
Sample,12727,0,"s_058.ogg",100
Sample,12727,0,"s_052.ogg",100
Sample,12727,0,"s_064.ogg",100
Sample,12909,0,"s_058.ogg",100
Sample,12909,0,"s_064.ogg",100
Sample,12909,0,"s_052.ogg",100
Sample,13090,0,"s_023.ogg",100
Sample,13090,0,"s_063.ogg",100
Sample,13090,0,"s_051.ogg",100
Sample,13090,0,"s_011.ogg",100
Sample,13272,0,"l_035.ogg",100
Sample,13272,0,"s_039.ogg",100
Sample,13363,0,"s_059.ogg",100
Sample,13454,0,"s_039.ogg",100
Sample,13545,0,"s_059.ogg",100
Sample,13636,0,"s_040.ogg",100
Sample,13727,0,"s_059.ogg",100
Sample,13818,0,"s_042.ogg",100
Sample,13909,0,"s_059.ogg",100
Sample,14000,0,"s_043.ogg",100
Sample,14090,0,"s_059.ogg",100
Sample,14181,0,"s_045.ogg",100
Sample,14272,0,"s_059.ogg",100
Sample,14363,0,"s_042.ogg",100
Sample,14454,0,"s_059.ogg",100
Sample,14545,0,"s_045.ogg",100
Sample,14636,0,"s_059.ogg",100
Sample,14727,0,"s_043.ogg",100
Sample,14818,0,"s_059.ogg",100
Sample,14909,0,"s_048.ogg",100
Sample,15000,0,"s_059.ogg",100
Sample,15090,0,"s_047.ogg",100
Sample,15181,0,"s_059.ogg",100
Sample,15272,0,"s_045.ogg",100
Sample,15363,0,"s_059.ogg",100
Sample,15454,0,"s_043.ogg",100
Sample,15545,0,"s_059.ogg",100
Sample,15636,0,"s_042.ogg",100
Sample,15727,0,"s_059.ogg",100
Sample,15818,0,"s_040.ogg",100
Sample,15909,0,"s_058.ogg",100
Sample,16000,0,"l_035.ogg",100
Sample,16000,0,"s_039.ogg",100
Sample,16090,0,"s_059.ogg",100
Sample,16181,0,"s_039.ogg",100
Sample,16272,0,"s_059.ogg",100
Sample,16363,0,"s_039.ogg",100
Sample,16454,0,"s_059.ogg",100
Sample,16545,0,"s_040.ogg",100
Sample,16636,0,"s_059.ogg",100
Sample,16727,0,"s_042.ogg",100
Sample,16818,0,"s_059.ogg",100
Sample,16909,0,"s_043.ogg",100
Sample,17000,0,"s_059.ogg",100
Sample,17090,0,"s_045.ogg",100
Sample,17181,0,"s_059.ogg",100
Sample,17272,0,"s_042.ogg",100
Sample,17363,0,"s_059.ogg",100
Sample,17454,0,"s_045.ogg",100
Sample,17545,0,"s_059.ogg",100
Sample,17636,0,"s_043.ogg",100
Sample,17727,0,"s_059.ogg",100
Sample,17818,0,"s_048.ogg",100
Sample,17909,0,"s_059.ogg",100
Sample,18000,0,"s_047.ogg",100
Sample,18090,0,"s_059.ogg",100
Sample,18181,0,"s_045.ogg",100
Sample,18272,0,"s_059.ogg",100
Sample,18363,0,"s_043.ogg",100
Sample,18454,0,"s_059.ogg",100
Sample,18545,0,"s_042.ogg",100
Sample,18636,0,"s_059.ogg",100
Sample,18727,0,"s_040.ogg",100
Sample,18818,0,"s_058.ogg",100
Sample,18909,0,"s_035.ogg",100
Sample,18909,0,"s_047.ogg",100
Sample,19000,0,"s_059.ogg",100
Sample,19090,0,"s_048.ogg",100
Sample,19090,0,"s_040.ogg",100
Sample,19181,0,"s_058.ogg",100
Sample,19272,0,"s_047.ogg",100
Sample,19272,0,"s_035.ogg",100
Sample,19363,0,"s_059.ogg",100
Sample,19454,0,"s_048.ogg",100
Sample,19454,0,"s_040.ogg",100
Sample,19545,0,"s_058.ogg",100
Sample,19636,0,"s_035.ogg",100
Sample,19636,0,"s_047.ogg",100
Sample,19727,0,"s_059.ogg",100
Sample,19818,0,"s_048.ogg",100
Sample,19818,0,"s_040.ogg",100
Sample,19909,0,"s_058.ogg",100
Sample,20000,0,"s_047.ogg",100
Sample,20000,0,"s_035.ogg",100
Sample,20090,0,"s_059.ogg",100
Sample,20181,0,"s_048.ogg",100
Sample,20181,0,"s_040.ogg",100
Sample,20272,0,"s_058.ogg",100
Sample,20363,0,"s_035.ogg",100
Sample,20363,0,"s_047.ogg",100
Sample,20363,0,"s_059.ogg",100
Sample,23363,0,"s_023.ogg",100
Sample,23454,0,"s_023.ogg",100
Sample,23454,0,"s_028.ogg",100
Sample,23545,0,"s_031.ogg",100
Sample,23636,0,"s_035.ogg",100
Sample,23727,0,"s_028.ogg",100
Sample,23818,0,"s_023.ogg",100
Sample,23818,0,"s_031.ogg",100
Sample,23909,0,"s_035.ogg",100
Sample,24000,0,"s_040.ogg",100
Sample,24090,0,"s_031.ogg",100
Sample,24181,0,"s_023.ogg",100
Sample,24181,0,"s_035.ogg",100
Sample,24272,0,"s_040.ogg",100
Sample,24363,0,"s_043.ogg",100
Sample,24454,0,"s_035.ogg",100
Sample,24545,0,"s_023.ogg",100
Sample,24545,0,"s_040.ogg",100
Sample,24636,0,"s_043.ogg",100
Sample,24727,0,"s_047.ogg",100
Sample,24818,0,"s_040.ogg",100
Sample,24909,0,"s_043.ogg",100
Sample,24909,0,"s_023.ogg",100
Sample,25000,0,"s_047.ogg",100
Sample,25090,0,"s_052.ogg",100
Sample,25181,0,"s_043.ogg",100
Sample,25272,0,"s_047.ogg",100
Sample,25272,0,"s_023.ogg",100
Sample,25363,0,"s_052.ogg",100
Sample,25454,0,"s_055.ogg",100
Sample,25545,0,"s_055.ogg",100
Sample,25636,0,"s_059.ogg",100
Sample,25636,0,"s_023.ogg",100
Sample,25727,0,"s_064.ogg",100
Sample,25818,0,"s_067.ogg",100
Sample,25818,0,"s_016.ogg",100
Sample,25818,0,"s_055.ogg",100
Sample,26000,0,"s_055.ogg",100
Sample,26000,0,"s_067.ogg",100
Sample,26272,0,"s_031.ogg",100
Sample,26363,0,"s_028.ogg",100
Sample,26363,0,"s_034.ogg",100
Sample,26454,0,"s_040.ogg",100
Sample,26545,0,"s_043.ogg",100
Sample,26636,0,"s_034.ogg",100
Sample,26727,0,"s_028.ogg",100
Sample,26727,0,"s_040.ogg",100
Sample,26818,0,"s_043.ogg",100
Sample,26909,0,"s_046.ogg",100
Sample,27000,0,"s_040.ogg",100
Sample,27090,0,"s_028.ogg",100
Sample,27090,0,"s_043.ogg",100
Sample,27181,0,"s_046.ogg",100
Sample,27272,0,"s_052.ogg",100
Sample,27363,0,"s_043.ogg",100
Sample,27454,0,"s_028.ogg",100
Sample,27454,0,"s_046.ogg",100
Sample,27545,0,"s_052.ogg",100
Sample,27636,0,"s_055.ogg",100
Sample,27727,0,"s_046.ogg",100
Sample,27818,0,"s_052.ogg",100
Sample,27818,0,"s_028.ogg",100
Sample,27909,0,"s_055.ogg",100
Sample,28000,0,"s_058.ogg",100
Sample,28090,0,"s_052.ogg",100
Sample,28181,0,"s_055.ogg",100
Sample,28181,0,"s_028.ogg",100
Sample,28272,0,"s_058.ogg",100
Sample,28363,0,"s_064.ogg",100
Sample,28454,0,"s_055.ogg",100
Sample,28545,0,"s_058.ogg",100
Sample,28545,0,"s_028.ogg",100
Sample,28636,0,"s_064.ogg",100
Sample,28727,0,"s_025.ogg",100
Sample,28727,0,"s_013.ogg",100
Sample,28727,0,"s_067.ogg",100
Sample,28909,0,"s_028.ogg",100
Sample,28909,0,"s_055.ogg",100
Sample,29181,0,"s_030.ogg",100
Sample,29272,0,"s_030.ogg",100
Sample,29272,0,"s_037.ogg",100
Sample,29363,0,"s_040.ogg",100
Sample,29454,0,"s_042.ogg",100
Sample,29545,0,"s_037.ogg",100
Sample,29636,0,"s_030.ogg",100
Sample,29636,0,"s_040.ogg",100
Sample,29727,0,"s_042.ogg",100
Sample,29818,0,"s_049.ogg",100
Sample,29909,0,"s_040.ogg",100
Sample,30000,0,"s_030.ogg",100
Sample,30000,0,"s_042.ogg",100
Sample,30090,0,"s_049.ogg",100
Sample,30181,0,"s_052.ogg",100
Sample,30272,0,"s_042.ogg",100
Sample,30363,0,"s_030.ogg",100
Sample,30363,0,"s_049.ogg",100
Sample,30454,0,"s_052.ogg",100
Sample,30545,0,"s_054.ogg",100
Sample,30636,0,"s_049.ogg",100
Sample,30727,0,"s_030.ogg",100
Sample,30727,0,"s_052.ogg",100
Sample,30818,0,"s_054.ogg",100
Sample,30909,0,"s_061.ogg",100
Sample,31000,0,"s_052.ogg",100
Sample,31090,0,"s_030.ogg",100
Sample,31090,0,"s_054.ogg",100
Sample,31181,0,"s_061.ogg",100
Sample,31272,0,"s_064.ogg",100
Sample,31363,0,"s_061.ogg",100
Sample,31454,0,"s_030.ogg",100
Sample,31454,0,"s_054.ogg",100
Sample,31545,0,"s_052.ogg",100
Sample,31636,0,"s_061.ogg",100
Sample,31727,0,"s_054.ogg",100
Sample,31818,0,"s_030.ogg",100
Sample,31818,0,"s_052.ogg",100
Sample,31909,0,"s_049.ogg",100
Sample,32000,0,"s_023.ogg",100
Sample,32090,0,"s_030.ogg",100
Sample,32181,0,"s_026.ogg",100
Sample,32272,0,"s_030.ogg",100
Sample,32363,0,"s_023.ogg",100
Sample,32454,0,"s_030.ogg",100
Sample,32545,0,"s_026.ogg",100
Sample,32636,0,"s_030.ogg",100
Sample,32727,0,"s_023.ogg",100
Sample,32818,0,"s_030.ogg",100
Sample,32909,0,"s_026.ogg",100
Sample,33000,0,"s_030.ogg",100
Sample,33090,0,"s_023.ogg",100
Sample,33181,0,"s_030.ogg",100
Sample,33272,0,"s_026.ogg",100
Sample,33363,0,"s_030.ogg",100
Sample,33454,0,"s_025.ogg",100
Sample,33454,0,"s_046.ogg",100
Sample,33515,0,"s_047.ogg",100
Sample,33545,0,"s_030.ogg",100
Sample,33575,0,"s_049.ogg",100
Sample,33636,0,"s_047.ogg",100
Sample,33636,0,"s_028.ogg",100
Sample,33727,0,"s_030.ogg",100
Sample,33818,0,"s_025.ogg",100
Sample,33909,0,"s_030.ogg",100
Sample,34000,0,"s_028.ogg",100
Sample,34090,0,"s_030.ogg",100
Sample,34181,0,"s_025.ogg",100
Sample,34272,0,"s_030.ogg",100
Sample,34363,0,"s_028.ogg",100
Sample,34454,0,"s_030.ogg",100
Sample,34545,0,"s_025.ogg",100
Sample,34636,0,"s_030.ogg",100
Sample,34727,0,"s_028.ogg",100
Sample,34818,0,"s_030.ogg",100
Sample,34909,0,"s_026.ogg",100
Sample,35000,0,"s_030.ogg",100
Sample,35090,0,"s_026.ogg",100
Sample,35181,0,"s_030.ogg",100
Sample,35272,0,"s_026.ogg",100
Sample,35363,0,"s_030.ogg",100
Sample,35454,0,"s_026.ogg",100
Sample,35545,0,"s_030.ogg",100
Sample,35636,0,"s_026.ogg",100
Sample,35727,0,"s_030.ogg",100
Sample,35818,0,"s_026.ogg",100
Sample,35909,0,"s_030.ogg",100
Sample,36000,0,"s_026.ogg",100
Sample,36090,0,"s_030.ogg",100
Sample,36181,0,"s_026.ogg",100
Sample,36272,0,"s_030.ogg",100
Sample,36363,0,"s_022.ogg",100
Sample,36454,0,"s_030.ogg",100
Sample,36545,0,"s_022.ogg",100
Sample,36636,0,"s_030.ogg",100
Sample,36727,0,"s_022.ogg",100
Sample,36818,0,"s_030.ogg",100
Sample,36909,0,"s_022.ogg",100
Sample,37000,0,"s_030.ogg",100
Sample,37090,0,"s_022.ogg",100
Sample,37181,0,"s_030.ogg",100
Sample,37272,0,"s_022.ogg",100
Sample,37363,0,"s_030.ogg",100
Sample,37454,0,"s_022.ogg",100
Sample,37545,0,"s_030.ogg",100
Sample,37636,0,"s_022.ogg",100
Sample,37727,0,"s_030.ogg",100
Sample,37818,0,"s_023.ogg",100
Sample,37909,0,"s_030.ogg",100
Sample,38000,0,"m_054.ogg",100
Sample,38000,0,"s_026.ogg",100
Sample,38090,0,"s_030.ogg",100
Sample,38181,0,"s_023.ogg",100
Sample,38272,0,"s_030.ogg",100
Sample,38363,0,"m_054.ogg",100
Sample,38363,0,"s_026.ogg",100
Sample,38454,0,"s_030.ogg",100
Sample,38545,0,"s_023.ogg",100
Sample,38636,0,"s_030.ogg",100
Sample,38727,0,"s_054.ogg",100
Sample,38727,0,"s_026.ogg",100
Sample,38818,0,"s_030.ogg",100
Sample,38909,0,"s_023.ogg",100
Sample,38909,0,"s_062.ogg",100
Sample,39000,0,"s_030.ogg",100
Sample,39090,0,"s_047.ogg",100
Sample,39090,0,"s_026.ogg",100
Sample,39181,0,"s_030.ogg",100
Sample,39272,0,"s_047.ogg",100
Sample,39272,0,"s_025.ogg",100
Sample,39363,0,"s_030.ogg",100
Sample,39454,0,"s_028.ogg",100
Sample,39454,0,"m_046.ogg",100
Sample,39545,0,"s_030.ogg",100
Sample,39636,0,"s_025.ogg",100
Sample,39727,0,"s_030.ogg",100
Sample,39818,0,"m_046.ogg",100
Sample,39818,0,"s_028.ogg",100
Sample,39909,0,"s_030.ogg",100
Sample,40000,0,"s_025.ogg",100
Sample,40090,0,"s_030.ogg",100
Sample,40181,0,"s_028.ogg",100
Sample,40181,0,"s_046.ogg",100
Sample,40272,0,"s_030.ogg",100
Sample,40363,0,"s_025.ogg",100
Sample,40363,0,"s_054.ogg",100
Sample,40454,0,"s_030.ogg",100
Sample,40545,0,"s_028.ogg",100
Sample,40545,0,"s_046.ogg",100
Sample,40636,0,"s_030.ogg",100
Sample,40727,0,"s_049.ogg",100
Sample,40727,0,"s_026.ogg",100
Sample,40818,0,"s_030.ogg",100
Sample,40909,0,"s_026.ogg",100
Sample,40909,0,"m_059.ogg",100
Sample,41000,0,"s_030.ogg",100
Sample,41090,0,"s_026.ogg",100
Sample,41181,0,"s_030.ogg",100
Sample,41272,0,"s_026.ogg",100
Sample,41272,0,"m_059.ogg",100
Sample,41363,0,"s_030.ogg",100
Sample,41454,0,"s_026.ogg",100
Sample,41545,0,"s_030.ogg",100
Sample,41636,0,"s_026.ogg",100
Sample,41636,0,"s_059.ogg",100
Sample,41727,0,"s_030.ogg",100
Sample,41818,0,"s_026.ogg",100
Sample,41818,0,"s_054.ogg",100
Sample,41909,0,"s_030.ogg",100
Sample,42000,0,"s_026.ogg",100
Sample,42000,0,"s_059.ogg",100
Sample,42090,0,"s_030.ogg",100
Sample,42181,0,"s_050.ogg",100
Sample,42181,0,"s_022.ogg",100
Sample,42272,0,"s_030.ogg",100
Sample,42363,0,"s_022.ogg",100
Sample,42363,0,"m_061.ogg",100
Sample,42454,0,"s_030.ogg",100
Sample,42545,0,"s_022.ogg",100
Sample,42636,0,"s_030.ogg",100
Sample,42727,0,"s_022.ogg",100
Sample,42727,0,"m_049.ogg",100
Sample,42818,0,"s_030.ogg",100
Sample,42909,0,"s_022.ogg",100
Sample,43000,0,"s_030.ogg",100
Sample,43090,0,"s_049.ogg",100
Sample,43090,0,"s_022.ogg",100
Sample,43181,0,"s_030.ogg",100
Sample,43272,0,"s_022.ogg",100
Sample,43272,0,"s_054.ogg",100
Sample,43363,0,"s_030.ogg",100
Sample,43454,0,"s_022.ogg",100
Sample,43454,0,"s_049.ogg",100
Sample,43545,0,"s_030.ogg",100
Sample,43636,0,"m_051.ogg",100
Sample,43636,0,"m_021.ogg",100
Sample,43727,0,"s_030.ogg",100
Sample,43818,0,"m_023.ogg",100
Sample,43909,0,"s_030.ogg",100
Sample,44000,0,"m_021.ogg",100
Sample,44090,0,"s_030.ogg",100
Sample,44181,0,"s_023.ogg",100
Sample,44272,0,"s_030.ogg",100
Sample,44363,0,"m_052.ogg",100
Sample,44363,0,"m_019.ogg",100
Sample,44454,0,"s_028.ogg",100
Sample,44545,0,"m_023.ogg",100
Sample,44636,0,"s_028.ogg",100
Sample,44727,0,"m_019.ogg",100
Sample,44818,0,"s_028.ogg",100
Sample,44909,0,"s_023.ogg",100
Sample,45000,0,"s_028.ogg",100
Sample,45090,0,"m_049.ogg",100
Sample,45090,0,"s_019.ogg",100
Sample,45136,0,"s_062.ogg",100
Sample,45181,0,"s_061.ogg",100
Sample,45181,0,"s_028.ogg",100
Sample,45227,0,"s_062.ogg",100
Sample,45272,0,"s_059.ogg",100
Sample,45272,0,"s_021.ogg",100
Sample,45363,0,"s_061.ogg",100
Sample,45363,0,"s_028.ogg",100
Sample,45454,0,"m_018.ogg",100
Sample,45454,0,"l_062.ogg",100
Sample,45545,0,"s_026.ogg",100
Sample,45636,0,"m_021.ogg",100
Sample,45727,0,"s_026.ogg",100
Sample,45818,0,"m_018.ogg",100
Sample,45909,0,"s_026.ogg",100
Sample,46000,0,"m_021.ogg",100
Sample,46090,0,"s_026.ogg",100
Sample,46181,0,"m_018.ogg",100
Sample,46272,0,"s_026.ogg",100
Sample,46363,0,"s_021.ogg",100
Sample,46454,0,"s_026.ogg",100
Sample,46545,0,"m_059.ogg",100
Sample,46545,0,"m_017.ogg",100
Sample,46636,0,"s_026.ogg",100
Sample,46727,0,"m_019.ogg",100
Sample,46818,0,"s_026.ogg",100
Sample,46909,0,"m_017.ogg",100
Sample,47000,0,"s_026.ogg",100
Sample,47090,0,"s_019.ogg",100
Sample,47181,0,"s_026.ogg",100
Sample,47272,0,"m_060.ogg",100
Sample,47272,0,"m_016.ogg",100
Sample,47363,0,"s_024.ogg",100
Sample,47454,0,"m_019.ogg",100
Sample,47545,0,"s_024.ogg",100
Sample,47636,0,"m_016.ogg",100
Sample,47727,0,"s_024.ogg",100
Sample,47818,0,"s_019.ogg",100
Sample,47909,0,"s_024.ogg",100
Sample,48000,0,"s_016.ogg",100
Sample,48000,0,"m_046.ogg",100
Sample,48045,0,"s_059.ogg",100
Sample,48090,0,"s_058.ogg",100
Sample,48090,0,"s_025.ogg",100
Sample,48136,0,"s_059.ogg",100
Sample,48181,0,"s_019.ogg",100
Sample,48181,0,"s_056.ogg",100
Sample,48272,0,"s_025.ogg",100
Sample,48272,0,"s_058.ogg",100
Sample,48363,0,"m_014.ogg",100
Sample,48363,0,"l_059.ogg",100
Sample,48454,0,"s_023.ogg",100
Sample,48545,0,"m_018.ogg",100
Sample,48636,0,"s_023.ogg",100
Sample,48727,0,"m_014.ogg",100
Sample,48818,0,"s_023.ogg",100
Sample,48909,0,"m_018.ogg",100
Sample,49000,0,"s_023.ogg",100
Sample,49090,0,"m_014.ogg",100
Sample,49181,0,"s_023.ogg",100
Sample,49272,0,"s_018.ogg",100
Sample,49363,0,"s_023.ogg",100
Sample,49454,0,"m_048.ogg",100
Sample,49454,0,"m_055.ogg",100
Sample,49454,0,"m_060.ogg",100
Sample,49454,0,"m_052.ogg",100
Sample,49454,0,"l_019.ogg",100
Sample,49454,0,"l_028.ogg",100
Sample,50272,0,"s_055.ogg",100
Sample,50363,0,"s_057.ogg",100
Sample,50454,0,"s_059.ogg",100
Sample,50545,0,"s_060.ogg",100
Sample,50636,0,"s_062.ogg",100
Sample,50727,0,"s_064.ogg",100
Sample,50818,0,"s_062.ogg",100
Sample,50909,0,"s_043.ogg",100
Sample,50909,0,"s_060.ogg",100
Sample,51000,0,"s_055.ogg",100
Sample,51090,0,"s_057.ogg",100
Sample,51181,0,"s_059.ogg",100
Sample,51272,0,"s_060.ogg",100
Sample,51363,0,"s_062.ogg",100
Sample,51454,0,"s_064.ogg",100
Sample,51545,0,"s_062.ogg",100
Sample,51636,0,"s_043.ogg",100
Sample,51636,0,"s_060.ogg",100
Sample,51727,0,"s_055.ogg",100
Sample,51818,0,"s_057.ogg",100
Sample,51909,0,"s_059.ogg",100
Sample,52000,0,"s_060.ogg",100
Sample,52090,0,"s_062.ogg",100
Sample,52181,0,"s_064.ogg",100
Sample,52272,0,"s_062.ogg",100
Sample,52363,0,"m_043.ogg",100
Sample,52363,0,"s_060.ogg",100
Sample,52454,0,"s_055.ogg",100
Sample,52545,0,"s_057.ogg",100
Sample,52636,0,"s_059.ogg",100
Sample,52727,0,"m_043.ogg",100
Sample,52727,0,"s_060.ogg",100
Sample,52818,0,"s_062.ogg",100
Sample,52909,0,"s_064.ogg",100
Sample,53000,0,"s_065.ogg",100
Sample,53090,0,"m_043.ogg",100
Sample,53090,0,"s_067.ogg",100
Sample,53181,0,"s_066.ogg",100
Sample,53272,0,"s_067.ogg",100
Sample,53363,0,"s_066.ogg",100
Sample,53454,0,"m_043.ogg",100
Sample,53454,0,"s_067.ogg",100
Sample,53545,0,"s_064.ogg",100
Sample,53636,0,"s_062.ogg",100
Sample,53727,0,"s_060.ogg",100
Sample,53818,0,"s_042.ogg",100
Sample,53909,0,"s_050.ogg",100
Sample,54000,0,"s_047.ogg",100
Sample,54090,0,"s_050.ogg",100
Sample,54181,0,"s_042.ogg",100
Sample,54272,0,"s_050.ogg",100
Sample,54363,0,"s_047.ogg",100
Sample,54454,0,"s_050.ogg",100
Sample,54545,0,"s_042.ogg",100
Sample,54590,0,"s_062.ogg",100
Sample,54636,0,"s_061.ogg",100
Sample,54636,0,"s_052.ogg",100
Sample,54681,0,"s_062.ogg",100
Sample,54727,0,"s_061.ogg",100
Sample,54727,0,"s_046.ogg",100
Sample,54772,0,"s_062.ogg",100
Sample,54818,0,"s_052.ogg",100
Sample,54818,0,"s_061.ogg",100
Sample,54863,0,"s_062.ogg",100
Sample,54909,0,"s_042.ogg",100
Sample,54909,0,"s_061.ogg",100
Sample,54954,0,"s_062.ogg",100
Sample,55000,0,"s_061.ogg",100
Sample,55000,0,"s_052.ogg",100
Sample,55045,0,"s_062.ogg",100
Sample,55090,0,"s_059.ogg",100
Sample,55090,0,"s_046.ogg",100
Sample,55181,0,"s_052.ogg",100
Sample,55181,0,"s_061.ogg",100
Sample,55272,0,"s_050.ogg",100
Sample,55272,0,"s_047.ogg",100
Sample,55272,0,"s_043.ogg",100
Sample,55636,0,"m_043.ogg",100
Sample,55636,0,"m_028.ogg",100
Sample,55636,0,"m_019.ogg",100
Sample,55636,0,"m_016.ogg",100
Sample,55636,0,"m_048.ogg",100
Sample,55636,0,"m_024.ogg",100
Sample,55636,0,"m_040.ogg",100
Sample,56090,0,"s_043.ogg",100
Sample,56181,0,"s_045.ogg",100
Sample,56272,0,"s_047.ogg",100
Sample,56363,0,"s_048.ogg",100
Sample,56454,0,"s_050.ogg",100
Sample,56545,0,"s_052.ogg",100
Sample,56636,0,"s_050.ogg",100
Sample,56727,0,"s_048.ogg",100
Sample,56818,0,"s_043.ogg",100
Sample,56909,0,"s_045.ogg",100
Sample,57000,0,"s_047.ogg",100
Sample,57090,0,"s_028.ogg",100
Sample,57090,0,"s_031.ogg",100
Sample,57181,0,"s_050.ogg",100
Sample,57272,0,"s_052.ogg",100
Sample,57363,0,"s_050.ogg",100
Sample,57454,0,"s_048.ogg",100
Sample,57545,0,"s_043.ogg",100
Sample,57636,0,"s_045.ogg",100
Sample,57727,0,"s_047.ogg",100
Sample,57818,0,"s_036.ogg",100
Sample,57818,0,"s_031.ogg",100
Sample,57909,0,"s_050.ogg",100
Sample,58000,0,"s_052.ogg",100
Sample,58090,0,"s_050.ogg",100
Sample,58181,0,"s_048.ogg",100
Sample,58272,0,"s_043.ogg",100
Sample,58363,0,"s_036.ogg",100
Sample,58363,0,"s_031.ogg",100
Sample,58454,0,"s_047.ogg",100
Sample,58545,0,"s_048.ogg",100
Sample,58636,0,"s_050.ogg",100
Sample,58727,0,"s_036.ogg",100
Sample,58727,0,"s_031.ogg",100
Sample,58818,0,"s_050.ogg",100
Sample,58909,0,"s_048.ogg",100
Sample,59000,0,"s_043.ogg",100
Sample,59090,0,"s_036.ogg",100
Sample,59090,0,"s_031.ogg",100
Sample,59181,0,"s_047.ogg",100
Sample,59272,0,"s_048.ogg",100
Sample,59363,0,"s_050.ogg",100
Sample,59454,0,"s_036.ogg",100
Sample,59454,0,"s_031.ogg",100
Sample,59545,0,"s_050.ogg",100
Sample,59636,0,"m_036.ogg",100
Sample,59636,0,"m_031.ogg",100
Sample,59727,0,"s_043.ogg",100
Sample,59818,0,"s_045.ogg",100
Sample,59909,0,"s_047.ogg",100
Sample,60000,0,"s_048.ogg",100
Sample,60090,0,"s_050.ogg",100
Sample,60181,0,"s_052.ogg",100
Sample,60272,0,"s_053.ogg",100
Sample,60363,0,"s_055.ogg",100
Sample,60454,0,"s_057.ogg",100
Sample,60545,0,"s_059.ogg",100
Sample,60636,0,"s_060.ogg",100
Sample,60727,0,"s_062.ogg",100
Sample,60818,0,"s_064.ogg",100
Sample,60909,0,"s_065.ogg",100
Sample,61000,0,"s_066.ogg",100
Sample,61090,0,"m_028.ogg",100
Sample,61090,0,"m_067.ogg",100
Sample,61181,0,"s_036.ogg",100
Sample,61272,0,"m_031.ogg",100
Sample,61363,0,"s_036.ogg",100
Sample,61454,0,"m_028.ogg",100
Sample,61545,0,"s_036.ogg",100
Sample,61636,0,"s_031.ogg",100
Sample,61727,0,"s_036.ogg",100
Sample,61818,0,"m_029.ogg",100
Sample,61818,0,"m_059.ogg",100
Sample,61909,0,"s_038.ogg",100
Sample,62000,0,"m_032.ogg",100
Sample,62090,0,"s_038.ogg",100
Sample,62181,0,"m_029.ogg",100
Sample,62272,0,"s_038.ogg",100
Sample,62363,0,"s_032.ogg",100
Sample,62454,0,"s_038.ogg",100
Sample,62545,0,"m_030.ogg",100
Sample,62545,0,"m_062.ogg",100
Sample,62636,0,"s_038.ogg",100
Sample,62727,0,"m_035.ogg",100
Sample,62818,0,"s_038.ogg",100
Sample,62909,0,"m_030.ogg",100
Sample,63000,0,"s_038.ogg",100
Sample,63090,0,"s_035.ogg",100
Sample,63181,0,"s_038.ogg",100
Sample,63272,0,"m_034.ogg",100
Sample,63272,0,"m_046.ogg",100
Sample,63272,0,"m_018.ogg",100
Sample,63363,0,"s_030.ogg",100
Sample,63454,0,"s_029.ogg",100
Sample,63545,0,"s_030.ogg",100
Sample,63636,0,"s_029.ogg",100
Sample,63727,0,"s_030.ogg",100
Sample,63818,0,"s_029.ogg",100
Sample,63909,0,"s_030.ogg",100
Sample,64000,0,"s_047.ogg",100
Sample,64000,0,"s_038.ogg",100
Sample,64000,0,"s_023.ogg",100
Sample,64181,0,"s_042.ogg",100
Sample,64181,0,"s_035.ogg",100
Sample,64363,0,"s_035.ogg",100
Sample,64363,0,"s_042.ogg",100
Sample,64545,0,"s_042.ogg",100
Sample,64545,0,"s_035.ogg",100
Sample,64727,0,"s_035.ogg",100
Sample,64727,0,"s_042.ogg",100
Sample,64909,0,"s_042.ogg",100
Sample,64909,0,"s_035.ogg",100
Sample,65090,0,"s_037.ogg",100
Sample,65090,0,"s_042.ogg",100
Sample,65272,0,"s_042.ogg",100
Sample,65272,0,"s_038.ogg",100
Sample,65454,0,"s_030.ogg",100
Sample,65454,0,"s_042.ogg",100
Sample,65454,0,"s_040.ogg",100
Sample,65636,0,"s_040.ogg",100
Sample,65636,0,"s_042.ogg",100
Sample,65636,0,"s_046.ogg",100
Sample,65818,0,"s_040.ogg",100
Sample,65818,0,"s_046.ogg",100
Sample,65818,0,"s_042.ogg",100
Sample,66000,0,"s_040.ogg",100
Sample,66000,0,"s_042.ogg",100
Sample,66000,0,"s_046.ogg",100
Sample,66181,0,"s_040.ogg",100
Sample,66181,0,"s_042.ogg",100
Sample,66181,0,"s_046.ogg",100
Sample,66363,0,"s_040.ogg",100
Sample,66363,0,"s_042.ogg",100
Sample,66363,0,"s_046.ogg",100
Sample,66545,0,"s_038.ogg",100
Sample,66545,0,"s_042.ogg",100
Sample,66545,0,"s_054.ogg",100
Sample,66727,0,"s_037.ogg",100
Sample,66727,0,"s_054.ogg",100
Sample,66727,0,"s_042.ogg",100
Sample,66909,0,"s_035.ogg",100
Sample,66909,0,"s_050.ogg",100
Sample,66909,0,"s_023.ogg",100
Sample,67090,0,"s_042.ogg",100
Sample,67090,0,"s_035.ogg",100
Sample,67272,0,"s_035.ogg",100
Sample,67272,0,"s_042.ogg",100
Sample,67454,0,"s_042.ogg",100
Sample,67454,0,"s_035.ogg",100
Sample,67636,0,"s_035.ogg",100
Sample,67636,0,"s_042.ogg",100
Sample,67818,0,"s_042.ogg",100
Sample,67818,0,"s_035.ogg",100
Sample,68000,0,"s_037.ogg",100
Sample,68000,0,"s_042.ogg",100
Sample,68181,0,"s_042.ogg",100
Sample,68181,0,"s_038.ogg",100
Sample,68363,0,"s_040.ogg",100
Sample,68363,0,"s_042.ogg",100
Sample,68363,0,"s_030.ogg",100
Sample,68545,0,"s_042.ogg",100
Sample,68545,0,"s_054.ogg",100
Sample,68545,0,"s_040.ogg",100
Sample,68727,0,"s_042.ogg",100
Sample,68727,0,"s_040.ogg",100
Sample,68727,0,"s_054.ogg",100
Sample,68909,0,"s_042.ogg",100
Sample,68909,0,"s_054.ogg",100
Sample,68909,0,"s_040.ogg",100
Sample,69090,0,"s_042.ogg",100
Sample,69090,0,"s_040.ogg",100
Sample,69090,0,"s_054.ogg",100
Sample,69272,0,"s_042.ogg",100
Sample,69272,0,"s_054.ogg",100
Sample,69272,0,"s_040.ogg",100
Sample,69454,0,"s_054.ogg",100
Sample,69454,0,"s_042.ogg",100
Sample,69454,0,"s_038.ogg",100
Sample,69636,0,"s_037.ogg",100
Sample,69636,0,"s_042.ogg",100
Sample,69636,0,"s_054.ogg",100
Sample,69818,0,"s_054.ogg",100
Sample,69818,0,"s_023.ogg",100
Sample,70000,0,"s_054.ogg",100
Sample,70000,0,"s_035.ogg",100
Sample,70000,0,"s_038.ogg",100
Sample,70181,0,"s_054.ogg",100
Sample,70181,0,"s_035.ogg",100
Sample,70181,0,"s_038.ogg",100
Sample,70363,0,"s_042.ogg",100
Sample,70363,0,"s_050.ogg",100
Sample,70363,0,"s_038.ogg",100
Sample,70545,0,"s_028.ogg",100
Sample,70727,0,"s_055.ogg",100
Sample,70727,0,"s_035.ogg",100
Sample,70727,0,"s_040.ogg",100
Sample,70909,0,"s_035.ogg",100
Sample,70909,0,"s_055.ogg",100
Sample,70909,0,"s_040.ogg",100
Sample,71090,0,"s_040.ogg",100
Sample,71090,0,"s_047.ogg",100
Sample,71090,0,"s_043.ogg",100
Sample,71272,0,"s_030.ogg",100
Sample,71454,0,"s_054.ogg",100
Sample,71454,0,"s_035.ogg",100
Sample,71454,0,"s_038.ogg",100
Sample,71636,0,"s_054.ogg",100
Sample,71636,0,"s_035.ogg",100
Sample,71636,0,"s_038.ogg",100
Sample,71818,0,"s_042.ogg",100
Sample,71818,0,"s_050.ogg",100
Sample,71818,0,"s_038.ogg",100
Sample,72000,0,"s_030.ogg",100
Sample,72181,0,"s_037.ogg",100
Sample,72181,0,"s_054.ogg",100
Sample,72181,0,"s_034.ogg",100
Sample,72363,0,"s_037.ogg",100
Sample,72363,0,"s_054.ogg",100
Sample,72363,0,"s_034.ogg",100
Sample,72545,0,"s_042.ogg",100
Sample,72545,0,"s_049.ogg",100
Sample,72545,0,"s_037.ogg",100
Sample,72727,0,"s_047.ogg",100
Sample,72727,0,"s_050.ogg",100
Sample,72727,0,"s_023.ogg",100
Sample,72909,0,"s_062.ogg",100
Sample,72909,0,"s_030.ogg",100
Sample,72909,0,"s_050.ogg",100
Sample,72909,0,"s_023.ogg",100
Sample,73090,0,"s_030.ogg",100
Sample,73090,0,"s_062.ogg",100
Sample,73090,0,"s_023.ogg",100
Sample,73090,0,"s_050.ogg",100
Sample,73272,0,"s_030.ogg",100
Sample,73272,0,"s_050.ogg",100
Sample,73272,0,"s_062.ogg",100
Sample,73272,0,"s_023.ogg",100
Sample,73454,0,"s_050.ogg",100
Sample,73454,0,"s_030.ogg",100
Sample,73454,0,"s_023.ogg",100
Sample,73454,0,"s_062.ogg",100
Sample,73636,0,"s_030.ogg",100
Sample,73636,0,"s_062.ogg",100
Sample,73636,0,"s_050.ogg",100
Sample,73636,0,"s_023.ogg",100
Sample,73818,0,"s_061.ogg",100
Sample,73818,0,"s_030.ogg",100
Sample,73818,0,"s_052.ogg",100
Sample,73818,0,"s_025.ogg",100
Sample,74000,0,"s_050.ogg",100
Sample,74000,0,"s_030.ogg",100
Sample,74000,0,"s_026.ogg",100
Sample,74000,0,"s_059.ogg",100
Sample,74181,0,"s_018.ogg",100
Sample,74181,0,"s_028.ogg",100
Sample,74181,0,"s_058.ogg",100
Sample,74181,0,"s_049.ogg",100
Sample,74181,0,"s_030.ogg",100
Sample,74363,0,"s_030.ogg",100
Sample,74363,0,"s_067.ogg",100
Sample,74363,0,"s_058.ogg",100
Sample,74363,0,"s_040.ogg",100
Sample,74545,0,"s_040.ogg",100
Sample,74545,0,"s_030.ogg",100
Sample,74545,0,"s_055.ogg",100
Sample,74545,0,"s_058.ogg",100
Sample,74727,0,"s_030.ogg",100
Sample,74727,0,"s_058.ogg",100
Sample,74727,0,"s_040.ogg",100
Sample,74727,0,"s_055.ogg",100
Sample,74909,0,"s_040.ogg",100
Sample,74909,0,"s_030.ogg",100
Sample,74909,0,"s_058.ogg",100
Sample,74909,0,"s_055.ogg",100
Sample,75090,0,"s_030.ogg",100
Sample,75090,0,"s_040.ogg",100
Sample,75090,0,"s_055.ogg",100
Sample,75090,0,"s_058.ogg",100
Sample,75272,0,"s_058.ogg",100
Sample,75272,0,"s_030.ogg",100
Sample,75272,0,"s_038.ogg",100
Sample,75272,0,"s_054.ogg",100
Sample,75454,0,"s_058.ogg",100
Sample,75454,0,"s_037.ogg",100
Sample,75454,0,"s_030.ogg",100
Sample,75454,0,"s_064.ogg",100
Sample,75636,0,"s_062.ogg",100
Sample,75636,0,"s_011.ogg",100
Sample,75636,0,"s_059.ogg",100
Sample,75636,0,"s_023.ogg",100
Sample,75818,0,"s_030.ogg",100
Sample,75818,0,"s_054.ogg",100
Sample,75818,0,"s_050.ogg",100
Sample,75818,0,"s_023.ogg",100
Sample,76000,0,"s_050.ogg",100
Sample,76000,0,"s_030.ogg",100
Sample,76000,0,"s_054.ogg",100
Sample,76000,0,"s_023.ogg",100
Sample,76181,0,"s_030.ogg",100
Sample,76181,0,"s_023.ogg",100
Sample,76181,0,"s_050.ogg",100
Sample,76181,0,"s_054.ogg",100
Sample,76363,0,"s_050.ogg",100
Sample,76363,0,"s_030.ogg",100
Sample,76363,0,"s_054.ogg",100
Sample,76363,0,"s_023.ogg",100
Sample,76545,0,"s_030.ogg",100
Sample,76545,0,"s_023.ogg",100
Sample,76545,0,"s_050.ogg",100
Sample,76545,0,"s_054.ogg",100
Sample,76727,0,"s_025.ogg",100
Sample,76727,0,"s_052.ogg",100
Sample,76727,0,"s_030.ogg",100
Sample,76727,0,"s_049.ogg",100
Sample,76909,0,"s_059.ogg",100
Sample,76909,0,"s_030.ogg",100
Sample,76909,0,"s_050.ogg",100
Sample,76909,0,"s_026.ogg",100
Sample,77090,0,"s_046.ogg",100
Sample,77090,0,"s_049.ogg",100
Sample,77090,0,"s_030.ogg",100
Sample,77090,0,"s_018.ogg",100
Sample,77090,0,"s_028.ogg",100
Sample,77272,0,"s_040.ogg",100
Sample,77272,0,"s_030.ogg",100
Sample,77272,0,"s_055.ogg",100
Sample,77272,0,"s_058.ogg",100
Sample,77454,0,"s_030.ogg",100
Sample,77454,0,"s_055.ogg",100
Sample,77454,0,"s_058.ogg",100
Sample,77454,0,"s_040.ogg",100
Sample,77636,0,"s_040.ogg",100
Sample,77636,0,"s_055.ogg",100
Sample,77636,0,"s_030.ogg",100
Sample,77636,0,"s_058.ogg",100
Sample,77818,0,"s_055.ogg",100
Sample,77818,0,"s_040.ogg",100
Sample,77818,0,"s_058.ogg",100
Sample,77818,0,"s_030.ogg",100
Sample,78000,0,"s_030.ogg",100
Sample,78000,0,"s_055.ogg",100
Sample,78000,0,"s_040.ogg",100
Sample,78000,0,"s_058.ogg",100
Sample,78181,0,"s_058.ogg",100
Sample,78181,0,"s_030.ogg",100
Sample,78181,0,"s_038.ogg",100
Sample,78181,0,"s_054.ogg",100
Sample,78363,0,"s_058.ogg",100
Sample,78363,0,"s_052.ogg",100
Sample,78363,0,"s_037.ogg",100
Sample,78363,0,"s_030.ogg",100
Sample,78545,0,"s_050.ogg",100
Sample,78545,0,"s_023.ogg",100
Sample,78545,0,"s_035.ogg",100
Sample,78545,0,"s_059.ogg",100
Sample,78727,0,"s_059.ogg",100
Sample,78727,0,"s_038.ogg",100
Sample,78727,0,"s_042.ogg",100
Sample,78909,0,"s_038.ogg",100
Sample,78909,0,"s_059.ogg",100
Sample,78909,0,"s_042.ogg",100
Sample,79090,0,"s_062.ogg",100
Sample,79090,0,"s_038.ogg",100
Sample,79090,0,"s_035.ogg",100
Sample,79272,0,"s_028.ogg",100
Sample,79454,0,"s_040.ogg",100
Sample,79454,0,"s_059.ogg",100
Sample,79454,0,"s_043.ogg",100
Sample,79636,0,"s_064.ogg",100
Sample,79636,0,"s_040.ogg",100
Sample,79636,0,"s_043.ogg",100
Sample,79818,0,"s_040.ogg",100
Sample,79818,0,"s_064.ogg",100
Sample,79818,0,"s_035.ogg",100
Sample,80000,0,"s_030.ogg",100
Sample,80181,0,"s_042.ogg",100
Sample,80181,0,"s_062.ogg",100
Sample,80181,0,"s_038.ogg",100
Sample,80363,0,"s_042.ogg",100
Sample,80363,0,"s_038.ogg",100
Sample,80363,0,"s_059.ogg",100
Sample,80545,0,"s_062.ogg",100
Sample,80545,0,"s_035.ogg",100
Sample,80545,0,"s_038.ogg",100
Sample,80727,0,"s_028.ogg",100
Sample,80909,0,"s_061.ogg",100
Sample,80909,0,"s_037.ogg",100
Sample,80909,0,"s_042.ogg",100
Sample,81090,0,"s_037.ogg",100
Sample,81090,0,"s_058.ogg",100
Sample,81090,0,"s_042.ogg",100
Sample,81272,0,"s_037.ogg",100
Sample,81272,0,"s_061.ogg",100
Sample,81272,0,"s_034.ogg",100
Sample,81454,0,"s_026.ogg",100
Sample,81636,0,"s_042.ogg",100
Sample,81636,0,"s_054.ogg",100
Sample,81636,0,"s_047.ogg",100
Sample,81818,0,"s_054.ogg",100
Sample,81818,0,"s_042.ogg",100
Sample,81818,0,"s_047.ogg",100
Sample,82000,0,"s_042.ogg",100
Sample,82000,0,"s_059.ogg",100
Sample,82000,0,"s_038.ogg",100
Sample,82181,0,"s_028.ogg",100
Sample,82363,0,"s_048.ogg",100
Sample,82363,0,"s_052.ogg",100
Sample,82363,0,"s_043.ogg",100
Sample,82545,0,"s_052.ogg",100
Sample,82545,0,"s_043.ogg",100
Sample,82545,0,"s_048.ogg",100
Sample,82727,0,"s_043.ogg",100
Sample,82727,0,"s_055.ogg",100
Sample,82727,0,"s_040.ogg",100
Sample,82909,0,"s_030.ogg",100
Sample,83090,0,"s_042.ogg",100
Sample,83090,0,"s_059.ogg",100
Sample,83090,0,"s_047.ogg",100
Sample,83272,0,"s_050.ogg",100
Sample,83272,0,"s_042.ogg",100
Sample,83272,0,"s_047.ogg",100
Sample,83454,0,"s_038.ogg",100
Sample,83454,0,"s_042.ogg",100
Sample,83454,0,"s_062.ogg",100
Sample,83636,0,"s_030.ogg",100
Sample,83818,0,"s_046.ogg",100
Sample,83818,0,"s_058.ogg",100
Sample,83818,0,"s_040.ogg",100
Sample,84000,0,"s_049.ogg",100
Sample,84000,0,"s_040.ogg",100
Sample,84000,0,"s_046.ogg",100
Sample,84181,0,"s_040.ogg",100
Sample,84181,0,"s_052.ogg",100
Sample,84181,0,"s_037.ogg",100
Sample,84363,0,"m_050.ogg",100
Sample,84363,0,"s_023.ogg",100
Sample,84454,0,"s_035.ogg",100
Sample,84545,0,"s_030.ogg",100
Sample,84636,0,"s_035.ogg",100
Sample,84727,0,"s_023.ogg",100
Sample,84818,0,"s_035.ogg",100
Sample,84909,0,"s_030.ogg",100
Sample,85000,0,"s_035.ogg",100
Sample,85090,0,"s_023.ogg",100
Sample,85181,0,"s_035.ogg",100
Sample,85272,0,"s_030.ogg",100
Sample,85363,0,"s_035.ogg",100
Sample,85454,0,"s_023.ogg",100
Sample,85545,0,"s_035.ogg",100
Sample,85636,0,"s_030.ogg",100
Sample,85727,0,"s_035.ogg",100
Sample,85818,0,"s_023.ogg",100
Sample,85909,0,"s_037.ogg",100
Sample,86000,0,"s_030.ogg",100
Sample,86090,0,"s_037.ogg",100
Sample,86181,0,"m_040.ogg",100
Sample,86181,0,"m_023.ogg",100
Sample,86272,0,"s_037.ogg",100
Sample,86363,0,"m_030.ogg",100
Sample,86454,0,"s_037.ogg",100
Sample,86545,0,"m_023.ogg",100
Sample,86545,0,"m_040.ogg",100
Sample,86636,0,"s_037.ogg",100
Sample,86727,0,"m_030.ogg",100
Sample,86818,0,"s_037.ogg",100
Sample,86909,0,"m_023.ogg",100
Sample,86909,0,"m_040.ogg",100
Sample,87000,0,"s_037.ogg",100
Sample,87090,0,"s_030.ogg",100
Sample,87181,0,"s_037.ogg",100
Sample,87272,0,"m_023.ogg",100
Sample,87318,0,"s_047.ogg",100
Sample,87363,0,"s_035.ogg",100
Sample,87454,0,"m_030.ogg",100
Sample,87545,0,"s_035.ogg",100
Sample,87636,0,"m_023.ogg",100
Sample,87727,0,"s_035.ogg",100
Sample,87818,0,"m_030.ogg",100
Sample,87909,0,"s_035.ogg",100
Sample,88000,0,"m_023.ogg",100
Sample,88090,0,"s_035.ogg",100
Sample,88181,0,"m_030.ogg",100
Sample,88272,0,"s_035.ogg",100
Sample,88363,0,"m_023.ogg",100
Sample,88454,0,"s_035.ogg",100
Sample,88545,0,"s_030.ogg",100
Sample,88636,0,"s_035.ogg",100
Sample,88727,0,"s_023.ogg",100
Sample,88818,0,"s_037.ogg",100
Sample,88909,0,"s_030.ogg",100
Sample,89000,0,"s_037.ogg",100
Sample,89090,0,"m_058.ogg",100
Sample,89090,0,"m_052.ogg",100
Sample,89181,0,"s_037.ogg",100
Sample,89272,0,"m_030.ogg",100
Sample,89363,0,"s_037.ogg",100
Sample,89454,0,"m_052.ogg",100
Sample,89454,0,"m_066.ogg",100
Sample,89545,0,"s_037.ogg",100
Sample,89636,0,"m_030.ogg",100
Sample,89727,0,"s_037.ogg",100
Sample,89818,0,"m_052.ogg",100
Sample,89818,0,"m_066.ogg",100
Sample,89909,0,"s_037.ogg",100
Sample,90000,0,"s_030.ogg",100
Sample,90090,0,"s_037.ogg",100
Sample,90181,0,"m_023.ogg",100
Sample,90227,0,"s_059.ogg",100
Sample,90272,0,"s_035.ogg",100
Sample,90363,0,"m_030.ogg",100
Sample,90454,0,"s_035.ogg",100
Sample,90545,0,"m_023.ogg",100
Sample,90636,0,"s_035.ogg",100
Sample,90727,0,"s_030.ogg",100
Sample,90818,0,"s_035.ogg",100
Sample,90909,0,"m_023.ogg",100
Sample,90954,0,"s_058.ogg",100
Sample,91000,0,"s_037.ogg",100
Sample,91090,0,"m_030.ogg",100
Sample,91181,0,"s_037.ogg",100
Sample,91272,0,"m_023.ogg",100
Sample,91363,0,"s_037.ogg",100
Sample,91454,0,"s_030.ogg",100
Sample,91545,0,"s_037.ogg",100
Sample,91636,0,"m_023.ogg",100
Sample,91681,0,"s_059.ogg",100
Sample,91727,0,"s_035.ogg",100
Sample,91818,0,"m_030.ogg",100
Sample,91909,0,"s_035.ogg",100
Sample,92000,0,"m_023.ogg",100
Sample,92090,0,"s_035.ogg",100
Sample,92181,0,"s_030.ogg",100
Sample,92272,0,"s_035.ogg",100
Sample,92363,0,"m_023.ogg",100
Sample,92409,0,"s_058.ogg",100
Sample,92454,0,"s_037.ogg",100
Sample,92545,0,"m_030.ogg",100
Sample,92636,0,"s_037.ogg",100
Sample,92727,0,"m_023.ogg",100
Sample,92818,0,"s_037.ogg",100
Sample,92909,0,"s_030.ogg",100
Sample,93000,0,"s_037.ogg",100
Sample,93181,0,"s_028.ogg",100
Sample,93181,0,"s_040.ogg",100
Sample,93272,0,"s_023.ogg",100
Sample,93272,0,"s_035.ogg",100
Sample,93363,0,"s_040.ogg",100
Sample,93363,0,"s_028.ogg",100
Sample,93545,0,"s_040.ogg",100
Sample,93545,0,"s_028.ogg",100
Sample,93636,0,"s_035.ogg",100
Sample,93636,0,"s_023.ogg",100
Sample,93727,0,"s_028.ogg",100
Sample,93727,0,"s_040.ogg",100
Sample,93909,0,"s_028.ogg",100
Sample,93909,0,"s_040.ogg",100
Sample,94000,0,"s_023.ogg",100
Sample,94000,0,"s_035.ogg",100
Sample,94090,0,"s_028.ogg",100
Sample,94090,0,"s_040.ogg",100
Sample,94272,0,"s_040.ogg",100
Sample,94272,0,"s_028.ogg",100
Sample,94363,0,"s_035.ogg",100
Sample,94363,0,"s_023.ogg",100
Sample,94454,0,"s_040.ogg",100
Sample,94454,0,"s_028.ogg",100
Sample,94545,0,"m_032.ogg",100
Sample,94636,0,"s_026.ogg",100
Sample,94636,0,"s_040.ogg",100
Sample,94727,0,"m_023.ogg",100
Sample,94727,0,"m_035.ogg",100
Sample,94818,0,"s_040.ogg",100
Sample,94818,0,"s_026.ogg",100
Sample,94909,0,"m_028.ogg",100
Sample,95000,0,"s_026.ogg",100
Sample,95000,0,"s_040.ogg",100
Sample,95090,0,"m_023.ogg",100
Sample,95090,0,"m_035.ogg",100
Sample,95181,0,"s_026.ogg",100
Sample,95181,0,"s_040.ogg",100
Sample,95272,0,"m_028.ogg",100
Sample,95363,0,"s_026.ogg",100
Sample,95363,0,"s_040.ogg",100
Sample,95454,0,"m_023.ogg",100
Sample,95454,0,"m_035.ogg",100
Sample,95545,0,"s_040.ogg",100
Sample,95545,0,"s_026.ogg",100
Sample,95636,0,"m_028.ogg",100
Sample,95727,0,"s_026.ogg",100
Sample,95727,0,"s_040.ogg",100
Sample,95818,0,"s_023.ogg",100
Sample,95818,0,"s_035.ogg",100
Sample,95909,0,"s_040.ogg",100
Sample,95909,0,"s_026.ogg",100
Sample,96000,0,"s_040.ogg",100
Sample,96000,0,"s_028.ogg",100
Sample,96000,0,"s_033.ogg",100
Sample,96000,0,"s_024.ogg",100
Sample,96000,0,"s_036.ogg",100
Sample,96090,0,"s_028.ogg",100
Sample,96181,0,"s_021.ogg",100
Sample,96181,0,"s_033.ogg",100
Sample,96272,0,"s_036.ogg",100
Sample,96363,0,"s_040.ogg",100
Sample,96454,0,"s_033.ogg",100
Sample,96545,0,"s_021.ogg",100
Sample,96545,0,"s_036.ogg",100
Sample,96636,0,"s_040.ogg",100
Sample,96727,0,"s_045.ogg",100
Sample,96818,0,"s_036.ogg",100
Sample,96909,0,"s_021.ogg",100
Sample,96909,0,"s_040.ogg",100
Sample,97000,0,"s_045.ogg",100
Sample,97090,0,"s_048.ogg",100
Sample,97181,0,"s_040.ogg",100
Sample,97272,0,"s_021.ogg",100
Sample,97272,0,"s_045.ogg",100
Sample,97363,0,"s_048.ogg",100
Sample,97454,0,"s_052.ogg",100
Sample,97545,0,"s_045.ogg",100
Sample,97636,0,"s_048.ogg",100
Sample,97636,0,"s_021.ogg",100
Sample,97727,0,"s_052.ogg",100
Sample,97818,0,"s_057.ogg",100
Sample,97909,0,"s_048.ogg",100
Sample,98000,0,"s_052.ogg",100
Sample,98000,0,"s_021.ogg",100
Sample,98090,0,"s_057.ogg",100
Sample,98181,0,"s_060.ogg",100
Sample,98272,0,"s_052.ogg",100
Sample,98363,0,"s_057.ogg",100
Sample,98363,0,"s_021.ogg",100
Sample,98454,0,"s_060.ogg",100
Sample,98545,0,"s_024.ogg",100
Sample,98545,0,"s_012.ogg",100
Sample,98545,0,"s_064.ogg",100
Sample,98545,0,"s_057.ogg",100
Sample,98545,0,"s_052.ogg",100
Sample,98727,0,"s_021.ogg",100
Sample,98727,0,"s_052.ogg",100
Sample,98727,0,"s_057.ogg",100
Sample,98727,0,"s_064.ogg",100
Sample,99000,0,"s_028.ogg",100
Sample,99090,0,"s_019.ogg",100
Sample,99090,0,"s_031.ogg",100
Sample,99181,0,"s_035.ogg",100
Sample,99272,0,"s_040.ogg",100
Sample,99363,0,"s_031.ogg",100
Sample,99454,0,"s_019.ogg",100
Sample,99454,0,"s_035.ogg",100
Sample,99545,0,"s_040.ogg",100
Sample,99636,0,"s_043.ogg",100
Sample,99727,0,"s_035.ogg",100
Sample,99818,0,"s_019.ogg",100
Sample,99818,0,"s_040.ogg",100
Sample,99909,0,"s_043.ogg",100
Sample,100000,0,"s_047.ogg",100
Sample,100090,0,"s_040.ogg",100
Sample,100181,0,"s_019.ogg",100
Sample,100181,0,"s_043.ogg",100
Sample,100272,0,"s_047.ogg",100
Sample,100363,0,"s_052.ogg",100
Sample,100454,0,"s_043.ogg",100
Sample,100545,0,"s_047.ogg",100
Sample,100545,0,"s_019.ogg",100
Sample,100636,0,"s_052.ogg",100
Sample,100727,0,"s_055.ogg",100
Sample,100818,0,"s_047.ogg",100
Sample,100909,0,"s_052.ogg",100
Sample,100909,0,"s_019.ogg",100
Sample,101000,0,"s_055.ogg",100
Sample,101090,0,"s_059.ogg",100
Sample,101181,0,"s_052.ogg",100
Sample,101272,0,"s_055.ogg",100
Sample,101272,0,"s_019.ogg",100
Sample,101363,0,"s_059.ogg",100
Sample,101454,0,"s_011.ogg",100
Sample,101454,0,"s_059.ogg",100
Sample,101454,0,"s_064.ogg",100
Sample,101454,0,"s_052.ogg",100
Sample,101454,0,"s_023.ogg",100
Sample,101636,0,"s_064.ogg",100
Sample,101636,0,"s_052.ogg",100
Sample,101636,0,"s_059.ogg",100
Sample,101636,0,"s_019.ogg",100
Sample,101818,0,"m_010.ogg",100
Sample,102045,0,"l_031.ogg",100
Sample,102090,0,"l_034.ogg",100
Sample,102136,0,"l_037.ogg",100
Sample,102181,0,"m_040.ogg",100
Sample,102409,0,"l_013.ogg",100
Sample,102454,0,"l_016.ogg",100
Sample,102500,0,"l_019.ogg",100
Sample,102545,0,"m_022.ogg",100
Sample,102772,0,"l_043.ogg",100
Sample,102818,0,"l_046.ogg",100
Sample,102863,0,"l_049.ogg",100
Sample,102909,0,"m_052.ogg",100
Sample,103136,0,"l_025.ogg",100
Sample,103181,0,"l_028.ogg",100
Sample,103227,0,"l_031.ogg",100
Sample,103272,0,"m_034.ogg",100
Sample,103500,0,"l_055.ogg",100
Sample,103545,0,"l_058.ogg",100
Sample,103590,0,"l_061.ogg",100
Sample,103636,0,"l_040.ogg",100
Sample,103636,0,"l_037.ogg",100
Sample,103636,0,"l_043.ogg",100
Sample,103636,0,"l_064.ogg",100
Sample,103636,0,"l_034.ogg",100
Sample,104727,0,"m_009.ogg",100
Sample,104954,0,"l_027.ogg",100
Sample,105000,0,"l_030.ogg",100
Sample,105045,0,"l_033.ogg",100
Sample,105090,0,"m_036.ogg",100
Sample,105318,0,"l_012.ogg",100
Sample,105363,0,"l_015.ogg",100
Sample,105409,0,"l_018.ogg",100
Sample,105454,0,"m_021.ogg",100
Sample,105681,0,"l_039.ogg",100
Sample,105727,0,"l_042.ogg",100
Sample,105772,0,"l_045.ogg",100
Sample,105818,0,"m_048.ogg",100
Sample,106045,0,"l_024.ogg",100
Sample,106090,0,"l_027.ogg",100
Sample,106136,0,"l_030.ogg",100
Sample,106181,0,"m_033.ogg",100
Sample,106363,0,"l_051.ogg",100
Sample,106454,0,"l_054.ogg",100
Sample,106545,0,"l_036.ogg",100
Sample,106545,0,"l_039.ogg",100
Sample,106545,0,"l_042.ogg",100
Sample,106545,0,"l_033.ogg",100
Sample,106545,0,"l_060.ogg",100
Sample,109181,0,"s_047.ogg",100
Sample,109272,0,"s_043.ogg",100
Sample,109363,0,"s_047.ogg",100
Sample,109454,0,"s_040.ogg",100
Sample,109545,0,"s_047.ogg",100
Sample,109636,0,"s_043.ogg",100
Sample,109727,0,"s_047.ogg",100
Sample,109818,0,"s_040.ogg",100
Sample,109909,0,"s_047.ogg",100
Sample,110000,0,"s_043.ogg",100
Sample,110090,0,"s_047.ogg",100
Sample,110181,0,"s_040.ogg",100
Sample,110272,0,"s_047.ogg",100
Sample,110363,0,"s_043.ogg",100
Sample,110454,0,"s_047.ogg",100
Sample,110545,0,"s_042.ogg",100
Sample,110636,0,"s_047.ogg",100
Sample,110727,0,"s_045.ogg",100
Sample,110818,0,"s_047.ogg",100
Sample,110909,0,"s_042.ogg",100
Sample,111000,0,"s_047.ogg",100
Sample,111090,0,"s_045.ogg",100
Sample,111181,0,"s_047.ogg",100
Sample,111272,0,"s_042.ogg",100
Sample,111363,0,"s_047.ogg",100
Sample,111454,0,"s_045.ogg",100
Sample,111545,0,"s_047.ogg",100
Sample,111636,0,"s_042.ogg",100
Sample,111727,0,"s_047.ogg",100
Sample,111818,0,"s_045.ogg",100
Sample,111909,0,"s_047.ogg",100
Sample,112000,0,"s_040.ogg",100
Sample,112090,0,"s_047.ogg",100
Sample,112181,0,"s_043.ogg",100
Sample,112272,0,"s_047.ogg",100
Sample,112363,0,"s_040.ogg",100
Sample,112454,0,"s_047.ogg",100
Sample,112545,0,"s_043.ogg",100
Sample,112636,0,"s_047.ogg",100
Sample,112727,0,"s_040.ogg",100
Sample,112818,0,"s_047.ogg",100
Sample,112909,0,"s_043.ogg",100
Sample,113000,0,"s_047.ogg",100
Sample,113090,0,"s_040.ogg",100
Sample,113181,0,"s_047.ogg",100
Sample,113272,0,"s_043.ogg",100
Sample,113363,0,"s_047.ogg",100
Sample,113454,0,"s_039.ogg",100
Sample,113545,0,"s_047.ogg",100
Sample,113636,0,"s_045.ogg",100
Sample,113727,0,"s_047.ogg",100
Sample,113818,0,"s_039.ogg",100
Sample,113909,0,"s_047.ogg",100
Sample,114000,0,"s_045.ogg",100
Sample,114090,0,"s_047.ogg",100
Sample,114181,0,"s_039.ogg",100
Sample,114272,0,"s_047.ogg",100
Sample,114363,0,"s_045.ogg",100
Sample,114454,0,"s_047.ogg",100
Sample,114545,0,"s_039.ogg",100
Sample,114636,0,"s_047.ogg",100
Sample,114727,0,"s_045.ogg",100
Sample,114818,0,"s_047.ogg",100
Sample,114909,0,"s_043.ogg",100
Sample,114909,0,"s_031.ogg",100
Sample,114909,0,"s_047.ogg",100
Sample,115000,0,"s_035.ogg",100
Sample,115090,0,"s_031.ogg",100
Sample,115181,0,"s_035.ogg",100
Sample,115272,0,"m_059.ogg",100
Sample,115272,0,"s_031.ogg",100
Sample,115363,0,"s_035.ogg",100
Sample,115454,0,"s_031.ogg",100
Sample,115545,0,"s_035.ogg",100
Sample,115636,0,"s_031.ogg",100
Sample,115727,0,"s_035.ogg",100
Sample,115818,0,"s_031.ogg",100
Sample,115909,0,"s_035.ogg",100
Sample,116000,0,"m_043.ogg",100
Sample,116000,0,"s_031.ogg",100
Sample,116090,0,"s_035.ogg",100
Sample,116181,0,"s_031.ogg",100
Sample,116272,0,"s_035.ogg",100
Sample,116272,0,"s_052.ogg",100
Sample,116363,0,"s_033.ogg",100
Sample,116363,0,"m_040.ogg",100
Sample,116454,0,"s_035.ogg",100
Sample,116545,0,"s_033.ogg",100
Sample,116636,0,"s_035.ogg",100
Sample,116727,0,"s_033.ogg",100
Sample,116727,0,"m_039.ogg",100
Sample,116818,0,"s_035.ogg",100
Sample,116909,0,"s_033.ogg",100
Sample,117000,0,"s_035.ogg",100
Sample,117090,0,"s_033.ogg",100
Sample,117181,0,"s_035.ogg",100
Sample,117272,0,"s_039.ogg",100
Sample,117272,0,"s_033.ogg",100
Sample,117363,0,"s_035.ogg",100
Sample,117454,0,"s_033.ogg",100
Sample,117454,0,"m_047.ogg",100
Sample,117545,0,"s_035.ogg",100
Sample,117636,0,"s_033.ogg",100
Sample,117727,0,"s_035.ogg",100
Sample,117727,0,"s_051.ogg",100
Sample,117818,0,"m_054.ogg",100
Sample,117818,0,"s_031.ogg",100
Sample,117909,0,"s_035.ogg",100
Sample,118000,0,"s_031.ogg",100
Sample,118090,0,"s_035.ogg",100
Sample,118181,0,"s_031.ogg",100
Sample,118181,0,"m_052.ogg",100
Sample,118272,0,"s_035.ogg",100
Sample,118363,0,"s_031.ogg",100
Sample,118454,0,"s_035.ogg",100
Sample,118545,0,"s_031.ogg",100
Sample,118636,0,"s_035.ogg",100
Sample,118727,0,"s_031.ogg",100
Sample,118727,0,"s_052.ogg",100
Sample,118818,0,"s_035.ogg",100
Sample,118909,0,"m_059.ogg",100
Sample,118909,0,"s_031.ogg",100
Sample,119000,0,"s_035.ogg",100
Sample,119090,0,"s_031.ogg",100
Sample,119181,0,"s_035.ogg",100
Sample,119181,0,"s_052.ogg",100
Sample,119272,0,"s_027.ogg",100
Sample,119272,0,"m_043.ogg",100
Sample,119363,0,"s_035.ogg",100
Sample,119454,0,"s_027.ogg",100
Sample,119545,0,"s_035.ogg",100
Sample,119636,0,"s_027.ogg",100
Sample,119636,0,"m_042.ogg",100
Sample,119727,0,"s_035.ogg",100
Sample,119818,0,"s_027.ogg",100
Sample,119909,0,"s_035.ogg",100
Sample,120000,0,"s_027.ogg",100
Sample,120090,0,"s_035.ogg",100
Sample,120181,0,"s_027.ogg",100
Sample,120181,0,"s_042.ogg",100
Sample,120272,0,"s_035.ogg",100
Sample,120363,0,"s_027.ogg",100
Sample,120363,0,"m_047.ogg",100
Sample,120454,0,"s_035.ogg",100
Sample,120545,0,"s_027.ogg",100
Sample,120636,0,"s_035.ogg",100
Sample,120636,0,"s_042.ogg",100
Sample,120727,0,"s_028.ogg",100
Sample,120727,0,"s_057.ogg",100
Sample,120818,0,"s_035.ogg",100
Sample,120909,0,"s_028.ogg",100
Sample,120909,0,"s_043.ogg",100
Sample,121000,0,"s_035.ogg",100
Sample,121090,0,"s_052.ogg",100
Sample,121090,0,"s_028.ogg",100
Sample,121181,0,"s_035.ogg",100
Sample,121272,0,"s_028.ogg",100
Sample,121272,0,"s_043.ogg",100
Sample,121363,0,"s_035.ogg",100
Sample,121454,0,"s_057.ogg",100
Sample,121454,0,"s_026.ogg",100
Sample,121545,0,"s_028.ogg",100
Sample,121636,0,"s_026.ogg",100
Sample,121636,0,"s_056.ogg",100
Sample,121727,0,"s_028.ogg",100
Sample,121818,0,"s_026.ogg",100
Sample,121818,0,"s_052.ogg",100
Sample,121909,0,"s_028.ogg",100
Sample,122000,0,"s_026.ogg",100
Sample,122000,0,"s_044.ogg",100
Sample,122090,0,"s_028.ogg",100
Sample,122181,0,"s_047.ogg",100
Sample,122181,0,"s_024.ogg",100
Sample,122272,0,"s_028.ogg",100
Sample,122363,0,"s_045.ogg",100
Sample,122363,0,"s_024.ogg",100
Sample,122454,0,"s_028.ogg",100
Sample,122545,0,"s_024.ogg",100
Sample,122545,0,"s_052.ogg",100
Sample,122636,0,"s_028.ogg",100
Sample,122727,0,"s_057.ogg",100
Sample,122727,0,"s_024.ogg",100
Sample,122818,0,"s_028.ogg",100
Sample,122909,0,"s_020.ogg",100
Sample,122909,0,"s_048.ogg",100
Sample,123000,0,"s_028.ogg",100
Sample,123090,0,"s_020.ogg",100
Sample,123090,0,"s_047.ogg",100
Sample,123181,0,"s_028.ogg",100
Sample,123272,0,"s_020.ogg",100
Sample,123272,0,"s_052.ogg",100
Sample,123363,0,"s_028.ogg",100
Sample,123454,0,"s_047.ogg",100
Sample,123454,0,"s_020.ogg",100
Sample,123545,0,"s_028.ogg",100
Sample,123757,0,"l_057.ogg",100
Sample,123878,0,"l_052.ogg",100
Sample,124000,0,"m_048.ogg",100
Sample,124121,0,"m_045.ogg",100
Sample,124242,0,"m_040.ogg",100
Sample,124363,0,"l_048.ogg",100
Sample,124484,0,"l_045.ogg",100
Sample,124606,0,"l_040.ogg",100
Sample,124727,0,"m_036.ogg",100
Sample,124848,0,"m_033.ogg",100
Sample,124969,0,"m_028.ogg",100
Sample,125090,0,"m_036.ogg",100
Sample,125181,0,"m_033.ogg",100
Sample,125272,0,"s_028.ogg",100
Sample,125363,0,"l_024.ogg",100
Sample,125454,0,"m_028.ogg",100
Sample,125545,0,"m_033.ogg",100
Sample,125636,0,"m_036.ogg",100
Sample,125727,0,"m_040.ogg",100
Sample,125818,0,"m_045.ogg",100
Sample,125909,0,"m_048.ogg",100
Sample,126000,0,"m_052.ogg",100
Sample,126090,0,"s_057.ogg",100
Sample,126181,0,"m_060.ogg",100
Sample,126272,0,"s_057.ogg",100
Sample,126363,0,"s_052.ogg",100
Sample,126454,0,"s_048.ogg",100
Sample,126666,0,"l_057.ogg",100
Sample,126787,0,"l_053.ogg",100
Sample,126909,0,"m_048.ogg",100
Sample,127030,0,"m_045.ogg",100
Sample,127151,0,"m_041.ogg",100
Sample,127272,0,"l_048.ogg",100
Sample,127393,0,"l_045.ogg",100
Sample,127515,0,"l_041.ogg",100
Sample,127636,0,"m_036.ogg",100
Sample,127757,0,"m_033.ogg",100
Sample,127878,0,"m_029.ogg",100
Sample,128000,0,"m_036.ogg",100
Sample,128090,0,"m_033.ogg",100
Sample,128181,0,"s_029.ogg",100
Sample,128272,0,"l_024.ogg",100
Sample,128363,0,"m_029.ogg",100
Sample,128454,0,"m_033.ogg",100
Sample,128545,0,"m_036.ogg",100
Sample,128636,0,"m_041.ogg",100
Sample,128727,0,"m_045.ogg",100
Sample,128818,0,"m_048.ogg",100
Sample,128909,0,"m_053.ogg",100
Sample,129000,0,"s_057.ogg",100
Sample,129090,0,"m_060.ogg",100
Sample,129181,0,"s_057.ogg",100
Sample,129272,0,"s_053.ogg",100
Sample,129363,0,"s_048.ogg",100
Sample,129575,0,"l_061.ogg",100
Sample,129696,0,"l_058.ogg",100
Sample,129818,0,"m_055.ogg",100
Sample,129939,0,"m_052.ogg",100
Sample,130060,0,"m_049.ogg",100
Sample,130181,0,"l_055.ogg",100
Sample,130303,0,"l_052.ogg",100
Sample,130424,0,"l_049.ogg",100
Sample,130545,0,"l_046.ogg",100
Sample,130636,0,"m_043.ogg",100
Sample,130727,0,"m_040.ogg",100
Sample,130818,0,"m_037.ogg",100
Sample,130909,0,"m_043.ogg",100
Sample,131000,0,"m_040.ogg",100
Sample,131090,0,"m_037.ogg",100
Sample,131181,0,"m_034.ogg",100
Sample,131272,0,"s_031.ogg",100
Sample,131363,0,"m_028.ogg",100
Sample,131454,0,"m_031.ogg",100
Sample,131545,0,"m_034.ogg",100
Sample,131636,0,"m_037.ogg",100
Sample,131696,0,"m_040.ogg",100
Sample,131757,0,"m_043.ogg",100
Sample,131818,0,"m_046.ogg",100
Sample,131878,0,"m_049.ogg",100
Sample,131939,0,"m_052.ogg",100
Sample,132000,0,"m_055.ogg",100
Sample,132060,0,"m_058.ogg",100
Sample,132121,0,"s_061.ogg",100
Sample,132181,0,"s_064.ogg",100
Sample,132242,0,"s_061.ogg",100
Sample,132303,0,"s_055.ogg",100
Sample,132484,0,"l_064.ogg",100
Sample,132606,0,"l_059.ogg",100
Sample,132727,0,"m_055.ogg",100
Sample,132848,0,"m_052.ogg",100
Sample,132969,0,"m_047.ogg",100
Sample,133090,0,"l_055.ogg",100
Sample,133212,0,"m_052.ogg",100
Sample,133333,0,"m_047.ogg",100
Sample,133454,0,"m_043.ogg",100
Sample,133545,0,"l_052.ogg",100
Sample,133636,0,"m_047.ogg",100
Sample,133727,0,"m_043.ogg",100
Sample,133818,0,"m_040.ogg",100
Sample,133909,0,"l_047.ogg",100
Sample,134000,0,"m_043.ogg",100
Sample,134090,0,"m_040.ogg",100
Sample,134181,0,"m_035.ogg",100
Sample,134272,0,"m_043.ogg",100
Sample,134363,0,"m_040.ogg",100
Sample,134454,0,"m_035.ogg",100
Sample,134545,0,"m_031.ogg",100
Sample,134636,0,"m_040.ogg",100
Sample,134727,0,"m_035.ogg",100
Sample,134818,0,"m_031.ogg",100
Sample,134909,0,"m_028.ogg",100
Sample,135000,0,"s_035.ogg",100
Sample,135090,0,"s_031.ogg",100
Sample,135181,0,"s_028.ogg",100
Sample,135272,0,"s_023.ogg",100
Sample,135363,0,"s_024.ogg",100
Sample,135454,0,"s_025.ogg",100
Sample,135545,0,"s_026.ogg",100
Sample,135636,0,"s_027.ogg",100
Sample,135727,0,"s_028.ogg",100
Sample,135818,0,"s_029.ogg",100
Sample,135909,0,"s_030.ogg",100
Sample,136000,0,"s_031.ogg",100
Sample,136090,0,"s_032.ogg",100
Sample,136181,0,"s_033.ogg",100
Sample,136272,0,"s_034.ogg",100
Sample,136363,0,"s_035.ogg",100
Sample,136454,0,"s_036.ogg",100
Sample,136545,0,"s_037.ogg",100
Sample,136636,0,"s_038.ogg",100
Sample,136727,0,"s_039.ogg",100
Sample,136818,0,"s_040.ogg",100
Sample,136909,0,"s_041.ogg",100
Sample,137000,0,"s_042.ogg",100
Sample,137090,0,"s_043.ogg",100
Sample,137151,0,"s_044.ogg",100
Sample,137212,0,"s_045.ogg",100
Sample,137272,0,"s_046.ogg",100
Sample,137363,0,"s_047.ogg",100
Sample,137454,0,"s_048.ogg",100
Sample,137515,0,"s_049.ogg",100
Sample,137575,0,"s_050.ogg",100
Sample,137666,0,"s_051.ogg",100
Sample,137727,0,"s_052.ogg",100
Sample,137818,0,"s_053.ogg",100
Sample,137878,0,"s_054.ogg",100
Sample,137939,0,"s_055.ogg",100
Sample,138000,0,"s_056.ogg",100
Sample,138045,0,"s_057.ogg",100
Sample,138090,0,"s_058.ogg",100
Sample,138136,0,"s_059.ogg",100
Sample,138181,0,"s_060.ogg",100
Sample,138272,0,"s_062.ogg",100
Sample,138363,0,"s_060.ogg",100
Sample,138454,0,"s_062.ogg",100
Sample,138545,0,"s_060.ogg",100
Sample,138636,0,"s_062.ogg",100
Sample,138727,0,"s_060.ogg",100
Sample,138818,0,"s_062.ogg",100
Sample,138909,0,"s_060.ogg",100
Sample,139000,0,"s_062.ogg",100
Sample,139090,0,"s_060.ogg",100
Sample,139181,0,"s_062.ogg",100
Sample,139272,0,"s_060.ogg",100
Sample,139363,0,"s_062.ogg",100
Sample,139454,0,"l_060.ogg",100
Sample,139545,0,"l_062.ogg",100
Sample,139636,0,"l_059.ogg",100
Sample,139727,0,"m_057.ogg",100
Sample,139818,0,"l_055.ogg",100
Sample,139909,0,"m_054.ogg",100
Sample,140000,0,"l_057.ogg",100
Sample,140090,0,"l_052.ogg",100
Sample,140181,0,"l_051.ogg",100
Sample,140272,0,"l_054.ogg",100
Sample,140363,0,"m_048.ogg",100
Sample,140454,0,"l_047.ogg",100
Sample,140545,0,"m_045.ogg",100
Sample,140636,0,"l_048.ogg",100
Sample,140727,0,"l_043.ogg",100
Sample,140818,0,"m_042.ogg",100
Sample,140909,0,"l_045.ogg",100
Sample,141000,0,"l_040.ogg",100
Sample,141090,0,"l_039.ogg",100
Sample,141181,0,"l_042.ogg",100
Sample,141272,0,"m_036.ogg",100
Sample,141363,0,"l_035.ogg",100
Sample,141454,0,"m_033.ogg",100
Sample,141545,0,"l_036.ogg",100
Sample,141636,0,"l_031.ogg",100
Sample,141727,0,"m_030.ogg",100
Sample,141818,0,"l_033.ogg",100
Sample,141909,0,"l_028.ogg",100
Sample,142000,0,"l_027.ogg",100
Sample,142090,0,"l_030.ogg",100
Sample,144000,0,"l_022.ogg",100
Sample,145454,0,"l_023.ogg",100
Sample,146909,0,"m_016.ogg",100
Sample,147000,0,"s_028.ogg",100
Sample,147090,0,"s_023.ogg",100
Sample,147181,0,"s_028.ogg",100
Sample,147272,0,"s_016.ogg",100
Sample,147363,0,"s_028.ogg",100
Sample,147454,0,"s_023.ogg",100
Sample,147545,0,"s_028.ogg",100
Sample,147636,0,"s_016.ogg",100
Sample,147727,0,"s_028.ogg",100
Sample,147818,0,"s_023.ogg",100
Sample,147909,0,"s_028.ogg",100
Sample,148000,0,"s_016.ogg",100
Sample,148090,0,"s_028.ogg",100
Sample,148181,0,"s_023.ogg",100
Sample,148272,0,"s_028.ogg",100
Sample,148363,0,"s_016.ogg",100
Sample,148454,0,"s_030.ogg",100
Sample,148545,0,"s_023.ogg",100
Sample,148636,0,"s_030.ogg",100
Sample,148727,0,"m_047.ogg",100
Sample,148727,0,"m_035.ogg",100
Sample,148818,0,"s_030.ogg",100
Sample,148909,0,"m_023.ogg",100
Sample,149000,0,"s_030.ogg",100
Sample,149090,0,"m_035.ogg",100
Sample,149090,0,"m_047.ogg",100
Sample,149181,0,"s_030.ogg",100
Sample,149272,0,"m_023.ogg",100
Sample,149363,0,"s_030.ogg",100
Sample,149454,0,"m_035.ogg",100
Sample,149454,0,"m_047.ogg",100
Sample,149545,0,"s_030.ogg",100
Sample,149636,0,"s_023.ogg",100
Sample,149727,0,"s_030.ogg",100
Sample,149818,0,"m_016.ogg",100
Sample,149863,0,"m_040.ogg",100
Sample,149909,0,"s_028.ogg",100
Sample,150000,0,"m_023.ogg",100
Sample,150090,0,"s_028.ogg",100
Sample,150181,0,"m_016.ogg",100
Sample,150272,0,"s_028.ogg",100
Sample,150363,0,"m_023.ogg",100
Sample,150454,0,"s_028.ogg",100
Sample,150545,0,"m_016.ogg",100
Sample,150636,0,"s_028.ogg",100
Sample,150727,0,"s_023.ogg",100
Sample,150818,0,"s_028.ogg",100
Sample,150909,0,"s_016.ogg",100
Sample,151000,0,"s_028.ogg",100
Sample,151090,0,"s_023.ogg",100
Sample,151181,0,"s_028.ogg",100
Sample,151272,0,"s_016.ogg",100
Sample,151363,0,"s_030.ogg",100
Sample,151454,0,"s_023.ogg",100
Sample,151545,0,"s_030.ogg",100
Sample,151636,0,"m_016.ogg",100
Sample,151636,0,"m_045.ogg",100
Sample,151727,0,"s_030.ogg",100
Sample,151818,0,"m_023.ogg",100
Sample,151909,0,"s_030.ogg",100
Sample,152000,0,"m_045.ogg",100
Sample,152000,0,"m_016.ogg",100
Sample,152090,0,"s_030.ogg",100
Sample,152181,0,"m_023.ogg",100
Sample,152272,0,"s_030.ogg",100
Sample,152363,0,"m_045.ogg",100
Sample,152363,0,"m_016.ogg",100
Sample,152454,0,"s_030.ogg",100
Sample,152545,0,"s_023.ogg",100
Sample,152636,0,"s_030.ogg",100
Sample,152727,0,"m_016.ogg",100
Sample,152772,0,"m_052.ogg",100
Sample,152818,0,"s_028.ogg",100
Sample,152909,0,"m_023.ogg",100
Sample,153000,0,"s_028.ogg",100
Sample,153090,0,"m_016.ogg",100
Sample,153181,0,"s_028.ogg",100
Sample,153272,0,"s_023.ogg",100
Sample,153363,0,"s_028.ogg",100
Sample,153454,0,"m_016.ogg",100
Sample,153500,0,"m_051.ogg",100
Sample,153545,0,"s_030.ogg",100
Sample,153636,0,"m_023.ogg",100
Sample,153727,0,"s_030.ogg",100
Sample,153818,0,"m_016.ogg",100
Sample,153909,0,"s_030.ogg",100
Sample,154000,0,"s_023.ogg",100
Sample,154090,0,"s_030.ogg",100
Sample,154181,0,"m_016.ogg",100
Sample,154227,0,"m_052.ogg",100
Sample,154272,0,"s_028.ogg",100
Sample,154363,0,"m_023.ogg",100
Sample,154454,0,"s_028.ogg",100
Sample,154545,0,"m_016.ogg",100
Sample,154636,0,"s_028.ogg",100
Sample,154727,0,"s_023.ogg",100
Sample,154818,0,"s_028.ogg",100
Sample,154909,0,"m_016.ogg",100
Sample,154954,0,"m_051.ogg",100
Sample,155000,0,"s_030.ogg",100
Sample,155090,0,"m_023.ogg",100
Sample,155181,0,"s_030.ogg",100
Sample,155272,0,"m_016.ogg",100
Sample,155363,0,"s_030.ogg",100
Sample,155454,0,"s_023.ogg",100
Sample,155545,0,"s_030.ogg",100
Sample,155636,0,"l_028.ogg",100
Sample,155636,0,"l_023.ogg",100
Sample,155666,0,"s_052.ogg",100
Sample,155681,0,"m_059.ogg",100
Sample,155727,0,"l_031.ogg",100
Sample,155727,0,"l_043.ogg",100
Sample,155818,0,"m_035.ogg",100
Sample,155818,0,"m_047.ogg",100
Sample,155909,0,"m_040.ogg",100
Sample,155909,0,"m_052.ogg",100
Sample,156090,0,"l_035.ogg",100
Sample,156090,0,"l_047.ogg",100
Sample,156181,0,"m_052.ogg",100
Sample,156181,0,"m_040.ogg",100
Sample,156272,0,"m_055.ogg",100
Sample,156272,0,"m_043.ogg",100
Sample,156454,0,"l_040.ogg",100
Sample,156454,0,"l_052.ogg",100
Sample,156545,0,"m_055.ogg",100
Sample,156545,0,"m_043.ogg",100
Sample,156636,0,"m_059.ogg",100
Sample,156636,0,"m_047.ogg",100
Sample,156818,0,"m_043.ogg",100
Sample,156818,0,"m_055.ogg",100
Sample,156909,0,"m_047.ogg",100
Sample,156909,0,"m_059.ogg",100
Sample,157000,0,"s_064.ogg",100
Sample,157000,0,"s_052.ogg",100
Sample,157181,0,"m_064.ogg",100
Sample,157181,0,"m_052.ogg",100
Sample,157272,0,"m_047.ogg",100
Sample,157272,0,"m_059.ogg",100
Sample,157363,0,"m_043.ogg",100
Sample,157363,0,"m_055.ogg",100
Sample,157545,0,"m_059.ogg",100
Sample,157545,0,"m_047.ogg",100
Sample,157636,0,"m_055.ogg",100
Sample,157636,0,"m_043.ogg",100
Sample,157727,0,"m_052.ogg",100
Sample,157727,0,"m_040.ogg",100
Sample,157909,0,"m_055.ogg",100
Sample,157909,0,"m_043.ogg",100
Sample,158000,0,"m_040.ogg",100
Sample,158000,0,"m_052.ogg",100
Sample,158090,0,"m_035.ogg",100
Sample,158090,0,"m_047.ogg",100
Sample,158272,0,"m_040.ogg",100
Sample,158272,0,"m_052.ogg",100
Sample,158363,0,"m_047.ogg",100
Sample,158363,0,"m_035.ogg",100
Sample,158454,0,"m_043.ogg",100
Sample,158454,0,"m_031.ogg",100
Sample,158636,0,"m_047.ogg",100
Sample,158636,0,"m_035.ogg",100
Sample,158727,0,"m_031.ogg",100
Sample,158727,0,"m_043.ogg",100
Sample,158818,0,"m_028.ogg",100
Sample,158818,0,"m_040.ogg",100
Sample,159000,0,"m_043.ogg",100
Sample,159000,0,"m_031.ogg",100
Sample,159090,0,"m_040.ogg",100
Sample,159090,0,"m_028.ogg",100
Sample,159181,0,"m_035.ogg",100
Sample,159181,0,"m_023.ogg",100
Sample,159363,0,"m_040.ogg",100
Sample,159363,0,"m_028.ogg",100
Sample,159454,0,"m_035.ogg",100
Sample,159454,0,"m_023.ogg",100
Sample,159545,0,"m_031.ogg",100
Sample,159545,0,"m_019.ogg",100
Sample,159727,0,"s_023.ogg",100
Sample,159727,0,"s_035.ogg",100
Sample,159818,0,"s_031.ogg",100
Sample,159818,0,"s_019.ogg",100
Sample,159909,0,"s_035.ogg",100
Sample,159909,0,"s_023.ogg",100
Sample,160727,0,"m_019.ogg",100
Sample,160727,0,"m_016.ogg",100
Sample,160727,0,"m_055.ogg",100
Sample,160727,0,"m_059.ogg",100
Sample,160727,0,"m_023.ogg",100
Sample,161454,0,"m_016.ogg",100
Sample,161454,0,"m_043.ogg",100
Sample,161454,0,"m_040.ogg",100
Sample,161454,0,"m_052.ogg",100
Sample,161454,0,"m_047.ogg",100

[TimingPoints]
0,363.636363636366,4,2,0,100,1,0

[HitObjects]
25,192,1454,5,0,0:0:0:0:s_016.ogg
281,192,1818,1,0,0:0:0:0:s_016.ogg
76,192,2181,1,0,0:0:0:0:s_016.ogg
332,192,2545,1,0,0:0:0:0:s_016.ogg
128,192,2909,1,0,0:0:0:0:s_016.ogg
384,192,3272,1,0,0:0:0:0:s_016.ogg
179,192,3636,1,0,0:0:0:0:s_016.ogg
435,192,4000,1,0,0:0:0:0:s_016.ogg
435,192,4181,1,0,0:0:0:0:s_023.ogg
76,192,4363,1,0,0:0:0:0:s_015.ogg
332,192,4727,1,0,0:0:0:0:s_015.ogg
128,192,5090,1,0,0:0:0:0:s_015.ogg
384,192,5454,1,0,0:0:0:0:s_015.ogg
179,192,5818,1,0,0:0:0:0:s_015.ogg
435,192,6181,1,0,0:0:0:0:s_015.ogg
230,192,6545,1,0,0:0:0:0:s_015.ogg
486,192,6909,1,0,0:0:0:0:s_015.ogg
486,192,7090,1,0,0:0:0:0:s_023.ogg
281,192,7272,1,0,0:0:0:0:s_014.ogg
25,192,7636,1,0,0:0:0:0:s_014.ogg
332,192,8000,1,0,0:0:0:0:s_014.ogg
76,192,8363,1,0,0:0:0:0:s_014.ogg
384,192,8727,1,0,0:0:0:0:s_014.ogg
128,192,9090,1,0,0:0:0:0:s_014.ogg
435,192,9454,1,0,0:0:0:0:s_014.ogg
179,192,9818,1,0,0:0:0:0:s_026.ogg
179,192,10000,1,0,0:0:0:0:s_023.ogg
332,192,10181,1,0,0:0:0:0:s_012.ogg
76,192,10545,1,0,0:0:0:0:s_012.ogg
384,192,10909,1,0,0:0:0:0:s_012.ogg
128,192,11272,1,0,0:0:0:0:s_012.ogg
128,192,11454,1,0,0:0:0:0:s_024.ogg
435,192,11636,1,0,0:0:0:0:s_012.ogg
179,192,12000,1,0,0:0:0:0:s_012.ogg
486,192,12363,1,0,0:0:0:0:s_012.ogg
230,192,12727,1,0,0:0:0:0:s_012.ogg
230,192,12909,1,0,0:0:0:0:s_024.ogg
384,192,13090,1,0,0:0:0:0:s_059.ogg
281,192,13272,1,0,0:0:0:0:s_047.ogg
128,192,13454,1,0,0:0:0:0:s_047.ogg
332,192,13636,1,0,0:0:0:0:s_049.ogg
76,192,13818,1,0,0:0:0:0:s_051.ogg
384,192,14000,1,0,0:0:0:0:s_052.ogg
25,192,14181,1,0,0:0:0:0:s_054.ogg
332,192,14363,1,0,0:0:0:0:s_051.ogg
76,192,14545,1,0,0:0:0:0:s_054.ogg
281,192,14727,1,0,0:0:0:0:s_052.ogg
486,192,14909,1,0,0:0:0:0:s_057.ogg
230,192,15090,1,0,0:0:0:0:s_055.ogg
435,192,15272,1,0,0:0:0:0:s_054.ogg
179,192,15454,1,0,0:0:0:0:s_052.ogg
384,192,15636,1,0,0:0:0:0:s_051.ogg
128,192,15818,1,0,0:0:0:0:s_048.ogg
281,192,16000,1,0,0:0:0:0:s_047.ogg
230,192,16181,1,0,0:0:0:0:s_047.ogg
281,192,16363,1,0,0:0:0:0:s_047.ogg
179,192,16545,1,0,0:0:0:0:s_049.ogg
332,192,16727,1,0,0:0:0:0:s_051.ogg
128,192,16909,1,0,0:0:0:0:s_052.ogg
384,192,17090,1,0,0:0:0:0:s_054.ogg
179,192,17272,1,0,0:0:0:0:s_051.ogg
332,192,17454,1,0,0:0:0:0:s_054.ogg
128,192,17636,1,0,0:0:0:0:s_052.ogg
486,192,17818,1,0,0:0:0:0:s_057.ogg
25,192,18000,1,0,0:0:0:0:s_055.ogg
435,192,18181,1,0,0:0:0:0:s_054.ogg
76,192,18363,1,0,0:0:0:0:s_052.ogg
384,192,18545,1,0,0:0:0:0:s_051.ogg
128,192,18727,1,0,0:0:0:0:s_048.ogg
332,192,18909,1,0,0:0:0:0:s_039.ogg
179,192,19090,1,0,0:0:0:0:s_035.ogg
332,192,19272,1,0,0:0:0:0:s_039.ogg
179,192,19454,1,0,0:0:0:0:s_035.ogg
332,192,19636,1,0,0:0:0:0:s_039.ogg
179,192,19818,1,0,0:0:0:0:s_035.ogg
332,192,20000,1,0,0:0:0:0:s_039.ogg
179,192,20181,1,0,0:0:0:0:s_035.ogg
332,192,20363,1,0,0:0:0:0:s_039.ogg
25,192,20727,1,0,0:0:0:0:l_023.ogg
281,192,20727,1,0,0:0:0:0:l_035.ogg
25,192,23272,1,0,0:0:0:0:s_016.ogg
281,192,23636,1,0,0:0:0:0:s_016.ogg
76,192,24000,1,0,0:0:0:0:s_016.ogg
332,192,24363,1,0,0:0:0:0:s_016.ogg
128,192,24727,1,0,0:0:0:0:s_016.ogg
384,192,25090,1,0,0:0:0:0:s_016.ogg
179,192,25454,1,0,0:0:0:0:s_016.ogg
435,192,25818,1,0,0:0:0:0:s_028.ogg
435,192,26000,1,0,0:0:0:0:s_023.ogg
76,192,26181,1,0,0:0:0:0:s_013.ogg
332,192,26545,1,0,0:0:0:0:s_025.ogg
128,192,26909,1,0,0:0:0:0:s_025.ogg
384,192,27272,1,0,0:0:0:0:s_025.ogg
179,192,27636,1,0,0:0:0:0:s_025.ogg
435,192,28000,1,0,0:0:0:0:s_025.ogg
230,192,28363,1,0,0:0:0:0:s_025.ogg
486,192,28727,1,0,0:0:0:0:s_055.ogg
486,192,28909,1,0,0:0:0:0:s_067.ogg
281,192,29090,1,0,0:0:0:0:s_010.ogg
25,192,29454,1,0,0:0:0:0:s_022.ogg
332,192,29818,1,0,0:0:0:0:s_022.ogg
76,192,30181,1,0,0:0:0:0:s_022.ogg
384,192,30545,1,0,0:0:0:0:s_022.ogg
128,192,30909,1,0,0:0:0:0:s_022.ogg
435,192,31272,1,0,0:0:0:0:s_022.ogg
76,192,31636,1,0,0:0:0:0:s_022.ogg
230,192,32000,1,0,0:0:0:0:s_050.ogg
486,192,32363,1,0,0:0:0:0:m_054.ogg
435,192,33090,1,0,0:0:0:0:m_050.ogg
179,192,33363,128,0,33727:0:0:0:0:s_047.ogg
128,192,33818,1,0,0:0:0:0:m_046.ogg
128,192,34363,1,0,0:0:0:0:s_046.ogg
384,192,34545,1,0,0:0:0:0:m_054.ogg
128,192,34818,1,0,0:0:0:0:s_046.ogg
281,192,34909,1,0,0:0:0:0:m_049.ogg
76,192,35272,1,0,0:0:0:0:m_047.ogg
76,192,35818,1,0,0:0:0:0:s_047.ogg
384,192,36000,1,0,0:0:0:0:m_054.ogg
76,192,36272,1,0,0:0:0:0:s_047.ogg
332,192,36363,1,0,0:0:0:0:m_050.ogg
25,192,36727,1,0,0:0:0:0:m_049.ogg
25,192,37272,1,0,0:0:0:0:s_049.ogg
384,192,37454,1,0,0:0:0:0:m_054.ogg
25,192,37727,1,0,0:0:0:0:s_049.ogg
332,192,37818,1,0,0:0:0:0:s_050.ogg
486,192,38000,1,0,0:0:0:0:m_066.ogg
486,192,38363,1,0,0:0:0:0:m_066.ogg
486,192,38727,1,0,0:0:0:0:s_066.ogg
230,192,38909,1,0,0:0:0:0:s_050.ogg
281,192,39090,1,0,0:0:0:0:s_059.ogg
25,192,39272,1,0,0:0:0:0:s_059.ogg
179,192,39454,1,0,0:0:0:0:m_058.ogg
179,192,39818,1,0,0:0:0:0:m_058.ogg
179,192,40181,1,0,0:0:0:0:s_058.ogg
435,192,40363,1,0,0:0:0:0:s_066.ogg
179,192,40545,1,0,0:0:0:0:s_058.ogg
332,192,40727,1,0,0:0:0:0:s_061.ogg
128,192,40909,1,0,0:0:0:0:m_047.ogg
128,192,41272,1,0,0:0:0:0:m_047.ogg
128,192,41636,1,0,0:0:0:0:s_047.ogg
435,192,41818,1,0,0:0:0:0:s_066.ogg
128,192,42000,1,0,0:0:0:0:s_047.ogg
384,192,42181,1,0,0:0:0:0:s_062.ogg
76,192,42363,1,0,0:0:0:0:m_049.ogg
76,192,42727,1,0,0:0:0:0:m_061.ogg
76,192,43090,1,0,0:0:0:0:s_061.ogg
435,192,43272,1,0,0:0:0:0:s_066.ogg
76,192,43454,1,0,0:0:0:0:s_061.ogg
384,192,43636,1,0,0:0:0:0:m_063.ogg
486,192,44363,1,0,0:0:0:0:m_064.ogg
128,192,45090,128,0,45454:0:0:0:0:s_061.ogg
230,192,45454,1,0,0:0:0:0:l_050.ogg
281,192,46545,1,0,0:0:0:0:m_047.ogg
384,192,47272,1,0,0:0:0:0:m_048.ogg
25,192,48000,128,0,48363:0:0:0:0:s_058.ogg
128,192,48363,1,0,0:0:0:0:l_047.ogg
179,192,49454,1,0,0:0:0:0:l_016.ogg
332,192,49454,1,0,0:0:0:0:l_024.ogg
179,192,50909,1,0,0:0:0:0:s_048.ogg
332,192,50909,1,0,0:0:0:0:s_040.ogg
179,192,51636,1,0,0:0:0:0:s_048.ogg
332,192,51636,1,0,0:0:0:0:s_040.ogg
179,192,52363,1,0,0:0:0:0:m_048.ogg
332,192,52363,1,0,0:0:0:0:m_040.ogg
179,192,52727,1,0,0:0:0:0:m_048.ogg
332,192,52727,1,0,0:0:0:0:m_040.ogg
179,192,53090,1,0,0:0:0:0:m_048.ogg
332,192,53090,1,0,0:0:0:0:m_040.ogg
179,192,53454,1,0,0:0:0:0:m_048.ogg
332,192,53454,1,0,0:0:0:0:m_040.ogg
25,192,53818,1,0,0:0:0:0:m_059.ogg
486,192,54545,128,0,55272:0:0:0:0:s_061.ogg
128,192,55272,1,0,0:0:0:0:s_059.ogg
384,192,55636,1,0,0:0:0:0:m_036.ogg
76,192,57090,1,0,0:0:0:0:s_036.ogg
435,192,57090,1,0,0:0:0:0:s_048.ogg
76,192,57818,1,0,0:0:0:0:s_028.ogg
435,192,57818,1,0,0:0:0:0:s_048.ogg
76,192,58363,1,0,0:0:0:0:s_028.ogg
435,192,58363,1,0,0:0:0:0:s_045.ogg
76,192,58727,1,0,0:0:0:0:s_028.ogg
435,192,58727,1,0,0:0:0:0:s_052.ogg
76,192,59090,1,0,0:0:0:0:s_028.ogg
435,192,59090,1,0,0:0:0:0:s_045.ogg
76,192,59454,1,0,0:0:0:0:s_028.ogg
435,192,59454,1,0,0:0:0:0:s_052.ogg
76,192,59636,1,0,0:0:0:0:m_028.ogg
435,192,59636,1,0,0:0:0:0:s_048.ogg
486,192,61090,1,0,0:0:0:0:m_055.ogg
230,192,61818,1,0,0:0:0:0:m_047.ogg
384,192,62545,1,0,0:0:0:0:m_050.ogg
128,192,63272,1,0,0:0:0:0:m_040.ogg
281,192,64000,1,0,0:0:0:0:s_035.ogg
384,192,64181,1,0,0:0:0:0:s_050.ogg
128,192,64363,1,0,0:0:0:0:s_050.ogg
384,192,64545,1,0,0:0:0:0:s_050.ogg
128,192,64727,1,0,0:0:0:0:s_050.ogg
384,192,64909,1,0,0:0:0:0:s_050.ogg
76,192,65090,1,0,0:0:0:0:s_049.ogg
332,192,65272,1,0,0:0:0:0:s_047.ogg
25,192,65454,1,0,0:0:0:0:s_046.ogg
179,192,65636,1,0,0:0:0:0:s_054.ogg
435,192,65818,1,0,0:0:0:0:s_054.ogg
179,192,66000,1,0,0:0:0:0:s_054.ogg
435,192,66181,1,0,0:0:0:0:s_054.ogg
179,192,66363,1,0,0:0:0:0:s_054.ogg
486,192,66545,1,0,0:0:0:0:s_047.ogg
230,192,66727,1,0,0:0:0:0:s_049.ogg
281,192,66909,1,0,0:0:0:0:s_054.ogg
384,192,67090,1,0,0:0:0:0:s_050.ogg
128,192,67272,1,0,0:0:0:0:s_050.ogg
384,192,67454,1,0,0:0:0:0:s_050.ogg
128,192,67636,1,0,0:0:0:0:s_050.ogg
384,192,67818,1,0,0:0:0:0:s_050.ogg
76,192,68000,1,0,0:0:0:0:s_049.ogg
332,192,68181,1,0,0:0:0:0:s_047.ogg
25,192,68363,1,0,0:0:0:0:s_046.ogg
179,192,68545,1,0,0:0:0:0:s_046.ogg
435,192,68727,1,0,0:0:0:0:s_046.ogg
179,192,68909,1,0,0:0:0:0:s_046.ogg
435,192,69090,1,0,0:0:0:0:s_046.ogg
179,192,69272,1,0,0:0:0:0:s_046.ogg
486,192,69454,1,0,0:0:0:0:s_047.ogg
230,192,69636,1,0,0:0:0:0:s_049.ogg
384,192,69818,1,0,0:0:0:0:s_050.ogg
384,192,70000,1,0,0:0:0:0:s_050.ogg
384,192,70181,1,0,0:0:0:0:s_050.ogg
128,192,70363,1,0,0:0:0:0:s_047.ogg
435,192,70727,1,0,0:0:0:0:s_052.ogg
435,192,70909,1,0,0:0:0:0:s_052.ogg
179,192,71090,1,0,0:0:0:0:s_052.ogg
384,192,71454,1,0,0:0:0:0:s_050.ogg
384,192,71636,1,0,0:0:0:0:s_050.ogg
128,192,71818,1,0,0:0:0:0:s_047.ogg
332,192,72181,1,0,0:0:0:0:s_049.ogg
332,192,72363,1,0,0:0:0:0:s_049.ogg
76,192,72545,1,0,0:0:0:0:s_046.ogg
281,192,72727,1,0,0:0:0:0:s_011.ogg
384,192,72909,1,0,0:0:0:0:s_054.ogg
128,192,73090,1,0,0:0:0:0:s_054.ogg
384,192,73272,1,0,0:0:0:0:s_054.ogg
128,192,73454,1,0,0:0:0:0:s_054.ogg
384,192,73636,1,0,0:0:0:0:s_054.ogg
76,192,73818,1,0,0:0:0:0:s_049.ogg
332,192,74000,1,0,0:0:0:0:s_047.ogg
25,192,74181,1,0,0:0:0:0:s_046.ogg
179,192,74363,1,0,0:0:0:0:s_055.ogg
435,192,74545,1,0,0:0:0:0:s_067.ogg
179,192,74727,1,0,0:0:0:0:s_067.ogg
435,192,74909,1,0,0:0:0:0:s_067.ogg
179,192,75090,1,0,0:0:0:0:s_067.ogg
486,192,75272,1,0,0:0:0:0:s_066.ogg
230,192,75454,1,0,0:0:0:0:s_052.ogg
281,192,75636,1,0,0:0:0:0:s_050.ogg
384,192,75818,1,0,0:0:0:0:s_062.ogg
128,192,76000,1,0,0:0:0:0:s_062.ogg
384,192,76181,1,0,0:0:0:0:s_062.ogg
128,192,76363,1,0,0:0:0:0:s_062.ogg
384,192,76545,1,0,0:0:0:0:s_062.ogg
76,192,76727,1,0,0:0:0:0:s_061.ogg
332,192,76909,1,0,0:0:0:0:s_047.ogg
25,192,77090,1,0,0:0:0:0:s_058.ogg
179,192,77272,1,0,0:0:0:0:s_067.ogg
435,192,77454,1,0,0:0:0:0:s_067.ogg
179,192,77636,1,0,0:0:0:0:s_067.ogg
435,192,77818,1,0,0:0:0:0:s_067.ogg
179,192,78000,1,0,0:0:0:0:s_067.ogg
486,192,78181,1,0,0:0:0:0:s_066.ogg
230,192,78363,1,0,0:0:0:0:s_064.ogg
128,192,78545,1,0,0:0:0:0:s_062.ogg
128,192,78727,1,0,0:0:0:0:s_062.ogg
128,192,78909,1,0,0:0:0:0:s_062.ogg
384,192,79090,1,0,0:0:0:0:s_066.ogg
179,192,79454,1,0,0:0:0:0:s_064.ogg
179,192,79636,1,0,0:0:0:0:s_059.ogg
435,192,79818,1,0,0:0:0:0:s_067.ogg
128,192,80181,1,0,0:0:0:0:s_059.ogg
128,192,80363,1,0,0:0:0:0:s_062.ogg
384,192,80545,1,0,0:0:0:0:s_066.ogg
76,192,80909,1,0,0:0:0:0:s_058.ogg
76,192,81090,1,0,0:0:0:0:s_061.ogg
332,192,81272,1,0,0:0:0:0:s_066.ogg
230,192,81636,1,0,0:0:0:0:s_062.ogg
230,192,81818,1,0,0:0:0:0:s_062.ogg
486,192,82000,1,0,0:0:0:0:s_066.ogg
179,192,82363,1,0,0:0:0:0:s_060.ogg
179,192,82545,1,0,0:0:0:0:s_060.ogg
435,192,82727,1,0,0:0:0:0:s_064.ogg
76,192,83090,1,0,0:0:0:0:s_050.ogg
76,192,83272,1,0,0:0:0:0:s_059.ogg
332,192,83454,1,0,0:0:0:0:s_054.ogg
25,192,83818,1,0,0:0:0:0:s_049.ogg
25,192,84000,1,0,0:0:0:0:s_058.ogg
281,192,84181,1,0,0:0:0:0:s_061.ogg
128,192,84363,1,0,0:0:0:0:m_059.ogg
435,192,85454,1,0,0:0:0:0:m_050.ogg
384,192,85727,1,0,0:0:0:0:s_047.ogg
332,192,85818,1,0,0:0:0:0:m_046.ogg
230,192,86181,1,0,0:0:0:0:m_046.ogg
486,192,86181,1,0,0:0:0:0:m_054.ogg
230,192,86545,1,0,0:0:0:0:m_054.ogg
486,192,86545,1,0,0:0:0:0:m_046.ogg
230,192,86909,1,0,0:0:0:0:m_054.ogg
486,192,86909,1,0,0:0:0:0:m_046.ogg
230,192,87272,1,0,0:0:0:0:s_038.ogg
486,192,87363,1,0,0:0:0:0:m_054.ogg
179,192,88363,1,0,0:0:0:0:m_062.ogg
128,192,88636,1,0,0:0:0:0:s_059.ogg
76,192,88727,1,0,0:0:0:0:m_058.ogg
25,192,89090,1,0,0:0:0:0:m_066.ogg
281,192,89090,1,0,0:0:0:0:m_023.ogg
25,192,89454,1,0,0:0:0:0:m_058.ogg
281,192,89454,1,0,0:0:0:0:m_023.ogg
25,192,89818,1,0,0:0:0:0:m_058.ogg
281,192,89818,1,0,0:0:0:0:m_023.ogg
25,192,90181,1,0,0:0:0:0:s_050.ogg
281,192,90272,1,0,0:0:0:0:m_066.ogg
230,192,90909,1,0,0:0:0:0:s_052.ogg
486,192,91000,1,0,0:0:0:0:m_066.ogg
25,192,91636,1,0,0:0:0:0:s_050.ogg
281,192,91727,1,0,0:0:0:0:m_066.ogg
230,192,92363,1,0,0:0:0:0:s_052.ogg
486,192,92454,1,0,0:0:0:0:m_066.ogg
76,192,93090,1,0,0:0:0:0:s_016.ogg
332,192,93090,1,0,0:0:0:0:s_031.ogg
76,192,93454,1,0,0:0:0:0:s_016.ogg
332,192,93454,1,0,0:0:0:0:s_031.ogg
76,192,93818,1,0,0:0:0:0:s_016.ogg
332,192,93818,1,0,0:0:0:0:s_031.ogg
76,192,94181,1,0,0:0:0:0:s_016.ogg
332,192,94181,1,0,0:0:0:0:s_031.ogg
179,192,94545,1,0,0:0:0:0:m_016.ogg
435,192,94545,1,0,0:0:0:0:m_028.ogg
179,192,94909,1,0,0:0:0:0:m_016.ogg
435,192,94909,1,0,0:0:0:0:m_032.ogg
179,192,95272,1,0,0:0:0:0:m_016.ogg
435,192,95272,1,0,0:0:0:0:m_032.ogg
179,192,95636,1,0,0:0:0:0:m_016.ogg
435,192,95636,1,0,0:0:0:0:m_032.ogg
25,192,96000,1,0,0:0:0:0:s_012.ogg
281,192,96363,1,0,0:0:0:0:s_012.ogg
76,192,96727,1,0,0:0:0:0:s_012.ogg
332,192,97090,1,0,0:0:0:0:s_012.ogg
128,192,97454,1,0,0:0:0:0:s_012.ogg
384,192,97818,1,0,0:0:0:0:s_012.ogg
179,192,98181,1,0,0:0:0:0:s_012.ogg
435,192,98545,1,0,0:0:0:0:s_060.ogg
435,192,98727,1,0,0:0:0:0:s_060.ogg
76,192,98909,1,0,0:0:0:0:s_011.ogg
332,192,99272,1,0,0:0:0:0:s_011.ogg
128,192,99636,1,0,0:0:0:0:s_011.ogg
384,192,100000,1,0,0:0:0:0:s_011.ogg
179,192,100363,1,0,0:0:0:0:s_011.ogg
435,192,100727,1,0,0:0:0:0:s_011.ogg
230,192,101090,1,0,0:0:0:0:s_011.ogg
486,192,101454,1,0,0:0:0:0:s_055.ogg
486,192,101636,1,0,0:0:0:0:s_055.ogg
25,192,102000,128,0,104545:0:0:0:0:l_028.ogg
281,192,102363,128,0,104545:0:0:0:0:l_010.ogg
76,192,102727,128,0,104545:0:0:0:0:l_040.ogg
332,192,103090,128,0,104545:0:0:0:0:l_022.ogg
128,192,103454,128,0,104545:0:0:0:0:l_052.ogg
384,192,104909,128,0,108727:0:0:0:0:l_024.ogg
179,192,105272,128,0,108727:0:0:0:0:l_009.ogg
435,192,105636,128,0,108727:0:0:0:0:l_036.ogg
230,192,106000,128,0,108727:0:0:0:0:l_021.ogg
486,192,106272,128,0,108727:0:0:0:0:l_048.ogg
76,192,109090,1,0,0:0:0:0:s_028.ogg
332,192,109454,1,0,0:0:0:0:m_035.ogg
384,192,110181,1,0,0:0:0:0:m_031.ogg
179,192,110454,1,0,0:0:0:0:s_028.ogg
281,192,110545,1,0,0:0:0:0:m_028.ogg
128,192,110909,1,0,0:0:0:0:m_027.ogg
128,192,111454,1,0,0:0:0:0:s_027.ogg
332,192,111636,1,0,0:0:0:0:m_035.ogg
128,192,111909,1,0,0:0:0:0:s_027.ogg
384,192,112000,1,0,0:0:0:0:m_030.ogg
76,192,112363,1,0,0:0:0:0:m_028.ogg
76,192,112909,1,0,0:0:0:0:s_028.ogg
332,192,113090,1,0,0:0:0:0:m_035.ogg
76,192,113363,1,0,0:0:0:0:s_028.ogg
435,192,113454,1,0,0:0:0:0:m_031.ogg
128,192,113818,1,0,0:0:0:0:m_030.ogg
128,192,114363,1,0,0:0:0:0:s_030.ogg
332,192,114545,1,0,0:0:0:0:m_035.ogg
128,192,114818,1,0,0:0:0:0:s_030.ogg
435,192,114909,1,0,0:0:0:0:s_040.ogg
486,192,115272,1,0,0:0:0:0:m_047.ogg
332,192,116000,1,0,0:0:0:0:m_055.ogg
281,192,116272,1,0,0:0:0:0:s_040.ogg
230,192,116363,1,0,0:0:0:0:m_052.ogg
25,192,116727,1,0,0:0:0:0:m_051.ogg
25,192,117272,1,0,0:0:0:0:s_051.ogg
230,192,117454,1,0,0:0:0:0:m_059.ogg
25,192,117727,1,0,0:0:0:0:s_039.ogg
435,192,117818,1,0,0:0:0:0:m_042.ogg
332,192,118181,1,0,0:0:0:0:m_040.ogg
332,192,118727,1,0,0:0:0:0:s_040.ogg
435,192,118909,1,0,0:0:0:0:m_047.ogg
332,192,119181,1,0,0:0:0:0:s_040.ogg
179,192,119272,1,0,0:0:0:0:m_055.ogg
76,192,119636,1,0,0:0:0:0:m_054.ogg
76,192,120181,1,0,0:0:0:0:s_054.ogg
179,192,120363,1,0,0:0:0:0:m_059.ogg
76,192,120636,1,0,0:0:0:0:s_054.ogg
384,192,120727,1,0,0:0:0:0:s_045.ogg
281,192,120909,1,0,0:0:0:0:s_055.ogg
486,192,121090,1,0,0:0:0:0:s_064.ogg
384,192,121272,1,0,0:0:0:0:s_055.ogg
128,192,121454,1,0,0:0:0:0:s_045.ogg
25,192,121636,1,0,0:0:0:0:s_044.ogg
230,192,121818,1,0,0:0:0:0:s_064.ogg
128,192,122000,1,0,0:0:0:0:s_056.ogg
332,192,122181,1,0,0:0:0:0:s_059.ogg
281,192,122363,1,0,0:0:0:0:s_057.ogg
486,192,122545,1,0,0:0:0:0:s_064.ogg
435,192,122727,1,0,0:0:0:0:s_045.ogg
76,192,122909,1,0,0:0:0:0:s_060.ogg
25,192,123090,1,0,0:0:0:0:s_059.ogg
230,192,123272,1,0,0:0:0:0:s_064.ogg
179,192,123454,1,0,0:0:0:0:s_059.ogg
384,192,123636,128,0,126363:0:0:0:0:l_060.ogg
486,192,123636,128,0,126363:0:0:0:0:l_009.ogg
25,192,123636,128,0,126363:0:0:0:0:l_016.ogg
128,192,123636,128,0,126363:0:0:0:0:l_021.ogg
486,192,126545,128,0,129272:0:0:0:0:l_060.ogg
332,192,126545,128,0,129272:0:0:0:0:l_021.ogg
179,192,126545,128,0,129272:0:0:0:0:l_017.ogg
25,192,126545,128,0,129272:0:0:0:0:l_009.ogg
435,192,129454,128,0,132181:0:0:0:0:l_064.ogg
281,192,129454,128,0,132181:0:0:0:0:l_022.ogg
230,192,129454,128,0,132181:0:0:0:0:l_016.ogg
76,192,129454,128,0,132181:0:0:0:0:l_010.ogg
384,192,132363,128,0,135272:0:0:0:0:l_067.ogg
281,192,132363,128,0,135272:0:0:0:0:l_023.ogg
230,192,132363,128,0,135272:0:0:0:0:l_016.ogg
128,192,132363,128,0,135272:0:0:0:0:l_011.ogg
332,192,138181,128,0,142181:0:0:0:0:l_039.ogg
179,192,138181,128,0,143090:0:0:0:0:l_035.ogg
25,192,138181,128,0,143090:0:0:0:0:l_045.ogg
435,192,142181,128,0,143090:0:0:0:0:l_024.ogg
384,192,143090,128,0,144000:0:0:0:0:m_023.ogg
76,192,144000,128,0,145454:0:0:0:0:l_010.ogg
128,192,145454,128,0,146909:0:0:0:0:l_011.ogg
384,192,146909,1,0,0:0:0:0:m_040.ogg
179,192,148000,1,0,0:0:0:0:m_043.ogg
128,192,148272,1,0,0:0:0:0:s_040.ogg
76,192,148363,1,0,0:0:0:0:m_039.ogg
230,192,148727,1,0,0:0:0:0:m_039.ogg
486,192,148727,1,0,0:0:0:0:m_016.ogg
230,192,149090,1,0,0:0:0:0:m_039.ogg
486,192,149090,1,0,0:0:0:0:m_016.ogg
230,192,149454,1,0,0:0:0:0:m_039.ogg
486,192,149454,1,0,0:0:0:0:m_016.ogg
230,192,149818,1,0,0:0:0:0:l_031.ogg
486,192,149909,1,0,0:0:0:0:m_047.ogg
435,192,150909,1,0,0:0:0:0:m_055.ogg
384,192,151181,1,0,0:0:0:0:s_052.ogg
332,192,151272,1,0,0:0:0:0:m_051.ogg
25,192,151636,1,0,0:0:0:0:m_059.ogg
281,192,151636,1,0,0:0:0:0:m_051.ogg
25,192,152000,1,0,0:0:0:0:m_059.ogg
281,192,152000,1,0,0:0:0:0:m_051.ogg
25,192,152363,1,0,0:0:0:0:m_059.ogg
281,192,152363,1,0,0:0:0:0:m_051.ogg
25,192,152727,1,0,0:0:0:0:m_043.ogg
281,192,152818,1,0,0:0:0:0:m_059.ogg
230,192,153454,1,0,0:0:0:0:m_045.ogg
486,192,153545,1,0,0:0:0:0:m_059.ogg
25,192,154181,1,0,0:0:0:0:m_043.ogg
281,192,154272,1,0,0:0:0:0:m_059.ogg
230,192,154909,1,0,0:0:0:0:m_045.ogg
486,192,155000,1,0,0:0:0:0:m_059.ogg
25,192,155636,1,0,0:0:0:0:l_016.ogg
281,192,155636,1,0,0:0:0:0:s_043.ogg
76,192,156000,1,0,0:0:0:0:m_055.ogg
332,192,156000,1,0,0:0:0:0:m_043.ogg
128,192,156363,1,0,0:0:0:0:m_059.ogg
384,192,156363,1,0,0:0:0:0:m_047.ogg
179,192,156727,1,0,0:0:0:0:m_064.ogg
435,192,156727,1,0,0:0:0:0:m_052.ogg
230,192,157090,1,0,0:0:0:0:l_067.ogg
486,192,157090,1,0,0:0:0:0:l_055.ogg
179,192,157454,1,0,0:0:0:0:l_064.ogg
435,192,157454,1,0,0:0:0:0:l_052.ogg
128,192,157818,1,0,0:0:0:0:l_059.ogg
384,192,157818,1,0,0:0:0:0:l_047.ogg
76,192,158181,1,0,0:0:0:0:l_055.ogg
332,192,158181,1,0,0:0:0:0:l_043.ogg
230,192,158545,1,0,0:0:0:0:l_052.ogg
486,192,158545,1,0,0:0:0:0:l_040.ogg
179,192,158909,1,0,0:0:0:0:l_047.ogg
435,192,158909,1,0,0:0:0:0:l_035.ogg
128,192,159272,1,0,0:0:0:0:m_043.ogg
384,192,159272,1,0,0:0:0:0:m_031.ogg
76,192,159636,1,0,0:0:0:0:m_040.ogg
332,192,159636,1,0,0:0:0:0:m_028.ogg
25,192,160000,1,0,0:0:0:0:m_016.ogg
281,192,160000,1,0,0:0:0:0:m_028.ogg
384,192,160727,1,0,0:0:0:0:m_052.ogg
435,192,160727,1,0,0:0:0:0:m_028.ogg
486,192,160727,1,0,0:0:0:0:m_064.ogg
128,192,161454,1,0,0:0:0:0:m_028.ogg
179,192,161454,1,0,0:0:0:0:m_023.ogg
230,192,161454,1,0,0:0:0:0:m_019.ogg
