osu file format v14

[General]
AudioFilename: virtual
AudioLeadIn: 0
PreviewTime: 0
Countdown: 0
SampleSet: Soft
StackLeniency: 0.7
Mode: 3
LetterboxInBreaks: 0
SpecialStyle: 0
WidescreenStoryboard: 1

[Editor]
DistanceSpacing: 0.8
BeatDivisor: 4
GridSize: 16
TimelineZoom: 1.500006

[Metadata]
Title:Piano Beatmap Set
TitleUnicode:Piano Beatmap Set
Artist:Collection
ArtistUnicode:Collection
Creator:CircusGalop
Version:Liebestraum - 10K Full
Source:BMS
Tags:
BeatmapID:1347446
BeatmapSetID:332673

[Difficulty]
HPDrainRate:10
CircleSize:10
OverallDifficulty:5
ApproachRate:5
SliderMultiplier:1.4
SliderTickRate:1

[Events]
//Background and Video events
0,0,"CircusGalop.jpg",0,0
//Break Periods
//Storyboard Layer 0 (Background)
//Storyboard Layer 1 (Fail)
//Storyboard Layer 2 (Pass)
//Storyboard Layer 3 (Foreground)
//Storyboard Sound Samples

[TimingPoints]
0,320.000000000002,4,2,0,100,1,0
48320,400.000000000002,4,2,0,100,1,0
48320,-80,4,2,0,100,0,0
55920,320.000000000002,4,2,0,100,1,0
119280,400.000000000002,4,2,0,100,1,0
119280,-80,4,2,0,100,0,0
124080,320.000000000002,4,2,0,100,1,0
127920,400.000000000002,4,2,0,100,1,0
127920,-80,4,2,0,100,0,0
130320,320.000000000002,4,2,0,100,1,0
161040,400.000000000002,4,2,0,100,1,0
161040,-80,4,2,0,100,0,0

[HitObjects]
128,192,1600,5,0,0:0:0:0:m_030.ogg
25,192,1920,1,0,0:0:0:0:l_023.ogg
179,192,1920,1,0,0:0:0:0:m_039.ogg
281,192,2080,1,0,0:0:0:0:m_042.ogg
384,192,2240,1,0,0:0:0:0:m_047.ogg
486,192,2400,1,0,0:0:0:0:m_051.ogg
384,192,2560,1,0,0:0:0:0:m_047.ogg
281,192,2720,1,0,0:0:0:0:m_042.ogg
230,192,2880,1,0,0:0:0:0:m_039.ogg
281,192,3040,1,0,0:0:0:0:m_042.ogg
384,192,3200,1,0,0:0:0:0:m_047.ogg
486,192,3360,1,0,0:0:0:0:m_051.ogg
384,192,3520,1,0,0:0:0:0:m_047.ogg
281,192,3680,1,0,0:0:0:0:s_042.ogg
76,192,3840,1,0,0:0:0:0:l_022.ogg
179,192,3840,1,0,0:0:0:0:l_039.ogg
332,192,4000,1,0,0:0:0:0:m_043.ogg
435,192,4160,1,0,0:0:0:0:m_049.ogg
486,192,4320,1,0,0:0:0:0:m_051.ogg
435,192,4480,1,0,0:0:0:0:m_049.ogg
332,192,4640,1,0,0:0:0:0:m_043.ogg
332,192,4960,1,0,0:0:0:0:m_043.ogg
435,192,5120,1,0,0:0:0:0:m_049.ogg
486,192,5280,1,0,0:0:0:0:m_051.ogg
179,192,5440,1,0,0:0:0:0:m_039.ogg
435,192,5440,1,0,0:0:0:0:m_049.ogg
332,192,5600,1,0,0:0:0:0:s_043.ogg
25,192,5760,1,0,0:0:0:0:m_020.ogg
179,192,5760,1,0,0:0:0:0:m_039.ogg
281,192,5920,1,0,0:0:0:0:m_042.ogg
384,192,6080,1,0,0:0:0:0:m_048.ogg
486,192,6240,1,0,0:0:0:0:m_051.ogg
179,192,6400,1,0,0:0:0:0:m_039.ogg
384,192,6400,1,0,0:0:0:0:m_048.ogg
281,192,6560,1,0,0:0:0:0:s_042.ogg
230,192,6720,1,0,0:0:0:0:m_040.ogg
281,192,6880,1,0,0:0:0:0:m_042.ogg
384,192,7040,1,0,0:0:0:0:m_048.ogg
486,192,7200,1,0,0:0:0:0:m_051.ogg
179,192,7360,1,0,0:0:0:0:m_039.ogg
384,192,7360,1,0,0:0:0:0:m_048.ogg
281,192,7520,1,0,0:0:0:0:s_042.ogg
76,192,7680,1,0,0:0:0:0:l_013.ogg
179,192,7680,1,0,0:0:0:0:l_039.ogg
332,192,7840,1,0,0:0:0:0:m_041.ogg
435,192,8000,1,0,0:0:0:0:m_047.ogg
486,192,8160,1,0,0:0:0:0:m_051.ogg
435,192,8320,1,0,0:0:0:0:m_047.ogg
332,192,8480,1,0,0:0:0:0:m_041.ogg
128,192,8640,1,0,0:0:0:0:m_032.ogg
332,192,8800,1,0,0:0:0:0:s_041.ogg
435,192,8960,1,0,0:0:0:0:m_047.ogg
486,192,9120,1,0,0:0:0:0:m_051.ogg
128,192,9280,1,0,0:0:0:0:m_032.ogg
435,192,9280,1,0,0:0:0:0:m_047.ogg
332,192,9440,1,0,0:0:0:0:s_041.ogg
25,192,9600,1,0,0:0:0:0:m_018.ogg
128,192,9640,1,0,0:0:0:0:m_032.ogg
332,192,9760,1,0,0:0:0:0:s_040.ogg
179,192,9920,1,0,0:0:0:0:m_034.ogg
384,192,9920,1,0,0:0:0:0:s_042.ogg
486,192,10080,1,0,0:0:0:0:s_051.ogg
230,192,10240,1,0,0:0:0:0:m_035.ogg
384,192,10240,1,0,0:0:0:0:s_042.ogg
332,192,10400,1,0,0:0:0:0:s_040.ogg
179,192,10560,1,0,0:0:0:0:m_030.ogg
230,192,10600,1,0,0:0:0:0:m_039.ogg
332,192,10720,1,0,0:0:0:0:m_040.ogg
384,192,10880,1,0,0:0:0:0:m_042.ogg
435,192,11040,1,0,0:0:0:0:m_046.ogg
179,192,11200,1,0,0:0:0:0:m_037.ogg
384,192,11200,1,0,0:0:0:0:m_042.ogg
332,192,11360,1,0,0:0:0:0:s_040.ogg
25,192,11520,1,0,0:0:0:0:l_023.ogg
128,192,11520,1,0,0:0:0:0:l_035.ogg
281,192,11680,1,0,0:0:0:0:m_039.ogg
384,192,11840,1,0,0:0:0:0:m_042.ogg
435,192,12000,1,0,0:0:0:0:m_047.ogg
384,192,12160,1,0,0:0:0:0:m_042.ogg
281,192,12320,1,0,0:0:0:0:m_039.ogg
76,192,12480,1,0,0:0:0:0:m_011.ogg
281,192,12640,1,0,0:0:0:0:m_035.ogg
332,192,12800,1,0,0:0:0:0:m_039.ogg
435,192,12960,1,0,0:0:0:0:s_047.ogg
128,192,13120,1,0,0:0:0:0:m_030.ogg
384,192,13120,1,0,0:0:0:0:m_042.ogg
281,192,13280,1,0,0:0:0:0:s_035.ogg
25,192,13440,1,0,0:0:0:0:l_023.ogg
179,192,13480,1,0,0:0:0:0:m_039.ogg
281,192,13600,1,0,0:0:0:0:m_042.ogg
384,192,13760,1,0,0:0:0:0:m_047.ogg
486,192,13920,1,0,0:0:0:0:m_051.ogg
384,192,14080,1,0,0:0:0:0:m_047.ogg
281,192,14240,1,0,0:0:0:0:m_042.ogg
179,192,14400,1,0,0:0:0:0:m_039.ogg
281,192,14560,1,0,0:0:0:0:m_042.ogg
384,192,14720,1,0,0:0:0:0:m_047.ogg
486,192,14880,1,0,0:0:0:0:m_051.ogg
384,192,15040,1,0,0:0:0:0:m_047.ogg
281,192,15200,1,0,0:0:0:0:s_042.ogg
76,192,15360,1,0,0:0:0:0:m_022.ogg
179,192,15360,1,0,0:0:0:0:l_039.ogg
332,192,15520,1,0,0:0:0:0:m_043.ogg
435,192,15680,1,0,0:0:0:0:m_049.ogg
486,192,15840,1,0,0:0:0:0:m_051.ogg
435,192,16000,1,0,0:0:0:0:m_049.ogg
332,192,16160,1,0,0:0:0:0:s_043.ogg
25,192,16320,1,0,0:0:0:0:m_021.ogg
332,192,16480,1,0,0:0:0:0:m_043.ogg
435,192,16640,1,0,0:0:0:0:m_049.ogg
486,192,16800,1,0,0:0:0:0:m_051.ogg
179,192,16960,1,0,0:0:0:0:m_039.ogg
435,192,16960,1,0,0:0:0:0:m_049.ogg
332,192,17120,1,0,0:0:0:0:s_043.ogg
76,192,17280,1,0,0:0:0:0:l_020.ogg
179,192,17280,1,0,0:0:0:0:m_039.ogg
332,192,17440,1,0,0:0:0:0:m_042.ogg
384,192,17600,1,0,0:0:0:0:m_048.ogg
486,192,17760,1,0,0:0:0:0:m_051.ogg
179,192,17920,1,0,0:0:0:0:m_039.ogg
384,192,17920,1,0,0:0:0:0:s_048.ogg
332,192,18080,1,0,0:0:0:0:m_042.ogg
128,192,18240,1,0,0:0:0:0:m_032.ogg
179,192,18266,1,0,0:0:0:0:m_036.ogg
230,192,18293,1,0,0:0:0:0:m_040.ogg
332,192,18400,1,0,0:0:0:0:m_042.ogg
384,192,18560,1,0,0:0:0:0:m_048.ogg
486,192,18720,1,0,0:0:0:0:s_051.ogg
179,192,18880,1,0,0:0:0:0:m_039.ogg
384,192,18880,1,0,0:0:0:0:s_048.ogg
332,192,19040,1,0,0:0:0:0:s_042.ogg
25,192,19200,1,0,0:0:0:0:l_025.ogg
230,192,19240,1,0,0:0:0:0:l_044.ogg
281,192,19360,1,0,0:0:0:0:l_041.ogg
332,192,19520,1,0,0:0:0:0:m_047.ogg
486,192,19680,1,0,0:0:0:0:m_056.ogg
384,192,19840,1,0,0:0:0:0:m_051.ogg
332,192,20000,1,0,0:0:0:0:m_047.ogg
76,192,20160,1,0,0:0:0:0:m_013.ogg
281,192,20320,1,0,0:0:0:0:s_035.ogg
332,192,20480,1,0,0:0:0:0:m_037.ogg
435,192,20640,1,0,0:0:0:0:m_044.ogg
128,192,20800,1,0,0:0:0:0:m_032.ogg
384,192,20800,1,0,0:0:0:0:m_041.ogg
332,192,20960,1,0,0:0:0:0:s_037.ogg
25,192,21120,1,0,0:0:0:0:m_018.ogg
128,192,21160,1,0,0:0:0:0:m_032.ogg
332,192,21280,1,0,0:0:0:0:s_037.ogg
179,192,21440,1,0,0:0:0:0:m_034.ogg
384,192,21440,1,0,0:0:0:0:s_040.ogg
486,192,21600,1,0,0:0:0:0:s_046.ogg
230,192,21760,1,0,0:0:0:0:m_035.ogg
435,192,21760,1,0,0:0:0:0:s_042.ogg
384,192,21920,1,0,0:0:0:0:s_040.ogg
76,192,22080,1,0,0:0:0:0:m_030.ogg
230,192,22080,1,0,0:0:0:0:m_039.ogg
384,192,22240,1,0,0:0:0:0:m_040.ogg
435,192,22400,1,0,0:0:0:0:m_042.ogg
486,192,22560,1,0,0:0:0:0:m_046.ogg
230,192,22720,1,0,0:0:0:0:m_037.ogg
435,192,22720,1,0,0:0:0:0:m_042.ogg
384,192,22880,1,0,0:0:0:0:s_040.ogg
25,192,23040,1,0,0:0:0:0:l_023.ogg
179,192,23040,1,0,0:0:0:0:l_035.ogg
332,192,23200,1,0,0:0:0:0:m_039.ogg
384,192,23360,1,0,0:0:0:0:m_042.ogg
435,192,23520,1,0,0:0:0:0:m_047.ogg
384,192,23680,1,0,0:0:0:0:m_042.ogg
332,192,23840,1,0,0:0:0:0:m_039.ogg
76,192,24000,1,0,0:0:0:0:m_011.ogg
332,192,24160,1,0,0:0:0:0:m_039.ogg
435,192,24320,1,0,0:0:0:0:m_047.ogg
384,192,24480,1,0,0:0:0:0:m_042.ogg
332,192,24640,1,0,0:0:0:0:m_039.ogg
179,192,24800,1,0,0:0:0:0:s_035.ogg
25,192,24960,1,0,0:0:0:0:m_019.ogg
179,192,25000,1,0,0:0:0:0:m_035.ogg
384,192,25120,1,0,0:0:0:0:m_040.ogg
486,192,25280,1,0,0:0:0:0:m_047.ogg
435,192,25440,1,0,0:0:0:0:m_043.ogg
384,192,25600,1,0,0:0:0:0:m_040.ogg
128,192,25760,1,0,0:0:0:0:s_034.ogg
25,192,25920,1,0,0:0:0:0:m_016.ogg
281,192,25920,1,0,0:0:0:0:m_035.ogg
179,192,25960,1,0,0:0:0:0:m_031.ogg
384,192,26080,1,0,0:0:0:0:m_040.ogg
486,192,26240,1,0,0:0:0:0:m_047.ogg
435,192,26400,1,0,0:0:0:0:m_043.ogg
384,192,26560,1,0,0:0:0:0:m_040.ogg
179,192,26720,1,0,0:0:0:0:s_037.ogg
25,192,26880,1,0,0:0:0:0:l_023.ogg
230,192,26880,1,0,0:0:0:0:l_030.ogg
281,192,26880,1,0,0:0:0:0:m_039.ogg
332,192,27040,1,0,0:0:0:0:m_042.ogg
435,192,27200,1,0,0:0:0:0:m_051.ogg
384,192,27360,1,0,0:0:0:0:m_047.ogg
332,192,27520,1,0,0:0:0:0:m_042.ogg
281,192,27680,1,0,0:0:0:0:m_039.ogg
76,192,27840,1,0,0:0:0:0:m_011.ogg
332,192,28000,1,0,0:0:0:0:m_042.ogg
435,192,28160,1,0,0:0:0:0:m_051.ogg
384,192,28320,1,0,0:0:0:0:m_047.ogg
332,192,28480,1,0,0:0:0:0:m_042.ogg
179,192,28640,1,0,0:0:0:0:s_039.ogg
25,192,28800,1,0,0:0:0:0:m_023.ogg
179,192,28840,1,0,0:0:0:0:m_039.ogg
384,192,28960,1,0,0:0:0:0:m_044.ogg
486,192,29120,1,0,0:0:0:0:m_051.ogg
435,192,29280,1,0,0:0:0:0:m_047.ogg
384,192,29440,1,0,0:0:0:0:m_044.ogg
128,192,29600,1,0,0:0:0:0:s_038.ogg
76,192,29760,1,0,0:0:0:0:m_035.ogg
230,192,29760,1,0,0:0:0:0:m_020.ogg
332,192,29760,1,0,0:0:0:0:m_039.ogg
384,192,29920,1,0,0:0:0:0:m_044.ogg
486,192,30080,1,0,0:0:0:0:m_051.ogg
435,192,30240,1,0,0:0:0:0:m_047.ogg
384,192,30400,1,0,0:0:0:0:m_044.ogg
179,192,30560,1,0,0:0:0:0:s_041.ogg
25,192,30720,1,0,0:0:0:0:l_015.ogg
332,192,30720,1,0,0:0:0:0:m_043.ogg
230,192,30760,1,0,0:0:0:0:l_034.ogg
384,192,30880,1,0,0:0:0:0:m_046.ogg
435,192,31040,1,0,0:0:0:0:m_051.ogg
486,192,31200,1,0,0:0:0:0:m_055.ogg
435,192,31360,1,0,0:0:0:0:m_051.ogg
384,192,31520,1,0,0:0:0:0:m_046.ogg
281,192,31680,1,0,0:0:0:0:m_043.ogg
384,192,31840,1,0,0:0:0:0:m_046.ogg
435,192,32000,1,0,0:0:0:0:m_051.ogg
486,192,32160,1,0,0:0:0:0:m_055.ogg
435,192,32320,1,0,0:0:0:0:m_051.ogg
384,192,32480,1,0,0:0:0:0:s_046.ogg
25,192,32640,1,0,0:0:0:0:l_024.ogg
281,192,32640,1,0,0:0:0:0:m_043.ogg
128,192,32666,1,0,0:0:0:0:l_031.ogg
230,192,32693,1,0,0:0:0:0:l_039.ogg
332,192,32800,1,0,0:0:0:0:m_048.ogg
435,192,32960,1,0,0:0:0:0:m_051.ogg
486,192,33120,1,0,0:0:0:0:m_055.ogg
435,192,33280,1,0,0:0:0:0:m_051.ogg
332,192,33440,1,0,0:0:0:0:m_048.ogg
281,192,33600,1,0,0:0:0:0:m_043.ogg
332,192,33760,1,0,0:0:0:0:m_048.ogg
435,192,33920,1,0,0:0:0:0:m_051.ogg
486,192,34080,1,0,0:0:0:0:m_055.ogg
435,192,34240,1,0,0:0:0:0:m_051.ogg
332,192,34400,1,0,0:0:0:0:s_048.ogg
25,192,34560,1,0,0:0:0:0:l_019.ogg
281,192,34560,1,0,0:0:0:0:l_043.ogg
76,192,34586,1,0,0:0:0:0:l_026.ogg
179,192,34613,1,0,0:0:0:0:l_035.ogg
332,192,34720,1,0,0:0:0:0:m_047.ogg
384,192,34880,1,0,0:0:0:0:m_050.ogg
486,192,35040,1,0,0:0:0:0:l_055.ogg
384,192,35200,1,0,0:0:0:0:m_050.ogg
332,192,35360,1,0,0:0:0:0:m_047.ogg
179,192,35520,1,0,0:0:0:0:m_038.ogg
332,192,35680,1,0,0:0:0:0:m_043.ogg
384,192,35840,1,0,0:0:0:0:m_047.ogg
435,192,36000,1,0,0:0:0:0:m_050.ogg
384,192,36160,1,0,0:0:0:0:m_047.ogg
332,192,36320,1,0,0:0:0:0:s_043.ogg
25,192,36480,1,0,0:0:0:0:l_019.ogg
281,192,36480,1,0,0:0:0:0:m_040.ogg
128,192,36520,1,0,0:0:0:0:l_035.ogg
384,192,36640,1,0,0:0:0:0:m_043.ogg
435,192,36800,1,0,0:0:0:0:m_047.ogg
486,192,36960,1,0,0:0:0:0:l_052.ogg
435,192,37120,1,0,0:0:0:0:m_047.ogg
384,192,37280,1,0,0:0:0:0:m_043.ogg
230,192,37440,1,0,0:0:0:0:s_040.ogg
332,192,37600,1,0,0:0:0:0:m_040.ogg
384,192,37760,1,0,0:0:0:0:m_043.ogg
435,192,37920,1,0,0:0:0:0:m_047.ogg
179,192,38080,1,0,0:0:0:0:m_035.ogg
384,192,38080,1,0,0:0:0:0:m_043.ogg
332,192,38240,1,0,0:0:0:0:s_040.ogg
25,192,38400,1,0,0:0:0:0:m_018.ogg
281,192,38400,1,0,0:0:0:0:m_037.ogg
128,192,38440,1,0,0:0:0:0:m_034.ogg
332,192,38560,1,0,0:0:0:0:m_042.ogg
384,192,38720,1,0,0:0:0:0:m_046.ogg
435,192,38880,1,0,0:0:0:0:m_049.ogg
384,192,39040,1,0,0:0:0:0:m_046.ogg
332,192,39200,1,0,0:0:0:0:s_042.ogg
25,192,39360,1,0,0:0:0:0:m_019.ogg
76,192,39360,1,0,0:0:0:0:m_035.ogg
230,192,39360,1,0,0:0:0:0:m_040.ogg
384,192,39520,1,0,0:0:0:0:m_043.ogg
435,192,39680,1,0,0:0:0:0:m_047.ogg
486,192,39840,1,0,0:0:0:0:m_052.ogg
179,192,40000,1,0,0:0:0:0:m_038.ogg
435,192,40000,1,0,0:0:0:0:m_047.ogg
384,192,40160,1,0,0:0:0:0:s_043.ogg
25,192,40320,1,0,0:0:0:0:m_034.ogg
76,192,40320,1,0,0:0:0:0:m_018.ogg
128,192,40320,1,0,0:0:0:0:m_037.ogg
332,192,40480,1,0,0:0:0:0:m_042.ogg
128,192,40640,1,0,0:0:0:0:m_036.ogg
384,192,40640,1,0,0:0:0:0:m_046.ogg
435,192,40800,1,0,0:0:0:0:m_049.ogg
179,192,40960,1,0,0:0:0:0:m_037.ogg
384,192,40960,1,0,0:0:0:0:m_046.ogg
332,192,41120,1,0,0:0:0:0:s_042.ogg
25,192,41280,1,0,0:0:0:0:m_019.ogg
281,192,41280,1,0,0:0:0:0:m_040.ogg
128,192,41320,1,0,0:0:0:0:m_035.ogg
332,192,41440,1,0,0:0:0:0:m_043.ogg
384,192,41600,1,0,0:0:0:0:m_047.ogg
435,192,41760,1,0,0:0:0:0:m_052.ogg
179,192,41920,1,0,0:0:0:0:m_038.ogg
384,192,41920,1,0,0:0:0:0:m_047.ogg
332,192,42080,1,0,0:0:0:0:s_043.ogg
25,192,42240,1,0,0:0:0:0:m_037.ogg
76,192,42240,1,0,0:0:0:0:m_034.ogg
128,192,42240,1,0,0:0:0:0:m_018.ogg
281,192,42400,1,0,0:0:0:0:m_042.ogg
128,192,42560,1,0,0:0:0:0:m_036.ogg
332,192,42560,1,0,0:0:0:0:m_046.ogg
384,192,42720,1,0,0:0:0:0:m_049.ogg
179,192,42880,1,0,0:0:0:0:m_037.ogg
332,192,42880,1,0,0:0:0:0:m_046.ogg
281,192,43040,1,0,0:0:0:0:s_042.ogg
128,192,43200,1,0,0:0:0:0:m_016.ogg
179,192,43200,1,0,0:0:0:0:m_028.ogg
230,192,43200,1,0,0:0:0:0:m_043.ogg
384,192,43360,1,0,0:0:0:0:m_047.ogg
76,192,43520,1,0,0:0:0:0:m_035.ogg
435,192,43520,1,0,0:0:0:0:m_049.ogg
486,192,43680,1,0,0:0:0:0:m_055.ogg
128,192,43840,1,0,0:0:0:0:m_037.ogg
435,192,43840,1,0,0:0:0:0:m_049.ogg
384,192,44000,1,0,0:0:0:0:s_047.ogg
332,192,44160,1,0,0:0:0:0:m_043.ogg
281,192,44480,1,0,0:0:0:0:m_042.ogg
230,192,44800,1,0,0:0:0:0:m_040.ogg
179,192,45120,1,0,0:0:0:0:m_038.ogg
128,192,45440,1,0,0:0:0:0:m_037.ogg
76,192,45760,1,0,0:0:0:0:m_035.ogg
25,192,46080,1,0,0:0:0:0:m_034.ogg
25,192,47040,1,0,0:0:0:0:l_018.ogg
76,192,47200,1,0,0:0:0:0:l_025.ogg
128,192,47360,1,0,0:0:0:0:l_028.ogg
179,192,47520,1,0,0:0:0:0:l_034.ogg
230,192,47680,1,0,0:0:0:0:l_037.ogg
281,192,47840,1,0,0:0:0:0:l_040.ogg
384,192,48000,1,0,0:0:0:0:m_043.ogg
332,192,48160,1,0,0:0:0:0:m_042.ogg
128,192,48320,1,0,0:0:0:0:s_047.ogg
179,192,48320,1,0,0:0:0:0:s_043.ogg
25,192,48420,1,0,0:0:0:0:s_046.ogg
76,192,48420,1,0,0:0:0:0:s_042.ogg
179,192,48520,1,0,0:0:0:0:l_043.ogg
230,192,48520,1,0,0:0:0:0:s_052.ogg
281,192,48520,1,0,0:0:0:0:s_047.ogg
25,192,48620,1,0,0:0:0:0:l_042.ogg
128,192,48620,1,0,0:0:0:0:s_049.ogg
76,192,48620,1,0,0:0:0:0:s_046.ogg
281,192,48720,1,0,0:0:0:0:l_047.ogg
332,192,48720,1,0,0:0:0:0:s_055.ogg
384,192,48720,1,0,0:0:0:0:s_052.ogg
128,192,48820,1,0,0:0:0:0:l_046.ogg
179,192,48820,1,0,0:0:0:0:s_054.ogg
230,192,48820,1,0,0:0:0:0:s_049.ogg
435,192,48920,1,0,0:0:0:0:l_052.ogg
384,192,48920,1,0,0:0:0:0:s_059.ogg
486,192,48920,1,0,0:0:0:0:s_055.ogg
230,192,49020,1,0,0:0:0:0:l_049.ogg
281,192,49020,1,0,0:0:0:0:s_058.ogg
332,192,49020,1,0,0:0:0:0:s_054.ogg
76,192,49120,1,0,0:0:0:0:l_055.ogg
25,192,49120,1,0,0:0:0:0:s_059.ogg
486,192,49120,1,0,0:0:0:0:s_064.ogg
384,192,49220,1,0,0:0:0:0:l_054.ogg
332,192,49220,1,0,0:0:0:0:s_061.ogg
435,192,49220,1,0,0:0:0:0:s_058.ogg
76,192,49320,1,0,0:0:0:0:l_059.ogg
179,192,49320,1,0,0:0:0:0:s_067.ogg
128,192,49320,1,0,0:0:0:0:s_064.ogg
25,192,49420,1,0,0:0:0:0:l_058.ogg
486,192,49420,1,0,0:0:0:0:s_066.ogg
435,192,49420,1,0,0:0:0:0:s_061.ogg
230,192,49520,1,0,0:0:0:0:m_064.ogg
179,192,49520,1,0,0:0:0:0:s_071.ogg
281,192,49520,1,0,0:0:0:0:s_067.ogg
25,192,49620,1,0,0:0:0:0:m_061.ogg
128,192,49620,1,0,0:0:0:0:s_066.ogg
76,192,49620,1,0,0:0:0:0:s_070.ogg
332,192,49720,1,0,0:0:0:0:m_067.ogg
281,192,49720,1,0,0:0:0:0:s_076.ogg
384,192,49720,1,0,0:0:0:0:s_071.ogg
128,192,49820,1,0,0:0:0:0:m_066.ogg
230,192,49820,1,0,0:0:0:0:s_070.ogg
179,192,49820,1,0,0:0:0:0:s_073.ogg
384,192,49920,1,0,0:0:0:0:s_071.ogg
435,192,49920,1,0,0:0:0:0:s_079.ogg
486,192,49920,1,0,0:0:0:0:s_076.ogg
230,192,50020,1,0,0:0:0:0:s_070.ogg
281,192,50020,1,0,0:0:0:0:s_078.ogg
332,192,50020,1,0,0:0:0:0:s_073.ogg
384,192,50120,1,0,0:0:0:0:s_071.ogg
435,192,50120,1,0,0:0:0:0:s_076.ogg
486,192,50120,1,0,0:0:0:0:l_079.ogg
230,192,50220,1,0,0:0:0:0:s_070.ogg
281,192,50220,1,0,0:0:0:0:s_073.ogg
332,192,50220,1,0,0:0:0:0:l_078.ogg
179,192,50320,1,0,0:0:0:0:s_067.ogg
76,192,50320,1,0,0:0:0:0:s_071.ogg
128,192,50320,1,0,0:0:0:0:l_076.ogg
25,192,50420,1,0,0:0:0:0:s_066.ogg
486,192,50420,1,0,0:0:0:0:s_070.ogg
435,192,50420,1,0,0:0:0:0:l_073.ogg
384,192,50520,1,0,0:0:0:0:s_064.ogg
332,192,50520,1,0,0:0:0:0:s_067.ogg
281,192,50520,1,0,0:0:0:0:s_071.ogg
128,192,50620,1,0,0:0:0:0:s_061.ogg
179,192,50620,1,0,0:0:0:0:s_070.ogg
230,192,50620,1,0,0:0:0:0:s_066.ogg
332,192,50720,1,0,0:0:0:0:s_064.ogg
384,192,50720,1,0,0:0:0:0:s_067.ogg
281,192,50720,1,0,0:0:0:0:l_071.ogg
128,192,50820,1,0,0:0:0:0:s_061.ogg
179,192,50820,1,0,0:0:0:0:s_066.ogg
230,192,50820,1,0,0:0:0:0:l_070.ogg
76,192,50920,1,0,0:0:0:0:s_064.ogg
25,192,50920,1,0,0:0:0:0:s_059.ogg
486,192,50920,1,0,0:0:0:0:l_067.ogg
332,192,51020,1,0,0:0:0:0:s_061.ogg
435,192,51020,1,0,0:0:0:0:s_058.ogg
384,192,51020,1,0,0:0:0:0:l_066.ogg
179,192,51120,1,0,0:0:0:0:s_055.ogg
230,192,51120,1,0,0:0:0:0:s_059.ogg
281,192,51120,1,0,0:0:0:0:s_064.ogg
25,192,51220,1,0,0:0:0:0:s_054.ogg
76,192,51220,1,0,0:0:0:0:s_058.ogg
128,192,51220,1,0,0:0:0:0:s_061.ogg
179,192,51320,1,0,0:0:0:0:s_055.ogg
230,192,51320,1,0,0:0:0:0:s_059.ogg
281,192,51320,1,0,0:0:0:0:l_064.ogg
25,192,51420,1,0,0:0:0:0:s_054.ogg
76,192,51420,1,0,0:0:0:0:s_058.ogg
128,192,51420,1,0,0:0:0:0:l_061.ogg
384,192,51520,1,0,0:0:0:0:s_055.ogg
435,192,51520,1,0,0:0:0:0:l_059.ogg
486,192,51520,1,0,0:0:0:0:s_052.ogg
230,192,51620,1,0,0:0:0:0:s_049.ogg
332,192,51620,1,0,0:0:0:0:s_054.ogg
281,192,51620,1,0,0:0:0:0:l_058.ogg
128,192,51720,1,0,0:0:0:0:s_047.ogg
179,192,51720,1,0,0:0:0:0:s_055.ogg
76,192,51720,1,0,0:0:0:0:s_052.ogg
486,192,51820,1,0,0:0:0:0:s_046.ogg
25,192,51820,1,0,0:0:0:0:s_054.ogg
435,192,51820,1,0,0:0:0:0:s_049.ogg
179,192,51920,1,0,0:0:0:0:s_047.ogg
128,192,51920,1,0,0:0:0:0:s_052.ogg
76,192,51920,1,0,0:0:0:0:l_055.ogg
435,192,52020,1,0,0:0:0:0:s_046.ogg
486,192,52020,1,0,0:0:0:0:s_049.ogg
25,192,52020,1,0,0:0:0:0:l_054.ogg
332,192,52120,1,0,0:0:0:0:s_047.ogg
384,192,52120,1,0,0:0:0:0:s_043.ogg
281,192,52120,1,0,0:0:0:0:s_052.ogg
230,192,52220,1,0,0:0:0:0:s_042.ogg
179,192,52220,1,0,0:0:0:0:s_049.ogg
128,192,52220,1,0,0:0:0:0:s_046.ogg
332,192,52320,1,0,0:0:0:0:s_043.ogg
281,192,52320,1,0,0:0:0:0:s_052.ogg
384,192,52320,1,0,0:0:0:0:s_047.ogg
179,192,52420,1,0,0:0:0:0:s_042.ogg
230,192,52420,1,0,0:0:0:0:s_049.ogg
128,192,52420,1,0,0:0:0:0:s_046.ogg
332,192,52520,1,0,0:0:0:0:s_043.ogg
281,192,52520,1,0,0:0:0:0:s_052.ogg
384,192,52520,1,0,0:0:0:0:s_047.ogg
179,192,52620,1,0,0:0:0:0:s_042.ogg
230,192,52620,1,0,0:0:0:0:s_049.ogg
128,192,52620,1,0,0:0:0:0:s_046.ogg
332,192,52720,1,0,0:0:0:0:s_052.ogg
384,192,52720,1,0,0:0:0:0:s_043.ogg
281,192,52720,1,0,0:0:0:0:s_047.ogg
179,192,52820,1,0,0:0:0:0:s_049.ogg
230,192,52820,1,0,0:0:0:0:s_042.ogg
128,192,52820,1,0,0:0:0:0:s_046.ogg
332,192,52920,1,0,0:0:0:0:s_052.ogg
384,192,52920,1,0,0:0:0:0:s_043.ogg
281,192,52920,1,0,0:0:0:0:s_047.ogg
230,192,53020,1,0,0:0:0:0:s_046.ogg
179,192,53020,1,0,0:0:0:0:s_042.ogg
128,192,53020,1,0,0:0:0:0:s_049.ogg
332,192,53120,1,0,0:0:0:0:s_052.ogg
384,192,53120,1,0,0:0:0:0:s_043.ogg
281,192,53120,1,0,0:0:0:0:s_047.ogg
128,192,53220,1,0,0:0:0:0:s_042.ogg
230,192,53220,1,0,0:0:0:0:s_049.ogg
179,192,53220,1,0,0:0:0:0:s_046.ogg
332,192,53320,1,0,0:0:0:0:s_043.ogg
384,192,53320,1,0,0:0:0:0:s_052.ogg
281,192,53320,1,0,0:0:0:0:s_047.ogg
128,192,53420,1,0,0:0:0:0:s_042.ogg
230,192,53420,1,0,0:0:0:0:s_049.ogg
179,192,53420,1,0,0:0:0:0:s_046.ogg
281,192,53520,1,0,0:0:0:0:s_043.ogg
384,192,53520,1,0,0:0:0:0:s_052.ogg
332,192,53520,1,0,0:0:0:0:s_047.ogg
128,192,53620,1,0,0:0:0:0:s_042.ogg
230,192,53620,1,0,0:0:0:0:s_049.ogg
179,192,53620,1,0,0:0:0:0:s_046.ogg
281,192,53720,1,0,0:0:0:0:s_043.ogg
384,192,53720,1,0,0:0:0:0:s_052.ogg
332,192,53720,1,0,0:0:0:0:s_047.ogg
128,192,53820,1,0,0:0:0:0:s_042.ogg
230,192,53820,1,0,0:0:0:0:s_049.ogg
179,192,53820,1,0,0:0:0:0:s_046.ogg
332,192,53920,1,0,0:0:0:0:s_043.ogg
281,192,53920,1,0,0:0:0:0:s_052.ogg
384,192,53920,1,0,0:0:0:0:s_047.ogg
128,192,54020,1,0,0:0:0:0:s_042.ogg
230,192,54020,1,0,0:0:0:0:s_049.ogg
179,192,54020,1,0,0:0:0:0:s_046.ogg
332,192,54120,1,0,0:0:0:0:s_043.ogg
281,192,54120,1,0,0:0:0:0:s_052.ogg
384,192,54120,1,0,0:0:0:0:s_047.ogg
128,192,54220,1,0,0:0:0:0:s_042.ogg
230,192,54220,1,0,0:0:0:0:s_049.ogg
179,192,54220,1,0,0:0:0:0:s_046.ogg
332,192,54320,1,0,0:0:0:0:s_043.ogg
281,192,54320,1,0,0:0:0:0:s_052.ogg
384,192,54320,1,0,0:0:0:0:s_047.ogg
128,192,54420,1,0,0:0:0:0:s_042.ogg
230,192,54420,1,0,0:0:0:0:s_049.ogg
179,192,54420,1,0,0:0:0:0:s_046.ogg
332,192,54520,1,0,0:0:0:0:s_043.ogg
281,192,54520,1,0,0:0:0:0:s_052.ogg
384,192,54520,1,0,0:0:0:0:s_047.ogg
128,192,54620,1,0,0:0:0:0:s_042.ogg
230,192,54620,1,0,0:0:0:0:s_049.ogg
179,192,54620,1,0,0:0:0:0:s_046.ogg
179,192,55520,1,0,0:0:0:0:m_053.ogg
25,192,55920,1,0,0:0:0:0:l_026.ogg
486,192,55920,1,0,0:0:0:0:m_054.ogg
76,192,56080,1,0,0:0:0:0:m_033.ogg
281,192,56080,1,0,0:0:0:0:m_042.ogg
128,192,56240,1,0,0:0:0:0:m_038.ogg
332,192,56240,1,0,0:0:0:0:m_045.ogg
230,192,56400,1,0,0:0:0:0:m_042.ogg
384,192,56400,1,0,0:0:0:0:m_050.ogg
128,192,56560,1,0,0:0:0:0:m_038.ogg
332,192,56560,1,0,0:0:0:0:m_045.ogg
76,192,56720,1,0,0:0:0:0:m_033.ogg
281,192,56720,1,0,0:0:0:0:m_042.ogg
486,192,56880,1,0,0:0:0:0:m_054.ogg
76,192,57040,1,0,0:0:0:0:m_033.ogg
281,192,57040,1,0,0:0:0:0:m_042.ogg
128,192,57200,1,0,0:0:0:0:m_038.ogg
332,192,57200,1,0,0:0:0:0:m_045.ogg
230,192,57360,1,0,0:0:0:0:m_042.ogg
384,192,57360,1,0,0:0:0:0:m_050.ogg
128,192,57520,1,0,0:0:0:0:m_038.ogg
332,192,57520,1,0,0:0:0:0:m_045.ogg
76,192,57680,1,0,0:0:0:0:s_033.ogg
281,192,57680,1,0,0:0:0:0:s_042.ogg
25,192,57840,1,0,0:0:0:0:l_025.ogg
486,192,57840,1,0,0:0:0:0:l_054.ogg
128,192,58000,1,0,0:0:0:0:m_034.ogg
332,192,58000,1,0,0:0:0:0:m_042.ogg
179,192,58160,1,0,0:0:0:0:m_040.ogg
384,192,58160,1,0,0:0:0:0:m_046.ogg
230,192,58320,1,0,0:0:0:0:m_042.ogg
435,192,58320,1,0,0:0:0:0:m_052.ogg
179,192,58480,1,0,0:0:0:0:m_040.ogg
384,192,58480,1,0,0:0:0:0:m_046.ogg
128,192,58640,1,0,0:0:0:0:m_034.ogg
332,192,58640,1,0,0:0:0:0:m_042.ogg
128,192,58960,1,0,0:0:0:0:m_034.ogg
332,192,58960,1,0,0:0:0:0:m_042.ogg
179,192,59120,1,0,0:0:0:0:m_040.ogg
384,192,59120,1,0,0:0:0:0:m_046.ogg
230,192,59280,1,0,0:0:0:0:m_042.ogg
435,192,59280,1,0,0:0:0:0:m_052.ogg
179,192,59440,1,0,0:0:0:0:m_040.ogg
384,192,59440,1,0,0:0:0:0:m_046.ogg
486,192,59440,1,0,0:0:0:0:m_054.ogg
128,192,59600,1,0,0:0:0:0:s_034.ogg
332,192,59600,1,0,0:0:0:0:s_042.ogg
25,192,59760,1,0,0:0:0:0:m_024.ogg
486,192,59760,1,0,0:0:0:0:m_054.ogg
76,192,59920,1,0,0:0:0:0:m_033.ogg
281,192,59920,1,0,0:0:0:0:m_042.ogg
179,192,60080,1,0,0:0:0:0:m_040.ogg
332,192,60080,1,0,0:0:0:0:m_045.ogg
230,192,60240,1,0,0:0:0:0:m_042.ogg
384,192,60240,1,0,0:0:0:0:m_052.ogg
179,192,60400,1,0,0:0:0:0:m_040.ogg
332,192,60400,1,0,0:0:0:0:m_045.ogg
486,192,60400,1,0,0:0:0:0:m_054.ogg
76,192,60560,1,0,0:0:0:0:s_033.ogg
281,192,60560,1,0,0:0:0:0:s_042.ogg
25,192,60720,1,0,0:0:0:0:m_023.ogg
435,192,60720,1,0,0:0:0:0:m_055.ogg
76,192,60880,1,0,0:0:0:0:m_033.ogg
281,192,60880,1,0,0:0:0:0:m_042.ogg
128,192,61040,1,0,0:0:0:0:m_039.ogg
332,192,61040,1,0,0:0:0:0:m_045.ogg
230,192,61200,1,0,0:0:0:0:m_042.ogg
384,192,61200,1,0,0:0:0:0:m_051.ogg
128,192,61360,1,0,0:0:0:0:m_039.ogg
332,192,61360,1,0,0:0:0:0:m_045.ogg
486,192,61360,1,0,0:0:0:0:m_054.ogg
76,192,61520,1,0,0:0:0:0:s_033.ogg
281,192,61520,1,0,0:0:0:0:s_042.ogg
25,192,61680,1,0,0:0:0:0:m_016.ogg
486,192,61680,1,0,0:0:0:0:m_054.ogg
76,192,61840,1,0,0:0:0:0:m_032.ogg
281,192,61840,1,0,0:0:0:0:m_042.ogg
128,192,62000,1,0,0:0:0:0:m_038.ogg
332,192,62000,1,0,0:0:0:0:m_044.ogg
179,192,62160,1,0,0:0:0:0:m_042.ogg
384,192,62160,1,0,0:0:0:0:m_050.ogg
128,192,62320,1,0,0:0:0:0:m_038.ogg
332,192,62320,1,0,0:0:0:0:m_044.ogg
76,192,62480,1,0,0:0:0:0:s_032.ogg
281,192,62480,1,0,0:0:0:0:s_042.ogg
435,192,62640,1,0,0:0:0:0:m_047.ogg
25,192,62800,1,0,0:0:0:0:m_028.ogg
281,192,62800,1,0,0:0:0:0:m_038.ogg
76,192,62960,1,0,0:0:0:0:m_032.ogg
332,192,62960,1,0,0:0:0:0:m_040.ogg
128,192,63120,1,0,0:0:0:0:m_038.ogg
384,192,63120,1,0,0:0:0:0:m_044.ogg
76,192,63280,1,0,0:0:0:0:m_032.ogg
332,192,63280,1,0,0:0:0:0:m_040.ogg
435,192,63280,1,0,0:0:0:0:m_047.ogg
25,192,63440,1,0,0:0:0:0:s_028.ogg
281,192,63440,1,0,0:0:0:0:s_038.ogg
76,192,63600,1,0,0:0:0:0:m_021.ogg
435,192,63600,1,0,0:0:0:0:m_047.ogg
128,192,63760,1,0,0:0:0:0:m_031.ogg
281,192,63760,1,0,0:0:0:0:m_040.ogg
179,192,63920,1,0,0:0:0:0:m_033.ogg
332,192,63920,1,0,0:0:0:0:m_043.ogg
486,192,63920,1,0,0:0:0:0:m_049.ogg
230,192,64080,1,0,0:0:0:0:m_040.ogg
384,192,64080,1,0,0:0:0:0:m_045.ogg
179,192,64240,1,0,0:0:0:0:m_033.ogg
332,192,64240,1,0,0:0:0:0:m_043.ogg
486,192,64240,1,0,0:0:0:0:m_050.ogg
128,192,64400,1,0,0:0:0:0:s_031.ogg
281,192,64400,1,0,0:0:0:0:s_040.ogg
486,192,64560,1,0,0:0:0:0:m_054.ogg
76,192,64720,1,0,0:0:0:0:m_033.ogg
281,192,64720,1,0,0:0:0:0:m_043.ogg
179,192,64880,1,0,0:0:0:0:m_037.ogg
332,192,64880,1,0,0:0:0:0:m_045.ogg
230,192,65040,1,0,0:0:0:0:m_043.ogg
384,192,65040,1,0,0:0:0:0:m_049.ogg
179,192,65200,1,0,0:0:0:0:m_037.ogg
332,192,65200,1,0,0:0:0:0:m_045.ogg
435,192,65200,1,0,0:0:0:0:m_052.ogg
76,192,65360,1,0,0:0:0:0:s_033.ogg
281,192,65360,1,0,0:0:0:0:s_043.ogg
435,192,65520,1,0,0:0:0:0:m_052.ogg
25,192,65680,1,0,0:0:0:0:m_026.ogg
332,192,65680,1,0,0:0:0:0:m_042.ogg
128,192,65840,1,0,0:0:0:0:m_033.ogg
384,192,65840,1,0,0:0:0:0:m_045.ogg
486,192,65840,1,0,0:0:0:0:m_050.ogg
230,192,66000,1,0,0:0:0:0:m_038.ogg
332,192,66000,1,0,0:0:0:0:m_042.ogg
76,192,66160,1,0,0:0:0:0:m_032.ogg
435,192,66160,1,0,0:0:0:0:m_047.ogg
179,192,66320,1,0,0:0:0:0:s_038.ogg
281,192,66320,1,0,0:0:0:0:s_041.ogg
128,192,66480,1,0,0:0:0:0:s_033.ogg
332,192,66480,1,0,0:0:0:0:s_042.ogg
384,192,66480,1,0,0:0:0:0:m_045.ogg
230,192,66640,1,0,0:0:0:0:s_042.ogg
179,192,66800,1,0,0:0:0:0:s_040.ogg
128,192,66960,1,0,0:0:0:0:s_038.ogg
76,192,67120,1,0,0:0:0:0:s_035.ogg
25,192,67280,1,0,0:0:0:0:s_033.ogg
332,192,67280,1,0,0:0:0:0:s_045.ogg
25,192,67440,1,0,0:0:0:0:m_026.ogg
486,192,67440,1,0,0:0:0:0:m_054.ogg
76,192,67600,1,0,0:0:0:0:m_033.ogg
281,192,67600,1,0,0:0:0:0:m_042.ogg
128,192,67760,1,0,0:0:0:0:m_038.ogg
332,192,67760,1,0,0:0:0:0:m_045.ogg
230,192,67920,1,0,0:0:0:0:m_042.ogg
384,192,67920,1,0,0:0:0:0:m_050.ogg
128,192,68080,1,0,0:0:0:0:m_038.ogg
332,192,68080,1,0,0:0:0:0:m_045.ogg
76,192,68240,1,0,0:0:0:0:s_033.ogg
281,192,68240,1,0,0:0:0:0:s_042.ogg
25,192,68400,1,0,0:0:0:0:m_025.ogg
486,192,68400,1,0,0:0:0:0:m_054.ogg
128,192,68560,1,0,0:0:0:0:m_034.ogg
281,192,68560,1,0,0:0:0:0:m_042.ogg
179,192,68720,1,0,0:0:0:0:m_040.ogg
384,192,68720,1,0,0:0:0:0:m_046.ogg
230,192,68880,1,0,0:0:0:0:m_042.ogg
435,192,68880,1,0,0:0:0:0:m_052.ogg
179,192,69040,1,0,0:0:0:0:m_040.ogg
384,192,69040,1,0,0:0:0:0:m_046.ogg
128,192,69200,1,0,0:0:0:0:s_034.ogg
281,192,69200,1,0,0:0:0:0:s_042.ogg
25,192,69360,1,0,0:0:0:0:m_024.ogg
486,192,69360,1,0,0:0:0:0:m_054.ogg
76,192,69520,1,0,0:0:0:0:m_033.ogg
281,192,69520,1,0,0:0:0:0:m_042.ogg
128,192,69680,1,0,0:0:0:0:m_039.ogg
332,192,69680,1,0,0:0:0:0:m_045.ogg
230,192,69840,1,0,0:0:0:0:m_042.ogg
384,192,69840,1,0,0:0:0:0:m_051.ogg
128,192,70000,1,0,0:0:0:0:m_039.ogg
332,192,70000,1,0,0:0:0:0:m_045.ogg
76,192,70160,1,0,0:0:0:0:s_033.ogg
281,192,70160,1,0,0:0:0:0:s_042.ogg
25,192,70320,1,0,0:0:0:0:m_023.ogg
76,192,70480,1,0,0:0:0:0:m_033.ogg
281,192,70480,1,0,0:0:0:0:m_042.ogg
128,192,70640,1,0,0:0:0:0:m_039.ogg
332,192,70640,1,0,0:0:0:0:m_045.ogg
230,192,70800,1,0,0:0:0:0:m_042.ogg
384,192,70800,1,0,0:0:0:0:m_051.ogg
128,192,70960,1,0,0:0:0:0:m_039.ogg
332,192,70960,1,0,0:0:0:0:m_045.ogg
486,192,70960,1,0,0:0:0:0:m_054.ogg
76,192,71120,1,0,0:0:0:0:s_033.ogg
281,192,71120,1,0,0:0:0:0:s_042.ogg
25,192,71280,1,0,0:0:0:0:l_022.ogg
486,192,71280,1,0,0:0:0:0:m_054.ogg
128,192,71440,1,0,0:0:0:0:m_034.ogg
281,192,71440,1,0,0:0:0:0:m_043.ogg
179,192,71600,1,0,0:0:0:0:m_039.ogg
332,192,71600,1,0,0:0:0:0:m_046.ogg
230,192,71760,1,0,0:0:0:0:m_043.ogg
384,192,71760,1,0,0:0:0:0:m_051.ogg
179,192,71920,1,0,0:0:0:0:m_039.ogg
332,192,71920,1,0,0:0:0:0:m_046.ogg
486,192,71920,1,0,0:0:0:0:m_055.ogg
128,192,72080,1,0,0:0:0:0:m_034.ogg
281,192,72080,1,0,0:0:0:0:m_043.ogg
435,192,72240,1,0,0:0:0:0:m_054.ogg
128,192,72400,1,0,0:0:0:0:m_034.ogg
281,192,72400,1,0,0:0:0:0:m_043.ogg
179,192,72560,1,0,0:0:0:0:m_039.ogg
332,192,72560,1,0,0:0:0:0:m_046.ogg
230,192,72720,1,0,0:0:0:0:m_043.ogg
384,192,72720,1,0,0:0:0:0:m_051.ogg
179,192,72880,1,0,0:0:0:0:m_039.ogg
332,192,72880,1,0,0:0:0:0:m_046.ogg
435,192,72880,1,0,0:0:0:0:m_055.ogg
128,192,73040,1,0,0:0:0:0:s_034.ogg
281,192,73040,1,0,0:0:0:0:s_043.ogg
25,192,73200,1,0,0:0:0:0:m_022.ogg
486,192,73200,1,0,0:0:0:0:l_056.ogg
76,192,73360,1,0,0:0:0:0:m_036.ogg
332,192,73360,1,0,0:0:0:0:m_044.ogg
128,192,73520,1,0,0:0:0:0:m_039.ogg
281,192,73520,1,0,0:0:0:0:m_041.ogg
384,192,73520,1,0,0:0:0:0:m_048.ogg
179,192,73680,1,0,0:0:0:0:m_044.ogg
435,192,73680,1,0,0:0:0:0:m_051.ogg
128,192,73840,1,0,0:0:0:0:m_039.ogg
281,192,73840,1,0,0:0:0:0:m_041.ogg
384,192,73840,1,0,0:0:0:0:m_048.ogg
76,192,74000,1,0,0:0:0:0:s_036.ogg
332,192,74000,1,0,0:0:0:0:s_044.ogg
281,192,74800,1,0,0:0:0:0:m_048.ogg
384,192,74800,1,0,0:0:0:0:m_036.ogg
281,192,75120,1,0,0:0:0:0:m_036.ogg
384,192,75120,1,0,0:0:0:0:m_048.ogg
25,192,75280,1,0,0:0:0:0:m_022.ogg
76,192,75440,1,0,0:0:0:0:m_032.ogg
128,192,75440,1,0,0:0:0:0:m_029.ogg
332,192,75440,1,0,0:0:0:0:m_038.ogg
435,192,75440,1,0,0:0:0:0:m_050.ogg
179,192,75600,1,0,0:0:0:0:m_036.ogg
76,192,75760,1,0,0:0:0:0:m_029.ogg
128,192,75760,1,0,0:0:0:0:m_032.ogg
384,192,75760,1,0,0:0:0:0:m_051.ogg
486,192,75760,1,0,0:0:0:0:m_039.ogg
25,192,75920,1,0,0:0:0:0:s_022.ogg
25,192,76080,1,0,0:0:0:0:m_022.ogg
435,192,76080,1,0,0:0:0:0:m_043.ogg
128,192,76106,1,0,0:0:0:0:m_032.ogg
486,192,76120,1,0,0:0:0:0:m_055.ogg
230,192,76133,1,0,0:0:0:0:m_038.ogg
384,192,76720,1,0,0:0:0:0:m_053.ogg
486,192,76720,1,0,0:0:0:0:m_041.ogg
76,192,77040,1,0,0:0:0:0:l_031.ogg
179,192,77040,1,0,0:0:0:0:l_015.ogg
281,192,77040,1,0,0:0:0:0:m_051.ogg
332,192,77040,1,0,0:0:0:0:m_046.ogg
435,192,77040,1,0,0:0:0:0:m_039.ogg
486,192,77360,1,0,0:0:0:0:l_051.ogg
332,192,77520,1,0,0:0:0:0:m_043.ogg
435,192,77680,1,0,0:0:0:0:l_046.ogg
230,192,77840,1,0,0:0:0:0:m_039.ogg
332,192,78000,1,0,0:0:0:0:m_043.ogg
179,192,78160,1,0,0:0:0:0:m_034.ogg
281,192,78320,1,0,0:0:0:0:m_039.ogg
76,192,78480,1,0,0:0:0:0:m_031.ogg
179,192,78640,1,0,0:0:0:0:m_034.ogg
25,192,78800,1,0,0:0:0:0:s_027.ogg
281,192,78800,1,0,0:0:0:0:s_051.ogg
435,192,78800,1,0,0:0:0:0:s_063.ogg
76,192,78960,1,0,0:0:0:0:m_020.ogg
128,192,78960,1,0,0:0:0:0:m_032.ogg
281,192,78960,1,0,0:0:0:0:m_059.ogg
332,192,78960,1,0,0:0:0:0:m_056.ogg
384,192,78960,1,0,0:0:0:0:m_051.ogg
435,192,78960,1,0,0:0:0:0:m_063.ogg
230,192,79280,1,0,0:0:0:0:m_047.ogg
179,192,79440,1,0,0:0:0:0:m_039.ogg
230,192,79600,1,0,0:0:0:0:m_044.ogg
128,192,79760,1,0,0:0:0:0:s_035.ogg
281,192,79760,1,0,0:0:0:0:s_062.ogg
332,192,79760,1,0,0:0:0:0:s_050.ogg
384,192,79760,1,0,0:0:0:0:s_056.ogg
486,192,79760,1,0,0:0:0:0:s_059.ogg
179,192,79920,1,0,0:0:0:0:m_039.ogg
281,192,79920,1,0,0:0:0:0:m_059.ogg
384,192,79920,1,0,0:0:0:0:m_056.ogg
435,192,79920,1,0,0:0:0:0:m_051.ogg
486,192,79920,1,0,0:0:0:0:m_063.ogg
76,192,80080,1,0,0:0:0:0:m_032.ogg
128,192,80240,1,0,0:0:0:0:m_035.ogg
25,192,80400,1,0,0:0:0:0:m_027.ogg
76,192,80560,1,0,0:0:0:0:m_032.ogg
25,192,80720,1,0,0:0:0:0:s_023.ogg
281,192,80720,1,0,0:0:0:0:s_065.ogg
332,192,80720,1,0,0:0:0:0:s_053.ogg
435,192,80720,1,0,0:0:0:0:s_056.ogg
486,192,80720,1,0,0:0:0:0:s_059.ogg
128,192,80880,1,0,0:0:0:0:m_015.ogg
179,192,80880,1,0,0:0:0:0:m_027.ogg
384,192,80880,1,0,0:0:0:0:m_058.ogg
435,192,80880,1,0,0:0:0:0:m_067.ogg
486,192,80880,1,0,0:0:0:0:m_055.ogg
230,192,81200,1,0,0:0:0:0:m_051.ogg
179,192,81360,1,0,0:0:0:0:m_043.ogg
230,192,81520,1,0,0:0:0:0:m_046.ogg
128,192,81680,1,0,0:0:0:0:s_039.ogg
332,192,81680,1,0,0:0:0:0:s_065.ogg
384,192,81680,1,0,0:0:0:0:s_058.ogg
435,192,81680,1,0,0:0:0:0:s_053.ogg
179,192,81840,1,0,0:0:0:0:m_043.ogg
281,192,81840,1,0,0:0:0:0:m_063.ogg
332,192,81840,1,0,0:0:0:0:m_058.ogg
384,192,81840,1,0,0:0:0:0:m_051.ogg
76,192,82000,1,0,0:0:0:0:m_034.ogg
128,192,82160,1,0,0:0:0:0:m_039.ogg
25,192,82320,1,0,0:0:0:0:m_031.ogg
76,192,82480,1,0,0:0:0:0:m_034.ogg
25,192,82640,1,0,0:0:0:0:s_027.ogg
332,192,82640,1,0,0:0:0:0:s_055.ogg
486,192,82640,1,0,0:0:0:0:s_067.ogg
128,192,82800,1,0,0:0:0:0:m_024.ogg
179,192,82800,1,0,0:0:0:0:m_012.ogg
332,192,82800,1,0,0:0:0:0:m_063.ogg
384,192,82800,1,0,0:0:0:0:m_060.ogg
435,192,82800,1,0,0:0:0:0:m_055.ogg
486,192,82800,1,0,0:0:0:0:m_067.ogg
230,192,83120,1,0,0:0:0:0:m_051.ogg
179,192,83280,1,0,0:0:0:0:m_043.ogg
230,192,83440,1,0,0:0:0:0:m_048.ogg
128,192,83600,1,0,0:0:0:0:s_039.ogg
281,192,83600,1,0,0:0:0:0:s_066.ogg
332,192,83600,1,0,0:0:0:0:s_054.ogg
384,192,83600,1,0,0:0:0:0:s_060.ogg
486,192,83600,1,0,0:0:0:0:s_063.ogg
179,192,83760,1,0,0:0:0:0:m_043.ogg
281,192,83760,1,0,0:0:0:0:m_067.ogg
384,192,83760,1,0,0:0:0:0:m_055.ogg
435,192,83760,1,0,0:0:0:0:m_060.ogg
486,192,83760,1,0,0:0:0:0:m_063.ogg
76,192,83920,1,0,0:0:0:0:m_036.ogg
128,192,84080,1,0,0:0:0:0:m_039.ogg
25,192,84240,1,0,0:0:0:0:m_031.ogg
76,192,84400,1,0,0:0:0:0:m_036.ogg
25,192,84560,1,0,0:0:0:0:s_027.ogg
332,192,84560,1,0,0:0:0:0:s_057.ogg
384,192,84560,1,0,0:0:0:0:s_069.ogg
76,192,84720,1,0,0:0:0:0:m_031.ogg
128,192,84720,1,0,0:0:0:0:m_019.ogg
435,192,84720,1,0,0:0:0:0:m_059.ogg
486,192,84720,1,0,0:0:0:0:m_071.ogg
179,192,84880,1,0,0:0:0:0:m_038.ogg
332,192,84880,1,0,0:0:0:0:m_050.ogg
128,192,85040,1,0,0:0:0:0:m_035.ogg
384,192,85040,1,0,0:0:0:0:m_055.ogg
230,192,85200,1,0,0:0:0:0:m_043.ogg
281,192,85200,1,0,0:0:0:0:m_047.ogg
179,192,85360,1,0,0:0:0:0:m_038.ogg
332,192,85360,1,0,0:0:0:0:m_050.ogg
128,192,85520,1,0,0:0:0:0:m_035.ogg
384,192,85520,1,0,0:0:0:0:m_055.ogg
25,192,85680,1,0,0:0:0:0:m_019.ogg
76,192,85680,1,0,0:0:0:0:m_031.ogg
435,192,85680,1,0,0:0:0:0:m_059.ogg
486,192,85680,1,0,0:0:0:0:m_071.ogg
179,192,85840,1,0,0:0:0:0:m_038.ogg
332,192,85840,1,0,0:0:0:0:m_050.ogg
128,192,86000,1,0,0:0:0:0:m_035.ogg
384,192,86000,1,0,0:0:0:0:m_055.ogg
230,192,86160,1,0,0:0:0:0:m_043.ogg
281,192,86160,1,0,0:0:0:0:m_047.ogg
179,192,86320,1,0,0:0:0:0:m_038.ogg
332,192,86320,1,0,0:0:0:0:m_050.ogg
128,192,86480,1,0,0:0:0:0:s_035.ogg
384,192,86480,1,0,0:0:0:0:s_055.ogg
25,192,86640,1,0,0:0:0:0:m_030.ogg
76,192,86640,1,0,0:0:0:0:l_018.ogg
435,192,86640,1,0,0:0:0:0:m_059.ogg
486,192,86640,1,0,0:0:0:0:l_071.ogg
179,192,86800,1,0,0:0:0:0:m_039.ogg
332,192,86800,1,0,0:0:0:0:m_051.ogg
128,192,86960,1,0,0:0:0:0:m_035.ogg
384,192,86960,1,0,0:0:0:0:m_057.ogg
230,192,87120,1,0,0:0:0:0:m_045.ogg
281,192,87120,1,0,0:0:0:0:l_047.ogg
179,192,87280,1,0,0:0:0:0:m_039.ogg
332,192,87280,1,0,0:0:0:0:m_051.ogg
128,192,87440,1,0,0:0:0:0:m_035.ogg
384,192,87440,1,0,0:0:0:0:m_057.ogg
25,192,87600,1,0,0:0:0:0:m_030.ogg
486,192,87600,1,0,0:0:0:0:m_059.ogg
179,192,87760,1,0,0:0:0:0:m_039.ogg
332,192,87760,1,0,0:0:0:0:m_051.ogg
128,192,87920,1,0,0:0:0:0:m_035.ogg
384,192,87920,1,0,0:0:0:0:m_057.ogg
179,192,88080,1,0,0:0:0:0:m_045.ogg
332,192,88080,1,0,0:0:0:0:m_051.ogg
128,192,88240,1,0,0:0:0:0:m_039.ogg
76,192,88400,1,0,0:0:0:0:s_035.ogg
435,192,88400,1,0,0:0:0:0:s_071.ogg
486,192,88400,1,0,0:0:0:0:s_059.ogg
25,192,88560,1,0,0:0:0:0:m_017.ogg
76,192,88560,1,0,0:0:0:0:m_029.ogg
435,192,88560,1,0,0:0:0:0:m_071.ogg
486,192,88560,1,0,0:0:0:0:m_059.ogg
179,192,88720,1,0,0:0:0:0:m_038.ogg
332,192,88720,1,0,0:0:0:0:m_050.ogg
128,192,88880,1,0,0:0:0:0:m_035.ogg
384,192,88880,1,0,0:0:0:0:m_055.ogg
230,192,89040,1,0,0:0:0:0:m_045.ogg
281,192,89040,1,0,0:0:0:0:m_047.ogg
179,192,89200,1,0,0:0:0:0:m_038.ogg
128,192,89360,1,0,0:0:0:0:s_035.ogg
435,192,89360,1,0,0:0:0:0:s_059.ogg
486,192,89360,1,0,0:0:0:0:s_071.ogg
25,192,89520,1,0,0:0:0:0:m_028.ogg
76,192,89520,1,0,0:0:0:0:m_016.ogg
384,192,89520,1,0,0:0:0:0:m_060.ogg
486,192,89520,1,0,0:0:0:0:m_072.ogg
179,192,89680,1,0,0:0:0:0:m_038.ogg
332,192,89680,1,0,0:0:0:0:m_050.ogg
76,192,89840,1,0,0:0:0:0:m_035.ogg
435,192,89840,1,0,0:0:0:0:m_056.ogg
230,192,90000,1,0,0:0:0:0:m_044.ogg
281,192,90000,1,0,0:0:0:0:m_047.ogg
179,192,90160,1,0,0:0:0:0:m_038.ogg
128,192,90320,1,0,0:0:0:0:s_035.ogg
435,192,90320,1,0,0:0:0:0:s_059.ogg
486,192,90320,1,0,0:0:0:0:s_071.ogg
25,192,90480,1,0,0:0:0:0:l_021.ogg
435,192,90480,1,0,0:0:0:0:l_071.ogg
486,192,90480,1,0,0:0:0:0:l_059.ogg
76,192,90640,1,0,0:0:0:0:l_031.ogg
128,192,90800,1,0,0:0:0:0:s_037.ogg
128,192,90960,1,0,0:0:0:0:m_037.ogg
179,192,91120,1,0,0:0:0:0:m_043.ogg
230,192,91280,1,0,0:0:0:0:s_047.ogg
230,192,91440,1,0,0:0:0:0:m_047.ogg
281,192,91440,1,0,0:0:0:0:m_064.ogg
384,192,91440,1,0,0:0:0:0:m_052.ogg
179,192,91600,1,0,0:0:0:0:m_043.ogg
128,192,91760,1,0,0:0:0:0:s_037.ogg
128,192,91920,1,0,0:0:0:0:m_037.ogg
76,192,92080,1,0,0:0:0:0:m_031.ogg
281,192,92080,1,0,0:0:0:0:m_064.ogg
384,192,92080,1,0,0:0:0:0:m_052.ogg
25,192,92240,1,0,0:0:0:0:s_021.ogg
25,192,92400,1,0,0:0:0:0:m_014.ogg
281,192,92400,1,0,0:0:0:0:m_060.ogg
332,192,92400,1,0,0:0:0:0:m_064.ogg
384,192,92400,1,0,0:0:0:0:m_052.ogg
76,192,92560,1,0,0:0:0:0:m_026.ogg
128,192,92720,1,0,0:0:0:0:m_033.ogg
281,192,92720,1,0,0:0:0:0:m_060.ogg
332,192,92720,1,0,0:0:0:0:m_062.ogg
384,192,92720,1,0,0:0:0:0:m_054.ogg
435,192,92720,1,0,0:0:0:0:m_066.ogg
179,192,92880,1,0,0:0:0:0:m_036.ogg
76,192,93040,1,0,0:0:0:0:m_040.ogg
281,192,93040,1,0,0:0:0:0:m_067.ogg
332,192,93040,1,0,0:0:0:0:m_055.ogg
435,192,93040,1,0,0:0:0:0:m_062.ogg
486,192,93040,1,0,0:0:0:0:m_060.ogg
128,192,93200,1,0,0:0:0:0:s_043.ogg
230,192,93360,1,0,0:0:0:0:m_047.ogg
332,192,93360,1,0,0:0:0:0:m_071.ogg
384,192,93360,1,0,0:0:0:0:m_062.ogg
435,192,93360,1,0,0:0:0:0:m_066.ogg
486,192,93360,1,0,0:0:0:0:m_059.ogg
179,192,93520,1,0,0:0:0:0:m_042.ogg
128,192,93680,1,0,0:0:0:0:m_038.ogg
76,192,93840,1,0,0:0:0:0:m_036.ogg
179,192,94000,1,0,0:0:0:0:m_030.ogg
281,192,94000,1,0,0:0:0:0:m_057.ogg
486,192,94000,1,0,0:0:0:0:m_069.ogg
128,192,94160,1,0,0:0:0:0:s_026.ogg
25,192,94320,1,0,0:0:0:0:m_019.ogg
281,192,94320,1,0,0:0:0:0:m_059.ogg
384,192,94320,1,0,0:0:0:0:m_062.ogg
435,192,94320,1,0,0:0:0:0:m_057.ogg
486,192,94320,1,0,0:0:0:0:m_069.ogg
76,192,94480,1,0,0:0:0:0:m_026.ogg
128,192,94640,1,0,0:0:0:0:m_031.ogg
332,192,94640,1,0,0:0:0:0:m_067.ogg
486,192,94640,1,0,0:0:0:0:m_055.ogg
179,192,94800,1,0,0:0:0:0:s_035.ogg
76,192,94960,1,0,0:0:0:0:m_037.ogg
281,192,94960,1,0,0:0:0:0:m_064.ogg
384,192,94960,1,0,0:0:0:0:m_058.ogg
435,192,94960,1,0,0:0:0:0:m_052.ogg
179,192,95120,1,0,0:0:0:0:s_043.ogg
128,192,95280,1,0,0:0:0:0:m_038.ogg
281,192,95280,1,0,0:0:0:0:m_062.ogg
332,192,95280,1,0,0:0:0:0:m_050.ogg
384,192,95280,1,0,0:0:0:0:m_059.ogg
230,192,95440,1,0,0:0:0:0:m_047.ogg
179,192,95600,1,0,0:0:0:0:m_043.ogg
128,192,95760,1,0,0:0:0:0:m_038.ogg
76,192,95920,1,0,0:0:0:0:m_035.ogg
332,192,95920,1,0,0:0:0:0:m_062.ogg
384,192,95920,1,0,0:0:0:0:m_050.ogg
25,192,96080,1,0,0:0:0:0:s_026.ogg
25,192,96240,1,0,0:0:0:0:m_019.ogg
76,192,96240,1,0,0:0:0:0:m_031.ogg
435,192,96240,1,0,0:0:0:0:m_071.ogg
486,192,96240,1,0,0:0:0:0:m_059.ogg
179,192,96400,1,0,0:0:0:0:m_038.ogg
332,192,96400,1,0,0:0:0:0:m_050.ogg
128,192,96560,1,0,0:0:0:0:m_035.ogg
384,192,96560,1,0,0:0:0:0:m_055.ogg
230,192,96720,1,0,0:0:0:0:m_043.ogg
281,192,96720,1,0,0:0:0:0:m_047.ogg
179,192,96880,1,0,0:0:0:0:m_038.ogg
332,192,96880,1,0,0:0:0:0:m_050.ogg
128,192,97040,1,0,0:0:0:0:s_035.ogg
384,192,97040,1,0,0:0:0:0:s_055.ogg
25,192,97200,1,0,0:0:0:0:m_018.ogg
76,192,97200,1,0,0:0:0:0:m_030.ogg
435,192,97200,1,0,0:0:0:0:m_059.ogg
486,192,97200,1,0,0:0:0:0:m_071.ogg
179,192,97360,1,0,0:0:0:0:m_039.ogg
332,192,97360,1,0,0:0:0:0:m_051.ogg
128,192,97520,1,0,0:0:0:0:m_035.ogg
384,192,97520,1,0,0:0:0:0:m_057.ogg
230,192,97680,1,0,0:0:0:0:m_045.ogg
281,192,97680,1,0,0:0:0:0:m_047.ogg
179,192,97840,1,0,0:0:0:0:m_039.ogg
332,192,97840,1,0,0:0:0:0:m_051.ogg
128,192,98000,1,0,0:0:0:0:s_035.ogg
384,192,98000,1,0,0:0:0:0:s_057.ogg
25,192,98160,1,0,0:0:0:0:m_017.ogg
76,192,98160,1,0,0:0:0:0:m_029.ogg
435,192,98160,1,0,0:0:0:0:m_059.ogg
486,192,98160,1,0,0:0:0:0:l_071.ogg
179,192,98320,1,0,0:0:0:0:m_038.ogg
332,192,98320,1,0,0:0:0:0:m_050.ogg
128,192,98480,1,0,0:0:0:0:m_035.ogg
384,192,98480,1,0,0:0:0:0:m_056.ogg
230,192,98640,1,0,0:0:0:0:m_044.ogg
281,192,98640,1,0,0:0:0:0:m_047.ogg
179,192,98800,1,0,0:0:0:0:m_038.ogg
332,192,98800,1,0,0:0:0:0:m_050.ogg
128,192,98960,1,0,0:0:0:0:s_035.ogg
384,192,98960,1,0,0:0:0:0:s_056.ogg
25,192,99120,1,0,0:0:0:0:m_028.ogg
486,192,99120,1,0,0:0:0:0:m_059.ogg
179,192,99280,1,0,0:0:0:0:m_038.ogg
332,192,99280,1,0,0:0:0:0:m_050.ogg
128,192,99440,1,0,0:0:0:0:m_035.ogg
384,192,99440,1,0,0:0:0:0:m_056.ogg
230,192,99600,1,0,0:0:0:0:m_044.ogg
281,192,99600,1,0,0:0:0:0:m_047.ogg
179,192,99760,1,0,0:0:0:0:m_038.ogg
332,192,99760,1,0,0:0:0:0:m_050.ogg
128,192,99920,1,0,0:0:0:0:s_035.ogg
384,192,99920,1,0,0:0:0:0:s_056.ogg
25,192,100080,1,0,0:0:0:0:m_015.ogg
76,192,100080,1,0,0:0:0:0:m_027.ogg
435,192,100080,1,0,0:0:0:0:m_059.ogg
486,192,100080,1,0,0:0:0:0:m_071.ogg
179,192,100240,1,0,0:0:0:0:m_039.ogg
332,192,100240,1,0,0:0:0:0:m_051.ogg
128,192,100400,1,0,0:0:0:0:m_035.ogg
384,192,100400,1,0,0:0:0:0:m_056.ogg
230,192,100560,1,0,0:0:0:0:m_044.ogg
281,192,100560,1,0,0:0:0:0:m_047.ogg
179,192,100720,1,0,0:0:0:0:m_039.ogg
332,192,100720,1,0,0:0:0:0:m_051.ogg
128,192,100880,1,0,0:0:0:0:s_035.ogg
384,192,100880,1,0,0:0:0:0:s_056.ogg
25,192,101040,1,0,0:0:0:0:m_026.ogg
76,192,101040,1,0,0:0:0:0:m_014.ogg
435,192,101040,1,0,0:0:0:0:m_059.ogg
486,192,101040,1,0,0:0:0:0:m_071.ogg
179,192,101200,1,0,0:0:0:0:m_040.ogg
332,192,101200,1,0,0:0:0:0:m_052.ogg
128,192,101360,1,0,0:0:0:0:m_035.ogg
384,192,101360,1,0,0:0:0:0:m_056.ogg
230,192,101520,1,0,0:0:0:0:m_044.ogg
281,192,101520,1,0,0:0:0:0:m_047.ogg
179,192,101680,1,0,0:0:0:0:m_040.ogg
332,192,101680,1,0,0:0:0:0:m_052.ogg
128,192,101840,1,0,0:0:0:0:s_035.ogg
384,192,101840,1,0,0:0:0:0:s_056.ogg
25,192,102000,1,0,0:0:0:0:l_025.ogg
76,192,102000,1,0,0:0:0:0:l_013.ogg
332,192,102000,1,0,0:0:0:0:l_059.ogg
435,192,102000,1,0,0:0:0:0:l_065.ogg
486,192,102000,1,0,0:0:0:0:l_071.ogg
128,192,102160,1,0,0:0:0:0:m_035.ogg
179,192,102320,1,0,0:0:0:0:m_041.ogg
230,192,102480,1,0,0:0:0:0:m_044.ogg
179,192,102640,1,0,0:0:0:0:m_041.ogg
384,192,102640,1,0,0:0:0:0:m_058.ogg
435,192,102640,1,0,0:0:0:0:l_070.ogg
128,192,102800,1,0,0:0:0:0:m_035.ogg
76,192,102960,1,0,0:0:0:0:m_032.ogg
332,192,102960,1,0,0:0:0:0:m_056.ogg
384,192,102960,1,0,0:0:0:0:m_068.ogg
128,192,103120,1,0,0:0:0:0:m_035.ogg
179,192,103280,1,0,0:0:0:0:m_041.ogg
281,192,103280,1,0,0:0:0:0:m_046.ogg
384,192,103280,1,0,0:0:0:0:m_058.ogg
230,192,103440,1,0,0:0:0:0:m_044.ogg
179,192,103600,1,0,0:0:0:0:m_041.ogg
332,192,103600,1,0,0:0:0:0:m_059.ogg
435,192,103600,1,0,0:0:0:0:m_047.ogg
128,192,103760,1,0,0:0:0:0:s_035.ogg
25,192,103920,1,0,0:0:0:0:m_018.ogg
332,192,103920,1,0,0:0:0:0:m_059.ogg
384,192,103920,1,0,0:0:0:0:m_051.ogg
435,192,103920,1,0,0:0:0:0:m_056.ogg
486,192,103920,1,0,0:0:0:0:m_063.ogg
76,192,104080,1,0,0:0:0:0:m_028.ogg
128,192,104240,1,0,0:0:0:0:m_032.ogg
179,192,104400,1,0,0:0:0:0:m_035.ogg
76,192,104560,1,0,0:0:0:0:m_037.ogg
128,192,104720,1,0,0:0:0:0:s_040.ogg
230,192,104880,1,0,0:0:0:0:m_044.ogg
281,192,104880,1,0,0:0:0:0:m_061.ogg
384,192,104880,1,0,0:0:0:0:m_049.ogg
179,192,105040,1,0,0:0:0:0:m_040.ogg
128,192,105200,1,0,0:0:0:0:m_037.ogg
76,192,105360,1,0,0:0:0:0:m_035.ogg
179,192,105520,1,0,0:0:0:0:m_032.ogg
435,192,105520,1,0,0:0:0:0:m_071.ogg
486,192,105520,1,0,0:0:0:0:m_059.ogg
128,192,105680,1,0,0:0:0:0:s_028.ogg
25,192,105840,1,0,0:0:0:0:l_025.ogg
76,192,105840,1,0,0:0:0:0:l_013.ogg
384,192,105840,1,0,0:0:0:0:l_065.ogg
435,192,105840,1,0,0:0:0:0:m_071.ogg
486,192,105840,1,0,0:0:0:0:m_059.ogg
128,192,106000,1,0,0:0:0:0:m_035.ogg
179,192,106160,1,0,0:0:0:0:m_041.ogg
230,192,106320,1,0,0:0:0:0:m_044.ogg
332,192,106320,1,0,0:0:0:0:m_070.ogg
384,192,106320,1,0,0:0:0:0:m_058.ogg
179,192,106480,1,0,0:0:0:0:m_041.ogg
281,192,106480,1,0,0:0:0:0:l_061.ogg
435,192,106480,1,0,0:0:0:0:l_073.ogg
384,192,106586,1,0,0:0:0:0:m_059.ogg
486,192,106586,1,0,0:0:0:0:l_071.ogg
128,192,106640,1,0,0:0:0:0:m_035.ogg
332,192,106693,1,0,0:0:0:0:m_058.ogg
435,192,106693,1,0,0:0:0:0:l_070.ogg
76,192,106800,1,0,0:0:0:0:m_032.ogg
281,192,106800,1,0,0:0:0:0:m_068.ogg
384,192,106800,1,0,0:0:0:0:m_056.ogg
128,192,106960,1,0,0:0:0:0:m_035.ogg
179,192,107120,1,0,0:0:0:0:m_041.ogg
281,192,107120,1,0,0:0:0:0:m_058.ogg
332,192,107120,1,0,0:0:0:0:m_046.ogg
230,192,107280,1,0,0:0:0:0:m_044.ogg
179,192,107440,1,0,0:0:0:0:m_041.ogg
332,192,107440,1,0,0:0:0:0:m_059.ogg
384,192,107440,1,0,0:0:0:0:m_047.ogg
128,192,107600,1,0,0:0:0:0:s_035.ogg
25,192,107760,1,0,0:0:0:0:m_018.ogg
332,192,107760,1,0,0:0:0:0:m_063.ogg
384,192,107760,1,0,0:0:0:0:m_051.ogg
435,192,107760,1,0,0:0:0:0:m_056.ogg
486,192,107760,1,0,0:0:0:0:m_059.ogg
76,192,107920,1,0,0:0:0:0:m_028.ogg
128,192,108080,1,0,0:0:0:0:m_032.ogg
179,192,108240,1,0,0:0:0:0:m_035.ogg
76,192,108400,1,0,0:0:0:0:m_037.ogg
128,192,108560,1,0,0:0:0:0:s_040.ogg
230,192,108720,1,0,0:0:0:0:m_044.ogg
281,192,108720,1,0,0:0:0:0:m_061.ogg
384,192,108720,1,0,0:0:0:0:m_049.ogg
179,192,108880,1,0,0:0:0:0:m_040.ogg
128,192,109040,1,0,0:0:0:0:m_037.ogg
76,192,109200,1,0,0:0:0:0:m_035.ogg
179,192,109360,1,0,0:0:0:0:m_032.ogg
435,192,109360,1,0,0:0:0:0:m_071.ogg
486,192,109360,1,0,0:0:0:0:m_059.ogg
128,192,109520,1,0,0:0:0:0:s_028.ogg
25,192,109680,1,0,0:0:0:0:m_014.ogg
76,192,109680,1,0,0:0:0:0:m_026.ogg
384,192,109680,1,0,0:0:0:0:m_071.ogg
435,192,109680,1,0,0:0:0:0:m_059.ogg
486,192,109680,1,0,0:0:0:0:m_065.ogg
128,192,109840,1,0,0:0:0:0:m_035.ogg
179,192,110000,1,0,0:0:0:0:m_041.ogg
230,192,110160,1,0,0:0:0:0:m_044.ogg
332,192,110160,1,0,0:0:0:0:m_058.ogg
384,192,110160,1,0,0:0:0:0:m_070.ogg
179,192,110320,1,0,0:0:0:0:m_041.ogg
281,192,110320,1,0,0:0:0:0:m_061.ogg
486,192,110320,1,0,0:0:0:0:m_073.ogg
128,192,110480,1,0,0:0:0:0:s_035.ogg
384,192,110480,1,0,0:0:0:0:s_059.ogg
435,192,110480,1,0,0:0:0:0:s_071.ogg
25,192,110640,1,0,0:0:0:0:l_013.ogg
76,192,110640,1,0,0:0:0:0:l_025.ogg
332,192,110640,1,0,0:0:0:0:l_074.ogg
486,192,110640,1,0,0:0:0:0:l_062.ogg
128,192,110800,1,0,0:0:0:0:m_032.ogg
281,192,110800,1,0,0:0:0:0:l_073.ogg
384,192,110800,1,0,0:0:0:0:l_061.ogg
179,192,110960,1,0,0:0:0:0:m_035.ogg
435,192,110960,1,0,0:0:0:0:l_082.ogg
486,192,110960,1,0,0:0:0:0:l_070.ogg
230,192,111120,1,0,0:0:0:0:l_041.ogg
179,192,111280,1,0,0:0:0:0:l_035.ogg
128,192,111440,1,0,0:0:0:0:l_032.ogg
384,192,111440,1,0,0:0:0:0:l_068.ogg
486,192,111440,1,0,0:0:0:0:l_080.ogg
332,192,111600,1,0,0:0:0:0:m_066.ogg
435,192,111600,1,0,0:0:0:0:m_078.ogg
281,192,111760,1,0,0:0:0:0:m_065.ogg
384,192,111760,1,0,0:0:0:0:m_077.ogg
230,192,111920,1,0,0:0:0:0:m_063.ogg
332,192,111920,1,0,0:0:0:0:m_075.ogg
179,192,112080,1,0,0:0:0:0:m_073.ogg
281,192,112080,1,0,0:0:0:0:m_061.ogg
128,192,112240,1,0,0:0:0:0:m_071.ogg
230,192,112240,1,0,0:0:0:0:m_059.ogg
76,192,112400,1,0,0:0:0:0:s_070.ogg
179,192,112400,1,0,0:0:0:0:s_058.ogg
25,192,112560,1,0,0:0:0:0:m_068.ogg
128,192,112560,1,0,0:0:0:0:m_056.ogg
76,192,112880,1,0,0:0:0:0:m_046.ogg
281,192,112880,1,0,0:0:0:0:m_058.ogg
128,192,113200,1,0,0:0:0:0:m_047.ogg
332,192,113200,1,0,0:0:0:0:m_059.ogg
25,192,113520,1,0,0:0:0:0:l_018.ogg
281,192,113520,1,0,0:0:0:0:m_059.ogg
384,192,113520,1,0,0:0:0:0:l_056.ogg
435,192,113520,1,0,0:0:0:0:l_063.ogg
486,192,113520,1,0,0:0:0:0:l_051.ogg
76,192,113680,1,0,0:0:0:0:l_028.ogg
128,192,113840,1,0,0:0:0:0:l_032.ogg
179,192,114000,1,0,0:0:0:0:m_035.ogg
76,192,114160,1,0,0:0:0:0:m_037.ogg
281,192,114160,1,0,0:0:0:0:m_061.ogg
332,192,114160,1,0,0:0:0:0:l_049.ogg
128,192,114320,1,0,0:0:0:0:m_040.ogg
230,192,114480,1,0,0:0:0:0:l_044.ogg
332,192,114480,1,0,0:0:0:0:m_061.ogg
384,192,114480,1,0,0:0:0:0:l_066.ogg
435,192,114480,1,0,0:0:0:0:l_059.ogg
486,192,114480,1,0,0:0:0:0:l_054.ogg
179,192,114640,1,0,0:0:0:0:l_040.ogg
128,192,114800,1,0,0:0:0:0:l_037.ogg
76,192,114960,1,0,0:0:0:0:m_035.ogg
179,192,115120,1,0,0:0:0:0:m_032.ogg
281,192,115120,1,0,0:0:0:0:m_064.ogg
384,192,115120,1,0,0:0:0:0:l_052.ogg
128,192,115280,1,0,0:0:0:0:m_028.ogg
25,192,115440,1,0,0:0:0:0:l_018.ogg
281,192,115440,1,0,0:0:0:0:l_058.ogg
332,192,115440,1,0,0:0:0:0:l_061.ogg
435,192,115440,1,0,0:0:0:0:l_064.ogg
486,192,115440,1,0,0:0:0:0:l_070.ogg
76,192,115600,1,0,0:0:0:0:l_028.ogg
128,192,115760,1,0,0:0:0:0:l_032.ogg
179,192,115920,1,0,0:0:0:0:m_035.ogg
76,192,116080,1,0,0:0:0:0:l_037.ogg
281,192,116080,1,0,0:0:0:0:m_068.ogg
435,192,116080,1,0,0:0:0:0:l_056.ogg
128,192,116240,1,0,0:0:0:0:m_040.ogg
230,192,116400,1,0,0:0:0:0:m_047.ogg
384,192,116400,1,0,0:0:0:0:m_075.ogg
435,192,116400,1,0,0:0:0:0:m_068.ogg
486,192,116400,1,0,0:0:0:0:m_063.ogg
179,192,116560,1,0,0:0:0:0:m_044.ogg
128,192,116720,1,0,0:0:0:0:m_040.ogg
76,192,116880,1,0,0:0:0:0:m_035.ogg
179,192,117040,1,0,0:0:0:0:m_032.ogg
332,192,117040,1,0,0:0:0:0:m_061.ogg
435,192,117040,1,0,0:0:0:0:m_073.ogg
128,192,117200,1,0,0:0:0:0:s_028.ogg
25,192,117360,1,0,0:0:0:0:l_018.ogg
281,192,117360,1,0,0:0:0:0:l_068.ogg
332,192,117380,1,0,0:0:0:0:l_070.ogg
384,192,117400,1,0,0:0:0:0:l_073.ogg
435,192,117420,1,0,0:0:0:0:l_076.ogg
486,192,117440,1,0,0:0:0:0:l_080.ogg
76,192,117520,1,0,0:0:0:0:l_025.ogg
128,192,117680,1,0,0:0:0:0:l_028.ogg
179,192,117840,1,0,0:0:0:0:l_034.ogg
76,192,118000,1,0,0:0:0:0:l_037.ogg
128,192,118160,1,0,0:0:0:0:l_040.ogg
179,192,118320,1,0,0:0:0:0:l_046.ogg
230,192,118480,1,0,0:0:0:0:l_049.ogg
25,192,118640,1,0,0:0:0:0:l_052.ogg
76,192,118800,1,0,0:0:0:0:l_058.ogg
128,192,118960,1,0,0:0:0:0:l_061.ogg
179,192,119120,1,0,0:0:0:0:l_064.ogg
230,192,119280,1,0,0:0:0:0:m_070.ogg
486,192,119280,1,0,0:0:0:0:l_079.ogg
281,192,119380,1,0,0:0:0:0:m_073.ogg
384,192,119380,1,0,0:0:0:0:m_075.ogg
179,192,119480,1,0,0:0:0:0:m_069.ogg
435,192,119480,1,0,0:0:0:0:l_078.ogg
230,192,119580,1,0,0:0:0:0:m_072.ogg
332,192,119580,1,0,0:0:0:0:m_074.ogg
128,192,119680,1,0,0:0:0:0:m_068.ogg
384,192,119680,1,0,0:0:0:0:l_077.ogg
179,192,119780,1,0,0:0:0:0:m_071.ogg
281,192,119780,1,0,0:0:0:0:m_073.ogg
76,192,119880,1,0,0:0:0:0:l_076.ogg
332,192,119880,1,0,0:0:0:0:m_067.ogg
128,192,119980,1,0,0:0:0:0:m_070.ogg
230,192,119980,1,0,0:0:0:0:m_072.ogg
25,192,120080,1,0,0:0:0:0:m_066.ogg
281,192,120080,1,0,0:0:0:0:l_075.ogg
76,192,120180,1,0,0:0:0:0:m_069.ogg
179,192,120180,1,0,0:0:0:0:m_071.ogg
230,192,120280,1,0,0:0:0:0:m_065.ogg
486,192,120280,1,0,0:0:0:0:l_074.ogg
25,192,120380,1,0,0:0:0:0:m_068.ogg
128,192,120380,1,0,0:0:0:0:m_070.ogg
179,192,120480,1,0,0:0:0:0:m_064.ogg
435,192,120480,1,0,0:0:0:0:l_073.ogg
76,192,120580,1,0,0:0:0:0:m_067.ogg
486,192,120580,1,0,0:0:0:0:m_069.ogg
128,192,120680,1,0,0:0:0:0:m_063.ogg
384,192,120680,1,0,0:0:0:0:l_072.ogg
25,192,120780,1,0,0:0:0:0:m_066.ogg
435,192,120780,1,0,0:0:0:0:m_068.ogg
76,192,120880,1,0,0:0:0:0:m_062.ogg
332,192,120880,1,0,0:0:0:0:l_071.ogg
384,192,120980,1,0,0:0:0:0:m_067.ogg
486,192,120980,1,0,0:0:0:0:m_065.ogg
25,192,121080,1,0,0:0:0:0:m_061.ogg
281,192,121080,1,0,0:0:0:0:l_070.ogg
332,192,121180,1,0,0:0:0:0:m_066.ogg
435,192,121180,1,0,0:0:0:0:m_064.ogg
230,192,121280,1,0,0:0:0:0:l_069.ogg
486,192,121280,1,0,0:0:0:0:m_060.ogg
281,192,121380,1,0,0:0:0:0:m_063.ogg
384,192,121380,1,0,0:0:0:0:m_065.ogg
179,192,121480,1,0,0:0:0:0:l_068.ogg
435,192,121480,1,0,0:0:0:0:m_059.ogg
230,192,121580,1,0,0:0:0:0:m_062.ogg
332,192,121580,1,0,0:0:0:0:m_064.ogg
128,192,121680,1,0,0:0:0:0:l_067.ogg
384,192,121680,1,0,0:0:0:0:m_058.ogg
179,192,121780,1,0,0:0:0:0:m_061.ogg
281,192,121780,1,0,0:0:0:0:m_063.ogg
76,192,121880,1,0,0:0:0:0:m_057.ogg
332,192,121880,1,0,0:0:0:0:l_066.ogg
128,192,121980,1,0,0:0:0:0:m_060.ogg
230,192,121980,1,0,0:0:0:0:m_062.ogg
25,192,122080,1,0,0:0:0:0:m_056.ogg
281,192,122080,1,0,0:0:0:0:l_065.ogg
76,192,122180,1,0,0:0:0:0:m_059.ogg
179,192,122180,1,0,0:0:0:0:m_061.ogg
230,192,122280,1,0,0:0:0:0:m_055.ogg
486,192,122280,1,0,0:0:0:0:l_064.ogg
25,192,122380,1,0,0:0:0:0:m_058.ogg
128,192,122380,1,0,0:0:0:0:m_060.ogg
179,192,122480,1,0,0:0:0:0:m_054.ogg
435,192,122480,1,0,0:0:0:0:l_063.ogg
76,192,122580,1,0,0:0:0:0:m_057.ogg
486,192,122580,1,0,0:0:0:0:m_059.ogg
128,192,122680,1,0,0:0:0:0:m_053.ogg
384,192,122680,1,0,0:0:0:0:l_062.ogg
25,192,122780,1,0,0:0:0:0:m_056.ogg
435,192,122780,1,0,0:0:0:0:m_058.ogg
76,192,122880,1,0,0:0:0:0:m_052.ogg
332,192,122880,1,0,0:0:0:0:m_061.ogg
384,192,122980,1,0,0:0:0:0:m_057.ogg
486,192,122980,1,0,0:0:0:0:m_055.ogg
25,192,123080,1,0,0:0:0:0:m_051.ogg
281,192,123080,1,0,0:0:0:0:m_060.ogg
332,192,123180,1,0,0:0:0:0:m_054.ogg
435,192,123180,1,0,0:0:0:0:m_056.ogg
230,192,123280,1,0,0:0:0:0:m_050.ogg
486,192,123280,1,0,0:0:0:0:m_059.ogg
281,192,123380,1,0,0:0:0:0:m_053.ogg
384,192,123380,1,0,0:0:0:0:m_055.ogg
179,192,123480,1,0,0:0:0:0:m_049.ogg
435,192,123480,1,0,0:0:0:0:m_058.ogg
230,192,123580,1,0,0:0:0:0:m_052.ogg
332,192,123580,1,0,0:0:0:0:m_054.ogg
128,192,123680,1,0,0:0:0:0:m_048.ogg
384,192,123680,1,0,0:0:0:0:m_057.ogg
179,192,123780,1,0,0:0:0:0:m_051.ogg
281,192,123780,1,0,0:0:0:0:m_053.ogg
76,192,123880,1,0,0:0:0:0:s_047.ogg
332,192,123880,1,0,0:0:0:0:s_056.ogg
128,192,123980,1,0,0:0:0:0:s_052.ogg
230,192,123980,1,0,0:0:0:0:s_050.ogg
25,192,124080,1,0,0:0:0:0:m_049.ogg
128,192,124080,1,0,0:0:0:0:s_052.ogg
179,192,124080,1,0,0:0:0:0:m_056.ogg
281,192,124080,1,0,0:0:0:0:m_046.ogg
230,192,124160,1,0,0:0:0:0:m_054.ogg
179,192,124240,1,0,0:0:0:0:m_052.ogg
128,192,124320,1,0,0:0:0:0:m_049.ogg
76,192,124400,1,0,0:0:0:0:m_046.ogg
25,192,124480,1,0,0:0:0:0:l_041.ogg
76,192,124560,1,0,0:0:0:0:l_042.ogg
128,192,124640,1,0,0:0:0:0:l_046.ogg
179,192,124720,1,0,0:0:0:0:l_049.ogg
230,192,124800,1,0,0:0:0:0:s_052.ogg
281,192,124880,1,0,0:0:0:0:l_053.ogg
384,192,124960,1,0,0:0:0:0:l_056.ogg
332,192,125040,1,0,0:0:0:0:m_054.ogg
435,192,125120,1,0,0:0:0:0:m_058.ogg
486,192,125200,1,0,0:0:0:0:m_061.ogg
25,192,125280,1,0,0:0:0:0:m_064.ogg
76,192,125360,1,0,0:0:0:0:m_065.ogg
179,192,125440,1,0,0:0:0:0:m_068.ogg
128,192,125520,1,0,0:0:0:0:m_066.ogg
230,192,125600,1,0,0:0:0:0:m_070.ogg
281,192,125680,1,0,0:0:0:0:m_073.ogg
384,192,125760,1,0,0:0:0:0:m_076.ogg
435,192,125840,1,0,0:0:0:0:s_079.ogg
486,192,125920,1,0,0:0:0:0:s_080.ogg
332,192,126000,1,0,0:0:0:0:l_075.ogg
384,192,126080,1,0,0:0:0:0:l_076.ogg
230,192,126160,1,0,0:0:0:0:l_072.ogg
281,192,126240,1,0,0:0:0:0:l_073.ogg
128,192,126320,1,0,0:0:0:0:l_069.ogg
179,192,126400,1,0,0:0:0:0:l_070.ogg
25,192,126480,1,0,0:0:0:0:l_067.ogg
76,192,126560,1,0,0:0:0:0:l_068.ogg
435,192,126640,1,0,0:0:0:0:l_063.ogg
486,192,126720,1,0,0:0:0:0:l_064.ogg
384,192,126800,1,0,0:0:0:0:l_060.ogg
435,192,126880,1,0,0:0:0:0:l_061.ogg
332,192,126960,1,0,0:0:0:0:m_057.ogg
384,192,127040,1,0,0:0:0:0:m_058.ogg
281,192,127120,1,0,0:0:0:0:m_055.ogg
332,192,127200,1,0,0:0:0:0:m_056.ogg
230,192,127280,1,0,0:0:0:0:m_051.ogg
281,192,127360,1,0,0:0:0:0:m_052.ogg
179,192,127440,1,0,0:0:0:0:m_048.ogg
230,192,127520,1,0,0:0:0:0:m_049.ogg
128,192,127600,1,0,0:0:0:0:m_045.ogg
179,192,127680,1,0,0:0:0:0:m_046.ogg
76,192,127760,1,0,0:0:0:0:s_043.ogg
128,192,127840,1,0,0:0:0:0:s_044.ogg
25,192,127920,1,0,0:0:0:0:s_041.ogg
76,192,128020,1,0,0:0:0:0:s_042.ogg
128,192,128120,1,0,0:0:0:0:s_043.ogg
76,192,128220,1,0,0:0:0:0:s_042.ogg
179,192,128320,1,0,0:0:0:0:s_044.ogg
76,192,128420,1,0,0:0:0:0:s_042.ogg
230,192,128520,1,0,0:0:0:0:s_045.ogg
76,192,128620,1,0,0:0:0:0:s_042.ogg
281,192,128720,1,0,0:0:0:0:s_046.ogg
76,192,128820,1,0,0:0:0:0:s_042.ogg
332,192,128920,1,0,0:0:0:0:s_047.ogg
76,192,129020,1,0,0:0:0:0:s_042.ogg
384,192,129120,1,0,0:0:0:0:s_048.ogg
76,192,129220,1,0,0:0:0:0:s_042.ogg
435,192,129320,1,0,0:0:0:0:s_049.ogg
76,192,129420,1,0,0:0:0:0:s_042.ogg
486,192,129520,1,0,0:0:0:0:s_050.ogg
384,192,129920,1,0,0:0:0:0:m_042.ogg
25,192,130320,1,0,0:0:0:0:l_023.ogg
486,192,130320,1,0,0:0:0:0:m_051.ogg
281,192,130480,1,0,0:0:0:0:m_039.ogg
332,192,130640,1,0,0:0:0:0:m_042.ogg
384,192,130800,1,0,0:0:0:0:m_047.ogg
128,192,130960,1,0,0:0:0:0:m_054.ogg
179,192,130960,1,0,0:0:0:0:m_059.ogg
230,192,130960,1,0,0:0:0:0:m_063.ogg
332,192,130960,1,0,0:0:0:0:m_042.ogg
281,192,131120,1,0,0:0:0:0:m_039.ogg
128,192,131280,1,0,0:0:0:0:m_063.ogg
179,192,131280,1,0,0:0:0:0:m_059.ogg
230,192,131280,1,0,0:0:0:0:m_054.ogg
486,192,131280,1,0,0:0:0:0:m_051.ogg
281,192,131440,1,0,0:0:0:0:m_039.ogg
332,192,131600,1,0,0:0:0:0:m_042.ogg
384,192,131760,1,0,0:0:0:0:m_047.ogg
332,192,131920,1,0,0:0:0:0:m_042.ogg
281,192,132080,1,0,0:0:0:0:s_039.ogg
76,192,132240,1,0,0:0:0:0:l_022.ogg
486,192,132240,1,0,0:0:0:0:l_051.ogg
281,192,132400,1,0,0:0:0:0:m_039.ogg
384,192,132560,1,0,0:0:0:0:m_043.ogg
435,192,132720,1,0,0:0:0:0:m_049.ogg
128,192,132880,1,0,0:0:0:0:m_063.ogg
179,192,132880,1,0,0:0:0:0:m_061.ogg
230,192,132880,1,0,0:0:0:0:m_055.ogg
384,192,132880,1,0,0:0:0:0:m_043.ogg
281,192,133040,1,0,0:0:0:0:m_039.ogg
128,192,133200,1,0,0:0:0:0:m_063.ogg
179,192,133200,1,0,0:0:0:0:m_061.ogg
230,192,133200,1,0,0:0:0:0:m_055.ogg
281,192,133360,1,0,0:0:0:0:m_039.ogg
384,192,133520,1,0,0:0:0:0:m_043.ogg
435,192,133680,1,0,0:0:0:0:m_049.ogg
384,192,133840,1,0,0:0:0:0:m_043.ogg
486,192,133840,1,0,0:0:0:0:m_051.ogg
281,192,134000,1,0,0:0:0:0:s_039.ogg
25,192,134160,1,0,0:0:0:0:m_020.ogg
486,192,134160,1,0,0:0:0:0:m_051.ogg
281,192,134320,1,0,0:0:0:0:m_042.ogg
332,192,134480,1,0,0:0:0:0:m_044.ogg
384,192,134640,1,0,0:0:0:0:m_048.ogg
76,192,134800,1,0,0:0:0:0:m_054.ogg
128,192,134800,1,0,0:0:0:0:m_063.ogg
179,192,134800,1,0,0:0:0:0:m_060.ogg
332,192,134800,1,0,0:0:0:0:m_044.ogg
486,192,134800,1,0,0:0:0:0:m_051.ogg
281,192,134960,1,0,0:0:0:0:s_042.ogg
76,192,135120,1,0,0:0:0:0:m_064.ogg
128,192,135120,1,0,0:0:0:0:m_060.ogg
230,192,135120,1,0,0:0:0:0:m_054.ogg
435,192,135120,1,0,0:0:0:0:m_052.ogg
281,192,135280,1,0,0:0:0:0:m_042.ogg
332,192,135440,1,0,0:0:0:0:m_044.ogg
384,192,135600,1,0,0:0:0:0:m_048.ogg
332,192,135760,1,0,0:0:0:0:m_044.ogg
486,192,135760,1,0,0:0:0:0:m_051.ogg
281,192,135920,1,0,0:0:0:0:s_042.ogg
25,192,136080,1,0,0:0:0:0:l_025.ogg
76,192,136080,1,0,0:0:0:0:l_013.ogg
486,192,136080,1,0,0:0:0:0:l_051.ogg
281,192,136240,1,0,0:0:0:0:m_035.ogg
384,192,136400,1,0,0:0:0:0:m_041.ogg
435,192,136560,1,0,0:0:0:0:m_044.ogg
76,192,136720,1,0,0:0:0:0:m_053.ogg
128,192,136720,1,0,0:0:0:0:m_056.ogg
179,192,136720,1,0,0:0:0:0:l_063.ogg
384,192,136720,1,0,0:0:0:0:m_041.ogg
281,192,136880,1,0,0:0:0:0:m_035.ogg
76,192,137040,1,0,0:0:0:0:m_056.ogg
128,192,137040,1,0,0:0:0:0:m_053.ogg
435,192,137040,1,0,0:0:0:0:m_044.ogg
281,192,137200,1,0,0:0:0:0:m_035.ogg
332,192,137360,1,0,0:0:0:0:m_037.ogg
384,192,137520,1,0,0:0:0:0:m_041.ogg
332,192,137680,1,0,0:0:0:0:m_037.ogg
435,192,137680,1,0,0:0:0:0:m_044.ogg
281,192,137840,1,0,0:0:0:0:s_035.ogg
25,192,138000,1,0,0:0:0:0:l_030.ogg
76,192,138000,1,0,0:0:0:0:l_018.ogg
435,192,138000,1,0,0:0:0:0:l_044.ogg
281,192,138160,1,0,0:0:0:0:m_037.ogg
332,192,138320,1,0,0:0:0:0:m_040.ogg
486,192,138320,1,0,0:0:0:0:l_046.ogg
384,192,138480,1,0,0:0:0:0:m_042.ogg
128,192,138640,1,0,0:0:0:0:m_052.ogg
179,192,138640,1,0,0:0:0:0:m_049.ogg
230,192,138640,1,0,0:0:0:0:l_059.ogg
332,192,138640,1,0,0:0:0:0:m_040.ogg
435,192,138640,1,0,0:0:0:0:l_047.ogg
281,192,138800,1,0,0:0:0:0:l_037.ogg
76,192,138960,1,0,0:0:0:0:m_052.ogg
486,192,138960,1,0,0:0:0:0:m_051.ogg
128,192,138980,1,0,0:0:0:0:m_054.ogg
179,192,139000,1,0,0:0:0:0:m_058.ogg
230,192,139020,1,0,0:0:0:0:m_063.ogg
281,192,139120,1,0,0:0:0:0:m_040.ogg
332,192,139280,1,0,0:0:0:0:m_042.ogg
384,192,139440,1,0,0:0:0:0:m_046.ogg
128,192,139600,1,0,0:0:0:0:m_061.ogg
332,192,139600,1,0,0:0:0:0:m_042.ogg
486,192,139600,1,0,0:0:0:0:m_049.ogg
281,192,139760,1,0,0:0:0:0:s_040.ogg
25,192,139920,1,0,0:0:0:0:l_023.ogg
76,192,139920,1,0,0:0:0:0:l_011.ogg
435,192,139920,1,0,0:0:0:0:l_047.ogg
332,192,140080,1,0,0:0:0:0:m_039.ogg
384,192,140240,1,0,0:0:0:0:m_042.ogg
435,192,140400,1,0,0:0:0:0:m_044.ogg
128,192,140560,1,0,0:0:0:0:m_054.ogg
179,192,140560,1,0,0:0:0:0:m_051.ogg
230,192,140560,1,0,0:0:0:0:m_059.ogg
384,192,140560,1,0,0:0:0:0:m_042.ogg
332,192,140720,1,0,0:0:0:0:m_039.ogg
128,192,140880,1,0,0:0:0:0:m_059.ogg
179,192,140880,1,0,0:0:0:0:m_054.ogg
230,192,140880,1,0,0:0:0:0:m_051.ogg
281,192,140880,1,0,0:0:0:0:m_035.ogg
332,192,141040,1,0,0:0:0:0:m_039.ogg
384,192,141200,1,0,0:0:0:0:m_042.ogg
435,192,141360,1,0,0:0:0:0:m_044.ogg
384,192,141520,1,0,0:0:0:0:m_042.ogg
435,192,141680,1,0,0:0:0:0:s_047.ogg
25,192,141840,1,0,0:0:0:0:l_023.ogg
486,192,141840,1,0,0:0:0:0:m_051.ogg
76,192,141866,1,0,0:0:0:0:l_030.ogg
128,192,141893,1,0,0:0:0:0:m_039.ogg
281,192,142000,1,0,0:0:0:0:l_041.ogg
332,192,142160,1,0,0:0:0:0:m_042.ogg
384,192,142320,1,0,0:0:0:0:m_047.ogg
128,192,142480,1,0,0:0:0:0:m_063.ogg
179,192,142480,1,0,0:0:0:0:m_059.ogg
230,192,142480,1,0,0:0:0:0:m_054.ogg
332,192,142480,1,0,0:0:0:0:m_042.ogg
281,192,142640,1,0,0:0:0:0:m_039.ogg
128,192,142800,1,0,0:0:0:0:m_054.ogg
179,192,142800,1,0,0:0:0:0:m_059.ogg
230,192,142800,1,0,0:0:0:0:m_063.ogg
486,192,142800,1,0,0:0:0:0:m_051.ogg
281,192,142960,1,0,0:0:0:0:m_039.ogg
332,192,143120,1,0,0:0:0:0:m_042.ogg
384,192,143280,1,0,0:0:0:0:m_047.ogg
332,192,143440,1,0,0:0:0:0:m_042.ogg
281,192,143600,1,0,0:0:0:0:s_039.ogg
25,192,143760,1,0,0:0:0:0:l_037.ogg
76,192,143760,1,0,0:0:0:0:l_031.ogg
128,192,143760,1,0,0:0:0:0:l_022.ogg
486,192,143760,1,0,0:0:0:0:l_051.ogg
281,192,143920,1,0,0:0:0:0:m_039.ogg
384,192,144080,1,0,0:0:0:0:m_043.ogg
435,192,144240,1,0,0:0:0:0:m_049.ogg
128,192,144400,1,0,0:0:0:0:m_055.ogg
179,192,144400,1,0,0:0:0:0:m_061.ogg
230,192,144400,1,0,0:0:0:0:m_063.ogg
384,192,144400,1,0,0:0:0:0:m_043.ogg
281,192,144560,1,0,0:0:0:0:m_039.ogg
128,192,144720,1,0,0:0:0:0:m_055.ogg
179,192,144720,1,0,0:0:0:0:m_061.ogg
230,192,144720,1,0,0:0:0:0:m_063.ogg
281,192,144880,1,0,0:0:0:0:m_039.ogg
384,192,145040,1,0,0:0:0:0:m_043.ogg
435,192,145200,1,0,0:0:0:0:m_049.ogg
384,192,145360,1,0,0:0:0:0:m_043.ogg
486,192,145360,1,0,0:0:0:0:m_051.ogg
281,192,145520,1,0,0:0:0:0:s_039.ogg
76,192,145680,1,0,0:0:0:0:m_036.ogg
128,192,145680,1,0,0:0:0:0:m_020.ogg
486,192,145680,1,0,0:0:0:0:m_051.ogg
281,192,145840,1,0,0:0:0:0:m_039.ogg
332,192,146000,1,0,0:0:0:0:m_044.ogg
384,192,146160,1,0,0:0:0:0:m_048.ogg
332,192,146320,1,0,0:0:0:0:m_044.ogg
486,192,146320,1,0,0:0:0:0:m_051.ogg
281,192,146480,1,0,0:0:0:0:s_039.ogg
25,192,146640,1,0,0:0:0:0:m_033.ogg
128,192,146640,1,0,0:0:0:0:m_018.ogg
435,192,146640,1,0,0:0:0:0:m_052.ogg
281,192,146800,1,0,0:0:0:0:m_039.ogg
332,192,146960,1,0,0:0:0:0:m_045.ogg
384,192,147120,1,0,0:0:0:0:m_048.ogg
332,192,147280,1,0,0:0:0:0:m_045.ogg
486,192,147280,1,0,0:0:0:0:m_051.ogg
281,192,147440,1,0,0:0:0:0:s_039.ogg
25,192,147600,1,0,0:0:0:0:l_032.ogg
76,192,147600,1,0,0:0:0:0:l_017.ogg
486,192,147600,1,0,0:0:0:0:l_056.ogg
332,192,147760,1,0,0:0:0:0:m_044.ogg
384,192,147920,1,0,0:0:0:0:m_047.ogg
435,192,148080,1,0,0:0:0:0:l_051.ogg
76,192,148240,1,0,0:0:0:0:m_059.ogg
179,192,148240,1,0,0:0:0:0:m_068.ogg
230,192,148240,1,0,0:0:0:0:l_063.ogg
384,192,148240,1,0,0:0:0:0:m_047.ogg
332,192,148400,1,0,0:0:0:0:m_044.ogg
76,192,148560,1,0,0:0:0:0:m_068.ogg
128,192,148560,1,0,0:0:0:0:m_059.ogg
230,192,148560,1,0,0:0:0:0:m_062.ogg
332,192,148720,1,0,0:0:0:0:m_044.ogg
384,192,148880,1,0,0:0:0:0:m_047.ogg
435,192,149040,1,0,0:0:0:0:m_050.ogg
384,192,149200,1,0,0:0:0:0:m_047.ogg
332,192,149360,1,0,0:0:0:0:s_044.ogg
25,192,149520,1,0,0:0:0:0:l_016.ogg
76,192,149520,1,0,0:0:0:0:l_031.ogg
281,192,149680,1,0,0:0:0:0:m_037.ogg
332,192,149840,1,0,0:0:0:0:m_043.ogg
384,192,150000,1,0,0:0:0:0:l_047.ogg
76,192,150160,1,0,0:0:0:0:m_055.ogg
179,192,150160,1,0,0:0:0:0:m_061.ogg
230,192,150160,1,0,0:0:0:0:l_059.ogg
332,192,150160,1,0,0:0:0:0:m_043.ogg
281,192,150320,1,0,0:0:0:0:m_037.ogg
76,192,150480,1,0,0:0:0:0:m_061.ogg
128,192,150480,1,0,0:0:0:0:m_058.ogg
230,192,150480,1,0,0:0:0:0:m_055.ogg
435,192,150480,1,0,0:0:0:0:m_049.ogg
281,192,150640,1,0,0:0:0:0:m_037.ogg
332,192,150800,1,0,0:0:0:0:m_043.ogg
384,192,150960,1,0,0:0:0:0:m_046.ogg
332,192,151120,1,0,0:0:0:0:m_043.ogg
281,192,151280,1,0,0:0:0:0:s_037.ogg
25,192,151440,1,0,0:0:0:0:m_015.ogg
486,192,151440,1,0,0:0:0:0:l_054.ogg
76,192,151480,1,0,0:0:0:0:m_030.ogg
281,192,151600,1,0,0:0:0:0:m_042.ogg
332,192,151760,1,0,0:0:0:0:m_045.ogg
435,192,151920,1,0,0:0:0:0:m_049.ogg
76,192,152080,1,0,0:0:0:0:m_066.ogg
179,192,152080,1,0,0:0:0:0:m_057.ogg
230,192,152080,1,0,0:0:0:0:m_061.ogg
332,192,152080,1,0,0:0:0:0:m_045.ogg
281,192,152240,1,0,0:0:0:0:s_042.ogg
76,192,152400,1,0,0:0:0:0:m_066.ogg
128,192,152400,1,0,0:0:0:0:m_060.ogg
230,192,152400,1,0,0:0:0:0:m_057.ogg
281,192,152560,1,0,0:0:0:0:m_042.ogg
332,192,152720,1,0,0:0:0:0:m_045.ogg
384,192,152880,1,0,0:0:0:0:m_048.ogg
332,192,153040,1,0,0:0:0:0:m_045.ogg
281,192,153200,1,0,0:0:0:0:s_042.ogg
25,192,153360,1,0,0:0:0:0:m_014.ogg
76,192,153360,1,0,0:0:0:0:m_029.ogg
281,192,153520,1,0,0:0:0:0:m_035.ogg
332,192,153680,1,0,0:0:0:0:m_041.ogg
384,192,153840,1,0,0:0:0:0:m_045.ogg
76,192,154000,1,0,0:0:0:0:m_053.ogg
179,192,154000,1,0,0:0:0:0:m_059.ogg
230,192,154000,1,0,0:0:0:0:m_057.ogg
332,192,154000,1,0,0:0:0:0:m_041.ogg
281,192,154160,1,0,0:0:0:0:s_035.ogg
76,192,154320,1,0,0:0:0:0:m_059.ogg
128,192,154320,1,0,0:0:0:0:m_056.ogg
230,192,154320,1,0,0:0:0:0:m_053.ogg
435,192,154320,1,0,0:0:0:0:m_047.ogg
281,192,154480,1,0,0:0:0:0:m_035.ogg
332,192,154640,1,0,0:0:0:0:m_041.ogg
384,192,154800,1,0,0:0:0:0:m_044.ogg
332,192,154960,1,0,0:0:0:0:m_041.ogg
281,192,155120,1,0,0:0:0:0:s_035.ogg
25,192,155280,1,0,0:0:0:0:m_013.ogg
76,192,155280,1,0,0:0:0:0:m_028.ogg
486,192,155280,1,0,0:0:0:0:l_052.ogg
281,192,155440,1,0,0:0:0:0:m_040.ogg
332,192,155600,1,0,0:0:0:0:m_044.ogg
384,192,155760,1,0,0:0:0:0:m_047.ogg
128,192,155920,1,0,0:0:0:0:m_064.ogg
179,192,155920,1,0,0:0:0:0:m_056.ogg
230,192,155920,1,0,0:0:0:0:m_059.ogg
332,192,155920,1,0,0:0:0:0:m_044.ogg
281,192,156080,1,0,0:0:0:0:s_040.ogg
76,192,156240,1,0,0:0:0:0:m_064.ogg
179,192,156240,1,0,0:0:0:0:m_059.ogg
230,192,156240,1,0,0:0:0:0:m_055.ogg
281,192,156400,1,0,0:0:0:0:m_040.ogg
332,192,156560,1,0,0:0:0:0:m_043.ogg
384,192,156720,1,0,0:0:0:0:m_046.ogg
332,192,156880,1,0,0:0:0:0:m_043.ogg
435,192,156880,1,0,0:0:0:0:m_051.ogg
281,192,157040,1,0,0:0:0:0:s_040.ogg
25,192,157200,1,0,0:0:0:0:l_018.ogg
435,192,157200,1,0,0:0:0:0:m_051.ogg
281,192,157360,1,0,0:0:0:0:m_040.ogg
332,192,157520,1,0,0:0:0:0:m_043.ogg
384,192,157680,1,0,0:0:0:0:m_046.ogg
332,192,157840,1,0,0:0:0:0:l_043.ogg
435,192,157840,1,0,0:0:0:0:m_049.ogg
281,192,158000,1,0,0:0:0:0:m_040.ogg
76,192,158160,1,0,0:0:0:0:m_034.ogg
486,192,158160,1,0,0:0:0:0:m_051.ogg
281,192,158320,1,0,0:0:0:0:m_040.ogg
332,192,158480,1,0,0:0:0:0:m_042.ogg
384,192,158640,1,0,0:0:0:0:m_046.ogg
332,192,158800,1,0,0:0:0:0:m_042.ogg
435,192,158800,1,0,0:0:0:0:m_049.ogg
281,192,158960,1,0,0:0:0:0:s_040.ogg
384,192,159120,1,0,0:0:0:0:m_039.ogg
435,192,159146,1,0,0:0:0:0:m_042.ogg
486,192,159173,1,0,0:0:0:0:l_047.ogg
25,192,159280,1,0,0:0:0:0:l_011.ogg
76,192,159440,1,0,0:0:0:0:l_023.ogg
128,192,159600,1,0,0:0:0:0:l_030.ogg
179,192,159760,1,0,0:0:0:0:l_035.ogg
230,192,159920,1,0,0:0:0:0:l_039.ogg
281,192,160080,1,0,0:0:0:0:m_042.ogg
332,192,160240,1,0,0:0:0:0:m_047.ogg
384,192,160400,1,0,0:0:0:0:m_051.ogg
435,192,160560,1,0,0:0:0:0:m_054.ogg
486,192,160720,1,0,0:0:0:0:m_059.ogg
384,192,160880,1,0,0:0:0:0:s_061.ogg
179,192,161040,1,0,0:0:0:0:m_051.ogg
230,192,161040,1,0,0:0:0:0:m_047.ogg
281,192,161040,1,0,0:0:0:0:m_054.ogg
435,192,161040,1,0,0:0:0:0:m_063.ogg
128,192,161840,1,0,0:0:0:0:m_049.ogg
230,192,161840,1,0,0:0:0:0:m_046.ogg
332,192,161840,1,0,0:0:0:0:m_063.ogg
435,192,161840,1,0,0:0:0:0:m_055.ogg
128,192,162240,1,0,0:0:0:0:m_048.ogg
179,192,162240,1,0,0:0:0:0:m_044.ogg
281,192,162240,1,0,0:0:0:0:m_063.ogg
435,192,162240,1,0,0:0:0:0:m_056.ogg
76,192,162640,1,0,0:0:0:0:m_048.ogg
179,192,162640,1,0,0:0:0:0:m_042.ogg
332,192,162640,1,0,0:0:0:0:m_064.ogg
486,192,162640,1,0,0:0:0:0:m_057.ogg
76,192,163040,1,0,0:0:0:0:m_042.ogg
179,192,163040,1,0,0:0:0:0:m_048.ogg
332,192,163040,1,0,0:0:0:0:m_063.ogg
435,192,163040,1,0,0:0:0:0:m_057.ogg
25,192,163440,1,0,0:0:0:0:m_050.ogg
230,192,163440,1,0,0:0:0:0:m_041.ogg
384,192,163440,1,0,0:0:0:0:m_068.ogg
486,192,163440,1,0,0:0:0:0:m_059.ogg
179,192,165840,1,0,0:0:0:0:m_049.ogg
230,192,165840,1,0,0:0:0:0:m_045.ogg
281,192,165840,1,0,0:0:0:0:m_061.ogg
435,192,165840,1,0,0:0:0:0:m_052.ogg
128,192,166640,1,0,0:0:0:0:m_047.ogg
230,192,166640,1,0,0:0:0:0:m_044.ogg
332,192,166640,1,0,0:0:0:0:m_061.ogg
435,192,166640,1,0,0:0:0:0:m_053.ogg
128,192,167040,1,0,0:0:0:0:m_046.ogg
179,192,167040,1,0,0:0:0:0:m_042.ogg
281,192,167040,1,0,0:0:0:0:m_061.ogg
435,192,167040,1,0,0:0:0:0:m_054.ogg
76,192,167440,1,0,0:0:0:0:m_046.ogg
179,192,167440,1,0,0:0:0:0:m_040.ogg
332,192,167440,1,0,0:0:0:0:m_063.ogg
486,192,167440,1,0,0:0:0:0:m_055.ogg
76,192,167840,1,0,0:0:0:0:m_040.ogg
179,192,167840,1,0,0:0:0:0:m_046.ogg
332,192,167840,1,0,0:0:0:0:m_061.ogg
435,192,167840,1,0,0:0:0:0:m_055.ogg
25,192,168240,1,0,0:0:0:0:m_048.ogg
230,192,168240,1,0,0:0:0:0:m_039.ogg
384,192,168240,1,0,0:0:0:0:m_057.ogg
486,192,168240,1,0,0:0:0:0:m_066.ogg
25,192,170640,128,0,172940:0:0:0:0:l_016.ogg
281,192,170640,128,0,172940:0:0:0:0:l_040.ogg
332,192,170706,128,0,172940:0:0:0:0:l_043.ogg
230,192,170740,128,0,172940:0:0:0:0:l_036.ogg
486,192,170790,128,0,172940:0:0:0:0:l_052.ogg
76,192,173040,128,0,175340:0:0:0:0:l_018.ogg
281,192,173040,128,0,174640:0:0:0:0:l_044.ogg
384,192,173040,128,0,174640:0:0:0:0:l_040.ogg
435,192,173040,128,0,175040:0:0:0:0:l_049.ogg
179,192,173140,128,0,174640:0:0:0:0:l_035.ogg
128,192,174240,128,0,175340:0:0:0:0:m_034.ogg
332,192,174640,128,0,175340:0:0:0:0:m_042.ogg
486,192,175040,128,0,175340:0:0:0:0:m_051.ogg
435,192,175440,128,0,177740:0:0:0:0:l_047.ogg
76,192,175440,128,0,177740:0:0:0:0:l_030.ogg
332,192,175440,128,0,177040:0:0:0:0:l_039.ogg
179,192,175440,128,0,177040:0:0:0:0:l_023.ogg
281,192,177040,128,0,177440:0:0:0:0:m_038.ogg
128,192,177040,128,0,177440:0:0:0:0:m_029.ogg
179,192,177440,128,0,177740:0:0:0:0:m_030.ogg
332,192,177440,128,0,177740:0:0:0:0:m_039.ogg
76,192,177840,128,0,180140:0:0:0:0:l_023.ogg
230,192,177890,128,0,179040:0:0:0:0:m_034.ogg
384,192,177940,128,0,179040:0:0:0:0:m_042.ogg
435,192,177990,128,0,180140:0:0:0:0:l_047.ogg
332,192,179040,128,0,179840:0:0:0:0:m_040.ogg
179,192,179040,128,0,179840:0:0:0:0:m_032.ogg
281,192,179840,128,0,180140:0:0:0:0:m_039.ogg
128,192,179840,128,0,180140:0:0:0:0:m_030.ogg
76,192,180240,128,0,183840:0:0:0:0:l_023.ogg
128,192,180290,128,0,183840:0:0:0:0:l_030.ogg
281,192,180340,128,0,183840:0:0:0:0:l_039.ogg
435,192,180390,128,0,183840:0:0:0:0:l_047.ogg
