osu file format v14

[General]
AudioFilename: virtual
AudioLeadIn: 0
PreviewTime: 0
Countdown: 0
SampleSet: Soft
StackLeniency: 0.7
Mode: 3
LetterboxInBreaks: 0
SpecialStyle: 0
WidescreenStoryboard: 1

[Editor]
DistanceSpacing: 0.8
BeatDivisor: 4
GridSize: 16
TimelineZoom: 2.500006

[Metadata]
Title:Piano Beatmap Set
TitleUnicode:Piano Beatmap Set
Artist:Collection
ArtistUnicode:Collection
Creator:CircusGalop
Version:La Campanella - 5K Full
Source:BMS
Tags:
BeatmapID:1316777
BeatmapSetID:332673

[Difficulty]
HPDrainRate:9
CircleSize:5
OverallDifficulty:5
ApproachRate:5
SliderMultiplier:1.4
SliderTickRate:1

[Events]
//Background and Video events
0,0,"CircusGalop.jpg",0,0
//Break Periods
//Storyboard Layer 0 (Background)
//Storyboard Layer 1 (Fail)
//Storyboard Layer 2 (Pass)
//Storyboard Layer 3 (Foreground)
//Storyboard Sound Samples
Sample,20700,0,"m_042.ogg",100
Sample,27900,0,"m_044.ogg",100
Sample,28200,0,"m_044.ogg",100
Sample,33300,0,"m_049.ogg",100
Sample,33600,0,"m_049.ogg",100
Sample,33900,0,"m_047.ogg",100
Sample,35100,0,"m_042.ogg",100
Sample,40200,0,"m_033.ogg",100
Sample,41100,0,"m_033.ogg",100
Sample,43800,0,"m_037.ogg",100
Sample,44700,0,"m_037.ogg",100
Sample,47400,0,"m_052.ogg",100
Sample,48300,0,"m_052.ogg",100
Sample,62100,0,"m_049.ogg",100
Sample,62700,0,"m_041.ogg",100
Sample,63000,0,"m_042.ogg",100
Sample,65700,0,"m_060.ogg",100
Sample,66300,0,"m_056.ogg",100
Sample,66600,0,"m_058.ogg",100
Sample,87300,0,"m_049.ogg",100
Sample,87600,0,"m_049.ogg",100
Sample,87900,0,"m_049.ogg",100
Sample,88200,0,"m_047.ogg",100
Sample,89100,0,"m_046.ogg",100
Sample,104400,0,"l_046.ogg",100
Sample,110700,0,"s_042.ogg",100
Sample,111600,0,"s_037.ogg",100
Sample,114300,0,"s_037.ogg",100
Sample,115200,0,"s_041.ogg",100
Sample,117900,0,"s_057.ogg",100
Sample,118800,0,"s_044.ogg",100
Sample,119400,0,"s_061.ogg",100
Sample,119550,0,"s_062.ogg",100
Sample,119700,0,"s_061.ogg",100
Sample,120300,0,"s_050.ogg",100
Sample,120450,0,"s_052.ogg",100
Sample,120600,0,"s_054.ogg",100
Sample,121200,0,"s_049.ogg",100
Sample,121350,0,"s_059.ogg",100
Sample,121500,0,"s_052.ogg",100
Sample,122100,0,"s_047.ogg",100
Sample,122250,0,"s_049.ogg",100
Sample,122400,0,"s_050.ogg",100
Sample,122700,0,"m_045.ogg",100
Sample,126300,0,"m_052.ogg",100
Sample,129900,0,"s_062.ogg",100
Sample,131100,0,"s_042.ogg",100
Sample,131400,0,"s_044.ogg",100
Sample,134700,0,"s_042.ogg",100
Sample,135000,0,"s_053.ogg",100
Sample,145200,0,"l_022.ogg",100
Sample,158700,0,"m_046.ogg",100
Sample,159600,0,"s_047.ogg",100
Sample,159900,0,"s_047.ogg",100
Sample,160200,0,"s_049.ogg",100
Sample,160500,0,"s_047.ogg",100
Sample,161400,0,"m_046.ogg",100
Sample,170700,0,"m_042.ogg",100
Sample,171000,0,"m_035.ogg",100
Sample,171600,0,"m_042.ogg",100
Sample,171900,0,"m_035.ogg",100
Sample,172500,0,"m_046.ogg",100
Sample,172800,0,"m_037.ogg",100
Sample,173400,0,"m_049.ogg",100
Sample,173700,0,"m_037.ogg",100
Sample,177900,0,"m_045.ogg",100
Sample,178200,0,"m_039.ogg",100
Sample,178800,0,"m_045.ogg",100
Sample,179100,0,"m_039.ogg",100
Sample,181200,0,"m_050.ogg",100
Sample,182400,0,"m_030.ogg",100
Sample,186100,0,"s_048.ogg",100
Sample,186225,0,"s_045.ogg",100
Sample,186350,0,"s_044.ogg",100
Sample,186475,0,"s_043.ogg",100
Sample,186850,0,"s_038.ogg",100
Sample,187600,0,"s_037.ogg",100
Sample,189350,0,"s_050.ogg",100
Sample,189475,0,"s_049.ogg",100
Sample,189600,0,"s_048.ogg",100
Sample,189725,0,"s_047.ogg",100
Sample,190100,0,"s_042.ogg",100
Sample,192600,0,"s_056.ogg",100
Sample,192725,0,"s_055.ogg",100
Sample,192850,0,"s_054.ogg",100
Sample,192975,0,"s_053.ogg",100
Sample,193350,0,"s_045.ogg",100
Sample,194100,0,"s_040.ogg",100
Sample,194600,0,"m_033.ogg",100
Sample,194850,0,"s_040.ogg",100
Sample,194975,0,"s_049.ogg",100
Sample,195100,0,"s_057.ogg",100
Sample,195225,0,"s_061.ogg",100
Sample,195350,0,"m_026.ogg",100
Sample,195850,0,"s_054.ogg",100
Sample,195975,0,"s_059.ogg",100
Sample,196100,0,"m_028.ogg",100
Sample,196600,0,"s_052.ogg",100
Sample,196725,0,"s_061.ogg",100
Sample,196850,0,"m_040.ogg",100
Sample,197100,0,"s_056.ogg",100
Sample,197225,0,"s_047.ogg",100
Sample,197350,0,"s_040.ogg",100
Sample,197475,0,"s_050.ogg",100
Sample,197600,0,"m_057.ogg",100
Sample,199350,0,"s_054.ogg",100
Sample,199600,0,"s_052.ogg",100
Sample,199850,0,"s_051.ogg",100
Sample,200100,0,"s_049.ogg",100
Sample,200350,0,"s_051.ogg",100
Sample,200600,0,"m_052.ogg",100
Sample,202350,0,"s_052.ogg",100
Sample,202600,0,"s_050.ogg",100
Sample,202850,0,"s_049.ogg",100
Sample,203100,0,"s_047.ogg",100
Sample,203350,0,"s_049.ogg",100
Sample,205350,0,"s_046.ogg",100
Sample,205475,0,"s_042.ogg",100
Sample,205600,0,"s_047.ogg",100
Sample,205725,0,"s_044.ogg",100
Sample,205850,0,"s_045.ogg",100
Sample,205975,0,"s_045.ogg",100
Sample,206100,0,"s_046.ogg",100
Sample,206225,0,"s_043.ogg",100
Sample,206350,0,"s_044.ogg",100
Sample,206475,0,"s_041.ogg",100
Sample,208350,0,"s_054.ogg",100
Sample,208475,0,"s_054.ogg",100
Sample,208600,0,"s_056.ogg",100
Sample,208725,0,"s_056.ogg",100
Sample,208850,0,"s_057.ogg",100
Sample,208975,0,"s_057.ogg",100
Sample,209100,0,"s_058.ogg",100
Sample,209225,0,"s_058.ogg",100
Sample,209350,0,"s_056.ogg",100
Sample,209475,0,"s_056.ogg",100
Sample,209600,0,"s_049.ogg",100
Sample,209725,0,"s_049.ogg",100
Sample,209850,0,"s_047.ogg",100
Sample,209975,0,"s_047.ogg",100
Sample,210100,0,"s_045.ogg",100
Sample,210225,0,"s_045.ogg",100
Sample,210350,0,"s_046.ogg",100
Sample,210475,0,"s_046.ogg",100
Sample,210600,0,"s_043.ogg",100
Sample,210725,0,"s_043.ogg",100
Sample,210850,0,"s_041.ogg",100
Sample,210975,0,"s_041.ogg",100
Sample,211100,0,"s_037.ogg",100
Sample,211225,0,"s_037.ogg",100
Sample,211350,0,"s_035.ogg",100
Sample,211475,0,"s_035.ogg",100
Sample,211600,0,"s_033.ogg",100
Sample,211725,0,"s_033.ogg",100
Sample,211850,0,"s_034.ogg",100
Sample,211975,0,"s_034.ogg",100
Sample,212100,0,"s_031.ogg",100
Sample,212225,0,"s_031.ogg",100
Sample,212350,0,"s_029.ogg",100
Sample,212475,0,"s_029.ogg",100
Sample,212600,0,"s_025.ogg",100
Sample,212725,0,"s_025.ogg",100
Sample,212850,0,"s_023.ogg",100
Sample,212975,0,"s_023.ogg",100
Sample,213100,0,"s_021.ogg",100
Sample,213225,0,"s_021.ogg",100
Sample,213350,0,"s_025.ogg",100
Sample,213475,0,"s_025.ogg",100
Sample,213600,0,"s_022.ogg",100
Sample,213725,0,"s_025.ogg",100
Sample,213850,0,"s_026.ogg",100
Sample,213975,0,"s_026.ogg",100
Sample,221900,0,"m_011.ogg",100
Sample,222150,0,"s_030.ogg",100
Sample,222150,0,"s_042.ogg",100
Sample,222275,0,"s_038.ogg",100
Sample,222275,0,"s_030.ogg",100
Sample,222400,0,"m_035.ogg",100
Sample,222400,0,"m_038.ogg",100
Sample,222650,0,"m_014.ogg",100
Sample,222900,0,"s_042.ogg",100
Sample,222900,0,"s_030.ogg",100
Sample,223025,0,"s_038.ogg",100
Sample,223025,0,"s_030.ogg",100
Sample,223150,0,"m_035.ogg",100
Sample,223150,0,"m_038.ogg",100
Sample,223400,0,"m_018.ogg",100
Sample,223650,0,"s_034.ogg",100
Sample,223650,0,"s_046.ogg",100
Sample,223775,0,"s_046.ogg",100
Sample,223775,0,"s_034.ogg",100
Sample,223900,0,"m_042.ogg",100
Sample,223900,0,"m_037.ogg",100
Sample,224150,0,"m_034.ogg",100
Sample,224400,0,"s_042.ogg",100
Sample,224400,0,"s_049.ogg",100
Sample,224525,0,"s_049.ogg",100
Sample,224525,0,"s_042.ogg",100
Sample,224650,0,"m_049.ogg",100
Sample,224650,0,"m_040.ogg",100
Sample,224900,0,"m_035.ogg",100
Sample,225150,0,"s_038.ogg",100
Sample,225150,0,"s_047.ogg",100
Sample,225275,0,"s_038.ogg",100
Sample,225275,0,"s_047.ogg",100
Sample,225400,0,"s_049.ogg",100
Sample,225900,0,"s_037.ogg",100
Sample,226025,0,"s_037.ogg",100
Sample,226150,0,"m_041.ogg",100
Sample,226650,0,"s_037.ogg",100
Sample,226775,0,"s_037.ogg",100
Sample,226900,0,"m_042.ogg",100
Sample,226900,0,"m_037.ogg",100
Sample,227150,0,"m_054.ogg",100
Sample,227150,0,"m_049.ogg",100
Sample,227900,0,"m_011.ogg",100
Sample,228150,0,"s_033.ogg",100
Sample,228150,0,"s_042.ogg",100
Sample,228275,0,"s_042.ogg",100
Sample,228275,0,"s_033.ogg",100
Sample,228400,0,"s_060.ogg",100
Sample,228400,0,"m_033.ogg",100
Sample,228650,0,"m_015.ogg",100
Sample,228900,0,"s_048.ogg",100
Sample,228900,0,"s_036.ogg",100
Sample,229025,0,"s_048.ogg",100
Sample,229025,0,"s_036.ogg",100
Sample,229150,0,"m_048.ogg",100
Sample,229150,0,"m_042.ogg",100
Sample,229400,0,"m_016.ogg",100
Sample,229650,0,"s_031.ogg",100
Sample,229650,0,"s_036.ogg",100
Sample,229775,0,"s_036.ogg",100
Sample,229775,0,"s_031.ogg",100
Sample,229900,0,"s_030.ogg",100
Sample,229900,0,"s_036.ogg",100
Sample,230025,0,"s_036.ogg",100
Sample,230025,0,"s_030.ogg",100
Sample,230150,0,"s_028.ogg",100
Sample,230150,0,"s_036.ogg",100
Sample,230275,0,"s_036.ogg",100
Sample,230275,0,"s_028.ogg",100
Sample,230400,0,"s_030.ogg",100
Sample,230400,0,"s_036.ogg",100
Sample,230525,0,"s_036.ogg",100
Sample,230525,0,"s_030.ogg",100
Sample,230650,0,"s_031.ogg",100
Sample,230650,0,"s_036.ogg",100
Sample,230775,0,"s_036.ogg",100
Sample,230775,0,"s_031.ogg",100
Sample,230900,0,"m_038.ogg",100
Sample,230900,0,"m_030.ogg",100
Sample,231025,0,"m_041.ogg",100
Sample,231150,0,"m_040.ogg",100
Sample,231275,0,"m_039.ogg",100
Sample,231400,0,"m_038.ogg",100
Sample,231525,0,"m_037.ogg",100
Sample,231650,0,"m_036.ogg",100
Sample,231775,0,"m_035.ogg",100
Sample,231900,0,"m_034.ogg",100
Sample,232025,0,"m_033.ogg",100
Sample,232150,0,"m_032.ogg",100
Sample,232275,0,"m_031.ogg",100
Sample,232400,0,"m_061.ogg",100
Sample,232400,0,"m_025.ogg",100
Sample,232400,0,"m_022.ogg",100
Sample,232525,0,"m_029.ogg",100
Sample,232650,0,"m_028.ogg",100
Sample,232775,0,"m_027.ogg",100
Sample,232900,0,"m_014.ogg",100
Sample,233025,0,"m_013.ogg",100
Sample,233150,0,"m_012.ogg",100
Sample,233275,0,"m_011.ogg",100
Sample,233400,0,"m_010.ogg",100
Sample,233525,0,"m_009.ogg",100
Sample,233650,0,"m_007.ogg",100
Sample,233775,0,"m_018.ogg",100
Sample,233900,0,"m_011.ogg",100
Sample,233900,0,"m_023.ogg",100
Sample,234400,0,"m_030.ogg",100
Sample,234400,0,"m_042.ogg",100
Sample,234650,0,"m_011.ogg",100
Sample,234650,0,"m_023.ogg",100
Sample,234900,0,"s_030.ogg",100
Sample,235150,0,"s_054.ogg",100
Sample,235150,0,"m_042.ogg",100
Sample,235400,0,"m_023.ogg",100
Sample,235400,0,"m_011.ogg",100
Sample,235650,0,"s_030.ogg",100
Sample,235900,0,"m_030.ogg",100
Sample,236150,0,"m_011.ogg",100
Sample,236150,0,"m_023.ogg",100
Sample,236400,0,"s_030.ogg",100
Sample,236650,0,"m_042.ogg",100
Sample,236650,0,"s_054.ogg",100
Sample,236900,0,"m_023.ogg",100
Sample,236900,0,"m_011.ogg",100
Sample,237150,0,"s_030.ogg",100
Sample,237400,0,"m_042.ogg",100
Sample,237400,0,"m_062.ogg",100
Sample,237650,0,"m_011.ogg",100
Sample,237650,0,"s_073.ogg",100
Sample,237900,0,"s_018.ogg",100
Sample,238150,0,"m_042.ogg",100
Sample,238150,0,"s_062.ogg",100
Sample,238400,0,"m_011.ogg",100
Sample,238400,0,"m_023.ogg",100
Sample,238650,0,"s_018.ogg",100
Sample,238900,0,"m_030.ogg",100
Sample,239150,0,"m_023.ogg",100
Sample,239150,0,"m_011.ogg",100
Sample,239400,0,"s_030.ogg",100
Sample,239650,0,"m_042.ogg",100
Sample,239650,0,"m_030.ogg",100
Sample,239900,0,"m_023.ogg",100
Sample,240150,0,"s_018.ogg",100
Sample,240400,0,"m_026.ogg",100
Sample,240400,0,"m_030.ogg",100
Sample,240650,0,"s_025.ogg",100
Sample,240650,0,"s_037.ogg",100
Sample,240775,0,"s_038.ogg",100
Sample,240775,0,"s_026.ogg",100
Sample,240900,0,"m_028.ogg",100
Sample,240900,0,"m_030.ogg",100
Sample,241150,0,"s_030.ogg",100
Sample,241150,0,"s_026.ogg",100
Sample,241275,0,"s_025.ogg",100
Sample,241275,0,"s_030.ogg",100
Sample,241400,0,"s_026.ogg",100
Sample,241400,0,"s_038.ogg",100
Sample,241525,0,"s_037.ogg",100
Sample,241525,0,"s_025.ogg",100
Sample,241650,0,"m_035.ogg",100
Sample,241650,0,"m_023.ogg",100
Sample,241900,0,"m_023.ogg",100
Sample,241900,0,"m_018.ogg",100
Sample,242150,0,"s_030.ogg",100
Sample,242150,0,"s_025.ogg",100
Sample,242275,0,"s_030.ogg",100
Sample,242275,0,"s_026.ogg",100
Sample,242400,0,"m_030.ogg",100
Sample,242400,0,"m_028.ogg",100
Sample,242650,0,"s_026.ogg",100
Sample,242650,0,"s_030.ogg",100
Sample,242775,0,"s_025.ogg",100
Sample,242775,0,"s_030.ogg",100
Sample,242900,0,"s_026.ogg",100
Sample,242900,0,"s_030.ogg",100
Sample,243025,0,"s_030.ogg",100
Sample,243025,0,"s_025.ogg",100
Sample,243150,0,"m_035.ogg",100
Sample,243150,0,"m_023.ogg",100
Sample,243400,0,"m_018.ogg",100
Sample,243400,0,"m_011.ogg",100
Sample,243650,0,"s_030.ogg",100
Sample,243650,0,"s_026.ogg",100
Sample,243775,0,"s_025.ogg",100
Sample,243775,0,"s_030.ogg",100
Sample,243900,0,"m_023.ogg",100
Sample,243900,0,"m_035.ogg",100
Sample,244150,0,"m_018.ogg",100
Sample,244150,0,"m_011.ogg",100
Sample,244400,0,"s_026.ogg",100
Sample,244400,0,"s_030.ogg",100
Sample,244525,0,"s_030.ogg",100
Sample,244525,0,"s_025.ogg",100
Sample,244650,0,"m_035.ogg",100
Sample,244650,0,"m_023.ogg",100
Sample,244900,0,"m_011.ogg",100
Sample,244900,0,"m_018.ogg",100
Sample,245150,0,"s_030.ogg",100
Sample,245150,0,"s_026.ogg",100
Sample,245275,0,"s_025.ogg",100
Sample,245275,0,"s_030.ogg",100
Sample,245400,0,"m_023.ogg",100
Sample,245400,0,"m_035.ogg",100
Sample,245650,0,"m_018.ogg",100
Sample,245650,0,"m_011.ogg",100
Sample,246150,0,"m_030.ogg",100
Sample,246150,0,"m_035.ogg",100
Sample,246400,0,"m_042.ogg",100
Sample,246400,0,"m_035.ogg",100
Sample,246650,0,"m_054.ogg",100
Sample,246650,0,"m_047.ogg",100
Sample,246900,0,"m_042.ogg",100
Sample,246900,0,"m_035.ogg",100
Sample,247150,0,"m_030.ogg",100
Sample,247150,0,"m_035.ogg",100
Sample,247400,0,"m_011.ogg",100
Sample,247400,0,"m_018.ogg",100
Sample,248150,0,"m_035.ogg",100
Sample,248150,0,"m_030.ogg",100
Sample,248900,0,"l_047.ogg",100
Sample,248900,0,"l_038.ogg",100
Sample,248900,0,"l_042.ogg",100

[TimingPoints]
0,600.000000000006,4,2,0,100,1,0
185600,500,4,2,0,100,1,0
185600,-120,4,2,0,100,0,0
214100,300,4,2,0,100,1,0
214100,-200,4,2,0,100,0,0
218900,500,4,2,0,100,1,0
218900,-120,4,2,0,100,0,0

[HitObjects]
51,192,2100,5,0,0:0:0:0:m_042.ogg
153,192,2100,1,0,0:0:0:0:m_054.ogg
51,192,2400,1,0,0:0:0:0:m_042.ogg
153,192,2400,1,0,0:0:0:0:m_054.ogg
51,192,2700,1,0,0:0:0:0:m_042.ogg
153,192,2700,1,0,0:0:0:0:m_054.ogg
358,192,3000,1,0,0:0:0:0:m_078.ogg
460,192,3000,1,0,0:0:0:0:m_066.ogg
358,192,3300,1,0,0:0:0:0:m_078.ogg
460,192,3300,1,0,0:0:0:0:m_066.ogg
358,192,3600,1,0,0:0:0:0:m_078.ogg
460,192,3600,1,0,0:0:0:0:m_066.ogg
51,192,3900,1,0,0:0:0:0:m_054.ogg
153,192,3900,1,0,0:0:0:0:m_042.ogg
51,192,4200,1,0,0:0:0:0:m_054.ogg
153,192,4200,1,0,0:0:0:0:m_042.ogg
51,192,4500,1,0,0:0:0:0:m_054.ogg
153,192,4500,1,0,0:0:0:0:m_042.ogg
358,192,4800,1,0,0:0:0:0:m_078.ogg
460,192,4800,1,0,0:0:0:0:m_066.ogg
358,192,5100,1,0,0:0:0:0:m_078.ogg
460,192,5100,1,0,0:0:0:0:m_066.ogg
358,192,5400,1,0,0:0:0:0:m_078.ogg
460,192,5400,1,0,0:0:0:0:m_066.ogg
51,192,5700,1,0,0:0:0:0:m_054.ogg
153,192,5700,1,0,0:0:0:0:m_042.ogg
358,192,6000,1,0,0:0:0:0:m_066.ogg
460,192,6000,1,0,0:0:0:0:m_078.ogg
358,192,6300,1,0,0:0:0:0:m_066.ogg
460,192,6300,1,0,0:0:0:0:m_078.ogg
51,192,6600,1,0,0:0:0:0:m_042.ogg
153,192,6600,1,0,0:0:0:0:m_054.ogg
358,192,6900,1,0,0:0:0:0:m_066.ogg
460,192,6900,1,0,0:0:0:0:m_078.ogg
358,192,7200,1,0,0:0:0:0:m_066.ogg
460,192,7200,1,0,0:0:0:0:m_078.ogg
153,192,7800,1,0,0:0:0:0:m_054.ogg
358,192,7950,1,0,0:0:0:0:s_066.ogg
358,192,8100,1,0,0:0:0:0:m_066.ogg
460,192,8250,1,0,0:0:0:0:s_078.ogg
358,192,8400,1,0,0:0:0:0:m_066.ogg
460,192,8550,1,0,0:0:0:0:s_078.ogg
256,192,8700,1,0,0:0:0:0:m_064.ogg
460,192,8850,1,0,0:0:0:0:s_078.ogg
51,192,9000,1,0,0:0:0:0:m_035.ogg
153,192,9000,1,0,0:0:0:0:m_062.ogg
256,192,9050,1,0,0:0:0:0:m_042.ogg
358,192,9100,1,0,0:0:0:0:m_050.ogg
460,192,9150,1,0,0:0:0:0:s_078.ogg
153,192,9300,1,0,0:0:0:0:m_062.ogg
460,192,9450,1,0,0:0:0:0:s_078.ogg
51,192,9600,1,0,0:0:0:0:m_061.ogg
460,192,9750,1,0,0:0:0:0:s_078.ogg
51,192,9900,1,0,0:0:0:0:m_038.ogg
153,192,9900,1,0,0:0:0:0:m_059.ogg
256,192,9950,1,0,0:0:0:0:m_047.ogg
358,192,10000,1,0,0:0:0:0:m_054.ogg
460,192,10050,1,0,0:0:0:0:s_078.ogg
153,192,10200,1,0,0:0:0:0:m_058.ogg
460,192,10350,1,0,0:0:0:0:s_078.ogg
256,192,10500,1,0,0:0:0:0:m_059.ogg
460,192,10650,1,0,0:0:0:0:s_078.ogg
51,192,10800,1,0,0:0:0:0:m_042.ogg
358,192,10800,1,0,0:0:0:0:m_061.ogg
153,192,10850,1,0,0:0:0:0:m_049.ogg
256,192,10900,1,0,0:0:0:0:m_058.ogg
460,192,10950,1,0,0:0:0:0:s_078.ogg
256,192,11100,1,0,0:0:0:0:m_054.ogg
460,192,11250,1,0,0:0:0:0:s_078.ogg
256,192,11400,1,0,0:0:0:0:m_054.ogg
358,192,11550,1,0,0:0:0:0:s_066.ogg
51,192,11700,1,0,0:0:0:0:m_046.ogg
153,192,11700,1,0,0:0:0:0:m_055.ogg
256,192,11750,1,0,0:0:0:0:m_049.ogg
358,192,11850,1,0,0:0:0:0:s_066.ogg
51,192,12000,1,0,0:0:0:0:m_054.ogg
358,192,12150,1,0,0:0:0:0:s_066.ogg
256,192,12300,1,0,0:0:0:0:m_052.ogg
358,192,12450,1,0,0:0:0:0:s_066.ogg
153,192,12600,1,0,0:0:0:0:m_050.ogg
460,192,12600,1,0,0:0:0:0:m_047.ogg
358,192,12750,1,0,0:0:0:0:s_066.ogg
153,192,12900,1,0,0:0:0:0:m_050.ogg
358,192,13050,1,0,0:0:0:0:s_066.ogg
256,192,13200,1,0,0:0:0:0:m_049.ogg
358,192,13350,1,0,0:0:0:0:s_066.ogg
51,192,13500,1,0,0:0:0:0:m_038.ogg
153,192,13500,1,0,0:0:0:0:m_047.ogg
256,192,13550,1,0,0:0:0:0:m_041.ogg
460,192,13600,1,0,0:0:0:0:m_044.ogg
358,192,13650,1,0,0:0:0:0:s_066.ogg
51,192,13800,1,0,0:0:0:0:m_046.ogg
358,192,13950,1,0,0:0:0:0:s_066.ogg
153,192,14100,1,0,0:0:0:0:m_047.ogg
358,192,14250,1,0,0:0:0:0:s_066.ogg
51,192,14400,1,0,0:0:0:0:m_046.ogg
256,192,14400,1,0,0:0:0:0:m_049.ogg
460,192,14400,1,0,0:0:0:0:m_042.ogg
358,192,14550,1,0,0:0:0:0:s_066.ogg
51,192,14700,1,0,0:0:0:0:m_042.ogg
153,192,14850,1,0,0:0:0:0:s_054.ogg
153,192,15000,1,0,0:0:0:0:s_054.ogg
358,192,15150,1,0,0:0:0:0:s_066.ogg
358,192,15300,1,0,0:0:0:0:m_066.ogg
460,192,15450,1,0,0:0:0:0:s_078.ogg
358,192,15600,1,0,0:0:0:0:m_066.ogg
460,192,15750,1,0,0:0:0:0:s_078.ogg
256,192,15900,1,0,0:0:0:0:m_064.ogg
460,192,16050,1,0,0:0:0:0:s_078.ogg
51,192,16200,1,0,0:0:0:0:m_035.ogg
153,192,16200,1,0,0:0:0:0:m_062.ogg
256,192,16250,1,0,0:0:0:0:m_042.ogg
358,192,16300,1,0,0:0:0:0:m_050.ogg
460,192,16350,1,0,0:0:0:0:s_078.ogg
153,192,16500,1,0,0:0:0:0:m_062.ogg
460,192,16650,1,0,0:0:0:0:s_078.ogg
51,192,16800,1,0,0:0:0:0:m_061.ogg
460,192,16950,1,0,0:0:0:0:s_078.ogg
51,192,17100,1,0,0:0:0:0:m_038.ogg
256,192,17100,1,0,0:0:0:0:m_059.ogg
153,192,17150,1,0,0:0:0:0:m_047.ogg
358,192,17200,1,0,0:0:0:0:m_054.ogg
460,192,17250,1,0,0:0:0:0:s_078.ogg
153,192,17400,1,0,0:0:0:0:m_058.ogg
460,192,17550,1,0,0:0:0:0:s_078.ogg
256,192,17700,1,0,0:0:0:0:m_059.ogg
460,192,17850,1,0,0:0:0:0:s_078.ogg
51,192,18000,1,0,0:0:0:0:m_042.ogg
358,192,18000,1,0,0:0:0:0:m_061.ogg
153,192,18050,1,0,0:0:0:0:m_049.ogg
256,192,18100,1,0,0:0:0:0:m_058.ogg
460,192,18150,1,0,0:0:0:0:s_078.ogg
153,192,18300,1,0,0:0:0:0:m_054.ogg
460,192,18450,1,0,0:0:0:0:s_078.ogg
153,192,18600,1,0,0:0:0:0:m_054.ogg
358,192,18750,1,0,0:0:0:0:s_066.ogg
51,192,18900,1,0,0:0:0:0:m_046.ogg
256,192,18900,1,0,0:0:0:0:m_055.ogg
460,192,18950,1,0,0:0:0:0:m_049.ogg
358,192,19050,1,0,0:0:0:0:s_066.ogg
153,192,19200,1,0,0:0:0:0:m_054.ogg
358,192,19350,1,0,0:0:0:0:s_066.ogg
51,192,19500,1,0,0:0:0:0:m_052.ogg
460,192,19500,1,0,0:0:0:0:m_054.ogg
358,192,19650,1,0,0:0:0:0:s_066.ogg
51,192,19800,1,0,0:0:0:0:m_047.ogg
153,192,19800,1,0,0:0:0:0:m_054.ogg
256,192,19800,1,0,0:0:0:0:m_050.ogg
358,192,19950,1,0,0:0:0:0:s_066.ogg
153,192,20100,1,0,0:0:0:0:s_059.ogg
256,192,20250,1,0,0:0:0:0:s_062.ogg
358,192,20400,1,0,0:0:0:0:m_066.ogg
460,192,20550,1,0,0:0:0:0:s_078.ogg
51,192,20700,1,0,0:0:0:0:m_046.ogg
153,192,20700,1,0,0:0:0:0:m_054.ogg
256,192,20700,1,0,0:0:0:0:m_052.ogg
358,192,20850,1,0,0:0:0:0:s_066.ogg
153,192,21000,1,0,0:0:0:0:s_058.ogg
256,192,21150,1,0,0:0:0:0:s_061.ogg
358,192,21300,1,0,0:0:0:0:m_066.ogg
460,192,21450,1,0,0:0:0:0:s_078.ogg
51,192,21600,1,0,0:0:0:0:m_035.ogg
153,192,21750,1,0,0:0:0:0:m_042.ogg
256,192,21900,1,0,0:0:0:0:m_050.ogg
358,192,22050,1,0,0:0:0:0:m_059.ogg
256,192,22200,1,0,0:0:0:0:s_054.ogg
358,192,22350,1,0,0:0:0:0:s_066.ogg
460,192,22500,1,0,0:0:0:0:s_078.ogg
358,192,22650,1,0,0:0:0:0:s_066.ogg
460,192,22800,1,0,0:0:0:0:s_078.ogg
358,192,22950,1,0,0:0:0:0:s_066.ogg
460,192,23100,1,0,0:0:0:0:s_078.ogg
256,192,23250,1,0,0:0:0:0:s_064.ogg
51,192,23400,1,0,0:0:0:0:m_023.ogg
256,192,23400,1,0,0:0:0:0:s_064.ogg
153,192,23450,1,0,0:0:0:0:m_062.ogg
460,192,23550,1,0,0:0:0:0:s_078.ogg
153,192,23700,1,0,0:0:0:0:m_062.ogg
256,192,23700,1,0,0:0:0:0:m_038.ogg
358,192,23700,1,0,0:0:0:0:m_030.ogg
460,192,23850,1,0,0:0:0:0:s_078.ogg
51,192,24000,1,0,0:0:0:0:m_061.ogg
460,192,24150,1,0,0:0:0:0:s_078.ogg
51,192,24300,1,0,0:0:0:0:s_061.ogg
153,192,24300,1,0,0:0:0:0:m_026.ogg
256,192,24350,1,0,0:0:0:0:m_059.ogg
460,192,24450,1,0,0:0:0:0:s_078.ogg
153,192,24600,1,0,0:0:0:0:m_058.ogg
256,192,24600,1,0,0:0:0:0:m_042.ogg
358,192,24600,1,0,0:0:0:0:m_035.ogg
460,192,24750,1,0,0:0:0:0:s_078.ogg
256,192,24900,1,0,0:0:0:0:m_059.ogg
460,192,25050,1,0,0:0:0:0:s_078.ogg
51,192,25200,1,0,0:0:0:0:m_030.ogg
153,192,25200,1,0,0:0:0:0:s_058.ogg
256,192,25250,1,0,0:0:0:0:s_059.ogg
358,192,25300,1,0,0:0:0:0:s_061.ogg
460,192,25350,1,0,0:0:0:0:s_078.ogg
51,192,25500,1,0,0:0:0:0:m_054.ogg
153,192,25500,1,0,0:0:0:0:m_046.ogg
358,192,25500,1,0,0:0:0:0:m_037.ogg
460,192,25650,1,0,0:0:0:0:s_078.ogg
51,192,25800,1,0,0:0:0:0:m_054.ogg
358,192,25950,1,0,0:0:0:0:s_066.ogg
51,192,26100,1,0,0:0:0:0:m_046.ogg
256,192,26100,1,0,0:0:0:0:s_058.ogg
460,192,26100,1,0,0:0:0:0:m_049.ogg
153,192,26150,1,0,0:0:0:0:m_055.ogg
358,192,26250,1,0,0:0:0:0:s_066.ogg
51,192,26400,1,0,0:0:0:0:m_054.ogg
256,192,26400,1,0,0:0:0:0:m_049.ogg
460,192,26400,1,0,0:0:0:0:m_046.ogg
358,192,26550,1,0,0:0:0:0:s_066.ogg
153,192,26700,1,0,0:0:0:0:m_052.ogg
358,192,26850,1,0,0:0:0:0:s_066.ogg
153,192,27000,1,0,0:0:0:0:s_052.ogg
256,192,27000,1,0,0:0:0:0:m_047.ogg
51,192,27050,1,0,0:0:0:0:m_050.ogg
358,192,27150,1,0,0:0:0:0:s_066.ogg
51,192,27300,1,0,0:0:0:0:m_050.ogg
460,192,27300,1,0,0:0:0:0:m_047.ogg
358,192,27450,1,0,0:0:0:0:s_066.ogg
256,192,27600,1,0,0:0:0:0:m_049.ogg
358,192,27750,1,0,0:0:0:0:s_066.ogg
51,192,27900,1,0,0:0:0:0:m_038.ogg
256,192,27900,1,0,0:0:0:0:s_049.ogg
460,192,27900,1,0,0:0:0:0:m_041.ogg
153,192,27950,1,0,0:0:0:0:m_047.ogg
358,192,28050,1,0,0:0:0:0:s_066.ogg
51,192,28200,1,0,0:0:0:0:m_046.ogg
256,192,28200,1,0,0:0:0:0:m_038.ogg
460,192,28200,1,0,0:0:0:0:m_041.ogg
358,192,28350,1,0,0:0:0:0:s_066.ogg
153,192,28500,1,0,0:0:0:0:m_047.ogg
358,192,28650,1,0,0:0:0:0:s_066.ogg
51,192,28800,1,0,0:0:0:0:m_046.ogg
153,192,28800,1,0,0:0:0:0:m_030.ogg
256,192,28800,1,0,0:0:0:0:m_049.ogg
358,192,28950,1,0,0:0:0:0:s_066.ogg
51,192,29100,1,0,0:0:0:0:s_042.ogg
256,192,29250,1,0,0:0:0:0:s_054.ogg
256,192,29400,1,0,0:0:0:0:s_054.ogg
358,192,29550,1,0,0:0:0:0:s_066.ogg
358,192,29700,1,0,0:0:0:0:m_066.ogg
460,192,29850,1,0,0:0:0:0:s_078.ogg
358,192,30000,1,0,0:0:0:0:m_066.ogg
460,192,30150,1,0,0:0:0:0:s_078.ogg
256,192,30300,1,0,0:0:0:0:m_064.ogg
460,192,30450,1,0,0:0:0:0:s_078.ogg
51,192,30600,1,0,0:0:0:0:m_023.ogg
256,192,30600,1,0,0:0:0:0:s_064.ogg
153,192,30650,1,0,0:0:0:0:m_062.ogg
460,192,30750,1,0,0:0:0:0:s_078.ogg
153,192,30900,1,0,0:0:0:0:m_062.ogg
256,192,30900,1,0,0:0:0:0:m_030.ogg
358,192,30900,1,0,0:0:0:0:m_038.ogg
460,192,31050,1,0,0:0:0:0:s_078.ogg
51,192,31200,1,0,0:0:0:0:m_061.ogg
460,192,31350,1,0,0:0:0:0:s_078.ogg
51,192,31500,1,0,0:0:0:0:s_061.ogg
153,192,31500,1,0,0:0:0:0:m_026.ogg
256,192,31550,1,0,0:0:0:0:m_059.ogg
460,192,31650,1,0,0:0:0:0:s_078.ogg
153,192,31800,1,0,0:0:0:0:m_058.ogg
256,192,31800,1,0,0:0:0:0:m_042.ogg
358,192,31800,1,0,0:0:0:0:m_035.ogg
460,192,31950,1,0,0:0:0:0:s_078.ogg
256,192,32100,1,0,0:0:0:0:m_059.ogg
460,192,32250,1,0,0:0:0:0:s_078.ogg
51,192,32400,1,0,0:0:0:0:m_030.ogg
153,192,32400,1,0,0:0:0:0:s_058.ogg
256,192,32450,1,0,0:0:0:0:s_059.ogg
358,192,32500,1,0,0:0:0:0:s_061.ogg
460,192,32550,1,0,0:0:0:0:s_078.ogg
51,192,32700,1,0,0:0:0:0:m_054.ogg
153,192,32700,1,0,0:0:0:0:m_046.ogg
358,192,32700,1,0,0:0:0:0:m_037.ogg
460,192,32850,1,0,0:0:0:0:s_078.ogg
51,192,33000,1,0,0:0:0:0:m_054.ogg
358,192,33150,1,0,0:0:0:0:s_066.ogg
51,192,33300,1,0,0:0:0:0:m_047.ogg
153,192,33300,1,0,0:0:0:0:s_058.ogg
460,192,33300,1,0,0:0:0:0:m_040.ogg
256,192,33350,1,0,0:0:0:0:m_055.ogg
460,192,33450,1,0,0:0:0:0:s_071.ogg
153,192,33600,1,0,0:0:0:0:m_054.ogg
256,192,33600,1,0,0:0:0:0:m_047.ogg
358,192,33600,1,0,0:0:0:0:m_042.ogg
460,192,33750,1,0,0:0:0:0:s_071.ogg
51,192,33900,1,0,0:0:0:0:m_052.ogg
256,192,33900,1,0,0:0:0:0:m_049.ogg
358,192,33900,1,0,0:0:0:0:m_043.ogg
460,192,34050,1,0,0:0:0:0:s_071.ogg
51,192,34200,1,0,0:0:0:0:m_050.ogg
153,192,34200,1,0,0:0:0:0:m_054.ogg
256,192,34200,1,0,0:0:0:0:m_047.ogg
358,192,34350,1,0,0:0:0:0:s_066.ogg
51,192,34500,1,0,0:0:0:0:s_059.ogg
153,192,34650,1,0,0:0:0:0:s_062.ogg
256,192,34800,1,0,0:0:0:0:m_066.ogg
460,192,34950,1,0,0:0:0:0:s_078.ogg
51,192,35100,1,0,0:0:0:0:m_054.ogg
153,192,35100,1,0,0:0:0:0:m_046.ogg
256,192,35100,1,0,0:0:0:0:m_052.ogg
358,192,35250,1,0,0:0:0:0:s_066.ogg
153,192,35400,1,0,0:0:0:0:s_058.ogg
256,192,35550,1,0,0:0:0:0:s_061.ogg
358,192,35700,1,0,0:0:0:0:m_066.ogg
460,192,35850,1,0,0:0:0:0:s_078.ogg
51,192,36000,1,0,0:0:0:0:m_023.ogg
153,192,36150,1,0,0:0:0:0:m_038.ogg
256,192,36300,1,0,0:0:0:0:m_042.ogg
358,192,36450,1,0,0:0:0:0:m_047.ogg
460,192,36600,1,0,0:0:0:0:m_054.ogg
51,192,36750,1,0,0:0:0:0:m_059.ogg
153,192,36900,1,0,0:0:0:0:m_062.ogg
256,192,37050,1,0,0:0:0:0:m_066.ogg
358,192,37200,1,0,0:0:0:0:m_071.ogg
460,192,38400,1,0,0:0:0:0:s_050.ogg
51,192,38550,1,0,0:0:0:0:s_049.ogg
256,192,38550,1,0,0:0:0:0:s_047.ogg
460,192,38700,1,0,0:0:0:0:s_050.ogg
153,192,38850,1,0,0:0:0:0:s_048.ogg
358,192,38850,1,0,0:0:0:0:s_046.ogg
460,192,39000,1,0,0:0:0:0:s_050.ogg
51,192,39150,1,0,0:0:0:0:s_047.ogg
256,192,39150,1,0,0:0:0:0:s_044.ogg
460,192,39300,1,0,0:0:0:0:s_050.ogg
51,192,39450,1,0,0:0:0:0:s_046.ogg
153,192,39450,1,0,0:0:0:0:s_043.ogg
358,192,39600,1,0,0:0:0:0:s_052.ogg
256,192,39675,1,0,0:0:0:0:s_050.ogg
153,192,39750,1,0,0:0:0:0:s_049.ogg
256,192,39825,1,0,0:0:0:0:s_050.ogg
51,192,39900,1,0,0:0:0:0:s_045.ogg
358,192,39900,1,0,0:0:0:0:m_038.ogg
460,192,39900,1,0,0:0:0:0:m_042.ogg
460,192,40050,1,0,0:0:0:0:s_069.ogg
153,192,40200,1,0,0:0:0:0:m_042.ogg
256,192,40200,1,0,0:0:0:0:s_050.ogg
358,192,40200,1,0,0:0:0:0:m_045.ogg
460,192,40350,1,0,0:0:0:0:s_069.ogg
358,192,40500,1,0,0:0:0:0:s_054.ogg
256,192,40575,1,0,0:0:0:0:s_052.ogg
153,192,40650,1,0,0:0:0:0:s_051.ogg
256,192,40725,1,0,0:0:0:0:s_052.ogg
51,192,40800,1,0,0:0:0:0:s_045.ogg
358,192,40800,1,0,0:0:0:0:m_043.ogg
460,192,40800,1,0,0:0:0:0:m_037.ogg
460,192,40950,1,0,0:0:0:0:s_069.ogg
153,192,41100,1,0,0:0:0:0:m_045.ogg
256,192,41100,1,0,0:0:0:0:s_052.ogg
358,192,41100,1,0,0:0:0:0:m_043.ogg
460,192,41250,1,0,0:0:0:0:s_069.ogg
358,192,41400,1,0,0:0:0:0:s_055.ogg
256,192,41475,1,0,0:0:0:0:s_054.ogg
153,192,41550,1,0,0:0:0:0:s_053.ogg
256,192,41625,1,0,0:0:0:0:s_054.ogg
51,192,41700,1,0,0:0:0:0:s_050.ogg
358,192,41700,1,0,0:0:0:0:m_042.ogg
460,192,41700,1,0,0:0:0:0:m_038.ogg
460,192,41850,1,0,0:0:0:0:s_069.ogg
358,192,42000,1,0,0:0:0:0:s_054.ogg
51,192,42150,1,0,0:0:0:0:s_050.ogg
153,192,42150,1,0,0:0:0:0:s_053.ogg
358,192,42300,1,0,0:0:0:0:s_054.ogg
256,192,42450,1,0,0:0:0:0:s_049.ogg
460,192,42450,1,0,0:0:0:0:s_052.ogg
358,192,42600,1,0,0:0:0:0:s_054.ogg
153,192,42750,1,0,0:0:0:0:s_048.ogg
256,192,42750,1,0,0:0:0:0:s_051.ogg
358,192,42900,1,0,0:0:0:0:s_054.ogg
51,192,43050,1,0,0:0:0:0:s_047.ogg
153,192,43050,1,0,0:0:0:0:s_050.ogg
256,192,43200,1,0,0:0:0:0:s_056.ogg
153,192,43275,1,0,0:0:0:0:s_054.ogg
51,192,43350,1,0,0:0:0:0:s_053.ogg
153,192,43425,1,0,0:0:0:0:s_054.ogg
256,192,43500,1,0,0:0:0:0:m_042.ogg
358,192,43500,1,0,0:0:0:0:s_049.ogg
460,192,43500,1,0,0:0:0:0:m_045.ogg
460,192,43650,1,0,0:0:0:0:s_073.ogg
51,192,43800,1,0,0:0:0:0:m_049.ogg
153,192,43800,1,0,0:0:0:0:s_054.ogg
256,192,43800,1,0,0:0:0:0:m_045.ogg
460,192,43950,1,0,0:0:0:0:s_073.ogg
358,192,44100,1,0,0:0:0:0:s_057.ogg
256,192,44175,1,0,0:0:0:0:s_056.ogg
153,192,44250,1,0,0:0:0:0:s_055.ogg
256,192,44325,1,0,0:0:0:0:s_056.ogg
51,192,44400,1,0,0:0:0:0:s_049.ogg
358,192,44400,1,0,0:0:0:0:m_047.ogg
460,192,44400,1,0,0:0:0:0:m_041.ogg
460,192,44550,1,0,0:0:0:0:s_073.ogg
51,192,44700,1,0,0:0:0:0:m_047.ogg
153,192,44700,1,0,0:0:0:0:m_049.ogg
256,192,44700,1,0,0:0:0:0:s_056.ogg
460,192,44850,1,0,0:0:0:0:s_073.ogg
358,192,45000,1,0,0:0:0:0:s_059.ogg
256,192,45075,1,0,0:0:0:0:s_057.ogg
153,192,45150,1,0,0:0:0:0:s_056.ogg
256,192,45225,1,0,0:0:0:0:s_057.ogg
51,192,45300,1,0,0:0:0:0:s_054.ogg
358,192,45300,1,0,0:0:0:0:m_042.ogg
460,192,45300,1,0,0:0:0:0:m_045.ogg
460,192,45450,1,0,0:0:0:0:s_073.ogg
358,192,45600,1,0,0:0:0:0:s_057.ogg
51,192,45750,1,0,0:0:0:0:s_053.ogg
153,192,45750,1,0,0:0:0:0:s_056.ogg
358,192,45900,1,0,0:0:0:0:s_057.ogg
256,192,46050,1,0,0:0:0:0:s_052.ogg
460,192,46050,1,0,0:0:0:0:s_055.ogg
358,192,46200,1,0,0:0:0:0:s_057.ogg
153,192,46350,1,0,0:0:0:0:s_051.ogg
256,192,46350,1,0,0:0:0:0:s_054.ogg
358,192,46500,1,0,0:0:0:0:s_057.ogg
51,192,46650,1,0,0:0:0:0:s_050.ogg
153,192,46650,1,0,0:0:0:0:s_053.ogg
256,192,46800,1,0,0:0:0:0:s_059.ogg
153,192,46875,1,0,0:0:0:0:s_057.ogg
51,192,46950,1,0,0:0:0:0:s_056.ogg
153,192,47025,1,0,0:0:0:0:s_057.ogg
256,192,47100,1,0,0:0:0:0:m_045.ogg
358,192,47100,1,0,0:0:0:0:s_052.ogg
460,192,47100,1,0,0:0:0:0:m_049.ogg
460,192,47250,1,0,0:0:0:0:s_076.ogg
51,192,47400,1,0,0:0:0:0:m_040.ogg
153,192,47400,1,0,0:0:0:0:s_057.ogg
256,192,47400,1,0,0:0:0:0:m_049.ogg
460,192,47550,1,0,0:0:0:0:s_076.ogg
358,192,47700,1,0,0:0:0:0:s_061.ogg
256,192,47775,1,0,0:0:0:0:s_059.ogg
153,192,47850,1,0,0:0:0:0:s_058.ogg
256,192,47925,1,0,0:0:0:0:s_059.ogg
51,192,48000,1,0,0:0:0:0:s_052.ogg
358,192,48000,1,0,0:0:0:0:m_050.ogg
460,192,48000,1,0,0:0:0:0:m_044.ogg
460,192,48150,1,0,0:0:0:0:s_076.ogg
51,192,48300,1,0,0:0:0:0:m_050.ogg
153,192,48300,1,0,0:0:0:0:m_040.ogg
256,192,48300,1,0,0:0:0:0:s_059.ogg
460,192,48450,1,0,0:0:0:0:s_076.ogg
51,192,48600,1,0,0:0:0:0:s_057.ogg
256,192,48600,1,0,0:0:0:0:s_061.ogg
153,192,48750,1,0,0:0:0:0:s_059.ogg
358,192,48750,1,0,0:0:0:0:s_062.ogg
256,192,48900,1,0,0:0:0:0:m_045.ogg
460,192,48900,1,0,0:0:0:0:m_064.ogg
358,192,48950,1,0,0:0:0:0:m_061.ogg
51,192,49050,1,0,0:0:0:0:s_076.ogg
153,192,49050,1,0,0:0:0:0:s_073.ogg
256,192,49200,1,0,0:0:0:0:s_059.ogg
460,192,49200,1,0,0:0:0:0:s_062.ogg
153,192,49350,1,0,0:0:0:0:s_057.ogg
358,192,49350,1,0,0:0:0:0:s_061.ogg
51,192,49500,1,0,0:0:0:0:s_050.ogg
256,192,49500,1,0,0:0:0:0:s_059.ogg
153,192,49650,1,0,0:0:0:0:s_052.ogg
358,192,49650,1,0,0:0:0:0:s_061.ogg
256,192,49800,1,0,0:0:0:0:m_038.ogg
460,192,49800,1,0,0:0:0:0:m_062.ogg
358,192,49850,1,0,0:0:0:0:m_054.ogg
51,192,49950,1,0,0:0:0:0:s_074.ogg
153,192,49950,1,0,0:0:0:0:s_066.ogg
256,192,50100,1,0,0:0:0:0:s_052.ogg
460,192,50100,1,0,0:0:0:0:s_061.ogg
153,192,50250,1,0,0:0:0:0:s_050.ogg
358,192,50250,1,0,0:0:0:0:s_059.ogg
51,192,50400,1,0,0:0:0:0:s_049.ogg
256,192,50400,1,0,0:0:0:0:s_057.ogg
153,192,50550,1,0,0:0:0:0:s_050.ogg
358,192,50550,1,0,0:0:0:0:s_059.ogg
256,192,50700,1,0,0:0:0:0:m_040.ogg
460,192,50700,1,0,0:0:0:0:m_061.ogg
358,192,50750,1,0,0:0:0:0:m_052.ogg
51,192,50850,1,0,0:0:0:0:s_073.ogg
153,192,50850,1,0,0:0:0:0:s_064.ogg
256,192,51000,1,0,0:0:0:0:s_050.ogg
460,192,51000,1,0,0:0:0:0:s_059.ogg
153,192,51150,1,0,0:0:0:0:s_049.ogg
358,192,51150,1,0,0:0:0:0:s_057.ogg
51,192,51300,1,0,0:0:0:0:s_047.ogg
256,192,51300,1,0,0:0:0:0:s_056.ogg
153,192,51450,1,0,0:0:0:0:s_049.ogg
358,192,51450,1,0,0:0:0:0:s_057.ogg
256,192,51600,1,0,0:0:0:0:m_040.ogg
460,192,51600,1,0,0:0:0:0:m_059.ogg
358,192,51650,1,0,0:0:0:0:m_050.ogg
51,192,51750,1,0,0:0:0:0:s_062.ogg
153,192,51750,1,0,0:0:0:0:s_071.ogg
256,192,51900,1,0,0:0:0:0:s_045.ogg
460,192,51900,1,0,0:0:0:0:s_054.ogg
51,192,52050,1,0,0:0:0:0:s_047.ogg
358,192,52050,1,0,0:0:0:0:s_056.ogg
153,192,52200,1,0,0:0:0:0:s_057.ogg
256,192,52200,1,0,0:0:0:0:m_033.ogg
460,192,52200,1,0,0:0:0:0:m_049.ogg
256,192,52350,1,0,0:0:0:0:s_061.ogg
358,192,52350,1,0,0:0:0:0:s_069.ogg
51,192,52500,1,0,0:0:0:0:s_045.ogg
256,192,52650,1,0,0:0:0:0:s_057.ogg
153,192,52800,1,0,0:0:0:0:s_046.ogg
358,192,52950,1,0,0:0:0:0:s_058.ogg
256,192,53100,1,0,0:0:0:0:s_047.ogg
358,192,53250,1,0,0:0:0:0:s_059.ogg
153,192,53400,1,0,0:0:0:0:m_047.ogg
358,192,53400,1,0,0:0:0:0:m_043.ogg
460,192,53400,1,0,0:0:0:0:m_071.ogg
256,192,53550,1,0,0:0:0:0:s_059.ogg
51,192,53700,1,0,0:0:0:0:m_042.ogg
358,192,53700,1,0,0:0:0:0:m_047.ogg
460,192,53700,1,0,0:0:0:0:m_071.ogg
153,192,53850,1,0,0:0:0:0:s_057.ogg
256,192,54000,1,0,0:0:0:0:m_040.ogg
358,192,54000,1,0,0:0:0:0:m_047.ogg
460,192,54000,1,0,0:0:0:0:m_071.ogg
51,192,54150,1,0,0:0:0:0:s_055.ogg
153,192,54300,1,0,0:0:0:0:m_054.ogg
358,192,54300,1,0,0:0:0:0:m_081.ogg
460,192,54450,1,0,0:0:0:0:s_059.ogg
51,192,54600,1,0,0:0:0:0:m_052.ogg
256,192,54600,1,0,0:0:0:0:m_079.ogg
460,192,54750,1,0,0:0:0:0:s_059.ogg
51,192,54900,1,0,0:0:0:0:m_051.ogg
153,192,54900,1,0,0:0:0:0:m_078.ogg
358,192,54900,1,0,0:0:0:0:m_035.ogg
460,192,55050,1,0,0:0:0:0:s_059.ogg
51,192,55200,1,0,0:0:0:0:m_076.ogg
256,192,55200,1,0,0:0:0:0:m_049.ogg
460,192,55350,1,0,0:0:0:0:s_059.ogg
153,192,55500,1,0,0:0:0:0:m_078.ogg
358,192,55500,1,0,0:0:0:0:m_051.ogg
460,192,55650,1,0,0:0:0:0:s_059.ogg
51,192,55800,1,0,0:0:0:0:m_040.ogg
153,192,55800,1,0,0:0:0:0:m_079.ogg
256,192,55800,1,0,0:0:0:0:m_052.ogg
460,192,55950,1,0,0:0:0:0:s_059.ogg
51,192,56100,1,0,0:0:0:0:m_076.ogg
358,192,56100,1,0,0:0:0:0:m_055.ogg
460,192,56250,1,0,0:0:0:0:s_059.ogg
153,192,56400,1,0,0:0:0:0:s_046.ogg
358,192,56550,1,0,0:0:0:0:s_058.ogg
51,192,56700,1,0,0:0:0:0:s_045.ogg
256,192,56850,1,0,0:0:0:0:s_057.ogg
51,192,57000,1,0,0:0:0:0:m_045.ogg
153,192,57000,1,0,0:0:0:0:m_042.ogg
460,192,57000,1,0,0:0:0:0:m_069.ogg
358,192,57150,1,0,0:0:0:0:s_057.ogg
51,192,57300,1,0,0:0:0:0:m_040.ogg
153,192,57300,1,0,0:0:0:0:m_045.ogg
460,192,57300,1,0,0:0:0:0:m_069.ogg
256,192,57450,1,0,0:0:0:0:s_055.ogg
51,192,57600,1,0,0:0:0:0:m_038.ogg
358,192,57600,1,0,0:0:0:0:m_045.ogg
460,192,57600,1,0,0:0:0:0:m_069.ogg
153,192,57750,1,0,0:0:0:0:s_054.ogg
256,192,57900,1,0,0:0:0:0:m_052.ogg
358,192,57900,1,0,0:0:0:0:m_079.ogg
460,192,58050,1,0,0:0:0:0:s_057.ogg
153,192,58200,1,0,0:0:0:0:m_050.ogg
256,192,58200,1,0,0:0:0:0:m_078.ogg
460,192,58350,1,0,0:0:0:0:s_057.ogg
51,192,58500,1,0,0:0:0:0:m_049.ogg
153,192,58500,1,0,0:0:0:0:m_076.ogg
358,192,58500,1,0,0:0:0:0:m_033.ogg
460,192,58650,1,0,0:0:0:0:s_057.ogg
51,192,58800,1,0,0:0:0:0:m_074.ogg
256,192,58800,1,0,0:0:0:0:m_047.ogg
460,192,58950,1,0,0:0:0:0:s_057.ogg
51,192,59100,1,0,0:0:0:0:m_049.ogg
153,192,59100,1,0,0:0:0:0:m_076.ogg
460,192,59250,1,0,0:0:0:0:s_057.ogg
153,192,59400,1,0,0:0:0:0:m_050.ogg
256,192,59400,1,0,0:0:0:0:m_078.ogg
358,192,59400,1,0,0:0:0:0:m_038.ogg
460,192,59550,1,0,0:0:0:0:s_057.ogg
51,192,59700,1,0,0:0:0:0:m_074.ogg
358,192,59700,1,0,0:0:0:0:m_054.ogg
460,192,59850,1,0,0:0:0:0:s_057.ogg
153,192,60000,1,0,0:0:0:0:s_041.ogg
256,192,60150,1,0,0:0:0:0:s_053.ogg
51,192,60300,1,0,0:0:0:0:s_042.ogg
358,192,60450,1,0,0:0:0:0:s_054.ogg
153,192,60600,1,0,0:0:0:0:m_034.ogg
256,192,60600,1,0,0:0:0:0:m_042.ogg
460,192,60600,1,0,0:0:0:0:s_066.ogg
358,192,60750,1,0,0:0:0:0:s_054.ogg
51,192,60900,1,0,0:0:0:0:m_044.ogg
153,192,60900,1,0,0:0:0:0:m_035.ogg
460,192,60900,1,0,0:0:0:0:s_066.ogg
256,192,61050,1,0,0:0:0:0:s_053.ogg
51,192,61200,1,0,0:0:0:0:m_037.ogg
358,192,61200,1,0,0:0:0:0:m_046.ogg
460,192,61200,1,0,0:0:0:0:s_066.ogg
256,192,61350,1,0,0:0:0:0:s_053.ogg
51,192,61500,1,0,0:0:0:0:m_046.ogg
358,192,61500,1,0,0:0:0:0:m_037.ogg
460,192,61500,1,0,0:0:0:0:s_066.ogg
153,192,61650,1,0,0:0:0:0:s_052.ogg
256,192,61800,1,0,0:0:0:0:m_047.ogg
358,192,61800,1,0,0:0:0:0:m_038.ogg
460,192,61800,1,0,0:0:0:0:s_066.ogg
51,192,61950,1,0,0:0:0:0:s_050.ogg
153,192,62100,1,0,0:0:0:0:s_055.ogg
358,192,62100,1,0,0:0:0:0:s_067.ogg
460,192,62100,1,0,0:0:0:0:m_040.ogg
256,192,62250,1,0,0:0:0:0:s_066.ogg
460,192,62250,1,0,0:0:0:0:s_061.ogg
153,192,62400,1,0,0:0:0:0:s_064.ogg
358,192,62400,1,0,0:0:0:0:s_052.ogg
51,192,62550,1,0,0:0:0:0:s_062.ogg
460,192,62550,1,0,0:0:0:0:s_055.ogg
153,192,62700,1,0,0:0:0:0:m_044.ogg
256,192,62700,1,0,0:0:0:0:s_061.ogg
358,192,62700,1,0,0:0:0:0:s_050.ogg
153,192,62850,1,0,0:0:0:0:s_059.ogg
460,192,62850,1,0,0:0:0:0:s_056.ogg
51,192,63000,1,0,0:0:0:0:s_058.ogg
256,192,63000,1,0,0:0:0:0:m_046.ogg
358,192,63000,1,0,0:0:0:0:s_049.ogg
153,192,63150,1,0,0:0:0:0:s_061.ogg
460,192,63150,1,0,0:0:0:0:s_054.ogg
256,192,63300,1,0,0:0:0:0:s_062.ogg
358,192,63300,1,0,0:0:0:0:s_058.ogg
153,192,63450,1,0,0:0:0:0:s_061.ogg
460,192,63450,1,0,0:0:0:0:s_054.ogg
51,192,63600,1,0,0:0:0:0:s_053.ogg
256,192,63750,1,0,0:0:0:0:s_065.ogg
153,192,63900,1,0,0:0:0:0:s_054.ogg
358,192,64050,1,0,0:0:0:0:s_066.ogg
51,192,64200,1,0,0:0:0:0:m_046.ogg
256,192,64200,1,0,0:0:0:0:m_054.ogg
460,192,64200,1,0,0:0:0:0:s_078.ogg
358,192,64350,1,0,0:0:0:0:s_066.ogg
51,192,64500,1,0,0:0:0:0:m_047.ogg
153,192,64500,1,0,0:0:0:0:m_056.ogg
460,192,64500,1,0,0:0:0:0:s_078.ogg
256,192,64650,1,0,0:0:0:0:s_065.ogg
51,192,64800,1,0,0:0:0:0:m_049.ogg
358,192,64800,1,0,0:0:0:0:m_058.ogg
460,192,64800,1,0,0:0:0:0:s_078.ogg
256,192,64950,1,0,0:0:0:0:s_065.ogg
51,192,65100,1,0,0:0:0:0:m_058.ogg
358,192,65100,1,0,0:0:0:0:m_049.ogg
460,192,65100,1,0,0:0:0:0:s_078.ogg
153,192,65250,1,0,0:0:0:0:s_064.ogg
256,192,65400,1,0,0:0:0:0:m_059.ogg
358,192,65400,1,0,0:0:0:0:m_050.ogg
460,192,65400,1,0,0:0:0:0:s_078.ogg
51,192,65550,1,0,0:0:0:0:s_062.ogg
153,192,65700,1,0,0:0:0:0:s_067.ogg
358,192,65700,1,0,0:0:0:0:s_079.ogg
460,192,65700,1,0,0:0:0:0:m_052.ogg
51,192,65850,1,0,0:0:0:0:s_072.ogg
256,192,65850,1,0,0:0:0:0:s_078.ogg
153,192,66000,1,0,0:0:0:0:s_064.ogg
460,192,66000,1,0,0:0:0:0:s_076.ogg
51,192,66150,1,0,0:0:0:0:s_067.ogg
358,192,66150,1,0,0:0:0:0:s_074.ogg
153,192,66300,1,0,0:0:0:0:s_062.ogg
256,192,66300,1,0,0:0:0:0:s_073.ogg
460,192,66300,1,0,0:0:0:0:m_053.ogg
51,192,66450,1,0,0:0:0:0:s_068.ogg
460,192,66450,1,0,0:0:0:0:s_071.ogg
153,192,66600,1,0,0:0:0:0:s_061.ogg
256,192,66600,1,0,0:0:0:0:m_054.ogg
358,192,66600,1,0,0:0:0:0:s_070.ogg
51,192,66750,1,0,0:0:0:0:s_066.ogg
460,192,66750,1,0,0:0:0:0:s_073.ogg
153,192,66900,1,0,0:0:0:0:s_053.ogg
358,192,67050,1,0,0:0:0:0:s_065.ogg
256,192,67200,1,0,0:0:0:0:s_054.ogg
153,192,67350,1,0,0:0:0:0:s_066.ogg
358,192,67500,1,0,0:0:0:0:s_078.ogg
153,192,67650,1,0,0:0:0:0:s_066.ogg
51,192,67800,1,0,0:0:0:0:s_054.ogg
256,192,67950,1,0,0:0:0:0:s_066.ogg
153,192,68100,1,0,0:0:0:0:s_055.ogg
358,192,68250,1,0,0:0:0:0:s_067.ogg
460,192,68400,1,0,0:0:0:0:s_078.ogg
256,192,68550,1,0,0:0:0:0:s_066.ogg
153,192,68700,1,0,0:0:0:0:s_055.ogg
358,192,68850,1,0,0:0:0:0:s_067.ogg
256,192,69000,1,0,0:0:0:0:s_056.ogg
51,192,69150,1,0,0:0:0:0:s_068.ogg
460,192,69300,1,0,0:0:0:0:s_078.ogg
256,192,69450,1,0,0:0:0:0:s_066.ogg
51,192,69600,1,0,0:0:0:0:s_057.ogg
153,192,69750,1,0,0:0:0:0:s_069.ogg
460,192,69900,1,0,0:0:0:0:s_078.ogg
51,192,70050,1,0,0:0:0:0:s_066.ogg
153,192,70200,1,0,0:0:0:0:s_058.ogg
256,192,70350,1,0,0:0:0:0:s_070.ogg
460,192,70500,1,0,0:0:0:0:s_078.ogg
51,192,70650,1,0,0:0:0:0:s_066.ogg
153,192,70800,1,0,0:0:0:0:s_059.ogg
358,192,70950,1,0,0:0:0:0:s_071.ogg
460,192,71100,1,0,0:0:0:0:s_078.ogg
51,192,71250,1,0,0:0:0:0:s_060.ogg
460,192,71400,1,0,0:0:0:0:s_078.ogg
153,192,71550,1,0,0:0:0:0:s_061.ogg
460,192,71700,1,0,0:0:0:0:s_078.ogg
256,192,71850,1,0,0:0:0:0:s_062.ogg
460,192,72000,1,0,0:0:0:0:s_078.ogg
51,192,72150,1,0,0:0:0:0:s_063.ogg
460,192,72300,1,0,0:0:0:0:s_078.ogg
153,192,72450,1,0,0:0:0:0:s_064.ogg
460,192,72600,1,0,0:0:0:0:s_078.ogg
256,192,72750,1,0,0:0:0:0:s_065.ogg
460,192,72900,1,0,0:0:0:0:s_078.ogg
358,192,73050,1,0,0:0:0:0:s_066.ogg
460,192,73200,1,0,0:0:0:0:s_078.ogg
358,192,73350,1,0,0:0:0:0:s_066.ogg
460,192,73500,1,0,0:0:0:0:s_078.ogg
358,192,73650,1,0,0:0:0:0:s_066.ogg
460,192,73800,1,0,0:0:0:0:s_078.ogg
358,192,73950,1,0,0:0:0:0:s_066.ogg
460,192,74100,1,0,0:0:0:0:s_078.ogg
358,192,74250,1,0,0:0:0:0:s_066.ogg
460,192,74400,1,0,0:0:0:0:s_078.ogg
358,192,74550,1,0,0:0:0:0:s_066.ogg
460,192,74700,1,0,0:0:0:0:s_078.ogg
358,192,74850,1,0,0:0:0:0:s_066.ogg
51,192,75000,128,0,75450:0:0:0:0:m_054.ogg
358,192,75150,1,0,0:0:0:0:s_066.ogg
256,192,75300,1,0,0:0:0:0:s_078.ogg
358,192,75450,1,0,0:0:0:0:s_066.ogg
51,192,75600,1,0,0:0:0:0:s_054.ogg
358,192,75750,1,0,0:0:0:0:s_066.ogg
256,192,75900,1,0,0:0:0:0:s_078.ogg
358,192,76050,1,0,0:0:0:0:s_066.ogg
153,192,76200,1,0,0:0:0:0:m_042.ogg
460,192,76200,1,0,0:0:0:0:s_054.ogg
358,192,76350,1,0,0:0:0:0:s_066.ogg
256,192,76500,1,0,0:0:0:0:s_078.ogg
460,192,76500,1,0,0:0:0:0:s_054.ogg
358,192,76650,1,0,0:0:0:0:s_066.ogg
460,192,76800,1,0,0:0:0:0:m_054.ogg
358,192,76950,1,0,0:0:0:0:s_066.ogg
153,192,77100,1,0,0:0:0:0:s_052.ogg
256,192,77100,1,0,0:0:0:0:s_078.ogg
358,192,77250,1,0,0:0:0:0:s_066.ogg
51,192,77400,1,0,0:0:0:0:m_035.ogg
460,192,77400,1,0,0:0:0:0:s_054.ogg
256,192,77450,1,0,0:0:0:0:s_050.ogg
358,192,77550,1,0,0:0:0:0:s_066.ogg
51,192,77700,1,0,0:0:0:0:s_078.ogg
256,192,77700,1,0,0:0:0:0:s_050.ogg
358,192,77850,1,0,0:0:0:0:s_066.ogg
153,192,78000,1,0,0:0:0:0:s_049.ogg
460,192,78000,1,0,0:0:0:0:s_054.ogg
358,192,78150,1,0,0:0:0:0:s_066.ogg
51,192,78300,1,0,0:0:0:0:m_038.ogg
460,192,78300,1,0,0:0:0:0:s_078.ogg
256,192,78350,1,0,0:0:0:0:s_047.ogg
358,192,78450,1,0,0:0:0:0:s_066.ogg
153,192,78600,1,0,0:0:0:0:s_046.ogg
460,192,78600,1,0,0:0:0:0:s_054.ogg
358,192,78750,1,0,0:0:0:0:s_066.ogg
51,192,78900,1,0,0:0:0:0:s_078.ogg
256,192,78900,1,0,0:0:0:0:s_047.ogg
358,192,79050,1,0,0:0:0:0:s_066.ogg
51,192,79200,1,0,0:0:0:0:m_046.ogg
256,192,79200,1,0,0:0:0:0:s_054.ogg
153,192,79250,1,0,0:0:0:0:s_049.ogg
460,192,79350,1,0,0:0:0:0:s_066.ogg
153,192,79500,1,0,0:0:0:0:s_078.ogg
256,192,79500,1,0,0:0:0:0:s_042.ogg
460,192,79650,1,0,0:0:0:0:s_066.ogg
256,192,79800,1,0,0:0:0:0:s_042.ogg
358,192,79800,1,0,0:0:0:0:s_054.ogg
460,192,79950,1,0,0:0:0:0:s_066.ogg
51,192,80100,1,0,0:0:0:0:m_034.ogg
153,192,80100,1,0,0:0:0:0:s_078.ogg
358,192,80150,1,0,0:0:0:0:s_043.ogg
460,192,80250,1,0,0:0:0:0:s_066.ogg
51,192,80400,1,0,0:0:0:0:s_054.ogg
256,192,80400,1,0,0:0:0:0:s_042.ogg
460,192,80550,1,0,0:0:0:0:s_066.ogg
153,192,80700,1,0,0:0:0:0:s_040.ogg
358,192,80700,1,0,0:0:0:0:s_078.ogg
460,192,80850,1,0,0:0:0:0:s_066.ogg
51,192,81000,1,0,0:0:0:0:m_035.ogg
358,192,81000,1,0,0:0:0:0:s_054.ogg
153,192,81050,1,0,0:0:0:0:s_038.ogg
460,192,81150,1,0,0:0:0:0:s_066.ogg
153,192,81300,1,0,0:0:0:0:s_038.ogg
256,192,81300,1,0,0:0:0:0:s_078.ogg
460,192,81450,1,0,0:0:0:0:s_066.ogg
51,192,81600,1,0,0:0:0:0:s_054.ogg
358,192,81600,1,0,0:0:0:0:s_037.ogg
460,192,81750,1,0,0:0:0:0:s_066.ogg
51,192,81900,1,0,0:0:0:0:m_031.ogg
153,192,81900,1,0,0:0:0:0:s_078.ogg
256,192,81950,1,0,0:0:0:0:s_035.ogg
460,192,82050,1,0,0:0:0:0:s_066.ogg
153,192,82200,1,0,0:0:0:0:s_034.ogg
358,192,82200,1,0,0:0:0:0:s_054.ogg
460,192,82350,1,0,0:0:0:0:s_066.ogg
51,192,82500,1,0,0:0:0:0:s_078.ogg
256,192,82500,1,0,0:0:0:0:s_035.ogg
460,192,82650,1,0,0:0:0:0:s_066.ogg
51,192,82800,1,0,0:0:0:0:m_037.ogg
153,192,82800,1,0,0:0:0:0:s_054.ogg
358,192,82800,1,0,0:0:0:0:m_034.ogg
460,192,82950,1,0,0:0:0:0:s_066.ogg
51,192,83100,1,0,0:0:0:0:s_078.ogg
256,192,83100,1,0,0:0:0:0:m_030.ogg
460,192,83250,1,0,0:0:0:0:s_066.ogg
153,192,83400,1,0,0:0:0:0:s_054.ogg
460,192,83550,1,0,0:0:0:0:s_066.ogg
256,192,83625,1,0,0:0:0:0:m_042.ogg
51,192,83700,1,0,0:0:0:0:s_078.ogg
358,192,83700,1,0,0:0:0:0:s_054.ogg
460,192,83850,1,0,0:0:0:0:s_066.ogg
358,192,84000,1,0,0:0:0:0:s_054.ogg
460,192,84150,1,0,0:0:0:0:s_066.ogg
51,192,84300,1,0,0:0:0:0:s_078.ogg
256,192,84300,1,0,0:0:0:0:s_052.ogg
460,192,84450,1,0,0:0:0:0:s_066.ogg
51,192,84600,1,0,0:0:0:0:m_035.ogg
358,192,84600,1,0,0:0:0:0:s_054.ogg
256,192,84650,1,0,0:0:0:0:s_050.ogg
460,192,84750,1,0,0:0:0:0:s_066.ogg
153,192,84900,1,0,0:0:0:0:s_078.ogg
256,192,84900,1,0,0:0:0:0:s_050.ogg
460,192,85050,1,0,0:0:0:0:s_066.ogg
153,192,85200,1,0,0:0:0:0:s_049.ogg
358,192,85200,1,0,0:0:0:0:s_054.ogg
460,192,85350,1,0,0:0:0:0:s_066.ogg
51,192,85500,1,0,0:0:0:0:m_038.ogg
256,192,85500,1,0,0:0:0:0:s_078.ogg
358,192,85550,1,0,0:0:0:0:s_047.ogg
460,192,85650,1,0,0:0:0:0:s_066.ogg
153,192,85800,1,0,0:0:0:0:s_054.ogg
256,192,85800,1,0,0:0:0:0:s_046.ogg
460,192,85950,1,0,0:0:0:0:s_066.ogg
51,192,86100,1,0,0:0:0:0:s_078.ogg
358,192,86100,1,0,0:0:0:0:s_047.ogg
460,192,86250,1,0,0:0:0:0:s_066.ogg
153,192,86400,1,0,0:0:0:0:s_054.ogg
256,192,86400,1,0,0:0:0:0:m_046.ogg
51,192,86450,1,0,0:0:0:0:s_049.ogg
460,192,86550,1,0,0:0:0:0:s_066.ogg
153,192,86700,1,0,0:0:0:0:m_042.ogg
358,192,86700,1,0,0:0:0:0:s_078.ogg
460,192,86850,1,0,0:0:0:0:s_066.ogg
256,192,87000,1,0,0:0:0:0:m_054.ogg
460,192,87150,1,0,0:0:0:0:s_066.ogg
153,192,87300,1,0,0:0:0:0:m_047.ogg
256,192,87300,1,0,0:0:0:0:m_055.ogg
358,192,87300,1,0,0:0:0:0:m_040.ogg
460,192,87450,1,0,0:0:0:0:s_066.ogg
51,192,87600,1,0,0:0:0:0:m_047.ogg
153,192,87600,1,0,0:0:0:0:m_054.ogg
358,192,87600,1,0,0:0:0:0:m_042.ogg
460,192,87750,1,0,0:0:0:0:s_066.ogg
51,192,87900,1,0,0:0:0:0:m_047.ogg
153,192,87900,1,0,0:0:0:0:m_052.ogg
256,192,87900,1,0,0:0:0:0:m_043.ogg
460,192,88050,1,0,0:0:0:0:s_066.ogg
51,192,88200,1,0,0:0:0:0:m_050.ogg
153,192,88200,1,0,0:0:0:0:m_054.ogg
358,192,88200,1,0,0:0:0:0:m_042.ogg
256,192,88350,1,0,0:0:0:0:s_066.ogg
51,192,88500,1,0,0:0:0:0:s_059.ogg
153,192,88650,1,0,0:0:0:0:s_062.ogg
256,192,88800,1,0,0:0:0:0:m_066.ogg
460,192,88950,1,0,0:0:0:0:s_078.ogg
51,192,89100,1,0,0:0:0:0:m_052.ogg
153,192,89100,1,0,0:0:0:0:m_054.ogg
358,192,89100,1,0,0:0:0:0:m_042.ogg
256,192,89250,1,0,0:0:0:0:s_066.ogg
51,192,89400,1,0,0:0:0:0:s_058.ogg
153,192,89550,1,0,0:0:0:0:s_061.ogg
256,192,89700,1,0,0:0:0:0:m_066.ogg
460,192,89850,1,0,0:0:0:0:s_078.ogg
51,192,90000,1,0,0:0:0:0:m_035.ogg
153,192,90150,1,0,0:0:0:0:m_042.ogg
256,192,90300,1,0,0:0:0:0:m_050.ogg
460,192,90450,1,0,0:0:0:0:s_059.ogg
153,192,90600,1,0,0:0:0:0:s_054.ogg
358,192,90700,1,0,0:0:0:0:s_066.ogg
358,192,90800,1,0,0:0:0:0:s_066.ogg
358,192,90900,1,0,0:0:0:0:s_066.ogg
358,192,91000,1,0,0:0:0:0:s_066.ogg
460,192,91100,1,0,0:0:0:0:s_078.ogg
358,192,91200,1,0,0:0:0:0:s_066.ogg
358,192,91300,1,0,0:0:0:0:s_066.ogg
460,192,91400,1,0,0:0:0:0:s_078.ogg
256,192,91500,1,0,0:0:0:0:s_064.ogg
256,192,91600,1,0,0:0:0:0:s_064.ogg
358,192,91700,1,0,0:0:0:0:s_076.ogg
51,192,91800,1,0,0:0:0:0:m_023.ogg
153,192,91800,1,0,0:0:0:0:s_062.ogg
153,192,91900,1,0,0:0:0:0:s_062.ogg
256,192,92000,1,0,0:0:0:0:s_074.ogg
153,192,92100,1,0,0:0:0:0:s_062.ogg
358,192,92100,1,0,0:0:0:0:m_038.ogg
460,192,92100,1,0,0:0:0:0:m_030.ogg
153,192,92200,1,0,0:0:0:0:s_062.ogg
256,192,92300,1,0,0:0:0:0:s_074.ogg
51,192,92400,1,0,0:0:0:0:s_061.ogg
358,192,92400,1,0,0:0:0:0:m_038.ogg
460,192,92400,1,0,0:0:0:0:m_030.ogg
51,192,92500,1,0,0:0:0:0:s_061.ogg
153,192,92600,1,0,0:0:0:0:s_073.ogg
358,192,92700,1,0,0:0:0:0:m_026.ogg
460,192,92700,1,0,0:0:0:0:s_059.ogg
460,192,92800,1,0,0:0:0:0:s_059.ogg
256,192,92900,1,0,0:0:0:0:s_071.ogg
51,192,93000,1,0,0:0:0:0:m_042.ogg
153,192,93000,1,0,0:0:0:0:m_035.ogg
358,192,93000,1,0,0:0:0:0:s_058.ogg
358,192,93100,1,0,0:0:0:0:s_058.ogg
51,192,93200,1,0,0:0:0:0:s_070.ogg
153,192,93300,1,0,0:0:0:0:m_042.ogg
358,192,93300,1,0,0:0:0:0:m_035.ogg
460,192,93300,1,0,0:0:0:0:s_059.ogg
460,192,93400,1,0,0:0:0:0:s_059.ogg
256,192,93500,1,0,0:0:0:0:s_071.ogg
51,192,93600,1,0,0:0:0:0:m_030.ogg
153,192,93600,1,0,0:0:0:0:s_061.ogg
153,192,93700,1,0,0:0:0:0:s_061.ogg
358,192,93800,1,0,0:0:0:0:s_073.ogg
51,192,93900,1,0,0:0:0:0:s_054.ogg
153,192,93900,1,0,0:0:0:0:m_046.ogg
460,192,93900,1,0,0:0:0:0:m_037.ogg
51,192,94000,1,0,0:0:0:0:s_054.ogg
256,192,94100,1,0,0:0:0:0:s_066.ogg
51,192,94200,1,0,0:0:0:0:s_054.ogg
358,192,94200,1,0,0:0:0:0:m_037.ogg
460,192,94200,1,0,0:0:0:0:m_046.ogg
51,192,94300,1,0,0:0:0:0:s_054.ogg
256,192,94400,1,0,0:0:0:0:s_066.ogg
153,192,94500,1,0,0:0:0:0:m_034.ogg
358,192,94500,1,0,0:0:0:0:s_055.ogg
358,192,94600,1,0,0:0:0:0:s_055.ogg
460,192,94700,1,0,0:0:0:0:s_067.ogg
51,192,94800,1,0,0:0:0:0:m_049.ogg
153,192,94800,1,0,0:0:0:0:m_042.ogg
256,192,94800,1,0,0:0:0:0:s_054.ogg
256,192,94900,1,0,0:0:0:0:s_054.ogg
358,192,95000,1,0,0:0:0:0:s_066.ogg
51,192,95100,1,0,0:0:0:0:m_042.ogg
153,192,95100,1,0,0:0:0:0:s_052.ogg
460,192,95100,1,0,0:0:0:0:m_049.ogg
153,192,95200,1,0,0:0:0:0:s_052.ogg
256,192,95300,1,0,0:0:0:0:s_064.ogg
51,192,95400,1,0,0:0:0:0:s_050.ogg
460,192,95400,1,0,0:0:0:0:m_035.ogg
51,192,95500,1,0,0:0:0:0:s_050.ogg
153,192,95600,1,0,0:0:0:0:s_062.ogg
51,192,95700,1,0,0:0:0:0:s_050.ogg
256,192,95700,1,0,0:0:0:0:m_047.ogg
358,192,95700,1,0,0:0:0:0:m_042.ogg
51,192,95800,1,0,0:0:0:0:s_050.ogg
153,192,95900,1,0,0:0:0:0:s_062.ogg
256,192,96000,1,0,0:0:0:0:m_042.ogg
358,192,96000,1,0,0:0:0:0:m_047.ogg
460,192,96000,1,0,0:0:0:0:s_049.ogg
460,192,96100,1,0,0:0:0:0:s_049.ogg
51,192,96200,1,0,0:0:0:0:s_061.ogg
256,192,96300,1,0,0:0:0:0:m_038.ogg
358,192,96300,1,0,0:0:0:0:s_047.ogg
358,192,96400,1,0,0:0:0:0:s_047.ogg
153,192,96500,1,0,0:0:0:0:s_059.ogg
256,192,96600,1,0,0:0:0:0:s_046.ogg
358,192,96600,1,0,0:0:0:0:m_044.ogg
460,192,96600,1,0,0:0:0:0:m_041.ogg
256,192,96700,1,0,0:0:0:0:s_046.ogg
51,192,96800,1,0,0:0:0:0:s_058.ogg
256,192,96900,1,0,0:0:0:0:m_041.ogg
358,192,96900,1,0,0:0:0:0:s_047.ogg
460,192,96900,1,0,0:0:0:0:m_044.ogg
358,192,97000,1,0,0:0:0:0:s_047.ogg
153,192,97100,1,0,0:0:0:0:s_059.ogg
51,192,97200,1,0,0:0:0:0:m_030.ogg
460,192,97200,1,0,0:0:0:0:s_049.ogg
460,192,97300,1,0,0:0:0:0:s_049.ogg
256,192,97400,1,0,0:0:0:0:s_061.ogg
51,192,97500,1,0,0:0:0:0:m_037.ogg
358,192,97500,1,0,0:0:0:0:s_042.ogg
460,192,97500,1,0,0:0:0:0:m_046.ogg
358,192,97600,1,0,0:0:0:0:s_042.ogg
153,192,97700,1,0,0:0:0:0:s_054.ogg
153,192,97800,1,0,0:0:0:0:s_054.ogg
153,192,97900,1,0,0:0:0:0:s_054.ogg
153,192,98000,1,0,0:0:0:0:s_054.ogg
256,192,98100,1,0,0:0:0:0:s_066.ogg
256,192,98200,1,0,0:0:0:0:s_066.ogg
460,192,98300,1,0,0:0:0:0:s_078.ogg
256,192,98400,1,0,0:0:0:0:s_066.ogg
256,192,98500,1,0,0:0:0:0:s_066.ogg
460,192,98600,1,0,0:0:0:0:s_078.ogg
153,192,98700,1,0,0:0:0:0:s_064.ogg
153,192,98800,1,0,0:0:0:0:s_064.ogg
358,192,98900,1,0,0:0:0:0:s_076.ogg
51,192,99000,1,0,0:0:0:0:s_062.ogg
460,192,99000,1,0,0:0:0:0:m_023.ogg
51,192,99100,1,0,0:0:0:0:s_062.ogg
256,192,99200,1,0,0:0:0:0:s_074.ogg
51,192,99300,1,0,0:0:0:0:s_062.ogg
153,192,99300,1,0,0:0:0:0:m_038.ogg
358,192,99300,1,0,0:0:0:0:m_030.ogg
51,192,99400,1,0,0:0:0:0:s_062.ogg
256,192,99500,1,0,0:0:0:0:s_074.ogg
153,192,99600,1,0,0:0:0:0:m_038.ogg
358,192,99600,1,0,0:0:0:0:m_030.ogg
460,192,99600,1,0,0:0:0:0:s_061.ogg
460,192,99700,1,0,0:0:0:0:s_061.ogg
153,192,99800,1,0,0:0:0:0:s_073.ogg
256,192,99900,1,0,0:0:0:0:m_026.ogg
358,192,99900,1,0,0:0:0:0:s_059.ogg
358,192,100000,1,0,0:0:0:0:s_059.ogg
51,192,100100,1,0,0:0:0:0:s_071.ogg
153,192,100200,1,0,0:0:0:0:m_042.ogg
256,192,100200,1,0,0:0:0:0:s_058.ogg
460,192,100200,1,0,0:0:0:0:m_035.ogg
256,192,100300,1,0,0:0:0:0:s_058.ogg
460,192,100400,1,0,0:0:0:0:s_070.ogg
153,192,100500,1,0,0:0:0:0:m_035.ogg
256,192,100500,1,0,0:0:0:0:m_042.ogg
358,192,100500,1,0,0:0:0:0:s_059.ogg
358,192,100600,1,0,0:0:0:0:s_059.ogg
51,192,100700,1,0,0:0:0:0:s_071.ogg
153,192,100800,1,0,0:0:0:0:m_030.ogg
460,192,100800,1,0,0:0:0:0:s_061.ogg
460,192,100900,1,0,0:0:0:0:s_061.ogg
358,192,101000,1,0,0:0:0:0:s_073.ogg
51,192,101100,1,0,0:0:0:0:m_046.ogg
256,192,101100,1,0,0:0:0:0:s_054.ogg
460,192,101100,1,0,0:0:0:0:m_037.ogg
256,192,101200,1,0,0:0:0:0:s_054.ogg
153,192,101300,1,0,0:0:0:0:s_066.ogg
256,192,101400,1,0,0:0:0:0:s_054.ogg
358,192,101400,1,0,0:0:0:0:m_049.ogg
460,192,101400,1,0,0:0:0:0:m_046.ogg
256,192,101500,1,0,0:0:0:0:s_054.ogg
153,192,101600,1,0,0:0:0:0:s_066.ogg
51,192,101700,1,0,0:0:0:0:m_050.ogg
256,192,101700,1,0,0:0:0:0:m_047.ogg
358,192,101700,1,0,0:0:0:0:s_055.ogg
358,192,101800,1,0,0:0:0:0:s_055.ogg
460,192,101900,1,0,0:0:0:0:s_067.ogg
51,192,102000,1,0,0:0:0:0:m_045.ogg
153,192,102000,1,0,0:0:0:0:m_049.ogg
256,192,102000,1,0,0:0:0:0:s_054.ogg
256,192,102100,1,0,0:0:0:0:s_054.ogg
358,192,102200,1,0,0:0:0:0:s_066.ogg
51,192,102300,1,0,0:0:0:0:m_047.ogg
153,192,102300,1,0,0:0:0:0:s_052.ogg
460,192,102300,1,0,0:0:0:0:m_043.ogg
153,192,102400,1,0,0:0:0:0:s_052.ogg
256,192,102500,1,0,0:0:0:0:s_064.ogg
51,192,102600,1,0,0:0:0:0:s_054.ogg
358,192,102600,1,0,0:0:0:0:m_042.ogg
153,192,102650,1,0,0:0:0:0:m_047.ogg
51,192,102700,1,0,0:0:0:0:s_054.ogg
256,192,102700,1,0,0:0:0:0:m_050.ogg
460,192,102800,1,0,0:0:0:0:s_066.ogg
153,192,102900,1,0,0:0:0:0:s_055.ogg
153,192,103000,1,0,0:0:0:0:s_055.ogg
460,192,103100,1,0,0:0:0:0:s_066.ogg
256,192,103200,1,0,0:0:0:0:s_056.ogg
256,192,103300,1,0,0:0:0:0:s_056.ogg
460,192,103400,1,0,0:0:0:0:s_066.ogg
358,192,103500,1,0,0:0:0:0:s_057.ogg
358,192,103600,1,0,0:0:0:0:s_057.ogg
460,192,103700,1,0,0:0:0:0:s_066.ogg
51,192,103800,1,0,0:0:0:0:s_058.ogg
51,192,103900,1,0,0:0:0:0:s_058.ogg
460,192,104000,1,0,0:0:0:0:s_066.ogg
153,192,104100,1,0,0:0:0:0:s_059.ogg
153,192,104200,1,0,0:0:0:0:s_059.ogg
460,192,104300,1,0,0:0:0:0:s_066.ogg
51,192,104400,1,0,0:0:0:0:l_030.ogg
256,192,104400,1,0,0:0:0:0:s_060.ogg
358,192,104400,1,0,0:0:0:0:l_040.ogg
256,192,104500,1,0,0:0:0:0:s_060.ogg
460,192,104600,1,0,0:0:0:0:s_066.ogg
358,192,104700,1,0,0:0:0:0:s_061.ogg
358,192,104800,1,0,0:0:0:0:s_061.ogg
460,192,104900,1,0,0:0:0:0:s_066.ogg
51,192,105000,1,0,0:0:0:0:s_062.ogg
51,192,105100,1,0,0:0:0:0:s_062.ogg
460,192,105200,1,0,0:0:0:0:s_066.ogg
153,192,105300,1,0,0:0:0:0:s_063.ogg
153,192,105400,1,0,0:0:0:0:s_063.ogg
460,192,105500,1,0,0:0:0:0:s_066.ogg
256,192,105600,1,0,0:0:0:0:s_064.ogg
256,192,105700,1,0,0:0:0:0:s_064.ogg
460,192,105800,1,0,0:0:0:0:s_066.ogg
358,192,105900,1,0,0:0:0:0:s_065.ogg
358,192,106000,1,0,0:0:0:0:s_065.ogg
460,192,106100,1,0,0:0:0:0:s_066.ogg
51,192,106200,1,0,0:0:0:0:l_023.ogg
460,192,106200,1,0,0:0:0:0:s_066.ogg
153,192,106250,1,0,0:0:0:0:l_030.ogg
256,192,106300,1,0,0:0:0:0:l_038.ogg
358,192,106300,1,0,0:0:0:0:l_047.ogg
460,192,106300,1,0,0:0:0:0:s_066.ogg
51,192,106400,1,0,0:0:0:0:s_078.ogg
153,192,106500,1,0,0:0:0:0:s_067.ogg
153,192,106600,1,0,0:0:0:0:s_067.ogg
51,192,106700,1,0,0:0:0:0:s_078.ogg
256,192,106800,1,0,0:0:0:0:s_068.ogg
256,192,106900,1,0,0:0:0:0:s_068.ogg
51,192,107000,1,0,0:0:0:0:s_078.ogg
358,192,107100,1,0,0:0:0:0:s_069.ogg
358,192,107200,1,0,0:0:0:0:s_069.ogg
51,192,107300,1,0,0:0:0:0:s_078.ogg
460,192,107400,1,0,0:0:0:0:s_070.ogg
460,192,107500,1,0,0:0:0:0:s_070.ogg
51,192,107600,1,0,0:0:0:0:s_078.ogg
256,192,107700,1,0,0:0:0:0:s_071.ogg
256,192,107800,1,0,0:0:0:0:s_071.ogg
51,192,107900,1,0,0:0:0:0:s_078.ogg
256,192,108900,1,0,0:0:0:0:m_050.ogg
460,192,108900,1,0,0:0:0:0:s_047.ogg
153,192,109050,1,0,0:0:0:0:s_046.ogg
358,192,109050,1,0,0:0:0:0:s_049.ogg
51,192,109200,1,0,0:0:0:0:s_045.ogg
256,192,109200,1,0,0:0:0:0:s_048.ogg
460,192,109200,1,0,0:0:0:0:s_050.ogg
153,192,109350,1,0,0:0:0:0:s_044.ogg
358,192,109350,1,0,0:0:0:0:s_047.ogg
460,192,109350,1,0,0:0:0:0:s_050.ogg
51,192,109500,1,0,0:0:0:0:s_043.ogg
256,192,109500,1,0,0:0:0:0:s_046.ogg
460,192,109500,1,0,0:0:0:0:s_050.ogg
153,192,109650,1,0,0:0:0:0:s_042.ogg
358,192,109650,1,0,0:0:0:0:s_045.ogg
460,192,109650,1,0,0:0:0:0:s_050.ogg
51,192,109800,1,0,0:0:0:0:s_041.ogg
256,192,109800,1,0,0:0:0:0:s_044.ogg
460,192,109800,1,0,0:0:0:0:s_050.ogg
51,192,109950,1,0,0:0:0:0:s_040.ogg
153,192,109950,1,0,0:0:0:0:s_043.ogg
460,192,109950,1,0,0:0:0:0:s_050.ogg
358,192,110100,1,0,0:0:0:0:s_052.ogg
256,192,110175,1,0,0:0:0:0:s_050.ogg
153,192,110250,1,0,0:0:0:0:s_049.ogg
256,192,110325,1,0,0:0:0:0:s_050.ogg
51,192,110400,1,0,0:0:0:0:s_042.ogg
358,192,110400,1,0,0:0:0:0:s_038.ogg
460,192,110400,1,0,0:0:0:0:s_045.ogg
153,192,110475,1,0,0:0:0:0:s_057.ogg
358,192,110550,1,0,0:0:0:0:s_057.ogg
153,192,110625,1,0,0:0:0:0:s_057.ogg
51,192,110700,1,0,0:0:0:0:s_033.ogg
358,192,110700,1,0,0:0:0:0:s_050.ogg
460,192,110700,1,0,0:0:0:0:m_045.ogg
256,192,110775,1,0,0:0:0:0:s_062.ogg
460,192,110850,1,0,0:0:0:0:s_062.ogg
256,192,110925,1,0,0:0:0:0:s_062.ogg
51,192,111000,1,0,0:0:0:0:s_052.ogg
358,192,111075,1,0,0:0:0:0:s_064.ogg
153,192,111150,1,0,0:0:0:0:s_064.ogg
358,192,111225,1,0,0:0:0:0:s_064.ogg
51,192,111300,1,0,0:0:0:0:s_043.ogg
153,192,111300,1,0,0:0:0:0:s_057.ogg
256,192,111300,1,0,0:0:0:0:s_037.ogg
460,192,111375,1,0,0:0:0:0:s_069.ogg
256,192,111450,1,0,0:0:0:0:s_069.ogg
460,192,111525,1,0,0:0:0:0:s_069.ogg
51,192,111600,1,0,0:0:0:0:s_064.ogg
153,192,111600,1,0,0:0:0:0:s_033.ogg
358,192,111600,1,0,0:0:0:0:s_045.ogg
256,192,111700,1,0,0:0:0:0:s_069.ogg
460,192,111700,1,0,0:0:0:0:s_076.ogg
256,192,111800,1,0,0:0:0:0:s_069.ogg
460,192,111800,1,0,0:0:0:0:s_076.ogg
51,192,111900,1,0,0:0:0:0:m_066.ogg
153,192,111900,1,0,0:0:0:0:s_026.ogg
358,192,112000,1,0,0:0:0:0:s_078.ogg
460,192,112000,1,0,0:0:0:0:s_069.ogg
358,192,112100,1,0,0:0:0:0:s_078.ogg
460,192,112100,1,0,0:0:0:0:s_069.ogg
51,192,112200,1,0,0:0:0:0:s_066.ogg
153,192,112200,1,0,0:0:0:0:s_033.ogg
256,192,112200,1,0,0:0:0:0:s_042.ogg
153,192,112500,1,0,0:0:0:0:m_050.ogg
358,192,112500,1,0,0:0:0:0:m_054.ogg
51,192,112650,1,0,0:0:0:0:s_053.ogg
153,192,112800,1,0,0:0:0:0:s_049.ogg
358,192,112800,1,0,0:0:0:0:s_054.ogg
460,192,112800,1,0,0:0:0:0:s_052.ogg
51,192,112950,1,0,0:0:0:0:s_048.ogg
256,192,112950,1,0,0:0:0:0:s_051.ogg
358,192,112950,1,0,0:0:0:0:s_054.ogg
153,192,113100,1,0,0:0:0:0:s_047.ogg
358,192,113100,1,0,0:0:0:0:s_054.ogg
460,192,113100,1,0,0:0:0:0:s_050.ogg
51,192,113250,1,0,0:0:0:0:s_046.ogg
256,192,113250,1,0,0:0:0:0:s_049.ogg
358,192,113250,1,0,0:0:0:0:s_054.ogg
153,192,113400,1,0,0:0:0:0:s_048.ogg
358,192,113400,1,0,0:0:0:0:s_054.ogg
460,192,113400,1,0,0:0:0:0:s_045.ogg
51,192,113550,1,0,0:0:0:0:s_044.ogg
256,192,113550,1,0,0:0:0:0:s_047.ogg
358,192,113550,1,0,0:0:0:0:s_054.ogg
460,192,113700,1,0,0:0:0:0:s_056.ogg
358,192,113775,1,0,0:0:0:0:s_054.ogg
256,192,113850,1,0,0:0:0:0:s_053.ogg
358,192,113925,1,0,0:0:0:0:s_054.ogg
51,192,114000,1,0,0:0:0:0:s_049.ogg
256,192,114000,1,0,0:0:0:0:s_045.ogg
460,192,114000,1,0,0:0:0:0:s_042.ogg
153,192,114075,1,0,0:0:0:0:s_061.ogg
358,192,114150,1,0,0:0:0:0:s_061.ogg
153,192,114225,1,0,0:0:0:0:s_061.ogg
51,192,114300,1,0,0:0:0:0:s_054.ogg
358,192,114300,1,0,0:0:0:0:s_045.ogg
460,192,114300,1,0,0:0:0:0:s_049.ogg
256,192,114375,1,0,0:0:0:0:s_066.ogg
460,192,114450,1,0,0:0:0:0:s_066.ogg
256,192,114525,1,0,0:0:0:0:s_066.ogg
51,192,114600,1,0,0:0:0:0:s_056.ogg
358,192,114675,1,0,0:0:0:0:s_068.ogg
153,192,114750,1,0,0:0:0:0:s_068.ogg
358,192,114825,1,0,0:0:0:0:s_068.ogg
51,192,114900,1,0,0:0:0:0:s_061.ogg
153,192,114900,1,0,0:0:0:0:s_047.ogg
256,192,114900,1,0,0:0:0:0:s_041.ogg
460,192,114975,1,0,0:0:0:0:s_073.ogg
256,192,115050,1,0,0:0:0:0:s_073.ogg
460,192,115125,1,0,0:0:0:0:s_073.ogg
51,192,115200,1,0,0:0:0:0:s_068.ogg
256,192,115200,1,0,0:0:0:0:s_049.ogg
358,192,115200,1,0,0:0:0:0:s_037.ogg
153,192,115300,1,0,0:0:0:0:s_080.ogg
460,192,115300,1,0,0:0:0:0:s_073.ogg
153,192,115400,1,0,0:0:0:0:s_073.ogg
460,192,115400,1,0,0:0:0:0:s_080.ogg
51,192,115500,1,0,0:0:0:0:m_069.ogg
358,192,115500,1,0,0:0:0:0:s_030.ogg
256,192,115600,1,0,0:0:0:0:s_081.ogg
460,192,115600,1,0,0:0:0:0:s_073.ogg
256,192,115700,1,0,0:0:0:0:s_081.ogg
460,192,115700,1,0,0:0:0:0:s_073.ogg
51,192,115800,1,0,0:0:0:0:s_066.ogg
153,192,115800,1,0,0:0:0:0:s_045.ogg
358,192,115800,1,0,0:0:0:0:s_037.ogg
153,192,116100,1,0,0:0:0:0:s_054.ogg
460,192,116100,1,0,0:0:0:0:m_057.ogg
51,192,116250,1,0,0:0:0:0:s_053.ogg
256,192,116250,1,0,0:0:0:0:s_056.ogg
153,192,116400,1,0,0:0:0:0:s_052.ogg
358,192,116400,1,0,0:0:0:0:s_055.ogg
460,192,116400,1,0,0:0:0:0:s_057.ogg
51,192,116550,1,0,0:0:0:0:s_051.ogg
256,192,116550,1,0,0:0:0:0:s_054.ogg
460,192,116550,1,0,0:0:0:0:s_057.ogg
153,192,116700,1,0,0:0:0:0:s_050.ogg
358,192,116700,1,0,0:0:0:0:s_053.ogg
460,192,116700,1,0,0:0:0:0:s_057.ogg
51,192,116850,1,0,0:0:0:0:s_052.ogg
256,192,116850,1,0,0:0:0:0:s_049.ogg
460,192,116850,1,0,0:0:0:0:s_057.ogg
153,192,117000,1,0,0:0:0:0:s_048.ogg
358,192,117000,1,0,0:0:0:0:s_051.ogg
460,192,117000,1,0,0:0:0:0:s_057.ogg
51,192,117150,1,0,0:0:0:0:s_047.ogg
256,192,117150,1,0,0:0:0:0:s_050.ogg
460,192,117150,1,0,0:0:0:0:s_057.ogg
358,192,117300,1,0,0:0:0:0:s_059.ogg
256,192,117375,1,0,0:0:0:0:s_057.ogg
153,192,117450,1,0,0:0:0:0:s_056.ogg
256,192,117525,1,0,0:0:0:0:s_057.ogg
51,192,117600,1,0,0:0:0:0:s_049.ogg
358,192,117600,1,0,0:0:0:0:s_045.ogg
460,192,117600,1,0,0:0:0:0:s_052.ogg
153,192,117675,1,0,0:0:0:0:s_064.ogg
358,192,117750,1,0,0:0:0:0:s_064.ogg
153,192,117825,1,0,0:0:0:0:s_064.ogg
51,192,117900,1,0,0:0:0:0:s_040.ogg
358,192,117900,1,0,0:0:0:0:s_049.ogg
460,192,117900,1,0,0:0:0:0:s_052.ogg
256,192,117975,1,0,0:0:0:0:s_069.ogg
460,192,118050,1,0,0:0:0:0:s_069.ogg
256,192,118125,1,0,0:0:0:0:s_069.ogg
51,192,118200,1,0,0:0:0:0:s_059.ogg
358,192,118275,1,0,0:0:0:0:s_071.ogg
153,192,118350,1,0,0:0:0:0:s_071.ogg
358,192,118425,1,0,0:0:0:0:s_071.ogg
51,192,118500,1,0,0:0:0:0:s_064.ogg
153,192,118500,1,0,0:0:0:0:s_044.ogg
256,192,118500,1,0,0:0:0:0:s_050.ogg
256,192,118600,1,0,0:0:0:0:s_071.ogg
460,192,118600,1,0,0:0:0:0:s_076.ogg
256,192,118700,1,0,0:0:0:0:s_076.ogg
460,192,118700,1,0,0:0:0:0:s_071.ogg
51,192,118800,1,0,0:0:0:0:s_040.ogg
153,192,118800,1,0,0:0:0:0:s_052.ogg
256,192,118800,1,0,0:0:0:0:s_071.ogg
460,192,118800,1,0,0:0:0:0:s_076.ogg
256,192,118900,1,0,0:0:0:0:s_071.ogg
460,192,118900,1,0,0:0:0:0:s_076.ogg
256,192,119000,1,0,0:0:0:0:s_076.ogg
460,192,119000,1,0,0:0:0:0:s_071.ogg
51,192,119100,1,0,0:0:0:0:m_045.ogg
153,192,119100,1,0,0:0:0:0:s_073.ogg
358,192,119100,1,0,0:0:0:0:s_076.ogg
460,192,119175,1,0,0:0:0:0:s_078.ogg
51,192,119250,1,0,0:0:0:0:s_072.ogg
358,192,119250,1,0,0:0:0:0:s_076.ogg
460,192,119325,1,0,0:0:0:0:s_078.ogg
153,192,119400,1,0,0:0:0:0:s_057.ogg
256,192,119400,1,0,0:0:0:0:s_071.ogg
358,192,119400,1,0,0:0:0:0:s_076.ogg
460,192,119475,1,0,0:0:0:0:s_078.ogg
51,192,119550,1,0,0:0:0:0:s_059.ogg
153,192,119550,1,0,0:0:0:0:s_070.ogg
358,192,119550,1,0,0:0:0:0:s_076.ogg
460,192,119625,1,0,0:0:0:0:s_078.ogg
51,192,119700,1,0,0:0:0:0:s_069.ogg
256,192,119700,1,0,0:0:0:0:s_064.ogg
358,192,119700,1,0,0:0:0:0:s_076.ogg
460,192,119775,1,0,0:0:0:0:s_078.ogg
358,192,119850,1,0,0:0:0:0:s_076.ogg
460,192,119925,1,0,0:0:0:0:s_078.ogg
51,192,120000,1,0,0:0:0:0:m_038.ogg
153,192,120000,1,0,0:0:0:0:s_071.ogg
256,192,120000,1,0,0:0:0:0:s_074.ogg
358,192,120075,1,0,0:0:0:0:s_076.ogg
51,192,120150,1,0,0:0:0:0:s_070.ogg
256,192,120150,1,0,0:0:0:0:s_074.ogg
358,192,120225,1,0,0:0:0:0:s_076.ogg
153,192,120300,1,0,0:0:0:0:s_059.ogg
256,192,120300,1,0,0:0:0:0:s_074.ogg
460,192,120300,1,0,0:0:0:0:s_069.ogg
358,192,120375,1,0,0:0:0:0:s_076.ogg
51,192,120450,1,0,0:0:0:0:s_061.ogg
153,192,120450,1,0,0:0:0:0:s_068.ogg
256,192,120450,1,0,0:0:0:0:s_074.ogg
358,192,120525,1,0,0:0:0:0:s_076.ogg
51,192,120600,1,0,0:0:0:0:s_066.ogg
256,192,120600,1,0,0:0:0:0:s_074.ogg
460,192,120600,1,0,0:0:0:0:s_062.ogg
358,192,120675,1,0,0:0:0:0:s_076.ogg
256,192,120750,1,0,0:0:0:0:s_074.ogg
358,192,120825,1,0,0:0:0:0:s_076.ogg
51,192,120900,1,0,0:0:0:0:m_040.ogg
153,192,120900,1,0,0:0:0:0:s_073.ogg
460,192,120900,1,0,0:0:0:0:s_069.ogg
256,192,120975,1,0,0:0:0:0:s_074.ogg
153,192,121050,1,0,0:0:0:0:s_073.ogg
358,192,121050,1,0,0:0:0:0:s_068.ogg
256,192,121125,1,0,0:0:0:0:s_074.ogg
51,192,121200,1,0,0:0:0:0:s_066.ogg
153,192,121200,1,0,0:0:0:0:s_073.ogg
358,192,121200,1,0,0:0:0:0:s_057.ogg
256,192,121275,1,0,0:0:0:0:s_074.ogg
51,192,121350,1,0,0:0:0:0:s_050.ogg
153,192,121350,1,0,0:0:0:0:s_073.ogg
460,192,121350,1,0,0:0:0:0:s_065.ogg
256,192,121425,1,0,0:0:0:0:s_074.ogg
153,192,121500,1,0,0:0:0:0:s_073.ogg
358,192,121500,1,0,0:0:0:0:s_064.ogg
460,192,121500,1,0,0:0:0:0:s_061.ogg
256,192,121575,1,0,0:0:0:0:s_074.ogg
153,192,121650,1,0,0:0:0:0:s_073.ogg
256,192,121725,1,0,0:0:0:0:s_074.ogg
51,192,121800,1,0,0:0:0:0:s_071.ogg
358,192,121800,1,0,0:0:0:0:m_040.ogg
460,192,121800,1,0,0:0:0:0:s_068.ogg
153,192,121875,1,0,0:0:0:0:s_073.ogg
51,192,121950,1,0,0:0:0:0:s_071.ogg
358,192,121950,1,0,0:0:0:0:s_066.ogg
153,192,122025,1,0,0:0:0:0:s_073.ogg
51,192,122100,1,0,0:0:0:0:s_071.ogg
256,192,122100,1,0,0:0:0:0:s_065.ogg
460,192,122100,1,0,0:0:0:0:s_056.ogg
153,192,122175,1,0,0:0:0:0:s_073.ogg
51,192,122250,1,0,0:0:0:0:s_071.ogg
358,192,122250,1,0,0:0:0:0:s_057.ogg
460,192,122250,1,0,0:0:0:0:s_064.ogg
153,192,122325,1,0,0:0:0:0:s_073.ogg
51,192,122400,1,0,0:0:0:0:s_071.ogg
358,192,122400,1,0,0:0:0:0:s_062.ogg
460,192,122400,1,0,0:0:0:0:s_059.ogg
153,192,122475,1,0,0:0:0:0:s_066.ogg
256,192,122550,1,0,0:0:0:0:s_067.ogg
358,192,122625,1,0,0:0:0:0:s_068.ogg
51,192,122700,1,0,0:0:0:0:m_061.ogg
153,192,122700,1,0,0:0:0:0:m_052.ogg
460,192,122700,1,0,0:0:0:0:s_069.ogg
358,192,122775,1,0,0:0:0:0:s_071.ogg
460,192,122850,1,0,0:0:0:0:s_069.ogg
358,192,122925,1,0,0:0:0:0:s_071.ogg
153,192,123000,1,0,0:0:0:0:s_057.ogg
460,192,123000,1,0,0:0:0:0:s_069.ogg
358,192,123075,1,0,0:0:0:0:s_069.ogg
460,192,123150,1,0,0:0:0:0:s_071.ogg
358,192,123225,1,0,0:0:0:0:s_069.ogg
256,192,123300,1,0,0:0:0:0:s_058.ogg
51,192,123375,1,0,0:0:0:0:s_070.ogg
153,192,123450,1,0,0:0:0:0:s_071.ogg
51,192,123525,1,0,0:0:0:0:s_070.ogg
358,192,123600,1,0,0:0:0:0:s_072.ogg
460,192,123600,1,0,0:0:0:0:s_059.ogg
256,192,123675,1,0,0:0:0:0:s_071.ogg
358,192,123750,1,0,0:0:0:0:s_072.ogg
256,192,123825,1,0,0:0:0:0:s_071.ogg
153,192,123900,1,0,0:0:0:0:m_043.ogg
358,192,123900,1,0,0:0:0:0:s_072.ogg
51,192,123950,1,0,0:0:0:0:m_059.ogg
256,192,123975,1,0,0:0:0:0:s_071.ogg
358,192,124050,1,0,0:0:0:0:s_072.ogg
256,192,124125,1,0,0:0:0:0:s_071.ogg
51,192,124200,1,0,0:0:0:0:m_042.ogg
358,192,124200,1,0,0:0:0:0:s_072.ogg
460,192,124250,1,0,0:0:0:0:m_057.ogg
256,192,124275,1,0,0:0:0:0:s_071.ogg
358,192,124350,1,0,0:0:0:0:s_072.ogg
256,192,124425,1,0,0:0:0:0:s_071.ogg
153,192,124500,1,0,0:0:0:0:s_070.ogg
460,192,124500,1,0,0:0:0:0:m_040.ogg
256,192,124525,1,0,0:0:0:0:s_071.ogg
51,192,124550,1,0,0:0:0:0:m_055.ogg
358,192,124575,1,0,0:0:0:0:s_072.ogg
256,192,124650,1,0,0:0:0:0:s_071.ogg
358,192,124725,1,0,0:0:0:0:s_072.ogg
51,192,124800,1,0,0:0:0:0:s_066.ogg
256,192,124800,1,0,0:0:0:0:s_071.ogg
460,192,124800,1,0,0:0:0:0:m_081.ogg
358,192,124875,1,0,0:0:0:0:s_072.ogg
256,192,124950,1,0,0:0:0:0:s_071.ogg
358,192,125025,1,0,0:0:0:0:s_072.ogg
51,192,125100,1,0,0:0:0:0:m_079.ogg
153,192,125100,1,0,0:0:0:0:s_064.ogg
256,192,125100,1,0,0:0:0:0:s_071.ogg
358,192,125175,1,0,0:0:0:0:s_072.ogg
256,192,125250,1,0,0:0:0:0:s_071.ogg
358,192,125325,1,0,0:0:0:0:s_072.ogg
153,192,125400,1,0,0:0:0:0:m_047.ogg
256,192,125400,1,0,0:0:0:0:s_071.ogg
460,192,125400,1,0,0:0:0:0:m_078.ogg
51,192,125450,1,0,0:0:0:0:s_063.ogg
358,192,125475,1,0,0:0:0:0:s_072.ogg
256,192,125550,1,0,0:0:0:0:s_071.ogg
358,192,125625,1,0,0:0:0:0:s_072.ogg
51,192,125700,1,0,0:0:0:0:m_076.ogg
256,192,125700,1,0,0:0:0:0:s_071.ogg
460,192,125700,1,0,0:0:0:0:s_061.ogg
358,192,125775,1,0,0:0:0:0:s_072.ogg
256,192,125850,1,0,0:0:0:0:s_071.ogg
358,192,125925,1,0,0:0:0:0:s_072.ogg
51,192,126000,1,0,0:0:0:0:s_063.ogg
153,192,126000,1,0,0:0:0:0:m_078.ogg
256,192,126000,1,0,0:0:0:0:s_071.ogg
358,192,126075,1,0,0:0:0:0:s_072.ogg
256,192,126150,1,0,0:0:0:0:s_071.ogg
358,192,126225,1,0,0:0:0:0:s_072.ogg
153,192,126300,1,0,0:0:0:0:s_064.ogg
256,192,126300,1,0,0:0:0:0:s_071.ogg
460,192,126300,1,0,0:0:0:0:m_079.ogg
358,192,126375,1,0,0:0:0:0:s_072.ogg
256,192,126450,1,0,0:0:0:0:s_071.ogg
358,192,126525,1,0,0:0:0:0:s_072.ogg
51,192,126600,1,0,0:0:0:0:s_076.ogg
256,192,126600,1,0,0:0:0:0:s_071.ogg
460,192,126600,1,0,0:0:0:0:s_067.ogg
358,192,126900,1,0,0:0:0:0:m_058.ogg
51,192,126975,1,0,0:0:0:0:s_070.ogg
256,192,127050,1,0,0:0:0:0:s_072.ogg
51,192,127125,1,0,0:0:0:0:s_070.ogg
460,192,127200,1,0,0:0:0:0:m_057.ogg
153,192,127275,1,0,0:0:0:0:s_069.ogg
256,192,127350,1,0,0:0:0:0:s_071.ogg
153,192,127425,1,0,0:0:0:0:s_069.ogg
256,192,127500,1,0,0:0:0:0:s_071.ogg
358,192,127500,1,0,0:0:0:0:m_042.ogg
460,192,127550,1,0,0:0:0:0:m_057.ogg
153,192,127575,1,0,0:0:0:0:s_069.ogg
256,192,127650,1,0,0:0:0:0:s_071.ogg
153,192,127725,1,0,0:0:0:0:s_069.ogg
256,192,127800,1,0,0:0:0:0:s_071.ogg
358,192,127800,1,0,0:0:0:0:m_040.ogg
51,192,127850,1,0,0:0:0:0:m_055.ogg
153,192,127875,1,0,0:0:0:0:s_069.ogg
256,192,127950,1,0,0:0:0:0:s_071.ogg
153,192,128025,1,0,0:0:0:0:s_069.ogg
51,192,128100,1,0,0:0:0:0:s_068.ogg
460,192,128100,1,0,0:0:0:0:m_038.ogg
153,192,128125,1,0,0:0:0:0:s_069.ogg
358,192,128150,1,0,0:0:0:0:m_054.ogg
256,192,128175,1,0,0:0:0:0:s_071.ogg
153,192,128250,1,0,0:0:0:0:s_069.ogg
256,192,128325,1,0,0:0:0:0:s_071.ogg
51,192,128400,1,0,0:0:0:0:s_064.ogg
153,192,128400,1,0,0:0:0:0:s_069.ogg
460,192,128400,1,0,0:0:0:0:m_079.ogg
256,192,128475,1,0,0:0:0:0:s_071.ogg
153,192,128550,1,0,0:0:0:0:s_069.ogg
256,192,128625,1,0,0:0:0:0:s_071.ogg
51,192,128700,1,0,0:0:0:0:s_062.ogg
153,192,128700,1,0,0:0:0:0:s_069.ogg
358,192,128700,1,0,0:0:0:0:m_078.ogg
256,192,128775,1,0,0:0:0:0:s_071.ogg
153,192,128850,1,0,0:0:0:0:s_069.ogg
256,192,128925,1,0,0:0:0:0:s_071.ogg
153,192,129000,1,0,0:0:0:0:s_069.ogg
358,192,129000,1,0,0:0:0:0:m_045.ogg
460,192,129000,1,0,0:0:0:0:m_076.ogg
51,192,129050,1,0,0:0:0:0:s_061.ogg
256,192,129075,1,0,0:0:0:0:s_071.ogg
153,192,129150,1,0,0:0:0:0:s_069.ogg
256,192,129225,1,0,0:0:0:0:s_071.ogg
51,192,129300,1,0,0:0:0:0:m_074.ogg
153,192,129300,1,0,0:0:0:0:s_069.ogg
460,192,129300,1,0,0:0:0:0:s_059.ogg
256,192,129375,1,0,0:0:0:0:s_071.ogg
153,192,129450,1,0,0:0:0:0:s_069.ogg
256,192,129525,1,0,0:0:0:0:s_071.ogg
153,192,129600,1,0,0:0:0:0:s_069.ogg
358,192,129600,1,0,0:0:0:0:m_076.ogg
460,192,129600,1,0,0:0:0:0:s_061.ogg
256,192,129675,1,0,0:0:0:0:s_071.ogg
153,192,129750,1,0,0:0:0:0:s_069.ogg
256,192,129825,1,0,0:0:0:0:s_071.ogg
51,192,129900,1,0,0:0:0:0:m_050.ogg
153,192,129900,1,0,0:0:0:0:s_069.ogg
460,192,129900,1,0,0:0:0:0:m_078.ogg
256,192,129975,1,0,0:0:0:0:s_071.ogg
153,192,130050,1,0,0:0:0:0:s_069.ogg
256,192,130125,1,0,0:0:0:0:s_071.ogg
51,192,130200,1,0,0:0:0:0:s_074.ogg
153,192,130200,1,0,0:0:0:0:s_069.ogg
358,192,130200,1,0,0:0:0:0:s_066.ogg
51,192,130500,1,0,0:0:0:0:s_053.ogg
256,192,130575,1,0,0:0:0:0:s_065.ogg
358,192,130650,1,0,0:0:0:0:s_066.ogg
256,192,130725,1,0,0:0:0:0:s_065.ogg
153,192,130800,1,0,0:0:0:0:s_054.ogg
358,192,130875,1,0,0:0:0:0:s_066.ogg
460,192,130950,1,0,0:0:0:0:s_067.ogg
358,192,131025,1,0,0:0:0:0:s_066.ogg
51,192,131100,1,0,0:0:0:0:s_046.ogg
256,192,131100,1,0,0:0:0:0:s_054.ogg
460,192,131100,1,0,0:0:0:0:s_067.ogg
358,192,131175,1,0,0:0:0:0:s_066.ogg
460,192,131250,1,0,0:0:0:0:s_067.ogg
358,192,131325,1,0,0:0:0:0:s_066.ogg
51,192,131400,1,0,0:0:0:0:s_047.ogg
153,192,131400,1,0,0:0:0:0:s_053.ogg
460,192,131400,1,0,0:0:0:0:s_067.ogg
358,192,131475,1,0,0:0:0:0:s_066.ogg
460,192,131550,1,0,0:0:0:0:s_067.ogg
358,192,131625,1,0,0:0:0:0:s_066.ogg
51,192,131700,1,0,0:0:0:0:m_046.ogg
460,192,131700,1,0,0:0:0:0:s_067.ogg
153,192,131750,1,0,0:0:0:0:m_049.ogg
358,192,131750,1,0,0:0:0:0:s_066.ogg
51,192,131800,1,0,0:0:0:0:m_052.ogg
256,192,131800,1,0,0:0:0:0:s_065.ogg
358,192,131850,1,0,0:0:0:0:s_066.ogg
460,192,131900,1,0,0:0:0:0:s_067.ogg
51,192,131950,1,0,0:0:0:0:s_068.ogg
153,192,132000,1,0,0:0:0:0:s_069.ogg
256,192,132050,1,0,0:0:0:0:s_070.ogg
358,192,132100,1,0,0:0:0:0:s_071.ogg
460,192,132150,1,0,0:0:0:0:s_072.ogg
51,192,132200,1,0,0:0:0:0:s_073.ogg
153,192,132250,1,0,0:0:0:0:s_074.ogg
256,192,132300,1,0,0:0:0:0:s_075.ogg
358,192,132375,1,0,0:0:0:0:s_076.ogg
153,192,132450,1,0,0:0:0:0:s_077.ogg
256,192,132525,1,0,0:0:0:0:s_078.ogg
51,192,132600,1,0,0:0:0:0:m_047.ogg
358,192,132600,1,0,0:0:0:0:s_079.ogg
153,192,132650,1,0,0:0:0:0:m_050.ogg
460,192,132675,1,0,0:0:0:0:s_081.ogg
256,192,132700,1,0,0:0:0:0:m_055.ogg
358,192,132750,1,0,0:0:0:0:s_079.ogg
153,192,132825,1,0,0:0:0:0:s_078.ogg
51,192,132900,1,0,0:0:0:0:s_077.ogg
460,192,132950,1,0,0:0:0:0:s_076.ogg
358,192,133000,1,0,0:0:0:0:s_075.ogg
256,192,133050,1,0,0:0:0:0:s_074.ogg
153,192,133100,1,0,0:0:0:0:s_073.ogg
51,192,133150,1,0,0:0:0:0:s_072.ogg
460,192,133200,1,0,0:0:0:0:s_071.ogg
358,192,133250,1,0,0:0:0:0:s_070.ogg
256,192,133300,1,0,0:0:0:0:s_069.ogg
153,192,133350,1,0,0:0:0:0:s_068.ogg
51,192,133400,1,0,0:0:0:0:s_067.ogg
256,192,133500,1,0,0:0:0:0:m_042.ogg
460,192,133500,1,0,0:0:0:0:m_066.ogg
358,192,133550,1,0,0:0:0:0:m_058.ogg
256,192,133800,1,0,0:0:0:0:s_049.ogg
51,192,133875,1,0,0:0:0:0:s_061.ogg
153,192,133950,1,0,0:0:0:0:s_062.ogg
51,192,134025,1,0,0:0:0:0:s_061.ogg
460,192,134100,1,0,0:0:0:0:s_053.ogg
256,192,134175,1,0,0:0:0:0:s_065.ogg
358,192,134250,1,0,0:0:0:0:s_066.ogg
256,192,134325,1,0,0:0:0:0:s_065.ogg
51,192,134400,1,0,0:0:0:0:s_054.ogg
358,192,134475,1,0,0:0:0:0:s_066.ogg
460,192,134550,1,0,0:0:0:0:s_067.ogg
358,192,134625,1,0,0:0:0:0:s_066.ogg
153,192,134700,1,0,0:0:0:0:s_054.ogg
256,192,134700,1,0,0:0:0:0:s_046.ogg
460,192,134700,1,0,0:0:0:0:s_067.ogg
358,192,134775,1,0,0:0:0:0:s_066.ogg
460,192,134850,1,0,0:0:0:0:s_067.ogg
358,192,134925,1,0,0:0:0:0:s_066.ogg
51,192,135000,1,0,0:0:0:0:s_047.ogg
153,192,135000,1,0,0:0:0:0:s_044.ogg
460,192,135000,1,0,0:0:0:0:s_067.ogg
358,192,135075,1,0,0:0:0:0:s_066.ogg
460,192,135150,1,0,0:0:0:0:s_067.ogg
358,192,135225,1,0,0:0:0:0:s_066.ogg
51,192,135300,1,0,0:0:0:0:m_046.ogg
460,192,135300,1,0,0:0:0:0:s_067.ogg
153,192,135350,1,0,0:0:0:0:m_049.ogg
358,192,135350,1,0,0:0:0:0:s_066.ogg
51,192,135400,1,0,0:0:0:0:m_052.ogg
256,192,135400,1,0,0:0:0:0:s_065.ogg
358,192,135450,1,0,0:0:0:0:s_066.ogg
460,192,135500,1,0,0:0:0:0:s_067.ogg
51,192,135550,1,0,0:0:0:0:s_068.ogg
153,192,135600,1,0,0:0:0:0:s_069.ogg
256,192,135650,1,0,0:0:0:0:s_070.ogg
358,192,135700,1,0,0:0:0:0:s_071.ogg
460,192,135750,1,0,0:0:0:0:s_072.ogg
51,192,135800,1,0,0:0:0:0:s_073.ogg
153,192,135850,1,0,0:0:0:0:s_074.ogg
256,192,135900,1,0,0:0:0:0:s_075.ogg
358,192,135975,1,0,0:0:0:0:s_076.ogg
153,192,136050,1,0,0:0:0:0:s_077.ogg
256,192,136125,1,0,0:0:0:0:s_078.ogg
51,192,136200,1,0,0:0:0:0:m_047.ogg
358,192,136200,1,0,0:0:0:0:s_079.ogg
153,192,136250,1,0,0:0:0:0:m_050.ogg
460,192,136275,1,0,0:0:0:0:s_081.ogg
256,192,136300,1,0,0:0:0:0:m_055.ogg
358,192,136350,1,0,0:0:0:0:s_079.ogg
153,192,136425,1,0,0:0:0:0:s_078.ogg
51,192,136500,1,0,0:0:0:0:s_077.ogg
460,192,136550,1,0,0:0:0:0:s_076.ogg
358,192,136600,1,0,0:0:0:0:s_075.ogg
256,192,136650,1,0,0:0:0:0:s_074.ogg
153,192,136700,1,0,0:0:0:0:s_073.ogg
51,192,136750,1,0,0:0:0:0:s_072.ogg
460,192,136800,1,0,0:0:0:0:s_071.ogg
358,192,136850,1,0,0:0:0:0:s_070.ogg
256,192,136900,1,0,0:0:0:0:s_069.ogg
153,192,136950,1,0,0:0:0:0:s_068.ogg
460,192,137000,1,0,0:0:0:0:s_067.ogg
256,192,137100,1,0,0:0:0:0:m_042.ogg
358,192,137100,1,0,0:0:0:0:s_066.ogg
51,192,137150,1,0,0:0:0:0:m_049.ogg
460,192,137150,1,0,0:0:0:0:s_067.ogg
153,192,137200,1,0,0:0:0:0:m_058.ogg
358,192,137200,1,0,0:0:0:0:s_066.ogg
256,192,137250,1,0,0:0:0:0:s_065.ogg
358,192,137300,1,0,0:0:0:0:s_066.ogg
460,192,137350,1,0,0:0:0:0:s_067.ogg
51,192,137400,1,0,0:0:0:0:s_068.ogg
153,192,137450,1,0,0:0:0:0:s_069.ogg
256,192,137500,1,0,0:0:0:0:s_070.ogg
358,192,137550,1,0,0:0:0:0:s_071.ogg
460,192,137600,1,0,0:0:0:0:s_072.ogg
51,192,137650,1,0,0:0:0:0:s_073.ogg
153,192,137700,1,0,0:0:0:0:s_074.ogg
256,192,137750,1,0,0:0:0:0:s_075.ogg
358,192,137800,1,0,0:0:0:0:s_076.ogg
460,192,137850,1,0,0:0:0:0:s_077.ogg
51,192,137900,1,0,0:0:0:0:s_078.ogg
153,192,138000,1,0,0:0:0:0:s_079.ogg
358,192,138000,1,0,0:0:0:0:m_035.ogg
256,192,138050,1,0,0:0:0:0:m_050.ogg
460,192,138075,1,0,0:0:0:0:s_081.ogg
358,192,138150,1,0,0:0:0:0:s_079.ogg
256,192,138225,1,0,0:0:0:0:s_078.ogg
153,192,138300,1,0,0:0:0:0:s_077.ogg
51,192,138350,1,0,0:0:0:0:s_076.ogg
460,192,138400,1,0,0:0:0:0:s_075.ogg
358,192,138450,1,0,0:0:0:0:s_074.ogg
256,192,138500,1,0,0:0:0:0:s_073.ogg
153,192,138550,1,0,0:0:0:0:s_072.ogg
51,192,138600,1,0,0:0:0:0:s_071.ogg
460,192,138650,1,0,0:0:0:0:s_070.ogg
358,192,138700,1,0,0:0:0:0:s_069.ogg
256,192,138750,1,0,0:0:0:0:s_068.ogg
153,192,138800,1,0,0:0:0:0:s_067.ogg
51,192,138900,1,0,0:0:0:0:s_066.ogg
256,192,138900,1,0,0:0:0:0:m_030.ogg
153,192,138950,1,0,0:0:0:0:s_067.ogg
358,192,138950,1,0,0:0:0:0:m_046.ogg
51,192,139000,1,0,0:0:0:0:s_066.ogg
460,192,139050,1,0,0:0:0:0:s_065.ogg
51,192,139100,1,0,0:0:0:0:s_066.ogg
153,192,139150,1,0,0:0:0:0:s_067.ogg
256,192,139200,1,0,0:0:0:0:s_068.ogg
358,192,139250,1,0,0:0:0:0:s_069.ogg
460,192,139300,1,0,0:0:0:0:s_070.ogg
51,192,139350,1,0,0:0:0:0:s_071.ogg
153,192,139400,1,0,0:0:0:0:s_072.ogg
256,192,139450,1,0,0:0:0:0:s_073.ogg
358,192,139500,1,0,0:0:0:0:s_074.ogg
460,192,139550,1,0,0:0:0:0:s_075.ogg
51,192,139600,1,0,0:0:0:0:s_076.ogg
153,192,139650,1,0,0:0:0:0:s_077.ogg
256,192,139700,1,0,0:0:0:0:s_078.ogg
51,192,139800,1,0,0:0:0:0:l_023.ogg
358,192,139800,1,0,0:0:0:0:s_079.ogg
153,192,139850,1,0,0:0:0:0:l_038.ogg
460,192,139875,1,0,0:0:0:0:s_081.ogg
358,192,139950,1,0,0:0:0:0:s_079.ogg
256,192,140025,1,0,0:0:0:0:s_078.ogg
153,192,140100,1,0,0:0:0:0:s_077.ogg
358,192,140175,1,0,0:0:0:0:s_078.ogg
256,192,140250,1,0,0:0:0:0:s_077.ogg
153,192,140325,1,0,0:0:0:0:s_076.ogg
51,192,140400,1,0,0:0:0:0:s_075.ogg
256,192,140475,1,0,0:0:0:0:s_076.ogg
153,192,140550,1,0,0:0:0:0:s_075.ogg
51,192,140625,1,0,0:0:0:0:s_074.ogg
460,192,140700,1,0,0:0:0:0:s_073.ogg
153,192,140775,1,0,0:0:0:0:s_074.ogg
51,192,140850,1,0,0:0:0:0:s_073.ogg
460,192,140925,1,0,0:0:0:0:s_072.ogg
358,192,141000,1,0,0:0:0:0:s_071.ogg
51,192,141075,1,0,0:0:0:0:s_072.ogg
460,192,141150,1,0,0:0:0:0:s_071.ogg
358,192,141225,1,0,0:0:0:0:s_070.ogg
256,192,141300,1,0,0:0:0:0:s_069.ogg
460,192,141375,1,0,0:0:0:0:s_070.ogg
358,192,141450,1,0,0:0:0:0:s_069.ogg
256,192,141525,1,0,0:0:0:0:s_068.ogg
153,192,141600,1,0,0:0:0:0:s_067.ogg
358,192,141675,1,0,0:0:0:0:s_068.ogg
256,192,141750,1,0,0:0:0:0:s_067.ogg
153,192,141825,1,0,0:0:0:0:s_066.ogg
51,192,141900,1,0,0:0:0:0:s_065.ogg
256,192,141975,1,0,0:0:0:0:s_066.ogg
153,192,142050,1,0,0:0:0:0:s_065.ogg
51,192,142125,1,0,0:0:0:0:s_064.ogg
460,192,142200,1,0,0:0:0:0:s_063.ogg
153,192,142275,1,0,0:0:0:0:s_064.ogg
51,192,142350,1,0,0:0:0:0:s_063.ogg
460,192,142425,1,0,0:0:0:0:s_062.ogg
358,192,142500,1,0,0:0:0:0:s_061.ogg
51,192,142575,1,0,0:0:0:0:s_062.ogg
460,192,142650,1,0,0:0:0:0:s_061.ogg
358,192,142725,1,0,0:0:0:0:s_060.ogg
256,192,142800,1,0,0:0:0:0:s_059.ogg
460,192,142875,1,0,0:0:0:0:s_060.ogg
358,192,142950,1,0,0:0:0:0:s_059.ogg
256,192,143025,1,0,0:0:0:0:s_058.ogg
153,192,143100,1,0,0:0:0:0:s_057.ogg
358,192,143175,1,0,0:0:0:0:s_058.ogg
256,192,143250,1,0,0:0:0:0:s_057.ogg
153,192,143325,1,0,0:0:0:0:s_056.ogg
51,192,143400,1,0,0:0:0:0:s_055.ogg
256,192,143475,1,0,0:0:0:0:s_056.ogg
153,192,143550,1,0,0:0:0:0:s_055.ogg
51,192,143625,1,0,0:0:0:0:s_054.ogg
460,192,143700,1,0,0:0:0:0:s_053.ogg
153,192,143775,1,0,0:0:0:0:s_054.ogg
51,192,143850,1,0,0:0:0:0:s_053.ogg
460,192,143925,1,0,0:0:0:0:s_052.ogg
358,192,144000,1,0,0:0:0:0:s_051.ogg
51,192,144075,1,0,0:0:0:0:s_052.ogg
460,192,144150,1,0,0:0:0:0:s_051.ogg
358,192,144225,1,0,0:0:0:0:s_050.ogg
256,192,144300,1,0,0:0:0:0:s_049.ogg
460,192,144375,1,0,0:0:0:0:s_050.ogg
358,192,144450,1,0,0:0:0:0:s_049.ogg
256,192,144525,1,0,0:0:0:0:s_048.ogg
153,192,144600,1,0,0:0:0:0:s_047.ogg
358,192,144675,1,0,0:0:0:0:s_048.ogg
256,192,144750,1,0,0:0:0:0:s_047.ogg
153,192,144825,1,0,0:0:0:0:s_046.ogg
51,192,144900,1,0,0:0:0:0:s_045.ogg
460,192,144975,1,0,0:0:0:0:s_046.ogg
358,192,145050,1,0,0:0:0:0:s_045.ogg
256,192,145125,1,0,0:0:0:0:s_044.ogg
153,192,145200,1,0,0:0:0:0:s_043.ogg
358,192,145250,1,0,0:0:0:0:l_037.ogg
51,192,145275,1,0,0:0:0:0:s_041.ogg
460,192,145300,1,0,0:0:0:0:l_040.ogg
256,192,145350,1,0,0:0:0:0:s_043.ogg
153,192,145425,1,0,0:0:0:0:s_042.ogg
358,192,145500,1,0,0:0:0:0:s_044.ogg
256,192,145575,1,0,0:0:0:0:s_043.ogg
460,192,145650,1,0,0:0:0:0:s_045.ogg
358,192,145725,1,0,0:0:0:0:s_044.ogg
460,192,145800,1,0,0:0:0:0:s_046.ogg
51,192,145875,1,0,0:0:0:0:s_045.ogg
153,192,145950,1,0,0:0:0:0:s_047.ogg
51,192,146025,1,0,0:0:0:0:s_046.ogg
256,192,146100,1,0,0:0:0:0:s_048.ogg
153,192,146175,1,0,0:0:0:0:s_047.ogg
358,192,146250,1,0,0:0:0:0:s_049.ogg
256,192,146325,1,0,0:0:0:0:s_048.ogg
460,192,146400,1,0,0:0:0:0:s_050.ogg
358,192,146475,1,0,0:0:0:0:s_049.ogg
460,192,146550,1,0,0:0:0:0:s_051.ogg
51,192,146625,1,0,0:0:0:0:s_050.ogg
153,192,146700,1,0,0:0:0:0:s_052.ogg
51,192,146775,1,0,0:0:0:0:s_051.ogg
256,192,146850,1,0,0:0:0:0:s_053.ogg
153,192,146925,1,0,0:0:0:0:s_052.ogg
358,192,147000,1,0,0:0:0:0:s_054.ogg
256,192,147075,1,0,0:0:0:0:s_053.ogg
460,192,147150,1,0,0:0:0:0:s_055.ogg
358,192,147225,1,0,0:0:0:0:s_054.ogg
460,192,147300,1,0,0:0:0:0:s_056.ogg
51,192,147375,1,0,0:0:0:0:s_055.ogg
153,192,147450,1,0,0:0:0:0:s_057.ogg
51,192,147525,1,0,0:0:0:0:s_056.ogg
256,192,147600,1,0,0:0:0:0:s_058.ogg
153,192,147675,1,0,0:0:0:0:s_057.ogg
358,192,147750,1,0,0:0:0:0:s_059.ogg
256,192,147825,1,0,0:0:0:0:s_058.ogg
460,192,147900,1,0,0:0:0:0:s_060.ogg
358,192,147975,1,0,0:0:0:0:s_059.ogg
460,192,148050,1,0,0:0:0:0:s_061.ogg
51,192,148125,1,0,0:0:0:0:s_060.ogg
153,192,148200,1,0,0:0:0:0:s_062.ogg
51,192,148275,1,0,0:0:0:0:s_061.ogg
256,192,148350,1,0,0:0:0:0:s_063.ogg
153,192,148425,1,0,0:0:0:0:s_062.ogg
358,192,148500,1,0,0:0:0:0:s_064.ogg
256,192,148575,1,0,0:0:0:0:s_063.ogg
460,192,148650,1,0,0:0:0:0:s_065.ogg
358,192,148725,1,0,0:0:0:0:s_064.ogg
460,192,148800,1,0,0:0:0:0:s_066.ogg
51,192,148875,1,0,0:0:0:0:s_065.ogg
153,192,148950,1,0,0:0:0:0:s_067.ogg
51,192,149025,1,0,0:0:0:0:s_066.ogg
256,192,149100,1,0,0:0:0:0:s_068.ogg
153,192,149175,1,0,0:0:0:0:s_067.ogg
358,192,149250,1,0,0:0:0:0:s_069.ogg
256,192,149325,1,0,0:0:0:0:s_068.ogg
460,192,149400,1,0,0:0:0:0:s_070.ogg
358,192,149475,1,0,0:0:0:0:s_069.ogg
460,192,149550,1,0,0:0:0:0:s_071.ogg
51,192,149625,1,0,0:0:0:0:s_070.ogg
153,192,149700,1,0,0:0:0:0:s_072.ogg
51,192,149775,1,0,0:0:0:0:s_071.ogg
256,192,149850,1,0,0:0:0:0:s_073.ogg
153,192,149925,1,0,0:0:0:0:s_072.ogg
358,192,150000,1,0,0:0:0:0:s_074.ogg
256,192,150075,1,0,0:0:0:0:s_073.ogg
460,192,150150,1,0,0:0:0:0:s_075.ogg
358,192,150225,1,0,0:0:0:0:s_074.ogg
460,192,150300,1,0,0:0:0:0:s_076.ogg
51,192,150375,1,0,0:0:0:0:s_075.ogg
153,192,150450,1,0,0:0:0:0:s_077.ogg
51,192,150525,1,0,0:0:0:0:s_076.ogg
256,192,150600,1,0,0:0:0:0:s_078.ogg
153,192,150675,1,0,0:0:0:0:s_077.ogg
358,192,150750,1,0,0:0:0:0:s_079.ogg
153,192,150825,1,0,0:0:0:0:s_077.ogg
256,192,150900,1,0,0:0:0:0:s_078.ogg
153,192,150975,1,0,0:0:0:0:s_077.ogg
358,192,151050,1,0,0:0:0:0:s_079.ogg
153,192,151125,1,0,0:0:0:0:s_077.ogg
256,192,151200,1,0,0:0:0:0:s_078.ogg
153,192,151275,1,0,0:0:0:0:s_077.ogg
358,192,151350,1,0,0:0:0:0:s_079.ogg
153,192,151425,1,0,0:0:0:0:s_077.ogg
256,192,151500,1,0,0:0:0:0:s_078.ogg
153,192,151575,1,0,0:0:0:0:s_077.ogg
358,192,151650,1,0,0:0:0:0:s_079.ogg
153,192,151725,1,0,0:0:0:0:s_077.ogg
256,192,151800,1,0,0:0:0:0:s_078.ogg
153,192,151875,1,0,0:0:0:0:s_077.ogg
358,192,151950,1,0,0:0:0:0:s_079.ogg
153,192,152025,1,0,0:0:0:0:s_077.ogg
256,192,152100,1,0,0:0:0:0:s_078.ogg
153,192,152175,1,0,0:0:0:0:s_077.ogg
358,192,152250,1,0,0:0:0:0:s_079.ogg
153,192,152325,1,0,0:0:0:0:s_077.ogg
256,192,152400,1,0,0:0:0:0:s_078.ogg
358,192,152475,1,0,0:0:0:0:s_079.ogg
256,192,152550,1,0,0:0:0:0:s_078.ogg
358,192,152625,1,0,0:0:0:0:s_079.ogg
256,192,152700,1,0,0:0:0:0:s_078.ogg
358,192,152775,1,0,0:0:0:0:s_079.ogg
256,192,152850,1,0,0:0:0:0:s_078.ogg
358,192,152925,1,0,0:0:0:0:s_079.ogg
256,192,153000,1,0,0:0:0:0:s_078.ogg
358,192,153075,1,0,0:0:0:0:s_079.ogg
256,192,153150,1,0,0:0:0:0:s_078.ogg
358,192,153225,1,0,0:0:0:0:s_079.ogg
256,192,153300,1,0,0:0:0:0:s_078.ogg
358,192,153375,1,0,0:0:0:0:s_079.ogg
256,192,153450,1,0,0:0:0:0:s_078.ogg
358,192,153525,1,0,0:0:0:0:s_079.ogg
256,192,153600,1,0,0:0:0:0:s_078.ogg
358,192,153675,1,0,0:0:0:0:s_079.ogg
256,192,153750,1,0,0:0:0:0:s_078.ogg
358,192,153825,1,0,0:0:0:0:s_079.ogg
256,192,153900,1,0,0:0:0:0:s_078.ogg
358,192,153975,1,0,0:0:0:0:s_079.ogg
256,192,154050,1,0,0:0:0:0:s_078.ogg
358,192,154125,1,0,0:0:0:0:s_079.ogg
256,192,154200,1,0,0:0:0:0:s_078.ogg
358,192,154275,1,0,0:0:0:0:s_079.ogg
256,192,154350,1,0,0:0:0:0:s_078.ogg
358,192,154425,1,0,0:0:0:0:s_079.ogg
256,192,154500,1,0,0:0:0:0:s_078.ogg
358,192,154575,1,0,0:0:0:0:s_079.ogg
256,192,154650,1,0,0:0:0:0:s_078.ogg
358,192,154725,1,0,0:0:0:0:s_079.ogg
256,192,154800,1,0,0:0:0:0:s_078.ogg
51,192,154800,128,0,155100:0:0:0:0:m_054.ogg
358,192,154875,1,0,0:0:0:0:s_079.ogg
256,192,154950,1,0,0:0:0:0:s_078.ogg
358,192,155025,1,0,0:0:0:0:s_079.ogg
256,192,155100,1,0,0:0:0:0:s_078.ogg
358,192,155175,1,0,0:0:0:0:s_079.ogg
256,192,155250,1,0,0:0:0:0:s_078.ogg
358,192,155325,1,0,0:0:0:0:s_079.ogg
256,192,155400,1,0,0:0:0:0:s_078.ogg
460,192,155400,1,0,0:0:0:0:s_066.ogg
358,192,155475,1,0,0:0:0:0:s_079.ogg
256,192,155550,1,0,0:0:0:0:s_078.ogg
358,192,155625,1,0,0:0:0:0:s_079.ogg
51,192,155700,1,0,0:0:0:0:s_066.ogg
153,192,155700,1,0,0:0:0:0:s_064.ogg
256,192,155700,1,0,0:0:0:0:s_078.ogg
358,192,155775,1,0,0:0:0:0:s_079.ogg
256,192,155850,1,0,0:0:0:0:s_078.ogg
358,192,155925,1,0,0:0:0:0:s_079.ogg
51,192,156000,1,0,0:0:0:0:s_066.ogg
256,192,156000,1,0,0:0:0:0:s_078.ogg
460,192,156000,1,0,0:0:0:0:m_047.ogg
153,192,156050,1,0,0:0:0:0:s_062.ogg
358,192,156075,1,0,0:0:0:0:s_079.ogg
256,192,156150,1,0,0:0:0:0:s_078.ogg
358,192,156225,1,0,0:0:0:0:s_079.ogg
51,192,156300,1,0,0:0:0:0:s_066.ogg
256,192,156300,1,0,0:0:0:0:s_078.ogg
460,192,156300,1,0,0:0:0:0:s_062.ogg
358,192,156375,1,0,0:0:0:0:s_079.ogg
256,192,156450,1,0,0:0:0:0:s_078.ogg
358,192,156525,1,0,0:0:0:0:s_079.ogg
51,192,156600,1,0,0:0:0:0:s_066.ogg
153,192,156600,1,0,0:0:0:0:s_061.ogg
256,192,156600,1,0,0:0:0:0:s_078.ogg
358,192,156675,1,0,0:0:0:0:s_079.ogg
256,192,156750,1,0,0:0:0:0:s_078.ogg
358,192,156825,1,0,0:0:0:0:s_079.ogg
51,192,156900,1,0,0:0:0:0:s_066.ogg
256,192,156900,1,0,0:0:0:0:s_078.ogg
460,192,156900,1,0,0:0:0:0:m_050.ogg
153,192,156950,1,0,0:0:0:0:s_059.ogg
358,192,156975,1,0,0:0:0:0:s_079.ogg
256,192,157050,1,0,0:0:0:0:s_078.ogg
358,192,157125,1,0,0:0:0:0:s_079.ogg
51,192,157200,1,0,0:0:0:0:s_066.ogg
153,192,157200,1,0,0:0:0:0:s_058.ogg
256,192,157200,1,0,0:0:0:0:s_078.ogg
358,192,157275,1,0,0:0:0:0:s_079.ogg
256,192,157350,1,0,0:0:0:0:s_078.ogg
358,192,157425,1,0,0:0:0:0:s_079.ogg
51,192,157500,1,0,0:0:0:0:s_066.ogg
256,192,157500,1,0,0:0:0:0:s_078.ogg
460,192,157500,1,0,0:0:0:0:s_059.ogg
358,192,157575,1,0,0:0:0:0:s_079.ogg
256,192,157650,1,0,0:0:0:0:s_078.ogg
358,192,157725,1,0,0:0:0:0:s_079.ogg
51,192,157800,1,0,0:0:0:0:s_066.ogg
153,192,157800,1,0,0:0:0:0:m_058.ogg
256,192,157800,1,0,0:0:0:0:s_078.ogg
460,192,157850,1,0,0:0:0:0:m_061.ogg
358,192,157875,1,0,0:0:0:0:s_079.ogg
256,192,157950,1,0,0:0:0:0:s_078.ogg
358,192,158025,1,0,0:0:0:0:s_079.ogg
51,192,158100,1,0,0:0:0:0:s_066.ogg
256,192,158100,1,0,0:0:0:0:s_078.ogg
460,192,158100,1,0,0:0:0:0:m_054.ogg
358,192,158175,1,0,0:0:0:0:s_079.ogg
256,192,158250,1,0,0:0:0:0:s_078.ogg
358,192,158325,1,0,0:0:0:0:s_079.ogg
51,192,158400,1,0,0:0:0:0:s_066.ogg
256,192,158400,1,0,0:0:0:0:s_078.ogg
460,192,158400,1,0,0:0:0:0:s_054.ogg
358,192,158475,1,0,0:0:0:0:s_079.ogg
256,192,158550,1,0,0:0:0:0:s_078.ogg
358,192,158625,1,0,0:0:0:0:s_079.ogg
51,192,158700,1,0,0:0:0:0:s_066.ogg
256,192,158700,1,0,0:0:0:0:s_078.ogg
460,192,158750,1,0,0:0:0:0:m_049.ogg
358,192,158775,1,0,0:0:0:0:s_079.ogg
153,192,158800,1,0,0:0:0:0:s_055.ogg
256,192,158850,1,0,0:0:0:0:s_078.ogg
358,192,158925,1,0,0:0:0:0:s_079.ogg
51,192,159000,1,0,0:0:0:0:s_066.ogg
256,192,159000,1,0,0:0:0:0:s_078.ogg
460,192,159000,1,0,0:0:0:0:s_054.ogg
358,192,159075,1,0,0:0:0:0:s_079.ogg
256,192,159150,1,0,0:0:0:0:s_078.ogg
358,192,159225,1,0,0:0:0:0:s_079.ogg
51,192,159300,1,0,0:0:0:0:s_066.ogg
153,192,159300,1,0,0:0:0:0:s_052.ogg
256,192,159300,1,0,0:0:0:0:s_078.ogg
358,192,159375,1,0,0:0:0:0:s_079.ogg
256,192,159450,1,0,0:0:0:0:s_078.ogg
358,192,159525,1,0,0:0:0:0:s_079.ogg
51,192,159600,1,0,0:0:0:0:s_066.ogg
256,192,159600,1,0,0:0:0:0:s_078.ogg
460,192,159600,1,0,0:0:0:0:s_050.ogg
358,192,159675,1,0,0:0:0:0:s_079.ogg
256,192,159750,1,0,0:0:0:0:s_078.ogg
358,192,159825,1,0,0:0:0:0:s_079.ogg
51,192,159900,1,0,0:0:0:0:s_066.ogg
256,192,159900,1,0,0:0:0:0:s_078.ogg
460,192,159900,1,0,0:0:0:0:s_050.ogg
358,192,159975,1,0,0:0:0:0:s_079.ogg
256,192,160050,1,0,0:0:0:0:s_078.ogg
358,192,160125,1,0,0:0:0:0:s_079.ogg
51,192,160200,1,0,0:0:0:0:s_066.ogg
153,192,160200,1,0,0:0:0:0:s_045.ogg
256,192,160200,1,0,0:0:0:0:s_078.ogg
358,192,160275,1,0,0:0:0:0:s_079.ogg
256,192,160350,1,0,0:0:0:0:s_078.ogg
358,192,160425,1,0,0:0:0:0:s_079.ogg
51,192,160500,1,0,0:0:0:0:s_066.ogg
256,192,160500,1,0,0:0:0:0:s_078.ogg
460,192,160500,1,0,0:0:0:0:s_043.ogg
358,192,160575,1,0,0:0:0:0:s_079.ogg
256,192,160650,1,0,0:0:0:0:s_078.ogg
358,192,160725,1,0,0:0:0:0:s_079.ogg
51,192,160800,1,0,0:0:0:0:s_066.ogg
153,192,160800,1,0,0:0:0:0:s_046.ogg
256,192,160800,1,0,0:0:0:0:s_078.ogg
358,192,160875,1,0,0:0:0:0:s_079.ogg
256,192,160950,1,0,0:0:0:0:s_078.ogg
358,192,161025,1,0,0:0:0:0:s_079.ogg
51,192,161100,1,0,0:0:0:0:s_066.ogg
256,192,161100,1,0,0:0:0:0:s_078.ogg
460,192,161100,1,0,0:0:0:0:s_047.ogg
358,192,161175,1,0,0:0:0:0:s_079.ogg
256,192,161250,1,0,0:0:0:0:s_078.ogg
358,192,161325,1,0,0:0:0:0:s_079.ogg
51,192,161400,1,0,0:0:0:0:s_066.ogg
153,192,161400,1,0,0:0:0:0:m_049.ogg
256,192,161400,1,0,0:0:0:0:s_078.ogg
358,192,161475,1,0,0:0:0:0:s_079.ogg
256,192,161550,1,0,0:0:0:0:s_078.ogg
358,192,161625,1,0,0:0:0:0:s_079.ogg
51,192,161700,1,0,0:0:0:0:s_066.ogg
256,192,161700,1,0,0:0:0:0:s_078.ogg
460,192,161700,1,0,0:0:0:0:m_042.ogg
358,192,161775,1,0,0:0:0:0:s_079.ogg
256,192,161850,1,0,0:0:0:0:s_078.ogg
358,192,161925,1,0,0:0:0:0:s_079.ogg
51,192,162000,1,0,0:0:0:0:s_066.ogg
256,192,162000,1,0,0:0:0:0:s_078.ogg
358,192,162075,1,0,0:0:0:0:s_079.ogg
153,192,162150,1,0,0:0:0:0:m_042.ogg
256,192,162150,1,0,0:0:0:0:s_078.ogg
358,192,162225,1,0,0:0:0:0:s_079.ogg
51,192,162300,1,0,0:0:0:0:s_066.ogg
256,192,162300,1,0,0:0:0:0:s_078.ogg
460,192,162300,1,0,0:0:0:0:s_054.ogg
358,192,162375,1,0,0:0:0:0:s_079.ogg
256,192,162450,1,0,0:0:0:0:s_078.ogg
358,192,162525,1,0,0:0:0:0:s_079.ogg
51,192,162600,1,0,0:0:0:0:s_066.ogg
256,192,162600,1,0,0:0:0:0:s_078.ogg
460,192,162600,1,0,0:0:0:0:s_054.ogg
358,192,162675,1,0,0:0:0:0:s_079.ogg
256,192,162750,1,0,0:0:0:0:s_078.ogg
358,192,162825,1,0,0:0:0:0:s_079.ogg
51,192,162900,1,0,0:0:0:0:s_066.ogg
153,192,162900,1,0,0:0:0:0:s_052.ogg
256,192,162900,1,0,0:0:0:0:s_078.ogg
358,192,162975,1,0,0:0:0:0:s_079.ogg
256,192,163050,1,0,0:0:0:0:s_078.ogg
358,192,163125,1,0,0:0:0:0:s_079.ogg
256,192,163200,1,0,0:0:0:0:s_078.ogg
460,192,163200,1,0,0:0:0:0:m_035.ogg
153,192,163250,1,0,0:0:0:0:s_050.ogg
358,192,163275,1,0,0:0:0:0:s_079.ogg
256,192,163350,1,0,0:0:0:0:s_078.ogg
153,192,163425,1,0,0:0:0:0:s_066.ogg
51,192,163500,1,0,0:0:0:0:s_066.ogg
358,192,163500,1,0,0:0:0:0:s_050.ogg
153,192,163575,1,0,0:0:0:0:s_067.ogg
51,192,163650,1,0,0:0:0:0:s_066.ogg
460,192,163725,1,0,0:0:0:0:s_054.ogg
51,192,163800,1,0,0:0:0:0:s_066.ogg
256,192,163800,1,0,0:0:0:0:s_049.ogg
153,192,163900,1,0,0:0:0:0:s_067.ogg
51,192,164000,1,0,0:0:0:0:s_066.ogg
256,192,164100,1,0,0:0:0:0:s_078.ogg
460,192,164100,1,0,0:0:0:0:m_038.ogg
153,192,164150,1,0,0:0:0:0:s_047.ogg
358,192,164175,1,0,0:0:0:0:s_079.ogg
256,192,164250,1,0,0:0:0:0:s_078.ogg
153,192,164325,1,0,0:0:0:0:s_066.ogg
51,192,164400,1,0,0:0:0:0:s_066.ogg
358,192,164400,1,0,0:0:0:0:s_046.ogg
153,192,164475,1,0,0:0:0:0:s_067.ogg
51,192,164550,1,0,0:0:0:0:s_066.ogg
460,192,164625,1,0,0:0:0:0:s_054.ogg
51,192,164700,1,0,0:0:0:0:s_066.ogg
256,192,164700,1,0,0:0:0:0:s_047.ogg
153,192,164800,1,0,0:0:0:0:s_067.ogg
51,192,164900,1,0,0:0:0:0:s_066.ogg
358,192,165000,1,0,0:0:0:0:m_046.ogg
460,192,165050,1,0,0:0:0:0:m_049.ogg
153,192,165225,1,0,0:0:0:0:s_066.ogg
51,192,165300,1,0,0:0:0:0:s_066.ogg
256,192,165300,1,0,0:0:0:0:m_042.ogg
153,192,165375,1,0,0:0:0:0:s_067.ogg
51,192,165450,1,0,0:0:0:0:s_066.ogg
460,192,165525,1,0,0:0:0:0:s_054.ogg
51,192,165600,1,0,0:0:0:0:s_066.ogg
358,192,165600,1,0,0:0:0:0:s_042.ogg
153,192,165700,1,0,0:0:0:0:s_067.ogg
51,192,165800,1,0,0:0:0:0:s_066.ogg
256,192,165900,1,0,0:0:0:0:m_038.ogg
460,192,165900,1,0,0:0:0:0:s_047.ogg
153,192,166125,1,0,0:0:0:0:s_066.ogg
51,192,166200,1,0,0:0:0:0:s_066.ogg
256,192,166200,1,0,0:0:0:0:s_045.ogg
358,192,166200,1,0,0:0:0:0:m_039.ogg
153,192,166275,1,0,0:0:0:0:s_067.ogg
51,192,166350,1,0,0:0:0:0:s_066.ogg
460,192,166425,1,0,0:0:0:0:s_054.ogg
51,192,166500,1,0,0:0:0:0:s_066.ogg
256,192,166500,1,0,0:0:0:0:s_043.ogg
358,192,166500,1,0,0:0:0:0:m_040.ogg
153,192,166600,1,0,0:0:0:0:s_067.ogg
51,192,166700,1,0,0:0:0:0:s_066.ogg
256,192,166800,1,0,0:0:0:0:s_078.ogg
460,192,166800,1,0,0:0:0:0:m_042.ogg
358,192,166875,1,0,0:0:0:0:s_079.ogg
256,192,166950,1,0,0:0:0:0:s_078.ogg
51,192,167025,1,0,0:0:0:0:s_066.ogg
153,192,167100,1,0,0:0:0:0:s_059.ogg
358,192,167100,1,0,0:0:0:0:s_050.ogg
256,192,167250,1,0,0:0:0:0:s_062.ogg
460,192,167250,1,0,0:0:0:0:s_054.ogg
51,192,167400,1,0,0:0:0:0:m_066.ogg
358,192,167400,1,0,0:0:0:0:m_059.ogg
153,192,167700,1,0,0:0:0:0:m_042.ogg
256,192,167700,1,0,0:0:0:0:s_078.ogg
358,192,167775,1,0,0:0:0:0:s_079.ogg
256,192,167850,1,0,0:0:0:0:s_078.ogg
51,192,167925,1,0,0:0:0:0:s_066.ogg
153,192,168000,1,0,0:0:0:0:s_058.ogg
358,192,168000,1,0,0:0:0:0:s_049.ogg
256,192,168150,1,0,0:0:0:0:s_061.ogg
460,192,168150,1,0,0:0:0:0:s_052.ogg
51,192,168300,1,0,0:0:0:0:m_058.ogg
358,192,168300,1,0,0:0:0:0:m_066.ogg
153,192,168600,1,0,0:0:0:0:m_035.ogg
256,192,168850,1,0,0:0:0:0:m_042.ogg
358,192,168900,1,0,0:0:0:0:m_050.ogg
460,192,168950,1,0,0:0:0:0:m_059.ogg
51,192,169200,1,0,0:0:0:0:m_054.ogg
153,192,169275,1,0,0:0:0:0:s_066.ogg
256,192,169350,1,0,0:0:0:0:s_067.ogg
153,192,169425,1,0,0:0:0:0:s_066.ogg
51,192,169500,1,0,0:0:0:0:m_066.ogg
358,192,169575,1,0,0:0:0:0:s_078.ogg
460,192,169650,1,0,0:0:0:0:s_079.ogg
358,192,169725,1,0,0:0:0:0:s_078.ogg
51,192,169800,1,0,0:0:0:0:m_066.ogg
358,192,169875,1,0,0:0:0:0:s_078.ogg
460,192,169950,1,0,0:0:0:0:s_079.ogg
358,192,170025,1,0,0:0:0:0:s_078.ogg
51,192,170100,1,0,0:0:0:0:m_064.ogg
256,192,170175,1,0,0:0:0:0:s_076.ogg
358,192,170250,1,0,0:0:0:0:s_078.ogg
256,192,170325,1,0,0:0:0:0:s_076.ogg
51,192,170400,1,0,0:0:0:0:m_062.ogg
358,192,170400,1,0,0:0:0:0:m_011.ogg
460,192,170400,1,0,0:0:0:0:m_023.ogg
153,192,170475,1,0,0:0:0:0:s_074.ogg
256,192,170550,1,0,0:0:0:0:s_076.ogg
153,192,170625,1,0,0:0:0:0:s_074.ogg
51,192,170700,1,0,0:0:0:0:m_062.ogg
358,192,170700,1,0,0:0:0:0:m_030.ogg
460,192,170700,1,0,0:0:0:0:m_038.ogg
153,192,170775,1,0,0:0:0:0:s_074.ogg
256,192,170850,1,0,0:0:0:0:s_076.ogg
153,192,170925,1,0,0:0:0:0:s_074.ogg
51,192,171000,1,0,0:0:0:0:m_061.ogg
256,192,171000,1,0,0:0:0:0:m_038.ogg
460,192,171000,1,0,0:0:0:0:m_042.ogg
358,192,171075,1,0,0:0:0:0:s_073.ogg
460,192,171150,1,0,0:0:0:0:s_074.ogg
358,192,171225,1,0,0:0:0:0:s_073.ogg
51,192,171300,1,0,0:0:0:0:m_059.ogg
153,192,171300,1,0,0:0:0:0:m_026.ogg
460,192,171300,1,0,0:0:0:0:m_014.ogg
256,192,171375,1,0,0:0:0:0:s_071.ogg
358,192,171450,1,0,0:0:0:0:s_073.ogg
256,192,171525,1,0,0:0:0:0:s_071.ogg
51,192,171600,1,0,0:0:0:0:m_058.ogg
358,192,171600,1,0,0:0:0:0:m_038.ogg
460,192,171600,1,0,0:0:0:0:m_030.ogg
153,192,171675,1,0,0:0:0:0:s_070.ogg
256,192,171750,1,0,0:0:0:0:s_071.ogg
153,192,171825,1,0,0:0:0:0:s_070.ogg
51,192,171900,1,0,0:0:0:0:m_059.ogg
358,192,171900,1,0,0:0:0:0:m_042.ogg
460,192,171900,1,0,0:0:0:0:m_038.ogg
256,192,171975,1,0,0:0:0:0:s_071.ogg
358,192,172050,1,0,0:0:0:0:s_073.ogg
256,192,172125,1,0,0:0:0:0:s_071.ogg
51,192,172200,1,0,0:0:0:0:m_061.ogg
153,192,172200,1,0,0:0:0:0:m_030.ogg
460,192,172200,1,0,0:0:0:0:m_018.ogg
358,192,172275,1,0,0:0:0:0:s_073.ogg
460,192,172350,1,0,0:0:0:0:s_074.ogg
358,192,172425,1,0,0:0:0:0:s_073.ogg
51,192,172500,1,0,0:0:0:0:m_054.ogg
256,192,172500,1,0,0:0:0:0:m_042.ogg
460,192,172500,1,0,0:0:0:0:m_034.ogg
153,192,172575,1,0,0:0:0:0:s_066.ogg
256,192,172650,1,0,0:0:0:0:s_067.ogg
153,192,172725,1,0,0:0:0:0:s_066.ogg
51,192,172800,1,0,0:0:0:0:m_054.ogg
358,192,172800,1,0,0:0:0:0:m_046.ogg
460,192,172800,1,0,0:0:0:0:m_042.ogg
153,192,172875,1,0,0:0:0:0:s_066.ogg
256,192,172950,1,0,0:0:0:0:s_067.ogg
153,192,173025,1,0,0:0:0:0:s_066.ogg
51,192,173100,1,0,0:0:0:0:m_055.ogg
460,192,173100,1,0,0:0:0:0:m_022.ogg
358,192,173175,1,0,0:0:0:0:s_067.ogg
460,192,173250,1,0,0:0:0:0:s_069.ogg
358,192,173325,1,0,0:0:0:0:s_067.ogg
51,192,173400,1,0,0:0:0:0:m_054.ogg
153,192,173400,1,0,0:0:0:0:m_042.ogg
460,192,173400,1,0,0:0:0:0:m_040.ogg
256,192,173475,1,0,0:0:0:0:s_066.ogg
358,192,173550,1,0,0:0:0:0:s_067.ogg
256,192,173625,1,0,0:0:0:0:s_066.ogg
51,192,173700,1,0,0:0:0:0:m_052.ogg
358,192,173700,1,0,0:0:0:0:m_049.ogg
460,192,173700,1,0,0:0:0:0:m_042.ogg
153,192,173775,1,0,0:0:0:0:s_064.ogg
256,192,173850,1,0,0:0:0:0:s_066.ogg
153,192,173925,1,0,0:0:0:0:s_064.ogg
51,192,174000,1,0,0:0:0:0:m_050.ogg
358,192,174000,1,0,0:0:0:0:m_023.ogg
460,192,174075,1,0,0:0:0:0:s_062.ogg
358,192,174150,1,0,0:0:0:0:s_064.ogg
460,192,174225,1,0,0:0:0:0:s_062.ogg
51,192,174300,1,0,0:0:0:0:m_050.ogg
153,192,174300,1,0,0:0:0:0:m_047.ogg
256,192,174300,1,0,0:0:0:0:m_042.ogg
460,192,174375,1,0,0:0:0:0:s_062.ogg
358,192,174450,1,0,0:0:0:0:s_064.ogg
460,192,174525,1,0,0:0:0:0:s_062.ogg
51,192,174600,1,0,0:0:0:0:m_049.ogg
153,192,174600,1,0,0:0:0:0:m_038.ogg
256,192,174600,1,0,0:0:0:0:m_042.ogg
358,192,174675,1,0,0:0:0:0:s_061.ogg
460,192,174750,1,0,0:0:0:0:s_062.ogg
358,192,174825,1,0,0:0:0:0:s_061.ogg
51,192,174900,1,0,0:0:0:0:m_047.ogg
153,192,174900,1,0,0:0:0:0:m_019.ogg
256,192,174975,1,0,0:0:0:0:s_059.ogg
358,192,175050,1,0,0:0:0:0:s_061.ogg
256,192,175125,1,0,0:0:0:0:s_059.ogg
51,192,175200,1,0,0:0:0:0:m_046.ogg
358,192,175200,1,0,0:0:0:0:m_038.ogg
460,192,175200,1,0,0:0:0:0:m_041.ogg
153,192,175275,1,0,0:0:0:0:s_058.ogg
256,192,175350,1,0,0:0:0:0:s_059.ogg
153,192,175425,1,0,0:0:0:0:s_058.ogg
51,192,175500,1,0,0:0:0:0:m_047.ogg
358,192,175500,1,0,0:0:0:0:m_037.ogg
460,192,175500,1,0,0:0:0:0:m_041.ogg
256,192,175575,1,0,0:0:0:0:s_059.ogg
358,192,175650,1,0,0:0:0:0:s_061.ogg
256,192,175725,1,0,0:0:0:0:s_059.ogg
51,192,175800,1,0,0:0:0:0:m_049.ogg
153,192,175800,1,0,0:0:0:0:m_018.ogg
358,192,175875,1,0,0:0:0:0:s_061.ogg
460,192,175950,1,0,0:0:0:0:s_062.ogg
358,192,176025,1,0,0:0:0:0:s_061.ogg
51,192,176100,1,0,0:0:0:0:m_042.ogg
256,192,176100,1,0,0:0:0:0:m_037.ogg
460,192,176100,1,0,0:0:0:0:m_034.ogg
153,192,176175,1,0,0:0:0:0:s_054.ogg
256,192,176250,1,0,0:0:0:0:s_055.ogg
153,192,176325,1,0,0:0:0:0:s_054.ogg
51,192,176400,1,0,0:0:0:0:m_054.ogg
358,192,176400,1,0,0:0:0:0:m_049.ogg
460,192,176400,1,0,0:0:0:0:m_046.ogg
256,192,176475,1,0,0:0:0:0:s_066.ogg
358,192,176550,1,0,0:0:0:0:s_067.ogg
256,192,176625,1,0,0:0:0:0:s_066.ogg
51,192,176700,1,0,0:0:0:0:m_066.ogg
153,192,176700,1,0,0:0:0:0:m_058.ogg
460,192,176700,1,0,0:0:0:0:m_061.ogg
358,192,176775,1,0,0:0:0:0:s_078.ogg
460,192,176850,1,0,0:0:0:0:s_079.ogg
358,192,176925,1,0,0:0:0:0:s_078.ogg
51,192,177000,1,0,0:0:0:0:m_066.ogg
358,192,177075,1,0,0:0:0:0:s_078.ogg
460,192,177150,1,0,0:0:0:0:s_079.ogg
358,192,177225,1,0,0:0:0:0:s_078.ogg
51,192,177300,1,0,0:0:0:0:m_064.ogg
256,192,177375,1,0,0:0:0:0:s_076.ogg
358,192,177450,1,0,0:0:0:0:s_078.ogg
256,192,177525,1,0,0:0:0:0:s_076.ogg
51,192,177600,1,0,0:0:0:0:m_063.ogg
460,192,177600,1,0,0:0:0:0:m_023.ogg
153,192,177675,1,0,0:0:0:0:s_075.ogg
256,192,177750,1,0,0:0:0:0:s_076.ogg
153,192,177825,1,0,0:0:0:0:s_075.ogg
51,192,177900,1,0,0:0:0:0:m_063.ogg
358,192,177900,1,0,0:0:0:0:m_036.ogg
460,192,177900,1,0,0:0:0:0:m_042.ogg
153,192,177975,1,0,0:0:0:0:s_075.ogg
256,192,178050,1,0,0:0:0:0:s_076.ogg
153,192,178125,1,0,0:0:0:0:s_075.ogg
51,192,178200,1,0,0:0:0:0:m_060.ogg
256,192,178200,1,0,0:0:0:0:m_042.ogg
460,192,178200,1,0,0:0:0:0:m_045.ogg
358,192,178275,1,0,0:0:0:0:s_072.ogg
460,192,178350,1,0,0:0:0:0:s_074.ogg
358,192,178425,1,0,0:0:0:0:s_072.ogg
51,192,178500,1,0,0:0:0:0:m_059.ogg
153,192,178500,1,0,0:0:0:0:m_027.ogg
256,192,178575,1,0,0:0:0:0:s_071.ogg
358,192,178650,1,0,0:0:0:0:s_072.ogg
256,192,178725,1,0,0:0:0:0:s_071.ogg
51,192,178800,1,0,0:0:0:0:m_059.ogg
153,192,178800,1,0,0:0:0:0:m_042.ogg
460,192,178800,1,0,0:0:0:0:m_036.ogg
256,192,178875,1,0,0:0:0:0:s_071.ogg
358,192,178950,1,0,0:0:0:0:s_072.ogg
256,192,179025,1,0,0:0:0:0:s_071.ogg
51,192,179100,1,0,0:0:0:0:m_057.ogg
358,192,179100,1,0,0:0:0:0:m_045.ogg
460,192,179100,1,0,0:0:0:0:m_042.ogg
153,192,179175,1,0,0:0:0:0:s_069.ogg
256,192,179250,1,0,0:0:0:0:s_071.ogg
153,192,179325,1,0,0:0:0:0:s_069.ogg
51,192,179400,1,0,0:0:0:0:m_055.ogg
460,192,179400,1,0,0:0:0:0:m_028.ogg
358,192,179475,1,0,0:0:0:0:s_067.ogg
460,192,179550,1,0,0:0:0:0:s_069.ogg
358,192,179625,1,0,0:0:0:0:s_067.ogg
51,192,179700,1,0,0:0:0:0:m_052.ogg
256,192,179700,1,0,0:0:0:0:m_048.ogg
460,192,179700,1,0,0:0:0:0:m_043.ogg
153,192,179775,1,0,0:0:0:0:s_064.ogg
256,192,179850,1,0,0:0:0:0:s_066.ogg
153,192,179925,1,0,0:0:0:0:s_064.ogg
51,192,180000,1,0,0:0:0:0:m_054.ogg
358,192,180000,1,0,0:0:0:0:m_039.ogg
460,192,180000,1,0,0:0:0:0:m_048.ogg
256,192,180075,1,0,0:0:0:0:s_066.ogg
358,192,180150,1,0,0:0:0:0:s_067.ogg
256,192,180225,1,0,0:0:0:0:s_066.ogg
51,192,180300,1,0,0:0:0:0:m_055.ogg
153,192,180300,1,0,0:0:0:0:m_048.ogg
460,192,180300,1,0,0:0:0:0:m_040.ogg
358,192,180375,1,0,0:0:0:0:s_067.ogg
460,192,180450,1,0,0:0:0:0:s_069.ogg
358,192,180525,1,0,0:0:0:0:s_067.ogg
51,192,180600,1,0,0:0:0:0:m_054.ogg
153,192,180600,1,0,0:0:0:0:m_048.ogg
460,192,180600,1,0,0:0:0:0:m_045.ogg
256,192,180675,1,0,0:0:0:0:s_066.ogg
358,192,180750,1,0,0:0:0:0:s_067.ogg
256,192,180825,1,0,0:0:0:0:s_066.ogg
51,192,180900,1,0,0:0:0:0:m_052.ogg
358,192,180900,1,0,0:0:0:0:m_043.ogg
460,192,180900,1,0,0:0:0:0:m_048.ogg
153,192,180975,1,0,0:0:0:0:s_064.ogg
256,192,181050,1,0,0:0:0:0:s_066.ogg
153,192,181125,1,0,0:0:0:0:s_064.ogg
256,192,181200,1,0,0:0:0:0:m_042.ogg
358,192,181200,1,0,0:0:0:0:s_054.ogg
460,192,181200,1,0,0:0:0:0:m_047.ogg
51,192,181250,1,0,0:0:0:0:s_066.ogg
153,192,181300,1,0,0:0:0:0:s_055.ogg
256,192,181350,1,0,0:0:0:0:s_056.ogg
358,192,181400,1,0,0:0:0:0:s_057.ogg
460,192,181450,1,0,0:0:0:0:s_058.ogg
51,192,181500,1,0,0:0:0:0:s_059.ogg
153,192,181550,1,0,0:0:0:0:s_060.ogg
256,192,181600,1,0,0:0:0:0:s_061.ogg
358,192,181650,1,0,0:0:0:0:s_062.ogg
460,192,181700,1,0,0:0:0:0:s_063.ogg
51,192,181750,1,0,0:0:0:0:s_064.ogg
153,192,181800,1,0,0:0:0:0:s_065.ogg
256,192,181850,1,0,0:0:0:0:s_066.ogg
358,192,181900,1,0,0:0:0:0:s_067.ogg
460,192,181950,1,0,0:0:0:0:s_068.ogg
51,192,182000,1,0,0:0:0:0:s_069.ogg
153,192,182050,1,0,0:0:0:0:s_070.ogg
256,192,182100,1,0,0:0:0:0:s_071.ogg
358,192,182150,1,0,0:0:0:0:s_072.ogg
460,192,182200,1,0,0:0:0:0:s_073.ogg
51,192,182250,1,0,0:0:0:0:s_074.ogg
153,192,182300,1,0,0:0:0:0:s_075.ogg
256,192,182350,1,0,0:0:0:0:s_076.ogg
51,192,182400,1,0,0:0:0:0:m_040.ogg
358,192,182400,1,0,0:0:0:0:s_077.ogg
460,192,182400,1,0,0:0:0:0:m_046.ogg
256,192,182450,1,0,0:0:0:0:s_078.ogg
153,192,182500,1,0,0:0:0:0:s_081.ogg
51,192,182550,1,0,0:0:0:0:s_079.ogg
460,192,182600,1,0,0:0:0:0:s_076.ogg
358,192,182650,1,0,0:0:0:0:s_073.ogg
256,192,182700,1,0,0:0:0:0:s_070.ogg
153,192,182750,1,0,0:0:0:0:s_065.ogg
256,192,182800,1,0,0:0:0:0:s_066.ogg
358,192,182850,1,0,0:0:0:0:s_069.ogg
256,192,182900,1,0,0:0:0:0:s_067.ogg
153,192,182950,1,0,0:0:0:0:s_064.ogg
51,192,183000,1,0,0:0:0:0:s_061.ogg
460,192,183050,1,0,0:0:0:0:s_058.ogg
358,192,183100,1,0,0:0:0:0:s_055.ogg
256,192,183150,1,0,0:0:0:0:s_052.ogg
153,192,183200,1,0,0:0:0:0:s_049.ogg
51,192,183250,1,0,0:0:0:0:s_046.ogg
460,192,183300,1,0,0:0:0:0:s_043.ogg
358,192,183350,1,0,0:0:0:0:s_040.ogg
256,192,183400,1,0,0:0:0:0:s_037.ogg
153,192,183450,1,0,0:0:0:0:s_034.ogg
256,192,183600,1,0,0:0:0:0:m_023.ogg
358,192,183700,1,0,0:0:0:0:m_030.ogg
460,192,183800,1,0,0:0:0:0:m_035.ogg
51,192,183900,1,0,0:0:0:0:m_038.ogg
153,192,184000,1,0,0:0:0:0:m_042.ogg
256,192,184100,1,0,0:0:0:0:m_047.ogg
358,192,184200,1,0,0:0:0:0:m_050.ogg
460,192,184300,1,0,0:0:0:0:m_054.ogg
51,192,184400,1,0,0:0:0:0:m_059.ogg
153,192,184500,1,0,0:0:0:0:m_062.ogg
256,192,184600,1,0,0:0:0:0:m_066.ogg
460,192,184700,1,0,0:0:0:0:m_074.ogg
358,192,184800,1,0,0:0:0:0:m_071.ogg
256,192,185975,1,0,0:0:0:0:s_050.ogg
358,192,185975,1,0,0:0:0:0:s_047.ogg
460,192,185975,1,0,0:0:0:0:s_062.ogg
153,192,186100,1,0,0:0:0:0:s_049.ogg
256,192,186100,1,0,0:0:0:0:s_062.ogg
460,192,186100,1,0,0:0:0:0:s_050.ogg
51,192,186225,1,0,0:0:0:0:s_048.ogg
256,192,186225,1,0,0:0:0:0:s_062.ogg
460,192,186225,1,0,0:0:0:0:s_050.ogg
256,192,186350,1,0,0:0:0:0:s_062.ogg
358,192,186350,1,0,0:0:0:0:s_047.ogg
460,192,186350,1,0,0:0:0:0:s_050.ogg
153,192,186475,1,0,0:0:0:0:s_046.ogg
256,192,186475,1,0,0:0:0:0:s_062.ogg
460,192,186475,1,0,0:0:0:0:s_050.ogg
51,192,186600,1,0,0:0:0:0:s_026.ogg
256,192,186600,1,0,0:0:0:0:s_062.ogg
51,192,186725,1,0,0:0:0:0:s_045.ogg
460,192,186725,1,0,0:0:0:0:s_042.ogg
153,192,186850,1,0,0:0:0:0:s_057.ogg
256,192,186850,1,0,0:0:0:0:s_033.ogg
358,192,186850,1,0,0:0:0:0:s_050.ogg
51,192,186975,1,0,0:0:0:0:s_045.ogg
460,192,186975,1,0,0:0:0:0:s_042.ogg
256,192,187100,1,0,0:0:0:0:s_062.ogg
358,192,187100,1,0,0:0:0:0:s_026.ogg
51,192,187225,1,0,0:0:0:0:s_045.ogg
153,192,187225,1,0,0:0:0:0:s_042.ogg
358,192,187350,1,0,0:0:0:0:s_064.ogg
460,192,187350,1,0,0:0:0:0:s_021.ogg
51,192,187475,1,0,0:0:0:0:s_045.ogg
153,192,187475,1,0,0:0:0:0:s_043.ogg
256,192,187600,1,0,0:0:0:0:s_057.ogg
358,192,187600,1,0,0:0:0:0:s_033.ogg
460,192,187600,1,0,0:0:0:0:s_052.ogg
51,192,187725,1,0,0:0:0:0:s_045.ogg
153,192,187725,1,0,0:0:0:0:s_043.ogg
256,192,187850,1,0,0:0:0:0:s_021.ogg
358,192,187850,1,0,0:0:0:0:s_064.ogg
51,192,187975,1,0,0:0:0:0:s_045.ogg
153,192,187975,1,0,0:0:0:0:s_043.ogg
358,192,188100,1,0,0:0:0:0:s_026.ogg
460,192,188100,1,0,0:0:0:0:s_066.ogg
51,192,188225,1,0,0:0:0:0:s_045.ogg
256,192,188225,1,0,0:0:0:0:s_042.ogg
153,192,188350,1,0,0:0:0:0:s_054.ogg
358,192,188350,1,0,0:0:0:0:s_033.ogg
256,192,188475,1,0,0:0:0:0:s_062.ogg
460,192,188475,1,0,0:0:0:0:s_026.ogg
51,192,188600,1,0,0:0:0:0:s_021.ogg
358,192,188600,1,0,0:0:0:0:s_066.ogg
153,192,188725,1,0,0:0:0:0:s_014.ogg
460,192,188725,1,0,0:0:0:0:s_078.ogg
153,192,189225,1,0,0:0:0:0:s_054.ogg
358,192,189225,1,0,0:0:0:0:s_066.ogg
460,192,189225,1,0,0:0:0:0:s_050.ogg
153,192,189350,1,0,0:0:0:0:s_054.ogg
256,192,189350,1,0,0:0:0:0:s_053.ogg
358,192,189350,1,0,0:0:0:0:s_066.ogg
51,192,189475,1,0,0:0:0:0:s_052.ogg
153,192,189475,1,0,0:0:0:0:s_054.ogg
358,192,189475,1,0,0:0:0:0:s_066.ogg
153,192,189600,1,0,0:0:0:0:s_054.ogg
358,192,189600,1,0,0:0:0:0:s_066.ogg
460,192,189600,1,0,0:0:0:0:s_051.ogg
153,192,189725,1,0,0:0:0:0:s_054.ogg
256,192,189725,1,0,0:0:0:0:s_050.ogg
358,192,189725,1,0,0:0:0:0:s_066.ogg
51,192,189850,1,0,0:0:0:0:s_030.ogg
256,192,189850,1,0,0:0:0:0:s_066.ogg
51,192,189975,1,0,0:0:0:0:s_049.ogg
358,192,189975,1,0,0:0:0:0:s_045.ogg
153,192,190100,1,0,0:0:0:0:s_061.ogg
256,192,190100,1,0,0:0:0:0:s_037.ogg
460,192,190100,1,0,0:0:0:0:s_054.ogg
51,192,190225,1,0,0:0:0:0:s_049.ogg
358,192,190225,1,0,0:0:0:0:s_045.ogg
256,192,190350,1,0,0:0:0:0:s_066.ogg
460,192,190350,1,0,0:0:0:0:s_030.ogg
51,192,190475,1,0,0:0:0:0:s_049.ogg
153,192,190475,1,0,0:0:0:0:s_045.ogg
358,192,190600,1,0,0:0:0:0:s_068.ogg
460,192,190600,1,0,0:0:0:0:s_025.ogg
51,192,190725,1,0,0:0:0:0:s_049.ogg
153,192,190725,1,0,0:0:0:0:s_044.ogg
256,192,190850,1,0,0:0:0:0:s_061.ogg
358,192,190850,1,0,0:0:0:0:s_037.ogg
460,192,190850,1,0,0:0:0:0:s_041.ogg
51,192,190975,1,0,0:0:0:0:s_049.ogg
153,192,190975,1,0,0:0:0:0:s_044.ogg
256,192,191100,1,0,0:0:0:0:s_025.ogg
358,192,191100,1,0,0:0:0:0:s_068.ogg
51,192,191225,1,0,0:0:0:0:s_049.ogg
153,192,191225,1,0,0:0:0:0:s_044.ogg
256,192,191350,1,0,0:0:0:0:s_030.ogg
460,192,191350,1,0,0:0:0:0:s_069.ogg
51,192,191475,1,0,0:0:0:0:s_049.ogg
358,192,191475,1,0,0:0:0:0:s_045.ogg
153,192,191600,1,0,0:0:0:0:s_057.ogg
460,192,191600,1,0,0:0:0:0:s_037.ogg
51,192,191725,1,0,0:0:0:0:s_030.ogg
256,192,191725,1,0,0:0:0:0:s_066.ogg
153,192,191850,1,0,0:0:0:0:s_025.ogg
358,192,191850,1,0,0:0:0:0:s_069.ogg
256,192,191975,1,0,0:0:0:0:s_018.ogg
460,192,191975,1,0,0:0:0:0:s_078.ogg
153,192,192475,1,0,0:0:0:0:s_054.ogg
256,192,192475,1,0,0:0:0:0:s_069.ogg
358,192,192475,1,0,0:0:0:0:s_057.ogg
51,192,192600,1,0,0:0:0:0:s_053.ogg
256,192,192600,1,0,0:0:0:0:s_057.ogg
358,192,192600,1,0,0:0:0:0:s_069.ogg
256,192,192725,1,0,0:0:0:0:s_057.ogg
358,192,192725,1,0,0:0:0:0:s_069.ogg
460,192,192725,1,0,0:0:0:0:s_052.ogg
153,192,192850,1,0,0:0:0:0:s_051.ogg
256,192,192850,1,0,0:0:0:0:s_057.ogg
358,192,192850,1,0,0:0:0:0:s_069.ogg
51,192,192975,1,0,0:0:0:0:s_050.ogg
256,192,192975,1,0,0:0:0:0:s_057.ogg
358,192,192975,1,0,0:0:0:0:s_069.ogg
153,192,193100,1,0,0:0:0:0:s_033.ogg
358,192,193100,1,0,0:0:0:0:s_069.ogg
51,192,193225,1,0,0:0:0:0:s_052.ogg
460,192,193225,1,0,0:0:0:0:s_049.ogg
153,192,193350,1,0,0:0:0:0:s_057.ogg
256,192,193350,1,0,0:0:0:0:s_064.ogg
358,192,193350,1,0,0:0:0:0:s_040.ogg
51,192,193475,1,0,0:0:0:0:s_052.ogg
460,192,193475,1,0,0:0:0:0:s_049.ogg
153,192,193600,1,0,0:0:0:0:s_033.ogg
358,192,193600,1,0,0:0:0:0:s_069.ogg
51,192,193725,1,0,0:0:0:0:s_052.ogg
256,192,193725,1,0,0:0:0:0:s_045.ogg
358,192,193850,1,0,0:0:0:0:s_028.ogg
460,192,193850,1,0,0:0:0:0:s_071.ogg
51,192,193975,1,0,0:0:0:0:s_052.ogg
256,192,193975,1,0,0:0:0:0:s_050.ogg
153,192,194100,1,0,0:0:0:0:s_059.ogg
358,192,194100,1,0,0:0:0:0:s_064.ogg
460,192,194100,1,0,0:0:0:0:s_044.ogg
51,192,194225,1,0,0:0:0:0:s_052.ogg
256,192,194225,1,0,0:0:0:0:s_050.ogg
153,192,194350,1,0,0:0:0:0:s_028.ogg
460,192,194350,1,0,0:0:0:0:s_071.ogg
51,192,194475,1,0,0:0:0:0:s_052.ogg
256,192,194475,1,0,0:0:0:0:s_050.ogg
153,192,194600,1,0,0:0:0:0:s_064.ogg
256,192,194600,1,0,0:0:0:0:s_069.ogg
358,192,194600,1,0,0:0:0:0:s_073.ogg
153,192,194725,1,0,0:0:0:0:s_064.ogg
358,192,194725,1,0,0:0:0:0:s_071.ogg
460,192,194725,1,0,0:0:0:0:s_074.ogg
153,192,194850,1,0,0:0:0:0:s_064.ogg
256,192,194850,1,0,0:0:0:0:s_076.ogg
460,192,194850,1,0,0:0:0:0:s_073.ogg
153,192,194975,1,0,0:0:0:0:s_064.ogg
256,192,194975,1,0,0:0:0:0:s_076.ogg
460,192,194975,1,0,0:0:0:0:s_073.ogg
51,192,195100,1,0,0:0:0:0:s_074.ogg
153,192,195100,1,0,0:0:0:0:s_064.ogg
358,192,195100,1,0,0:0:0:0:s_071.ogg
51,192,195225,1,0,0:0:0:0:s_069.ogg
153,192,195225,1,0,0:0:0:0:s_064.ogg
256,192,195225,1,0,0:0:0:0:s_073.ogg
51,192,195350,1,0,0:0:0:0:s_062.ogg
256,192,195350,1,0,0:0:0:0:s_071.ogg
358,192,195350,1,0,0:0:0:0:s_066.ogg
153,192,195475,1,0,0:0:0:0:s_064.ogg
358,192,195475,1,0,0:0:0:0:s_066.ogg
460,192,195475,1,0,0:0:0:0:s_073.ogg
51,192,195600,1,0,0:0:0:0:s_038.ogg
256,192,195600,1,0,0:0:0:0:s_074.ogg
358,192,195600,1,0,0:0:0:0:s_066.ogg
51,192,195725,1,0,0:0:0:0:s_047.ogg
256,192,195725,1,0,0:0:0:0:s_074.ogg
358,192,195725,1,0,0:0:0:0:s_066.ogg
153,192,195850,1,0,0:0:0:0:s_073.ogg
358,192,195850,1,0,0:0:0:0:s_066.ogg
460,192,195850,1,0,0:0:0:0:s_064.ogg
51,192,195975,1,0,0:0:0:0:s_071.ogg
256,192,195975,1,0,0:0:0:0:s_062.ogg
358,192,195975,1,0,0:0:0:0:s_066.ogg
51,192,196100,1,0,0:0:0:0:s_061.ogg
153,192,196100,1,0,0:0:0:0:s_064.ogg
460,192,196100,1,0,0:0:0:0:s_069.ogg
153,192,196225,1,0,0:0:0:0:s_064.ogg
256,192,196225,1,0,0:0:0:0:s_062.ogg
358,192,196225,1,0,0:0:0:0:s_071.ogg
51,192,196350,1,0,0:0:0:0:s_037.ogg
153,192,196350,1,0,0:0:0:0:s_064.ogg
460,192,196350,1,0,0:0:0:0:s_073.ogg
51,192,196475,1,0,0:0:0:0:s_045.ogg
153,192,196475,1,0,0:0:0:0:s_064.ogg
460,192,196475,1,0,0:0:0:0:s_073.ogg
153,192,196600,1,0,0:0:0:0:s_064.ogg
256,192,196600,1,0,0:0:0:0:s_071.ogg
358,192,196600,1,0,0:0:0:0:s_062.ogg
51,192,196725,1,0,0:0:0:0:s_069.ogg
153,192,196725,1,0,0:0:0:0:s_064.ogg
256,192,196725,1,0,0:0:0:0:s_057.ogg
51,192,196850,1,0,0:0:0:0:s_059.ogg
153,192,196850,1,0,0:0:0:0:s_064.ogg
358,192,196850,1,0,0:0:0:0:s_068.ogg
153,192,196975,1,0,0:0:0:0:s_064.ogg
256,192,196975,1,0,0:0:0:0:s_061.ogg
460,192,196975,1,0,0:0:0:0:s_069.ogg
153,192,197100,1,0,0:0:0:0:s_064.ogg
358,192,197100,1,0,0:0:0:0:s_071.ogg
460,192,197100,1,0,0:0:0:0:s_062.ogg
153,192,197225,1,0,0:0:0:0:s_064.ogg
358,192,197225,1,0,0:0:0:0:s_071.ogg
460,192,197225,1,0,0:0:0:0:s_062.ogg
51,192,197350,1,0,0:0:0:0:s_066.ogg
153,192,197350,1,0,0:0:0:0:s_064.ogg
256,192,197350,1,0,0:0:0:0:s_057.ogg
153,192,197475,1,0,0:0:0:0:s_064.ogg
358,192,197475,1,0,0:0:0:0:s_068.ogg
460,192,197475,1,0,0:0:0:0:s_059.ogg
51,192,197600,1,0,0:0:0:0:m_049.ogg
153,192,197600,1,0,0:0:0:0:m_064.ogg
256,192,197600,1,0,0:0:0:0:m_069.ogg
358,192,197600,1,0,0:0:0:0:m_045.ogg
51,192,197850,1,0,0:0:0:0:s_033.ogg
256,192,197850,1,0,0:0:0:0:s_021.ogg
51,192,197975,1,0,0:0:0:0:s_033.ogg
256,192,197975,1,0,0:0:0:0:s_021.ogg
153,192,198100,1,0,0:0:0:0:s_034.ogg
358,192,198100,1,0,0:0:0:0:s_022.ogg
153,192,198225,1,0,0:0:0:0:s_034.ogg
358,192,198225,1,0,0:0:0:0:s_022.ogg
256,192,198350,1,0,0:0:0:0:s_035.ogg
460,192,198350,1,0,0:0:0:0:s_023.ogg
256,192,198475,1,0,0:0:0:0:s_035.ogg
460,192,198475,1,0,0:0:0:0:s_023.ogg
51,192,198600,1,0,0:0:0:0:s_035.ogg
358,192,198600,1,0,0:0:0:0:s_047.ogg
51,192,198725,1,0,0:0:0:0:s_035.ogg
358,192,198725,1,0,0:0:0:0:s_047.ogg
153,192,198850,1,0,0:0:0:0:s_047.ogg
460,192,198850,1,0,0:0:0:0:s_059.ogg
153,192,198975,1,0,0:0:0:0:s_047.ogg
460,192,198975,1,0,0:0:0:0:s_059.ogg
51,192,199100,1,0,0:0:0:0:m_071.ogg
256,192,199100,1,0,0:0:0:0:m_059.ogg
51,192,199350,1,0,0:0:0:0:s_059.ogg
153,192,199350,1,0,0:0:0:0:s_069.ogg
358,192,199350,1,0,0:0:0:0:s_081.ogg
51,192,199475,1,0,0:0:0:0:s_059.ogg
153,192,199475,1,0,0:0:0:0:s_069.ogg
358,192,199475,1,0,0:0:0:0:s_081.ogg
51,192,199600,1,0,0:0:0:0:s_059.ogg
256,192,199600,1,0,0:0:0:0:s_067.ogg
460,192,199600,1,0,0:0:0:0:s_079.ogg
51,192,199725,1,0,0:0:0:0:s_059.ogg
256,192,199725,1,0,0:0:0:0:s_067.ogg
460,192,199725,1,0,0:0:0:0:s_079.ogg
51,192,199850,1,0,0:0:0:0:s_059.ogg
153,192,199850,1,0,0:0:0:0:s_066.ogg
358,192,199850,1,0,0:0:0:0:s_078.ogg
51,192,199975,1,0,0:0:0:0:s_059.ogg
153,192,199975,1,0,0:0:0:0:s_078.ogg
358,192,199975,1,0,0:0:0:0:s_066.ogg
51,192,200100,1,0,0:0:0:0:s_059.ogg
256,192,200100,1,0,0:0:0:0:s_076.ogg
460,192,200100,1,0,0:0:0:0:s_064.ogg
51,192,200225,1,0,0:0:0:0:s_059.ogg
256,192,200225,1,0,0:0:0:0:s_064.ogg
460,192,200225,1,0,0:0:0:0:s_076.ogg
51,192,200350,1,0,0:0:0:0:s_059.ogg
153,192,200350,1,0,0:0:0:0:s_066.ogg
358,192,200350,1,0,0:0:0:0:s_078.ogg
51,192,200475,1,0,0:0:0:0:s_059.ogg
153,192,200475,1,0,0:0:0:0:s_066.ogg
358,192,200475,1,0,0:0:0:0:s_078.ogg
51,192,200600,1,0,0:0:0:0:s_059.ogg
256,192,200600,1,0,0:0:0:0:m_067.ogg
460,192,200600,1,0,0:0:0:0:m_079.ogg
153,192,200850,1,0,0:0:0:0:s_035.ogg
358,192,200850,1,0,0:0:0:0:s_023.ogg
153,192,200975,1,0,0:0:0:0:s_035.ogg
358,192,200975,1,0,0:0:0:0:s_023.ogg
51,192,201100,1,0,0:0:0:0:s_034.ogg
256,192,201100,1,0,0:0:0:0:s_022.ogg
51,192,201225,1,0,0:0:0:0:s_034.ogg
256,192,201225,1,0,0:0:0:0:s_022.ogg
153,192,201350,1,0,0:0:0:0:s_021.ogg
460,192,201350,1,0,0:0:0:0:s_033.ogg
153,192,201475,1,0,0:0:0:0:s_021.ogg
460,192,201475,1,0,0:0:0:0:s_033.ogg
51,192,201600,1,0,0:0:0:0:s_033.ogg
358,192,201600,1,0,0:0:0:0:s_045.ogg
51,192,201725,1,0,0:0:0:0:s_045.ogg
358,192,201725,1,0,0:0:0:0:s_033.ogg
153,192,201850,1,0,0:0:0:0:s_057.ogg
460,192,201850,1,0,0:0:0:0:s_045.ogg
153,192,201975,1,0,0:0:0:0:s_057.ogg
460,192,201975,1,0,0:0:0:0:s_045.ogg
51,192,202100,1,0,0:0:0:0:m_069.ogg
256,192,202100,1,0,0:0:0:0:m_057.ogg
153,192,202350,1,0,0:0:0:0:s_079.ogg
358,192,202350,1,0,0:0:0:0:s_067.ogg
460,192,202350,1,0,0:0:0:0:s_057.ogg
153,192,202475,1,0,0:0:0:0:s_079.ogg
358,192,202475,1,0,0:0:0:0:s_067.ogg
460,192,202475,1,0,0:0:0:0:s_057.ogg
51,192,202600,1,0,0:0:0:0:s_078.ogg
256,192,202600,1,0,0:0:0:0:s_066.ogg
460,192,202600,1,0,0:0:0:0:s_057.ogg
51,192,202725,1,0,0:0:0:0:s_078.ogg
256,192,202725,1,0,0:0:0:0:s_066.ogg
460,192,202725,1,0,0:0:0:0:s_057.ogg
153,192,202850,1,0,0:0:0:0:s_076.ogg
358,192,202850,1,0,0:0:0:0:s_064.ogg
460,192,202850,1,0,0:0:0:0:s_057.ogg
153,192,202975,1,0,0:0:0:0:s_076.ogg
358,192,202975,1,0,0:0:0:0:s_064.ogg
460,192,202975,1,0,0:0:0:0:s_057.ogg
51,192,203100,1,0,0:0:0:0:s_074.ogg
256,192,203100,1,0,0:0:0:0:s_062.ogg
460,192,203100,1,0,0:0:0:0:s_057.ogg
51,192,203225,1,0,0:0:0:0:s_074.ogg
256,192,203225,1,0,0:0:0:0:s_062.ogg
460,192,203225,1,0,0:0:0:0:s_057.ogg
153,192,203350,1,0,0:0:0:0:s_076.ogg
358,192,203350,1,0,0:0:0:0:s_064.ogg
460,192,203350,1,0,0:0:0:0:s_057.ogg
153,192,203475,1,0,0:0:0:0:s_076.ogg
358,192,203475,1,0,0:0:0:0:s_064.ogg
460,192,203475,1,0,0:0:0:0:s_057.ogg
51,192,203600,1,0,0:0:0:0:m_066.ogg
256,192,203600,1,0,0:0:0:0:m_078.ogg
256,192,203850,1,0,0:0:0:0:s_020.ogg
460,192,203850,1,0,0:0:0:0:s_032.ogg
256,192,203975,1,0,0:0:0:0:s_020.ogg
460,192,203975,1,0,0:0:0:0:s_032.ogg
153,192,204100,1,0,0:0:0:0:s_019.ogg
358,192,204100,1,0,0:0:0:0:s_031.ogg
153,192,204225,1,0,0:0:0:0:s_019.ogg
358,192,204225,1,0,0:0:0:0:s_031.ogg
51,192,204350,1,0,0:0:0:0:s_018.ogg
256,192,204350,1,0,0:0:0:0:s_030.ogg
51,192,204475,1,0,0:0:0:0:s_018.ogg
256,192,204475,1,0,0:0:0:0:s_030.ogg
153,192,204600,1,0,0:0:0:0:s_042.ogg
358,192,204600,1,0,0:0:0:0:s_030.ogg
153,192,204725,1,0,0:0:0:0:s_042.ogg
358,192,204725,1,0,0:0:0:0:s_030.ogg
256,192,204850,1,0,0:0:0:0:s_042.ogg
460,192,204850,1,0,0:0:0:0:s_054.ogg
256,192,204975,1,0,0:0:0:0:s_042.ogg
460,192,204975,1,0,0:0:0:0:s_054.ogg
51,192,205100,1,0,0:0:0:0:m_054.ogg
460,192,205100,1,0,0:0:0:0:m_066.ogg
51,192,205350,1,0,0:0:0:0:s_054.ogg
153,192,205350,1,0,0:0:0:0:s_042.ogg
460,192,205350,1,0,0:0:0:0:s_066.ogg
51,192,205475,1,0,0:0:0:0:s_054.ogg
153,192,205475,1,0,0:0:0:0:s_046.ogg
460,192,205475,1,0,0:0:0:0:s_066.ogg
51,192,205600,1,0,0:0:0:0:s_054.ogg
256,192,205600,1,0,0:0:0:0:s_044.ogg
460,192,205600,1,0,0:0:0:0:s_066.ogg
51,192,205725,1,0,0:0:0:0:s_054.ogg
256,192,205725,1,0,0:0:0:0:s_047.ogg
460,192,205725,1,0,0:0:0:0:s_066.ogg
153,192,205850,1,0,0:0:0:0:s_055.ogg
358,192,205850,1,0,0:0:0:0:s_067.ogg
460,192,205850,1,0,0:0:0:0:s_048.ogg
51,192,205975,1,0,0:0:0:0:s_054.ogg
256,192,205975,1,0,0:0:0:0:s_066.ogg
358,192,205975,1,0,0:0:0:0:s_048.ogg
153,192,206100,1,0,0:0:0:0:s_052.ogg
256,192,206100,1,0,0:0:0:0:s_043.ogg
460,192,206100,1,0,0:0:0:0:s_064.ogg
51,192,206225,1,0,0:0:0:0:s_050.ogg
153,192,206225,1,0,0:0:0:0:s_046.ogg
358,192,206225,1,0,0:0:0:0:s_062.ogg
51,192,206350,1,0,0:0:0:0:s_041.ogg
256,192,206350,1,0,0:0:0:0:s_049.ogg
460,192,206350,1,0,0:0:0:0:s_061.ogg
153,192,206475,1,0,0:0:0:0:s_047.ogg
358,192,206475,1,0,0:0:0:0:s_059.ogg
460,192,206475,1,0,0:0:0:0:s_044.ogg
51,192,206600,1,0,0:0:0:0:m_058.ogg
256,192,206600,1,0,0:0:0:0:m_046.ogg
358,192,206600,1,0,0:0:0:0:m_042.ogg
51,192,206850,1,0,0:0:0:0:s_025.ogg
256,192,206850,1,0,0:0:0:0:s_013.ogg
51,192,206975,1,0,0:0:0:0:s_025.ogg
256,192,206975,1,0,0:0:0:0:s_013.ogg
153,192,207100,1,0,0:0:0:0:s_029.ogg
358,192,207100,1,0,0:0:0:0:s_017.ogg
153,192,207225,1,0,0:0:0:0:s_029.ogg
358,192,207225,1,0,0:0:0:0:s_017.ogg
256,192,207350,1,0,0:0:0:0:s_030.ogg
460,192,207350,1,0,0:0:0:0:s_018.ogg
256,192,207475,1,0,0:0:0:0:s_030.ogg
460,192,207475,1,0,0:0:0:0:s_018.ogg
51,192,207600,1,0,0:0:0:0:s_030.ogg
358,192,207600,1,0,0:0:0:0:s_042.ogg
51,192,207725,1,0,0:0:0:0:s_030.ogg
358,192,207725,1,0,0:0:0:0:s_042.ogg
153,192,207850,1,0,0:0:0:0:s_042.ogg
460,192,207850,1,0,0:0:0:0:s_054.ogg
153,192,207975,1,0,0:0:0:0:s_042.ogg
460,192,207975,1,0,0:0:0:0:s_054.ogg
51,192,208100,1,0,0:0:0:0:m_066.ogg
256,192,208100,1,0,0:0:0:0:m_054.ogg
51,192,208350,1,0,0:0:0:0:s_046.ogg
153,192,208350,1,0,0:0:0:0:s_078.ogg
358,192,208350,1,0,0:0:0:0:s_066.ogg
51,192,208475,1,0,0:0:0:0:s_046.ogg
153,192,208475,1,0,0:0:0:0:s_078.ogg
358,192,208475,1,0,0:0:0:0:s_066.ogg
153,192,208600,1,0,0:0:0:0:s_078.ogg
256,192,208600,1,0,0:0:0:0:s_047.ogg
358,192,208600,1,0,0:0:0:0:s_066.ogg
153,192,208725,1,0,0:0:0:0:s_078.ogg
256,192,208725,1,0,0:0:0:0:s_047.ogg
358,192,208725,1,0,0:0:0:0:s_066.ogg
51,192,208850,1,0,0:0:0:0:s_048.ogg
256,192,208850,1,0,0:0:0:0:s_079.ogg
460,192,208850,1,0,0:0:0:0:s_067.ogg
51,192,208975,1,0,0:0:0:0:s_048.ogg
153,192,208975,1,0,0:0:0:0:s_078.ogg
358,192,208975,1,0,0:0:0:0:s_066.ogg
51,192,209100,1,0,0:0:0:0:s_076.ogg
256,192,209100,1,0,0:0:0:0:s_064.ogg
358,192,209100,1,0,0:0:0:0:s_049.ogg
153,192,209225,1,0,0:0:0:0:s_074.ogg
358,192,209225,1,0,0:0:0:0:s_049.ogg
460,192,209225,1,0,0:0:0:0:s_062.ogg
51,192,209350,1,0,0:0:0:0:s_073.ogg
153,192,209350,1,0,0:0:0:0:s_053.ogg
358,192,209350,1,0,0:0:0:0:s_061.ogg
153,192,209475,1,0,0:0:0:0:s_053.ogg
256,192,209475,1,0,0:0:0:0:s_071.ogg
460,192,209475,1,0,0:0:0:0:s_059.ogg
153,192,209600,1,0,0:0:0:0:s_058.ogg
358,192,209600,1,0,0:0:0:0:s_070.ogg
460,192,209600,1,0,0:0:0:0:s_054.ogg
51,192,209725,1,0,0:0:0:0:s_057.ogg
256,192,209725,1,0,0:0:0:0:s_069.ogg
460,192,209725,1,0,0:0:0:0:s_054.ogg
153,192,209850,1,0,0:0:0:0:s_056.ogg
256,192,209850,1,0,0:0:0:0:s_050.ogg
460,192,209850,1,0,0:0:0:0:s_068.ogg
51,192,209975,1,0,0:0:0:0:s_055.ogg
256,192,209975,1,0,0:0:0:0:s_050.ogg
358,192,209975,1,0,0:0:0:0:s_067.ogg
153,192,210100,1,0,0:0:0:0:s_048.ogg
256,192,210100,1,0,0:0:0:0:s_053.ogg
460,192,210100,1,0,0:0:0:0:s_065.ogg
51,192,210225,1,0,0:0:0:0:s_054.ogg
153,192,210225,1,0,0:0:0:0:s_048.ogg
358,192,210225,1,0,0:0:0:0:s_066.ogg
153,192,210350,1,0,0:0:0:0:s_055.ogg
256,192,210350,1,0,0:0:0:0:s_049.ogg
460,192,210350,1,0,0:0:0:0:s_067.ogg
51,192,210475,1,0,0:0:0:0:s_054.ogg
256,192,210475,1,0,0:0:0:0:s_049.ogg
358,192,210475,1,0,0:0:0:0:s_066.ogg
51,192,210600,1,0,0:0:0:0:s_046.ogg
256,192,210600,1,0,0:0:0:0:s_052.ogg
460,192,210600,1,0,0:0:0:0:s_064.ogg
51,192,210725,1,0,0:0:0:0:s_046.ogg
153,192,210725,1,0,0:0:0:0:s_050.ogg
358,192,210725,1,0,0:0:0:0:s_062.ogg
51,192,210850,1,0,0:0:0:0:s_049.ogg
256,192,210850,1,0,0:0:0:0:s_061.ogg
358,192,210850,1,0,0:0:0:0:s_044.ogg
153,192,210975,1,0,0:0:0:0:s_047.ogg
358,192,210975,1,0,0:0:0:0:s_044.ogg
460,192,210975,1,0,0:0:0:0:s_059.ogg
51,192,211100,1,0,0:0:0:0:s_046.ogg
153,192,211100,1,0,0:0:0:0:s_042.ogg
358,192,211100,1,0,0:0:0:0:s_058.ogg
153,192,211225,1,0,0:0:0:0:s_042.ogg
256,192,211225,1,0,0:0:0:0:s_045.ogg
460,192,211225,1,0,0:0:0:0:s_057.ogg
153,192,211350,1,0,0:0:0:0:s_044.ogg
358,192,211350,1,0,0:0:0:0:s_056.ogg
460,192,211350,1,0,0:0:0:0:s_038.ogg
51,192,211475,1,0,0:0:0:0:s_043.ogg
256,192,211475,1,0,0:0:0:0:s_055.ogg
460,192,211475,1,0,0:0:0:0:s_038.ogg
153,192,211600,1,0,0:0:0:0:s_041.ogg
358,192,211600,1,0,0:0:0:0:s_036.ogg
460,192,211600,1,0,0:0:0:0:s_053.ogg
51,192,211725,1,0,0:0:0:0:s_042.ogg
256,192,211725,1,0,0:0:0:0:s_054.ogg
358,192,211725,1,0,0:0:0:0:s_036.ogg
153,192,211850,1,0,0:0:0:0:s_043.ogg
358,192,211850,1,0,0:0:0:0:s_055.ogg
460,192,211850,1,0,0:0:0:0:s_037.ogg
51,192,211975,1,0,0:0:0:0:s_042.ogg
256,192,211975,1,0,0:0:0:0:s_054.ogg
460,192,211975,1,0,0:0:0:0:s_037.ogg
153,192,212100,1,0,0:0:0:0:s_040.ogg
256,192,212100,1,0,0:0:0:0:s_034.ogg
460,192,212100,1,0,0:0:0:0:s_052.ogg
51,192,212225,1,0,0:0:0:0:s_038.ogg
256,192,212225,1,0,0:0:0:0:s_034.ogg
358,192,212225,1,0,0:0:0:0:s_050.ogg
51,192,212350,1,0,0:0:0:0:s_032.ogg
256,192,212350,1,0,0:0:0:0:s_037.ogg
460,192,212350,1,0,0:0:0:0:s_049.ogg
51,192,212475,1,0,0:0:0:0:s_032.ogg
153,192,212475,1,0,0:0:0:0:s_035.ogg
358,192,212475,1,0,0:0:0:0:s_047.ogg
51,192,212600,1,0,0:0:0:0:s_034.ogg
256,192,212600,1,0,0:0:0:0:s_046.ogg
358,192,212600,1,0,0:0:0:0:s_030.ogg
153,192,212725,1,0,0:0:0:0:s_033.ogg
358,192,212725,1,0,0:0:0:0:s_030.ogg
460,192,212725,1,0,0:0:0:0:s_045.ogg
51,192,212850,1,0,0:0:0:0:s_032.ogg
153,192,212850,1,0,0:0:0:0:s_026.ogg
358,192,212850,1,0,0:0:0:0:s_044.ogg
153,192,212975,1,0,0:0:0:0:s_026.ogg
256,192,212975,1,0,0:0:0:0:s_031.ogg
460,192,212975,1,0,0:0:0:0:s_043.ogg
51,192,213100,1,0,0:0:0:0:s_024.ogg
153,192,213100,1,0,0:0:0:0:s_029.ogg
358,192,213100,1,0,0:0:0:0:s_041.ogg
51,192,213225,1,0,0:0:0:0:s_024.ogg
256,192,213225,1,0,0:0:0:0:s_030.ogg
358,192,213225,1,0,0:0:0:0:s_042.ogg
51,192,213350,1,0,0:0:0:0:s_031.ogg
153,192,213350,1,0,0:0:0:0:s_043.ogg
460,192,213350,1,0,0:0:0:0:s_022.ogg
51,192,213475,1,0,0:0:0:0:s_031.ogg
358,192,213475,1,0,0:0:0:0:s_042.ogg
460,192,213475,1,0,0:0:0:0:s_022.ogg
51,192,213600,1,0,0:0:0:0:s_031.ogg
256,192,213600,1,0,0:0:0:0:s_040.ogg
460,192,213600,1,0,0:0:0:0:s_025.ogg
51,192,213725,1,0,0:0:0:0:s_031.ogg
153,192,213725,1,0,0:0:0:0:s_038.ogg
460,192,213725,1,0,0:0:0:0:s_022.ogg
51,192,213850,1,0,0:0:0:0:s_031.ogg
460,192,213850,1,0,0:0:0:0:s_017.ogg
358,192,213850,1,0,0:0:0:0:s_037.ogg
51,192,213975,1,0,0:0:0:0:s_031.ogg
460,192,213975,1,0,0:0:0:0:s_017.ogg
256,192,213975,1,0,0:0:0:0:s_035.ogg
153,192,214100,1,0,0:0:0:0:m_034.ogg
358,192,214100,1,0,0:0:0:0:m_025.ogg
460,192,214100,1,0,0:0:0:0:m_018.ogg
51,192,214250,1,0,0:0:0:0:s_029.ogg
256,192,214250,1,0,0:0:0:0:s_041.ogg
460,192,214325,1,0,0:0:0:0:s_029.ogg
153,192,214400,1,0,0:0:0:0:s_030.ogg
358,192,214400,1,0,0:0:0:0:s_042.ogg
51,192,214475,1,0,0:0:0:0:s_030.ogg
256,192,214550,1,0,0:0:0:0:s_036.ogg
460,192,214550,1,0,0:0:0:0:s_048.ogg
153,192,214625,1,0,0:0:0:0:s_036.ogg
51,192,214700,1,0,0:0:0:0:s_049.ogg
358,192,214700,1,0,0:0:0:0:s_037.ogg
256,192,214775,1,0,0:0:0:0:s_037.ogg
153,192,214850,1,0,0:0:0:0:s_053.ogg
460,192,214850,1,0,0:0:0:0:s_041.ogg
51,192,214925,1,0,0:0:0:0:s_041.ogg
358,192,214925,1,0,0:0:0:0:s_053.ogg
153,192,215000,1,0,0:0:0:0:s_042.ogg
256,192,215000,1,0,0:0:0:0:s_054.ogg
51,192,215075,1,0,0:0:0:0:s_042.ogg
460,192,215075,1,0,0:0:0:0:s_030.ogg
256,192,215150,1,0,0:0:0:0:s_058.ogg
358,192,215150,1,0,0:0:0:0:s_046.ogg
51,192,215225,1,0,0:0:0:0:s_046.ogg
153,192,215225,1,0,0:0:0:0:s_034.ogg
358,192,215300,1,0,0:0:0:0:s_061.ogg
460,192,215300,1,0,0:0:0:0:s_049.ogg
153,192,215375,1,0,0:0:0:0:s_037.ogg
256,192,215375,1,0,0:0:0:0:s_049.ogg
51,192,215450,1,0,0:0:0:0:s_053.ogg
460,192,215450,1,0,0:0:0:0:s_065.ogg
256,192,215525,1,0,0:0:0:0:s_041.ogg
358,192,215525,1,0,0:0:0:0:s_053.ogg
51,192,215600,1,0,0:0:0:0:s_054.ogg
153,192,215600,1,0,0:0:0:0:s_066.ogg
358,192,215675,1,0,0:0:0:0:s_042.ogg
460,192,215675,1,0,0:0:0:0:s_054.ogg
153,192,215750,1,0,0:0:0:0:s_072.ogg
256,192,215750,1,0,0:0:0:0:s_060.ogg
51,192,215825,1,0,0:0:0:0:s_060.ogg
460,192,215825,1,0,0:0:0:0:s_048.ogg
256,192,215900,1,0,0:0:0:0:s_073.ogg
358,192,215900,1,0,0:0:0:0:s_061.ogg
51,192,216000,1,0,0:0:0:0:s_049.ogg
153,192,216000,1,0,0:0:0:0:s_061.ogg
256,192,216100,1,0,0:0:0:0:s_065.ogg
460,192,216100,1,0,0:0:0:0:s_077.ogg
51,192,216200,1,0,0:0:0:0:s_053.ogg
153,192,216200,1,0,0:0:0:0:s_065.ogg
358,192,216300,1,0,0:0:0:0:s_066.ogg
460,192,216300,1,0,0:0:0:0:s_078.ogg
256,192,216400,1,0,0:0:0:0:s_066.ogg
153,192,216400,1,0,0:0:0:0:s_054.ogg
358,192,216500,1,0,0:0:0:0:s_065.ogg
460,192,216500,1,0,0:0:0:0:s_077.ogg
256,192,216600,1,0,0:0:0:0:s_065.ogg
51,192,216600,1,0,0:0:0:0:s_053.ogg
358,192,216700,1,0,0:0:0:0:s_066.ogg
460,192,216700,1,0,0:0:0:0:s_078.ogg
256,192,216800,1,0,0:0:0:0:s_066.ogg
153,192,216800,1,0,0:0:0:0:s_054.ogg
358,192,216900,1,0,0:0:0:0:s_065.ogg
460,192,216900,1,0,0:0:0:0:s_077.ogg
153,192,217000,1,0,0:0:0:0:m_053.ogg
51,192,217000,1,0,0:0:0:0:m_065.ogg
358,192,217100,1,0,0:0:0:0:s_078.ogg
460,192,217100,1,0,0:0:0:0:s_066.ogg
256,192,217175,1,0,0:0:0:0:m_052.ogg
51,192,217175,1,0,0:0:0:0:m_064.ogg
358,192,217250,1,0,0:0:0:0:s_078.ogg
460,192,217250,1,0,0:0:0:0:s_066.ogg
153,192,217325,1,0,0:0:0:0:m_049.ogg
256,192,217325,1,0,0:0:0:0:m_061.ogg
358,192,217400,1,0,0:0:0:0:s_078.ogg
460,192,217400,1,0,0:0:0:0:s_066.ogg
153,192,217475,1,0,0:0:0:0:m_046.ogg
51,192,217475,1,0,0:0:0:0:m_058.ogg
358,192,217550,1,0,0:0:0:0:s_078.ogg
460,192,217550,1,0,0:0:0:0:s_066.ogg
256,192,217625,1,0,0:0:0:0:m_042.ogg
51,192,217625,1,0,0:0:0:0:m_054.ogg
358,192,217700,1,0,0:0:0:0:s_078.ogg
460,192,217700,1,0,0:0:0:0:s_066.ogg
153,192,217775,1,0,0:0:0:0:m_040.ogg
256,192,217775,1,0,0:0:0:0:m_052.ogg
358,192,217850,1,0,0:0:0:0:s_078.ogg
460,192,217850,1,0,0:0:0:0:s_066.ogg
153,192,217925,1,0,0:0:0:0:m_037.ogg
51,192,217925,1,0,0:0:0:0:m_049.ogg
358,192,218000,1,0,0:0:0:0:s_078.ogg
460,192,218000,1,0,0:0:0:0:s_066.ogg
256,192,218075,1,0,0:0:0:0:m_034.ogg
51,192,218075,1,0,0:0:0:0:m_046.ogg
358,192,218150,1,0,0:0:0:0:s_078.ogg
460,192,218150,1,0,0:0:0:0:s_066.ogg
153,192,218225,1,0,0:0:0:0:m_030.ogg
256,192,218225,1,0,0:0:0:0:m_042.ogg
358,192,218300,1,0,0:0:0:0:s_078.ogg
460,192,218300,1,0,0:0:0:0:s_066.ogg
153,192,218375,1,0,0:0:0:0:m_028.ogg
51,192,218375,1,0,0:0:0:0:m_040.ogg
358,192,218450,1,0,0:0:0:0:s_078.ogg
460,192,218450,1,0,0:0:0:0:s_066.ogg
256,192,218525,1,0,0:0:0:0:m_025.ogg
51,192,218525,1,0,0:0:0:0:m_037.ogg
358,192,218600,1,0,0:0:0:0:s_078.ogg
460,192,218600,1,0,0:0:0:0:s_066.ogg
153,192,218675,1,0,0:0:0:0:m_022.ogg
256,192,218675,1,0,0:0:0:0:m_034.ogg
358,192,218750,1,0,0:0:0:0:s_078.ogg
460,192,218750,1,0,0:0:0:0:s_066.ogg
153,192,218825,128,0,220775:0:0:0:0:l_018.ogg
51,192,218825,128,0,220775:0:0:0:0:l_030.ogg
358,192,218900,1,0,0:0:0:0:s_066.ogg
460,192,219025,1,0,0:0:0:0:s_078.ogg
358,192,219150,1,0,0:0:0:0:s_066.ogg
460,192,219275,1,0,0:0:0:0:s_078.ogg
358,192,219400,1,0,0:0:0:0:s_066.ogg
460,192,219525,1,0,0:0:0:0:s_078.ogg
358,192,219650,1,0,0:0:0:0:s_066.ogg
460,192,219775,1,0,0:0:0:0:s_078.ogg
358,192,219900,1,0,0:0:0:0:s_066.ogg
460,192,220025,1,0,0:0:0:0:s_078.ogg
358,192,220150,1,0,0:0:0:0:s_066.ogg
460,192,220275,1,0,0:0:0:0:s_078.ogg
358,192,220400,1,0,0:0:0:0:s_066.ogg
460,192,220400,1,0,0:0:0:0:s_078.ogg
358,192,220525,1,0,0:0:0:0:s_066.ogg
460,192,220525,1,0,0:0:0:0:s_078.ogg
358,192,220650,1,0,0:0:0:0:s_066.ogg
460,192,220650,1,0,0:0:0:0:s_078.ogg
358,192,220775,1,0,0:0:0:0:s_078.ogg
460,192,220775,1,0,0:0:0:0:s_066.ogg
358,192,220900,1,0,0:0:0:0:s_078.ogg
51,192,220900,1,0,0:0:0:0:m_042.ogg
460,192,220900,1,0,0:0:0:0:s_066.ogg
358,192,221025,1,0,0:0:0:0:s_078.ogg
460,192,221025,1,0,0:0:0:0:s_066.ogg
358,192,221150,1,0,0:0:0:0:s_078.ogg
460,192,221150,1,0,0:0:0:0:s_066.ogg
153,192,221150,128,0,221525:0:0:0:0:m_054.ogg
358,192,221275,1,0,0:0:0:0:s_078.ogg
460,192,221275,1,0,0:0:0:0:s_066.ogg
358,192,221400,1,0,0:0:0:0:s_078.ogg
460,192,221400,1,0,0:0:0:0:s_066.ogg
358,192,221525,1,0,0:0:0:0:s_078.ogg
460,192,221525,1,0,0:0:0:0:s_066.ogg
256,192,221650,1,0,0:0:0:0:s_076.ogg
460,192,221650,1,0,0:0:0:0:s_064.ogg
256,192,221775,1,0,0:0:0:0:s_076.ogg
460,192,221775,1,0,0:0:0:0:s_064.ogg
51,192,221900,1,0,0:0:0:0:m_023.ogg
153,192,221900,1,0,0:0:0:0:s_062.ogg
358,192,221900,1,0,0:0:0:0:s_074.ogg
153,192,222025,1,0,0:0:0:0:s_062.ogg
358,192,222025,1,0,0:0:0:0:s_074.ogg
153,192,222150,1,0,0:0:0:0:s_062.ogg
358,192,222150,1,0,0:0:0:0:s_074.ogg
460,192,222150,1,0,0:0:0:0:s_038.ogg
153,192,222275,1,0,0:0:0:0:s_062.ogg
358,192,222275,1,0,0:0:0:0:s_074.ogg
460,192,222275,1,0,0:0:0:0:s_042.ogg
51,192,222400,1,0,0:0:0:0:s_061.ogg
256,192,222400,1,0,0:0:0:0:s_073.ogg
460,192,222400,1,0,0:0:0:0:m_042.ogg
51,192,222525,1,0,0:0:0:0:s_061.ogg
256,192,222525,1,0,0:0:0:0:s_073.ogg
153,192,222650,1,0,0:0:0:0:s_059.ogg
358,192,222650,1,0,0:0:0:0:m_026.ogg
460,192,222650,1,0,0:0:0:0:s_071.ogg
153,192,222775,1,0,0:0:0:0:s_059.ogg
460,192,222775,1,0,0:0:0:0:s_071.ogg
51,192,222900,1,0,0:0:0:0:s_070.ogg
256,192,222900,1,0,0:0:0:0:s_038.ogg
358,192,222900,1,0,0:0:0:0:s_058.ogg
51,192,223025,1,0,0:0:0:0:s_070.ogg
256,192,223025,1,0,0:0:0:0:s_042.ogg
358,192,223025,1,0,0:0:0:0:s_058.ogg
153,192,223150,1,0,0:0:0:0:s_071.ogg
256,192,223150,1,0,0:0:0:0:m_042.ogg
460,192,223150,1,0,0:0:0:0:s_059.ogg
153,192,223275,1,0,0:0:0:0:s_071.ogg
460,192,223275,1,0,0:0:0:0:s_059.ogg
51,192,223400,1,0,0:0:0:0:m_030.ogg
256,192,223400,1,0,0:0:0:0:s_073.ogg
358,192,223400,1,0,0:0:0:0:s_061.ogg
256,192,223525,1,0,0:0:0:0:s_073.ogg
358,192,223525,1,0,0:0:0:0:s_061.ogg
51,192,223650,1,0,0:0:0:0:s_066.ogg
153,192,223650,1,0,0:0:0:0:s_054.ogg
460,192,223650,1,0,0:0:0:0:s_042.ogg
51,192,223775,1,0,0:0:0:0:s_066.ogg
153,192,223775,1,0,0:0:0:0:s_054.ogg
460,192,223775,1,0,0:0:0:0:s_042.ogg
51,192,223900,1,0,0:0:0:0:s_066.ogg
153,192,223900,1,0,0:0:0:0:s_054.ogg
460,192,223900,1,0,0:0:0:0:m_046.ogg
51,192,224025,1,0,0:0:0:0:s_066.ogg
153,192,224025,1,0,0:0:0:0:s_054.ogg
256,192,224150,1,0,0:0:0:0:s_055.ogg
358,192,224150,1,0,0:0:0:0:m_022.ogg
460,192,224150,1,0,0:0:0:0:s_067.ogg
256,192,224275,1,0,0:0:0:0:s_055.ogg
460,192,224275,1,0,0:0:0:0:s_067.ogg
51,192,224400,1,0,0:0:0:0:s_040.ogg
153,192,224400,1,0,0:0:0:0:s_066.ogg
358,192,224400,1,0,0:0:0:0:s_054.ogg
51,192,224525,1,0,0:0:0:0:s_040.ogg
153,192,224525,1,0,0:0:0:0:s_066.ogg
358,192,224525,1,0,0:0:0:0:s_054.ogg
51,192,224650,1,0,0:0:0:0:s_052.ogg
256,192,224650,1,0,0:0:0:0:s_064.ogg
358,192,224650,1,0,0:0:0:0:m_042.ogg
256,192,224775,1,0,0:0:0:0:s_064.ogg
358,192,224775,1,0,0:0:0:0:s_052.ogg
51,192,224900,1,0,0:0:0:0:m_023.ogg
153,192,224900,1,0,0:0:0:0:s_050.ogg
460,192,224900,1,0,0:0:0:0:s_062.ogg
153,192,225025,1,0,0:0:0:0:s_050.ogg
460,192,225025,1,0,0:0:0:0:s_062.ogg
153,192,225150,1,0,0:0:0:0:s_062.ogg
256,192,225150,1,0,0:0:0:0:s_042.ogg
460,192,225150,1,0,0:0:0:0:s_050.ogg
153,192,225275,1,0,0:0:0:0:s_062.ogg
256,192,225275,1,0,0:0:0:0:s_042.ogg
460,192,225275,1,0,0:0:0:0:s_050.ogg
51,192,225400,1,0,0:0:0:0:m_038.ogg
256,192,225400,1,0,0:0:0:0:m_042.ogg
358,192,225400,1,0,0:0:0:0:s_061.ogg
51,192,225525,1,0,0:0:0:0:s_049.ogg
358,192,225525,1,0,0:0:0:0:s_061.ogg
153,192,225650,1,0,0:0:0:0:m_019.ogg
256,192,225650,1,0,0:0:0:0:s_047.ogg
460,192,225650,1,0,0:0:0:0:s_059.ogg
256,192,225775,1,0,0:0:0:0:s_047.ogg
460,192,225775,1,0,0:0:0:0:s_059.ogg
51,192,225900,1,0,0:0:0:0:s_041.ogg
153,192,225900,1,0,0:0:0:0:s_058.ogg
358,192,225900,1,0,0:0:0:0:s_046.ogg
51,192,226025,1,0,0:0:0:0:s_041.ogg
153,192,226025,1,0,0:0:0:0:s_058.ogg
358,192,226025,1,0,0:0:0:0:s_046.ogg
51,192,226150,1,0,0:0:0:0:m_037.ogg
256,192,226150,1,0,0:0:0:0:s_047.ogg
460,192,226150,1,0,0:0:0:0:s_059.ogg
256,192,226275,1,0,0:0:0:0:s_047.ogg
460,192,226275,1,0,0:0:0:0:s_059.ogg
51,192,226400,1,0,0:0:0:0:s_049.ogg
153,192,226400,1,0,0:0:0:0:m_018.ogg
358,192,226400,1,0,0:0:0:0:s_061.ogg
51,192,226525,1,0,0:0:0:0:s_049.ogg
358,192,226525,1,0,0:0:0:0:s_061.ogg
153,192,226650,1,0,0:0:0:0:s_054.ogg
256,192,226650,1,0,0:0:0:0:s_034.ogg
460,192,226650,1,0,0:0:0:0:s_042.ogg
153,192,226775,1,0,0:0:0:0:s_054.ogg
256,192,226775,1,0,0:0:0:0:s_034.ogg
460,192,226775,1,0,0:0:0:0:s_042.ogg
256,192,226900,1,0,0:0:0:0:s_066.ogg
358,192,226900,1,0,0:0:0:0:s_054.ogg
460,192,226900,1,0,0:0:0:0:m_034.ogg
256,192,227025,1,0,0:0:0:0:s_066.ogg
358,192,227025,1,0,0:0:0:0:s_054.ogg
51,192,227150,1,0,0:0:0:0:m_046.ogg
153,192,227150,1,0,0:0:0:0:s_066.ogg
460,192,227150,1,0,0:0:0:0:s_078.ogg
153,192,227275,1,0,0:0:0:0:s_066.ogg
460,192,227275,1,0,0:0:0:0:s_078.ogg
153,192,227400,1,0,0:0:0:0:s_066.ogg
460,192,227400,1,0,0:0:0:0:s_078.ogg
153,192,227525,1,0,0:0:0:0:s_066.ogg
460,192,227525,1,0,0:0:0:0:s_078.ogg
51,192,227650,1,0,0:0:0:0:s_064.ogg
358,192,227650,1,0,0:0:0:0:s_076.ogg
51,192,227775,1,0,0:0:0:0:s_064.ogg
358,192,227775,1,0,0:0:0:0:s_076.ogg
153,192,227900,1,0,0:0:0:0:m_023.ogg
256,192,227900,1,0,0:0:0:0:s_063.ogg
460,192,227900,1,0,0:0:0:0:s_075.ogg
256,192,228025,1,0,0:0:0:0:s_063.ogg
460,192,228025,1,0,0:0:0:0:s_075.ogg
51,192,228150,1,0,0:0:0:0:s_036.ogg
256,192,228150,1,0,0:0:0:0:s_063.ogg
460,192,228150,1,0,0:0:0:0:s_075.ogg
51,192,228275,1,0,0:0:0:0:s_036.ogg
256,192,228275,1,0,0:0:0:0:s_063.ogg
460,192,228275,1,0,0:0:0:0:s_075.ogg
51,192,228400,1,0,0:0:0:0:m_042.ogg
153,192,228400,1,0,0:0:0:0:m_036.ogg
358,192,228400,1,0,0:0:0:0:s_072.ogg
153,192,228525,1,0,0:0:0:0:s_060.ogg
358,192,228525,1,0,0:0:0:0:s_072.ogg
51,192,228650,1,0,0:0:0:0:s_059.ogg
256,192,228650,1,0,0:0:0:0:s_071.ogg
460,192,228650,1,0,0:0:0:0:m_027.ogg
51,192,228775,1,0,0:0:0:0:s_059.ogg
256,192,228775,1,0,0:0:0:0:s_071.ogg
51,192,228900,1,0,0:0:0:0:s_059.ogg
256,192,228900,1,0,0:0:0:0:s_071.ogg
358,192,228900,1,0,0:0:0:0:s_042.ogg
51,192,229025,1,0,0:0:0:0:s_059.ogg
256,192,229025,1,0,0:0:0:0:s_071.ogg
358,192,229025,1,0,0:0:0:0:s_042.ogg
153,192,229150,1,0,0:0:0:0:s_057.ogg
358,192,229150,1,0,0:0:0:0:m_036.ogg
460,192,229150,1,0,0:0:0:0:s_069.ogg
153,192,229275,1,0,0:0:0:0:s_057.ogg
460,192,229275,1,0,0:0:0:0:s_069.ogg
51,192,229400,1,0,0:0:0:0:m_055.ogg
256,192,229400,1,0,0:0:0:0:m_028.ogg
358,192,229400,1,0,0:0:0:0:m_067.ogg
51,192,229650,1,0,0:0:0:0:s_043.ogg
460,192,229650,1,0,0:0:0:0:s_048.ogg
153,192,229650,1,0,0:0:0:0:s_052.ogg
256,192,229650,1,0,0:0:0:0:s_040.ogg
51,192,229775,1,0,0:0:0:0:s_043.ogg
460,192,229775,1,0,0:0:0:0:s_048.ogg
153,192,229775,1,0,0:0:0:0:s_052.ogg
256,192,229775,1,0,0:0:0:0:s_040.ogg
51,192,229900,1,0,0:0:0:0:s_043.ogg
153,192,229900,1,0,0:0:0:0:s_048.ogg
460,192,229900,1,0,0:0:0:0:s_054.ogg
358,192,229900,1,0,0:0:0:0:s_040.ogg
51,192,230025,1,0,0:0:0:0:s_043.ogg
153,192,230025,1,0,0:0:0:0:s_048.ogg
460,192,230025,1,0,0:0:0:0:s_054.ogg
358,192,230025,1,0,0:0:0:0:s_040.ogg
51,192,230150,1,0,0:0:0:0:s_043.ogg
256,192,230150,1,0,0:0:0:0:s_048.ogg
460,192,230150,1,0,0:0:0:0:s_040.ogg
358,192,230150,1,0,0:0:0:0:s_055.ogg
51,192,230275,1,0,0:0:0:0:s_043.ogg
256,192,230275,1,0,0:0:0:0:s_048.ogg
460,192,230275,1,0,0:0:0:0:s_040.ogg
358,192,230275,1,0,0:0:0:0:s_055.ogg
51,192,230400,1,0,0:0:0:0:s_043.ogg
153,192,230400,1,0,0:0:0:0:s_048.ogg
460,192,230400,1,0,0:0:0:0:s_054.ogg
358,192,230400,1,0,0:0:0:0:s_040.ogg
51,192,230525,1,0,0:0:0:0:s_043.ogg
153,192,230525,1,0,0:0:0:0:s_048.ogg
460,192,230525,1,0,0:0:0:0:s_054.ogg
358,192,230525,1,0,0:0:0:0:s_040.ogg
51,192,230650,1,0,0:0:0:0:s_043.ogg
153,192,230650,1,0,0:0:0:0:s_048.ogg
256,192,230650,1,0,0:0:0:0:s_052.ogg
460,192,230650,1,0,0:0:0:0:s_040.ogg
51,192,230775,1,0,0:0:0:0:s_043.ogg
153,192,230775,1,0,0:0:0:0:s_048.ogg
256,192,230775,1,0,0:0:0:0:s_052.ogg
460,192,230775,1,0,0:0:0:0:s_040.ogg
51,192,230900,1,0,0:0:0:0:m_035.ogg
153,192,230900,1,0,0:0:0:0:m_047.ogg
358,192,230900,1,0,0:0:0:0:m_050.ogg
460,192,230900,1,0,0:0:0:0:m_054.ogg
256,192,230900,1,0,0:0:0:0:m_042.ogg
51,192,231025,1,0,0:0:0:0:m_043.ogg
153,192,231025,1,0,0:0:0:0:m_029.ogg
358,192,231025,1,0,0:0:0:0:m_055.ogg
153,192,231150,1,0,0:0:0:0:m_044.ogg
256,192,231150,1,0,0:0:0:0:m_028.ogg
460,192,231150,1,0,0:0:0:0:m_056.ogg
256,192,231275,1,0,0:0:0:0:m_045.ogg
358,192,231275,1,0,0:0:0:0:m_027.ogg
51,192,231275,1,0,0:0:0:0:m_057.ogg
153,192,231400,1,0,0:0:0:0:m_046.ogg
358,192,231400,1,0,0:0:0:0:m_058.ogg
460,192,231400,1,0,0:0:0:0:m_026.ogg
51,192,231525,1,0,0:0:0:0:m_025.ogg
256,192,231525,1,0,0:0:0:0:m_047.ogg
460,192,231525,1,0,0:0:0:0:m_059.ogg
51,192,231650,1,0,0:0:0:0:m_048.ogg
153,192,231650,1,0,0:0:0:0:m_024.ogg
358,192,231650,1,0,0:0:0:0:m_060.ogg
153,192,231775,1,0,0:0:0:0:m_049.ogg
256,192,231775,1,0,0:0:0:0:m_023.ogg
460,192,231775,1,0,0:0:0:0:m_061.ogg
256,192,231900,1,0,0:0:0:0:m_050.ogg
358,192,231900,1,0,0:0:0:0:m_022.ogg
51,192,231900,1,0,0:0:0:0:m_062.ogg
153,192,232025,1,0,0:0:0:0:m_051.ogg
358,192,232025,1,0,0:0:0:0:m_063.ogg
460,192,232025,1,0,0:0:0:0:m_021.ogg
51,192,232150,1,0,0:0:0:0:m_020.ogg
256,192,232150,1,0,0:0:0:0:m_052.ogg
460,192,232150,1,0,0:0:0:0:m_064.ogg
51,192,232275,1,0,0:0:0:0:m_053.ogg
153,192,232275,1,0,0:0:0:0:m_019.ogg
358,192,232275,1,0,0:0:0:0:m_065.ogg
51,192,232400,1,0,0:0:0:0:m_054.ogg
153,192,232400,1,0,0:0:0:0:m_066.ogg
256,192,232400,1,0,0:0:0:0:m_030.ogg
358,192,232400,1,0,0:0:0:0:m_058.ogg
460,192,232400,1,0,0:0:0:0:m_018.ogg
256,192,232525,1,0,0:0:0:0:m_055.ogg
358,192,232525,1,0,0:0:0:0:m_017.ogg
51,192,232525,1,0,0:0:0:0:m_067.ogg
153,192,232650,1,0,0:0:0:0:m_056.ogg
358,192,232650,1,0,0:0:0:0:m_068.ogg
460,192,232650,1,0,0:0:0:0:m_016.ogg
51,192,232775,1,0,0:0:0:0:m_015.ogg
256,192,232775,1,0,0:0:0:0:m_057.ogg
460,192,232775,1,0,0:0:0:0:m_069.ogg
51,192,232900,1,0,0:0:0:0:m_070.ogg
153,192,232900,1,0,0:0:0:0:m_026.ogg
358,192,232900,1,0,0:0:0:0:m_058.ogg
153,192,233025,1,0,0:0:0:0:m_071.ogg
256,192,233025,1,0,0:0:0:0:m_025.ogg
460,192,233025,1,0,0:0:0:0:m_059.ogg
256,192,233150,1,0,0:0:0:0:m_072.ogg
358,192,233150,1,0,0:0:0:0:m_024.ogg
51,192,233150,1,0,0:0:0:0:m_060.ogg
153,192,233275,1,0,0:0:0:0:m_061.ogg
358,192,233275,1,0,0:0:0:0:m_073.ogg
460,192,233275,1,0,0:0:0:0:m_023.ogg
51,192,233400,1,0,0:0:0:0:m_022.ogg
256,192,233400,1,0,0:0:0:0:m_062.ogg
460,192,233400,1,0,0:0:0:0:m_074.ogg
51,192,233525,1,0,0:0:0:0:m_064.ogg
153,192,233525,1,0,0:0:0:0:m_021.ogg
358,192,233525,1,0,0:0:0:0:m_076.ogg
153,192,233650,1,0,0:0:0:0:m_065.ogg
256,192,233650,1,0,0:0:0:0:m_019.ogg
460,192,233650,1,0,0:0:0:0:m_077.ogg
256,192,233775,1,0,0:0:0:0:m_066.ogg
358,192,233775,1,0,0:0:0:0:m_006.ogg
51,192,233775,1,0,0:0:0:0:m_078.ogg
51,192,233900,1,0,0:0:0:0:m_050.ogg
460,192,233900,1,0,0:0:0:0:m_042.ogg
153,192,233900,1,0,0:0:0:0:m_038.ogg
51,192,234150,1,0,0:0:0:0:s_030.ogg
256,192,234150,1,0,0:0:0:0:s_018.ogg
153,192,234275,1,0,0:0:0:0:s_035.ogg
358,192,234275,1,0,0:0:0:0:s_023.ogg
256,192,234400,1,0,0:0:0:0:m_062.ogg
358,192,234400,1,0,0:0:0:0:m_050.ogg
460,192,234400,1,0,0:0:0:0:m_054.ogg
51,192,234650,1,0,0:0:0:0:s_049.ogg
358,192,234650,1,0,0:0:0:0:s_061.ogg
256,192,234650,1,0,0:0:0:0:s_054.ogg
153,192,234775,1,0,0:0:0:0:s_050.ogg
460,192,234775,1,0,0:0:0:0:s_062.ogg
256,192,234900,1,0,0:0:0:0:m_052.ogg
358,192,234900,1,0,0:0:0:0:s_018.ogg
460,192,234900,1,0,0:0:0:0:m_064.ogg
51,192,235025,1,0,0:0:0:0:s_035.ogg
153,192,235025,1,0,0:0:0:0:s_023.ogg
256,192,235150,1,0,0:0:0:0:s_050.ogg
358,192,235150,1,0,0:0:0:0:m_030.ogg
460,192,235150,1,0,0:0:0:0:s_062.ogg
153,192,235275,1,0,0:0:0:0:s_049.ogg
358,192,235275,1,0,0:0:0:0:s_061.ogg
51,192,235400,1,0,0:0:0:0:s_050.ogg
153,192,235400,1,0,0:0:0:0:s_062.ogg
256,192,235400,1,0,0:0:0:0:s_054.ogg
153,192,235525,1,0,0:0:0:0:s_052.ogg
460,192,235525,1,0,0:0:0:0:s_064.ogg
256,192,235650,1,0,0:0:0:0:m_054.ogg
358,192,235650,1,0,0:0:0:0:s_018.ogg
460,192,235650,1,0,0:0:0:0:m_066.ogg
51,192,235775,1,0,0:0:0:0:s_035.ogg
153,192,235775,1,0,0:0:0:0:s_023.ogg
256,192,235900,1,0,0:0:0:0:s_052.ogg
358,192,235900,1,0,0:0:0:0:m_042.ogg
460,192,235900,1,0,0:0:0:0:s_064.ogg
153,192,236025,1,0,0:0:0:0:s_050.ogg
358,192,236025,1,0,0:0:0:0:s_062.ogg
51,192,236150,1,0,0:0:0:0:s_054.ogg
153,192,236150,1,0,0:0:0:0:s_061.ogg
256,192,236150,1,0,0:0:0:0:s_049.ogg
51,192,236275,1,0,0:0:0:0:s_050.ogg
358,192,236275,1,0,0:0:0:0:s_062.ogg
256,192,236400,1,0,0:0:0:0:m_052.ogg
358,192,236400,1,0,0:0:0:0:s_018.ogg
460,192,236400,1,0,0:0:0:0:m_064.ogg
51,192,236525,1,0,0:0:0:0:s_035.ogg
153,192,236525,1,0,0:0:0:0:s_023.ogg
256,192,236650,1,0,0:0:0:0:s_050.ogg
358,192,236650,1,0,0:0:0:0:m_030.ogg
460,192,236650,1,0,0:0:0:0:s_062.ogg
153,192,236775,1,0,0:0:0:0:s_061.ogg
358,192,236775,1,0,0:0:0:0:s_049.ogg
256,192,236900,1,0,0:0:0:0:s_054.ogg
358,192,236900,1,0,0:0:0:0:s_050.ogg
460,192,236900,1,0,0:0:0:0:s_062.ogg
51,192,237025,1,0,0:0:0:0:s_049.ogg
358,192,237025,1,0,0:0:0:0:s_061.ogg
51,192,237150,1,0,0:0:0:0:m_059.ogg
153,192,237150,1,0,0:0:0:0:s_018.ogg
256,192,237150,1,0,0:0:0:0:m_047.ogg
153,192,237275,1,0,0:0:0:0:s_035.ogg
358,192,237275,1,0,0:0:0:0:s_023.ogg
256,192,237400,1,0,0:0:0:0:m_030.ogg
358,192,237400,1,0,0:0:0:0:m_074.ogg
460,192,237400,1,0,0:0:0:0:m_066.ogg
51,192,237650,1,0,0:0:0:0:s_061.ogg
153,192,237650,1,0,0:0:0:0:m_023.ogg
256,192,237650,1,0,0:0:0:0:s_066.ogg
153,192,237775,1,0,0:0:0:0:s_062.ogg
358,192,237775,1,0,0:0:0:0:s_074.ogg
256,192,237900,1,0,0:0:0:0:m_064.ogg
358,192,237900,1,0,0:0:0:0:s_030.ogg
460,192,237900,1,0,0:0:0:0:m_076.ogg
51,192,238025,1,0,0:0:0:0:s_035.ogg
153,192,238025,1,0,0:0:0:0:s_023.ogg
256,192,238150,1,0,0:0:0:0:s_066.ogg
358,192,238150,1,0,0:0:0:0:m_030.ogg
460,192,238150,1,0,0:0:0:0:s_074.ogg
153,192,238275,1,0,0:0:0:0:s_061.ogg
358,192,238275,1,0,0:0:0:0:s_073.ogg
51,192,238400,1,0,0:0:0:0:s_066.ogg
153,192,238400,1,0,0:0:0:0:s_062.ogg
256,192,238400,1,0,0:0:0:0:s_074.ogg
153,192,238525,1,0,0:0:0:0:s_064.ogg
460,192,238525,1,0,0:0:0:0:s_076.ogg
256,192,238650,1,0,0:0:0:0:m_078.ogg
358,192,238650,1,0,0:0:0:0:s_030.ogg
460,192,238650,1,0,0:0:0:0:m_066.ogg
51,192,238775,1,0,0:0:0:0:s_035.ogg
153,192,238775,1,0,0:0:0:0:s_023.ogg
256,192,238900,1,0,0:0:0:0:s_064.ogg
358,192,238900,1,0,0:0:0:0:m_042.ogg
460,192,238900,1,0,0:0:0:0:s_076.ogg
153,192,239025,1,0,0:0:0:0:s_062.ogg
358,192,239025,1,0,0:0:0:0:s_074.ogg
51,192,239150,1,0,0:0:0:0:s_066.ogg
153,192,239150,1,0,0:0:0:0:s_073.ogg
256,192,239150,1,0,0:0:0:0:s_061.ogg
51,192,239275,1,0,0:0:0:0:s_062.ogg
358,192,239275,1,0,0:0:0:0:s_074.ogg
256,192,239400,1,0,0:0:0:0:m_064.ogg
358,192,239400,1,0,0:0:0:0:s_018.ogg
460,192,239400,1,0,0:0:0:0:m_076.ogg
51,192,239525,1,0,0:0:0:0:s_035.ogg
153,192,239525,1,0,0:0:0:0:s_023.ogg
256,192,239650,1,0,0:0:0:0:s_062.ogg
358,192,239650,1,0,0:0:0:0:s_066.ogg
460,192,239650,1,0,0:0:0:0:s_074.ogg
153,192,239775,1,0,0:0:0:0:s_061.ogg
358,192,239775,1,0,0:0:0:0:s_073.ogg
256,192,239900,1,0,0:0:0:0:s_062.ogg
358,192,239900,1,0,0:0:0:0:s_066.ogg
460,192,239900,1,0,0:0:0:0:s_074.ogg
51,192,240025,1,0,0:0:0:0:s_061.ogg
358,192,240025,1,0,0:0:0:0:s_073.ogg
51,192,240150,1,0,0:0:0:0:m_059.ogg
153,192,240150,1,0,0:0:0:0:s_030.ogg
256,192,240150,1,0,0:0:0:0:m_071.ogg
153,192,240275,1,0,0:0:0:0:s_035.ogg
358,192,240275,1,0,0:0:0:0:s_023.ogg
51,192,240400,1,0,0:0:0:0:m_050.ogg
256,192,240400,1,0,0:0:0:0:m_054.ogg
358,192,240400,1,0,0:0:0:0:m_042.ogg
460,192,240400,1,0,0:0:0:0:m_038.ogg
51,192,240650,1,0,0:0:0:0:s_042.ogg
153,192,240650,1,0,0:0:0:0:s_049.ogg
256,192,240650,1,0,0:0:0:0:s_030.ogg
460,192,240650,1,0,0:0:0:0:s_054.ogg
51,192,240775,1,0,0:0:0:0:s_042.ogg
256,192,240775,1,0,0:0:0:0:s_050.ogg
358,192,240775,1,0,0:0:0:0:s_030.ogg
460,192,240775,1,0,0:0:0:0:s_054.ogg
51,192,240900,1,0,0:0:0:0:m_042.ogg
153,192,240900,1,0,0:0:0:0:m_040.ogg
358,192,240900,1,0,0:0:0:0:m_052.ogg
460,192,240900,1,0,0:0:0:0:m_054.ogg
51,192,241150,1,0,0:0:0:0:s_042.ogg
256,192,241150,1,0,0:0:0:0:s_050.ogg
358,192,241150,1,0,0:0:0:0:s_038.ogg
460,192,241150,1,0,0:0:0:0:s_054.ogg
51,192,241275,1,0,0:0:0:0:s_042.ogg
153,192,241275,1,0,0:0:0:0:s_037.ogg
256,192,241275,1,0,0:0:0:0:s_049.ogg
460,192,241275,1,0,0:0:0:0:s_054.ogg
51,192,241400,1,0,0:0:0:0:s_042.ogg
256,192,241400,1,0,0:0:0:0:s_050.ogg
358,192,241400,1,0,0:0:0:0:s_030.ogg
460,192,241400,1,0,0:0:0:0:s_054.ogg
51,192,241525,1,0,0:0:0:0:s_042.ogg
153,192,241525,1,0,0:0:0:0:s_049.ogg
256,192,241525,1,0,0:0:0:0:s_030.ogg
460,192,241525,1,0,0:0:0:0:s_054.ogg
51,192,241650,1,0,0:0:0:0:m_042.ogg
153,192,241650,1,0,0:0:0:0:m_047.ogg
358,192,241650,1,0,0:0:0:0:m_030.ogg
460,192,241650,1,0,0:0:0:0:m_054.ogg
51,192,241900,1,0,0:0:0:0:m_059.ogg
256,192,241900,1,0,0:0:0:0:m_054.ogg
358,192,241900,1,0,0:0:0:0:m_066.ogg
460,192,241900,1,0,0:0:0:0:m_011.ogg
51,192,242150,1,0,0:0:0:0:s_042.ogg
153,192,242150,1,0,0:0:0:0:s_037.ogg
256,192,242150,1,0,0:0:0:0:s_049.ogg
460,192,242150,1,0,0:0:0:0:s_054.ogg
51,192,242275,1,0,0:0:0:0:s_042.ogg
256,192,242275,1,0,0:0:0:0:s_038.ogg
358,192,242275,1,0,0:0:0:0:s_050.ogg
460,192,242275,1,0,0:0:0:0:s_054.ogg
51,192,242400,1,0,0:0:0:0:m_042.ogg
153,192,242400,1,0,0:0:0:0:m_052.ogg
358,192,242400,1,0,0:0:0:0:m_040.ogg
460,192,242400,1,0,0:0:0:0:m_054.ogg
51,192,242650,1,0,0:0:0:0:s_042.ogg
256,192,242650,1,0,0:0:0:0:s_050.ogg
358,192,242650,1,0,0:0:0:0:s_038.ogg
460,192,242650,1,0,0:0:0:0:s_054.ogg
51,192,242775,1,0,0:0:0:0:s_042.ogg
153,192,242775,1,0,0:0:0:0:s_037.ogg
256,192,242775,1,0,0:0:0:0:s_049.ogg
460,192,242775,1,0,0:0:0:0:s_054.ogg
51,192,242900,1,0,0:0:0:0:s_042.ogg
256,192,242900,1,0,0:0:0:0:s_038.ogg
358,192,242900,1,0,0:0:0:0:s_050.ogg
460,192,242900,1,0,0:0:0:0:s_054.ogg
51,192,243025,1,0,0:0:0:0:s_042.ogg
153,192,243025,1,0,0:0:0:0:s_049.ogg
256,192,243025,1,0,0:0:0:0:s_037.ogg
460,192,243025,1,0,0:0:0:0:s_054.ogg
51,192,243150,1,0,0:0:0:0:m_042.ogg
153,192,243150,1,0,0:0:0:0:m_047.ogg
358,192,243150,1,0,0:0:0:0:m_030.ogg
460,192,243150,1,0,0:0:0:0:m_054.ogg
51,192,243400,1,0,0:0:0:0:m_059.ogg
256,192,243400,1,0,0:0:0:0:m_066.ogg
358,192,243400,1,0,0:0:0:0:m_054.ogg
460,192,243400,1,0,0:0:0:0:m_023.ogg
51,192,243650,1,0,0:0:0:0:s_042.ogg
256,192,243650,1,0,0:0:0:0:s_038.ogg
358,192,243650,1,0,0:0:0:0:s_050.ogg
460,192,243650,1,0,0:0:0:0:s_054.ogg
51,192,243775,1,0,0:0:0:0:s_042.ogg
153,192,243775,1,0,0:0:0:0:s_037.ogg
256,192,243775,1,0,0:0:0:0:s_049.ogg
460,192,243775,1,0,0:0:0:0:s_054.ogg
51,192,243900,1,0,0:0:0:0:m_042.ogg
153,192,243900,1,0,0:0:0:0:m_047.ogg
358,192,243900,1,0,0:0:0:0:m_030.ogg
460,192,243900,1,0,0:0:0:0:m_054.ogg
51,192,244150,1,0,0:0:0:0:m_071.ogg
153,192,244150,1,0,0:0:0:0:m_023.ogg
256,192,244150,1,0,0:0:0:0:m_066.ogg
358,192,244150,1,0,0:0:0:0:m_059.ogg
51,192,244400,1,0,0:0:0:0:s_042.ogg
256,192,244400,1,0,0:0:0:0:s_038.ogg
358,192,244400,1,0,0:0:0:0:s_050.ogg
460,192,244400,1,0,0:0:0:0:s_054.ogg
51,192,244525,1,0,0:0:0:0:s_042.ogg
153,192,244525,1,0,0:0:0:0:s_037.ogg
256,192,244525,1,0,0:0:0:0:s_049.ogg
460,192,244525,1,0,0:0:0:0:s_054.ogg
51,192,244650,1,0,0:0:0:0:m_042.ogg
153,192,244650,1,0,0:0:0:0:m_047.ogg
358,192,244650,1,0,0:0:0:0:m_030.ogg
460,192,244650,1,0,0:0:0:0:m_054.ogg
153,192,244900,1,0,0:0:0:0:m_074.ogg
256,192,244900,1,0,0:0:0:0:m_066.ogg
358,192,244900,1,0,0:0:0:0:m_023.ogg
460,192,244900,1,0,0:0:0:0:m_062.ogg
51,192,245150,1,0,0:0:0:0:s_042.ogg
256,192,245150,1,0,0:0:0:0:s_038.ogg
358,192,245150,1,0,0:0:0:0:s_050.ogg
460,192,245150,1,0,0:0:0:0:s_054.ogg
51,192,245275,1,0,0:0:0:0:s_042.ogg
153,192,245275,1,0,0:0:0:0:s_049.ogg
256,192,245275,1,0,0:0:0:0:s_037.ogg
460,192,245275,1,0,0:0:0:0:s_054.ogg
51,192,245400,1,0,0:0:0:0:m_042.ogg
153,192,245400,1,0,0:0:0:0:m_047.ogg
358,192,245400,1,0,0:0:0:0:m_030.ogg
460,192,245400,1,0,0:0:0:0:m_054.ogg
51,192,245650,1,0,0:0:0:0:m_023.ogg
256,192,245650,1,0,0:0:0:0:m_078.ogg
358,192,245650,1,0,0:0:0:0:m_071.ogg
460,192,245650,1,0,0:0:0:0:m_066.ogg
51,192,246150,1,0,0:0:0:0:m_023.ogg
153,192,246150,1,0,0:0:0:0:m_071.ogg
256,192,246150,1,0,0:0:0:0:m_066.ogg
460,192,246150,1,0,0:0:0:0:m_078.ogg
51,192,246400,1,0,0:0:0:0:m_047.ogg
153,192,246400,1,0,0:0:0:0:m_071.ogg
358,192,246400,1,0,0:0:0:0:m_066.ogg
460,192,246400,1,0,0:0:0:0:m_078.ogg
51,192,246650,1,0,0:0:0:0:m_059.ogg
256,192,246650,1,0,0:0:0:0:m_071.ogg
358,192,246650,1,0,0:0:0:0:m_066.ogg
460,192,246650,1,0,0:0:0:0:m_078.ogg
51,192,246900,1,0,0:0:0:0:m_071.ogg
153,192,246900,1,0,0:0:0:0:m_066.ogg
358,192,246900,1,0,0:0:0:0:m_047.ogg
460,192,246900,1,0,0:0:0:0:m_078.ogg
51,192,247150,1,0,0:0:0:0:m_023.ogg
153,192,247150,1,0,0:0:0:0:m_071.ogg
256,192,247150,1,0,0:0:0:0:m_066.ogg
460,192,247150,1,0,0:0:0:0:m_078.ogg
51,192,247400,1,0,0:0:0:0:m_023.ogg
153,192,247400,1,0,0:0:0:0:m_071.ogg
256,192,247400,1,0,0:0:0:0:m_066.ogg
358,192,247400,1,0,0:0:0:0:m_078.ogg
153,192,248150,1,0,0:0:0:0:m_047.ogg
256,192,248150,1,0,0:0:0:0:m_042.ogg
358,192,248150,1,0,0:0:0:0:m_038.ogg
460,192,248150,1,0,0:0:0:0:m_023.ogg
51,192,248900,1,0,0:0:0:0:l_050.ogg
153,192,248900,1,0,0:0:0:0:l_071.ogg
256,192,248900,1,0,0:0:0:0:l_066.ogg
358,192,248900,1,0,0:0:0:0:l_062.ogg
460,192,248900,1,0,0:0:0:0:l_059.ogg
