osu file format v14

[General]
AudioFilename: virtual
AudioLeadIn: 0
PreviewTime: 0
Countdown: 0
SampleSet: Soft
StackLeniency: 0.7
Mode: 3
LetterboxInBreaks: 0
SpecialStyle: 0
WidescreenStoryboard: 1

[Editor]
DistanceSpacing: 0.8
BeatDivisor: 4
GridSize: 16
TimelineZoom: 1.500006

[Metadata]
Title:Piano Beatmap Set
TitleUnicode:Piano Beatmap Set
Artist:Collection
ArtistUnicode:Collection
Creator:CircusGalop
Version:La Campanella - 10K SHD
Source:BMS
Tags:
BeatmapID:1316775
BeatmapSetID:332673

[Difficulty]
HPDrainRate:8
CircleSize:10
OverallDifficulty:5
ApproachRate:5
SliderMultiplier:1.4
SliderTickRate:1

[Events]
//Background and Video events
0,0,"CircusGalop.jpg",0,0
//Break Periods
//Storyboard Layer 0 (Background)
//Storyboard Layer 1 (Fail)
//Storyboard Layer 2 (Pass)
//Storyboard Layer 3 (Foreground)
//Storyboard Sound Samples
Sample,50700,0,"s_073.ogg",100
Sample,50850,0,"s_072.ogg",100
Sample,51000,0,"s_071.ogg",100
Sample,51150,0,"s_070.ogg",100
Sample,51300,0,"s_069.ogg",100
Sample,51600,0,"s_071.ogg",100
Sample,51750,0,"s_070.ogg",100
Sample,51900,0,"s_069.ogg",100
Sample,52050,0,"s_068.ogg",100
Sample,52200,0,"s_066.ogg",100
Sample,52500,0,"s_069.ogg",100
Sample,52650,0,"s_068.ogg",100
Sample,52800,0,"s_066.ogg",100
Sample,52950,0,"s_065.ogg",100
Sample,53100,0,"s_064.ogg",100
Sample,53400,0,"s_068.ogg",100
Sample,53550,0,"s_066.ogg",100
Sample,53700,0,"s_065.ogg",100
Sample,53850,0,"s_064.ogg",100
Sample,54000,0,"s_062.ogg",100
Sample,87000,0,"s_038.ogg",100
Sample,87150,0,"s_042.ogg",100
Sample,87300,0,"m_035.ogg",100
Sample,87900,0,"s_038.ogg",100
Sample,88050,0,"s_042.ogg",100
Sample,88200,0,"m_035.ogg",100
Sample,88800,0,"s_046.ogg",100
Sample,88950,0,"s_046.ogg",100
Sample,89100,0,"m_037.ogg",100
Sample,89700,0,"s_049.ogg",100
Sample,89850,0,"s_049.ogg",100
Sample,90000,0,"m_040.ogg",100
Sample,90600,0,"s_047.ogg",100
Sample,90750,0,"s_047.ogg",100
Sample,92400,0,"s_034.ogg",100
Sample,92550,0,"s_034.ogg",100
Sample,92700,0,"m_037.ogg",100
Sample,93000,0,"m_049.ogg",100
Sample,94200,0,"s_042.ogg",100
Sample,94350,0,"s_042.ogg",100
Sample,94500,0,"m_033.ogg",100
Sample,95100,0,"s_048.ogg",100
Sample,95250,0,"s_036.ogg",100
Sample,95400,0,"m_048.ogg",100
Sample,96000,0,"s_036.ogg",100
Sample,96000,0,"s_048.ogg",100
Sample,96150,0,"s_048.ogg",100
Sample,96150,0,"s_036.ogg",100
Sample,96300,0,"s_036.ogg",100
Sample,96300,0,"s_048.ogg",100
Sample,96450,0,"s_048.ogg",100
Sample,96450,0,"s_036.ogg",100
Sample,96600,0,"s_036.ogg",100
Sample,96600,0,"s_048.ogg",100
Sample,96750,0,"s_048.ogg",100
Sample,96750,0,"s_036.ogg",100
Sample,96900,0,"s_036.ogg",100
Sample,96900,0,"s_048.ogg",100
Sample,97050,0,"s_048.ogg",100
Sample,97050,0,"s_036.ogg",100
Sample,97200,0,"s_036.ogg",100
Sample,97200,0,"s_048.ogg",100
Sample,97350,0,"s_048.ogg",100
Sample,97350,0,"s_036.ogg",100
Sample,97500,0,"m_050.ogg",100
Sample,97500,0,"m_042.ogg",100
Sample,97500,0,"m_047.ogg",100
Sample,99300,0,"m_018.ogg",100
Sample,99300,0,"m_061.ogg",100
Sample,99300,0,"m_022.ogg",100
Sample,99300,0,"m_054.ogg",100
Sample,101100,0,"m_042.ogg",100
Sample,101700,0,"m_062.ogg",100
Sample,102000,0,"s_061.ogg",100
Sample,102600,0,"s_050.ogg",100
Sample,102900,0,"s_062.ogg",100
Sample,103800,0,"s_061.ogg",100
Sample,104400,0,"s_054.ogg",100
Sample,104700,0,"s_050.ogg",100
Sample,105300,0,"m_074.ogg",100
Sample,105600,0,"s_073.ogg",100
Sample,106200,0,"s_066.ogg",100
Sample,106500,0,"s_062.ogg",100
Sample,107400,0,"s_073.ogg",100
Sample,108000,0,"s_066.ogg",100
Sample,108300,0,"s_066.ogg",100
Sample,108900,0,"m_042.ogg",100
Sample,108900,0,"m_026.ogg",100
Sample,109200,0,"s_054.ogg",100
Sample,109200,0,"s_037.ogg",100
Sample,109350,0,"s_038.ogg",100
Sample,109350,0,"s_054.ogg",100
Sample,109500,0,"m_054.ogg",100
Sample,109500,0,"m_040.ogg",100
Sample,109800,0,"s_038.ogg",100
Sample,109800,0,"s_054.ogg",100
Sample,109950,0,"s_054.ogg",100
Sample,109950,0,"s_037.ogg",100
Sample,110100,0,"s_054.ogg",100
Sample,110100,0,"s_038.ogg",100
Sample,110250,0,"s_037.ogg",100
Sample,110250,0,"s_054.ogg",100
Sample,110400,0,"m_054.ogg",100
Sample,110400,0,"m_035.ogg",100
Sample,111000,0,"s_054.ogg",100
Sample,111000,0,"s_037.ogg",100
Sample,111150,0,"s_038.ogg",100
Sample,111150,0,"s_054.ogg",100
Sample,111300,0,"m_054.ogg",100
Sample,111300,0,"m_040.ogg",100
Sample,111600,0,"s_038.ogg",100
Sample,111600,0,"s_054.ogg",100
Sample,111750,0,"s_054.ogg",100
Sample,111750,0,"s_037.ogg",100
Sample,111900,0,"s_038.ogg",100
Sample,111900,0,"s_054.ogg",100
Sample,112050,0,"s_054.ogg",100
Sample,112050,0,"s_037.ogg",100
Sample,112200,0,"m_035.ogg",100
Sample,112200,0,"m_054.ogg",100
Sample,112800,0,"s_038.ogg",100
Sample,112800,0,"s_054.ogg",100
Sample,112950,0,"s_054.ogg",100
Sample,112950,0,"s_037.ogg",100
Sample,113100,0,"m_035.ogg",100
Sample,113100,0,"m_054.ogg",100
Sample,113700,0,"s_038.ogg",100
Sample,113700,0,"s_054.ogg",100
Sample,113850,0,"s_054.ogg",100
Sample,113850,0,"s_037.ogg",100
Sample,114000,0,"m_035.ogg",100
Sample,114000,0,"m_054.ogg",100
Sample,114600,0,"s_054.ogg",100
Sample,114600,0,"s_038.ogg",100
Sample,114750,0,"s_037.ogg",100
Sample,114750,0,"s_054.ogg",100
Sample,114900,0,"m_035.ogg",100
Sample,114900,0,"m_054.ogg",100
Sample,119100,0,"l_071.ogg",100
Sample,119100,0,"l_038.ogg",100

[TimingPoints]
0,600.000000000006,4,2,0,100,1,0

[HitObjects]
76,192,2100,5,0,0:0:0:0:m_054.ogg
179,192,2100,1,0,0:0:0:0:m_042.ogg
76,192,2400,1,0,0:0:0:0:m_054.ogg
179,192,2400,1,0,0:0:0:0:m_042.ogg
76,192,2700,1,0,0:0:0:0:m_054.ogg
179,192,2700,1,0,0:0:0:0:m_042.ogg
332,192,3000,1,0,0:0:0:0:m_066.ogg
435,192,3000,1,0,0:0:0:0:m_078.ogg
332,192,3300,1,0,0:0:0:0:m_066.ogg
435,192,3300,1,0,0:0:0:0:m_078.ogg
332,192,3600,1,0,0:0:0:0:m_066.ogg
435,192,3600,1,0,0:0:0:0:m_078.ogg
76,192,3900,1,0,0:0:0:0:m_054.ogg
179,192,3900,1,0,0:0:0:0:m_042.ogg
76,192,4200,1,0,0:0:0:0:m_054.ogg
179,192,4200,1,0,0:0:0:0:m_042.ogg
76,192,4500,1,0,0:0:0:0:m_054.ogg
179,192,4500,1,0,0:0:0:0:m_042.ogg
332,192,4800,1,0,0:0:0:0:m_066.ogg
435,192,4800,1,0,0:0:0:0:m_078.ogg
332,192,5100,1,0,0:0:0:0:m_066.ogg
435,192,5100,1,0,0:0:0:0:m_078.ogg
332,192,5400,1,0,0:0:0:0:m_066.ogg
435,192,5400,1,0,0:0:0:0:m_078.ogg
76,192,5700,1,0,0:0:0:0:m_054.ogg
179,192,5700,1,0,0:0:0:0:m_042.ogg
332,192,6000,1,0,0:0:0:0:m_066.ogg
435,192,6000,1,0,0:0:0:0:m_078.ogg
332,192,6300,1,0,0:0:0:0:m_066.ogg
435,192,6300,1,0,0:0:0:0:m_078.ogg
76,192,6600,1,0,0:0:0:0:m_042.ogg
179,192,6600,1,0,0:0:0:0:m_054.ogg
332,192,6900,1,0,0:0:0:0:m_066.ogg
435,192,6900,1,0,0:0:0:0:m_078.ogg
332,192,7200,1,0,0:0:0:0:m_066.ogg
435,192,7200,1,0,0:0:0:0:m_078.ogg
179,192,7800,1,0,0:0:0:0:m_054.ogg
435,192,7950,1,0,0:0:0:0:s_066.ogg
435,192,8100,1,0,0:0:0:0:m_066.ogg
486,192,8250,1,0,0:0:0:0:s_078.ogg
435,192,8400,1,0,0:0:0:0:m_066.ogg
486,192,8550,1,0,0:0:0:0:s_078.ogg
384,192,8700,1,0,0:0:0:0:m_064.ogg
486,192,8850,1,0,0:0:0:0:s_078.ogg
25,192,9000,1,0,0:0:0:0:m_035.ogg
332,192,9000,1,0,0:0:0:0:m_062.ogg
76,192,9050,1,0,0:0:0:0:m_042.ogg
128,192,9100,1,0,0:0:0:0:m_050.ogg
486,192,9150,1,0,0:0:0:0:s_078.ogg
332,192,9300,1,0,0:0:0:0:m_062.ogg
486,192,9450,1,0,0:0:0:0:s_078.ogg
281,192,9600,1,0,0:0:0:0:m_061.ogg
486,192,9750,1,0,0:0:0:0:s_078.ogg
76,192,9900,1,0,0:0:0:0:m_038.ogg
384,192,9900,1,0,0:0:0:0:m_059.ogg
128,192,9950,1,0,0:0:0:0:m_047.ogg
179,192,10000,1,0,0:0:0:0:m_054.ogg
486,192,10050,1,0,0:0:0:0:s_078.ogg
332,192,10200,1,0,0:0:0:0:m_058.ogg
486,192,10350,1,0,0:0:0:0:s_078.ogg
384,192,10500,1,0,0:0:0:0:m_059.ogg
486,192,10650,1,0,0:0:0:0:s_078.ogg
128,192,10800,1,0,0:0:0:0:m_042.ogg
435,192,10800,1,0,0:0:0:0:m_061.ogg
179,192,10850,1,0,0:0:0:0:m_049.ogg
230,192,10900,1,0,0:0:0:0:m_058.ogg
486,192,10950,1,0,0:0:0:0:s_078.ogg
384,192,11100,1,0,0:0:0:0:m_054.ogg
486,192,11250,1,0,0:0:0:0:s_078.ogg
384,192,11400,1,0,0:0:0:0:m_054.ogg
435,192,11550,1,0,0:0:0:0:s_066.ogg
76,192,11700,1,0,0:0:0:0:m_046.ogg
332,192,11700,1,0,0:0:0:0:m_055.ogg
230,192,11750,1,0,0:0:0:0:m_049.ogg
435,192,11850,1,0,0:0:0:0:s_066.ogg
281,192,12000,1,0,0:0:0:0:m_054.ogg
435,192,12150,1,0,0:0:0:0:s_066.ogg
384,192,12300,1,0,0:0:0:0:m_052.ogg
435,192,12450,1,0,0:0:0:0:s_066.ogg
179,192,12600,1,0,0:0:0:0:m_047.ogg
332,192,12600,1,0,0:0:0:0:m_050.ogg
435,192,12750,1,0,0:0:0:0:s_066.ogg
332,192,12900,1,0,0:0:0:0:m_050.ogg
435,192,13050,1,0,0:0:0:0:s_066.ogg
384,192,13200,1,0,0:0:0:0:m_049.ogg
435,192,13350,1,0,0:0:0:0:s_066.ogg
25,192,13500,1,0,0:0:0:0:m_038.ogg
332,192,13500,1,0,0:0:0:0:m_047.ogg
76,192,13550,1,0,0:0:0:0:m_041.ogg
128,192,13600,1,0,0:0:0:0:m_044.ogg
435,192,13650,1,0,0:0:0:0:s_066.ogg
281,192,13800,1,0,0:0:0:0:m_046.ogg
435,192,13950,1,0,0:0:0:0:s_066.ogg
332,192,14100,1,0,0:0:0:0:m_047.ogg
435,192,14250,1,0,0:0:0:0:s_066.ogg
25,192,14400,1,0,0:0:0:0:m_046.ogg
179,192,14400,1,0,0:0:0:0:m_042.ogg
384,192,14400,1,0,0:0:0:0:m_049.ogg
435,192,14550,1,0,0:0:0:0:s_066.ogg
281,192,14700,1,0,0:0:0:0:m_042.ogg
332,192,14850,1,0,0:0:0:0:s_054.ogg
332,192,15000,1,0,0:0:0:0:s_054.ogg
435,192,15150,1,0,0:0:0:0:s_066.ogg
435,192,15300,1,0,0:0:0:0:m_066.ogg
486,192,15450,1,0,0:0:0:0:s_078.ogg
435,192,15600,1,0,0:0:0:0:m_066.ogg
486,192,15750,1,0,0:0:0:0:s_078.ogg
384,192,15900,1,0,0:0:0:0:m_064.ogg
486,192,16050,1,0,0:0:0:0:s_078.ogg
25,192,16200,1,0,0:0:0:0:m_035.ogg
332,192,16200,1,0,0:0:0:0:m_062.ogg
76,192,16250,1,0,0:0:0:0:m_042.ogg
128,192,16300,1,0,0:0:0:0:m_050.ogg
486,192,16350,1,0,0:0:0:0:s_078.ogg
332,192,16500,1,0,0:0:0:0:m_062.ogg
486,192,16650,1,0,0:0:0:0:s_078.ogg
281,192,16800,1,0,0:0:0:0:m_061.ogg
486,192,16950,1,0,0:0:0:0:s_078.ogg
76,192,17100,1,0,0:0:0:0:m_038.ogg
384,192,17100,1,0,0:0:0:0:m_059.ogg
128,192,17150,1,0,0:0:0:0:m_047.ogg
179,192,17200,1,0,0:0:0:0:m_054.ogg
486,192,17250,1,0,0:0:0:0:s_078.ogg
332,192,17400,1,0,0:0:0:0:m_058.ogg
486,192,17550,1,0,0:0:0:0:s_078.ogg
384,192,17700,1,0,0:0:0:0:m_059.ogg
486,192,17850,1,0,0:0:0:0:s_078.ogg
128,192,18000,1,0,0:0:0:0:m_042.ogg
435,192,18000,1,0,0:0:0:0:m_061.ogg
179,192,18050,1,0,0:0:0:0:m_049.ogg
230,192,18100,1,0,0:0:0:0:m_058.ogg
486,192,18150,1,0,0:0:0:0:s_078.ogg
332,192,18300,1,0,0:0:0:0:m_054.ogg
486,192,18450,1,0,0:0:0:0:s_078.ogg
332,192,18600,1,0,0:0:0:0:m_054.ogg
435,192,18750,1,0,0:0:0:0:s_066.ogg
76,192,18900,1,0,0:0:0:0:m_046.ogg
384,192,18900,1,0,0:0:0:0:m_055.ogg
230,192,18950,1,0,0:0:0:0:m_049.ogg
435,192,19050,1,0,0:0:0:0:s_066.ogg
332,192,19200,1,0,0:0:0:0:m_054.ogg
435,192,19350,1,0,0:0:0:0:s_066.ogg
179,192,19500,1,0,0:0:0:0:m_054.ogg
281,192,19500,1,0,0:0:0:0:m_052.ogg
435,192,19650,1,0,0:0:0:0:s_066.ogg
76,192,19800,1,0,0:0:0:0:m_047.ogg
128,192,19800,1,0,0:0:0:0:m_054.ogg
384,192,19800,1,0,0:0:0:0:m_050.ogg
435,192,19950,1,0,0:0:0:0:s_066.ogg
332,192,20100,1,0,0:0:0:0:s_059.ogg
384,192,20250,1,0,0:0:0:0:s_062.ogg
435,192,20400,1,0,0:0:0:0:m_066.ogg
486,192,20550,1,0,0:0:0:0:s_078.ogg
25,192,20700,1,0,0:0:0:0:m_042.ogg
128,192,20700,1,0,0:0:0:0:m_054.ogg
230,192,20700,1,0,0:0:0:0:m_052.ogg
281,192,20700,1,0,0:0:0:0:m_046.ogg
435,192,20850,1,0,0:0:0:0:s_066.ogg
332,192,21000,1,0,0:0:0:0:s_058.ogg
384,192,21150,1,0,0:0:0:0:s_061.ogg
435,192,21300,1,0,0:0:0:0:m_066.ogg
486,192,21450,1,0,0:0:0:0:s_078.ogg
25,192,21600,1,0,0:0:0:0:m_035.ogg
76,192,21750,1,0,0:0:0:0:m_042.ogg
128,192,21900,1,0,0:0:0:0:m_050.ogg
179,192,22050,1,0,0:0:0:0:s_059.ogg
332,192,22200,1,0,0:0:0:0:s_054.ogg
435,192,22300,1,0,0:0:0:0:s_066.ogg
435,192,22400,1,0,0:0:0:0:s_066.ogg
435,192,22500,1,0,0:0:0:0:s_066.ogg
435,192,22600,1,0,0:0:0:0:s_066.ogg
486,192,22700,1,0,0:0:0:0:s_078.ogg
435,192,22800,1,0,0:0:0:0:s_066.ogg
435,192,22900,1,0,0:0:0:0:s_066.ogg
486,192,23000,1,0,0:0:0:0:s_078.ogg
384,192,23100,1,0,0:0:0:0:s_064.ogg
384,192,23200,1,0,0:0:0:0:s_064.ogg
435,192,23300,1,0,0:0:0:0:s_076.ogg
76,192,23400,1,0,0:0:0:0:m_023.ogg
332,192,23400,1,0,0:0:0:0:s_062.ogg
332,192,23500,1,0,0:0:0:0:s_062.ogg
384,192,23600,1,0,0:0:0:0:s_074.ogg
25,192,23700,1,0,0:0:0:0:m_038.ogg
128,192,23700,1,0,0:0:0:0:m_030.ogg
332,192,23700,1,0,0:0:0:0:s_062.ogg
332,192,23800,1,0,0:0:0:0:s_062.ogg
384,192,23900,1,0,0:0:0:0:s_074.ogg
25,192,24000,1,0,0:0:0:0:m_038.ogg
128,192,24000,1,0,0:0:0:0:m_030.ogg
281,192,24000,1,0,0:0:0:0:s_061.ogg
281,192,24100,1,0,0:0:0:0:s_061.ogg
332,192,24200,1,0,0:0:0:0:s_073.ogg
230,192,24300,1,0,0:0:0:0:m_026.ogg
486,192,24300,1,0,0:0:0:0:s_059.ogg
486,192,24400,1,0,0:0:0:0:s_059.ogg
384,192,24500,1,0,0:0:0:0:s_071.ogg
76,192,24600,1,0,0:0:0:0:m_042.ogg
179,192,24600,1,0,0:0:0:0:m_035.ogg
435,192,24600,1,0,0:0:0:0:s_058.ogg
435,192,24700,1,0,0:0:0:0:s_058.ogg
281,192,24800,1,0,0:0:0:0:s_070.ogg
76,192,24900,1,0,0:0:0:0:m_035.ogg
179,192,24900,1,0,0:0:0:0:m_042.ogg
486,192,24900,1,0,0:0:0:0:s_059.ogg
486,192,25000,1,0,0:0:0:0:s_059.ogg
384,192,25100,1,0,0:0:0:0:s_071.ogg
25,192,25200,1,0,0:0:0:0:m_030.ogg
332,192,25200,1,0,0:0:0:0:s_061.ogg
332,192,25300,1,0,0:0:0:0:s_061.ogg
435,192,25400,1,0,0:0:0:0:s_073.ogg
128,192,25500,1,0,0:0:0:0:m_046.ogg
230,192,25500,1,0,0:0:0:0:m_037.ogg
281,192,25500,1,0,0:0:0:0:s_054.ogg
281,192,25600,1,0,0:0:0:0:s_054.ogg
384,192,25700,1,0,0:0:0:0:s_066.ogg
128,192,25800,1,0,0:0:0:0:m_037.ogg
230,192,25800,1,0,0:0:0:0:m_046.ogg
281,192,25800,1,0,0:0:0:0:s_054.ogg
281,192,25900,1,0,0:0:0:0:s_054.ogg
384,192,26000,1,0,0:0:0:0:s_066.ogg
76,192,26100,1,0,0:0:0:0:m_034.ogg
435,192,26100,1,0,0:0:0:0:s_055.ogg
435,192,26200,1,0,0:0:0:0:s_055.ogg
486,192,26300,1,0,0:0:0:0:s_067.ogg
179,192,26400,1,0,0:0:0:0:m_049.ogg
230,192,26400,1,0,0:0:0:0:m_042.ogg
384,192,26400,1,0,0:0:0:0:s_054.ogg
384,192,26500,1,0,0:0:0:0:s_054.ogg
435,192,26600,1,0,0:0:0:0:s_066.ogg
179,192,26700,1,0,0:0:0:0:m_042.ogg
230,192,26700,1,0,0:0:0:0:m_049.ogg
332,192,26700,1,0,0:0:0:0:s_052.ogg
332,192,26800,1,0,0:0:0:0:s_052.ogg
384,192,26900,1,0,0:0:0:0:s_064.ogg
76,192,27000,1,0,0:0:0:0:m_035.ogg
281,192,27000,1,0,0:0:0:0:s_050.ogg
281,192,27100,1,0,0:0:0:0:s_050.ogg
332,192,27200,1,0,0:0:0:0:s_062.ogg
128,192,27300,1,0,0:0:0:0:m_047.ogg
179,192,27300,1,0,0:0:0:0:m_042.ogg
281,192,27300,1,0,0:0:0:0:s_050.ogg
281,192,27400,1,0,0:0:0:0:s_050.ogg
332,192,27500,1,0,0:0:0:0:s_062.ogg
128,192,27600,1,0,0:0:0:0:m_042.ogg
179,192,27600,1,0,0:0:0:0:m_047.ogg
486,192,27600,1,0,0:0:0:0:s_049.ogg
486,192,27700,1,0,0:0:0:0:s_049.ogg
281,192,27800,1,0,0:0:0:0:s_061.ogg
25,192,27900,1,0,0:0:0:0:m_038.ogg
435,192,27900,1,0,0:0:0:0:s_047.ogg
435,192,28000,1,0,0:0:0:0:s_047.ogg
332,192,28100,1,0,0:0:0:0:s_059.ogg
76,192,28200,1,0,0:0:0:0:m_044.ogg
128,192,28200,1,0,0:0:0:0:m_041.ogg
384,192,28200,1,0,0:0:0:0:s_046.ogg
384,192,28300,1,0,0:0:0:0:s_046.ogg
281,192,28400,1,0,0:0:0:0:s_058.ogg
76,192,28500,1,0,0:0:0:0:m_041.ogg
128,192,28500,1,0,0:0:0:0:m_044.ogg
435,192,28500,1,0,0:0:0:0:s_047.ogg
435,192,28600,1,0,0:0:0:0:s_047.ogg
332,192,28700,1,0,0:0:0:0:s_059.ogg
25,192,28800,1,0,0:0:0:0:m_030.ogg
486,192,28800,1,0,0:0:0:0:s_049.ogg
486,192,28900,1,0,0:0:0:0:s_049.ogg
384,192,29000,1,0,0:0:0:0:s_061.ogg
76,192,29100,1,0,0:0:0:0:m_046.ogg
179,192,29100,1,0,0:0:0:0:m_037.ogg
435,192,29100,1,0,0:0:0:0:s_042.ogg
435,192,29200,1,0,0:0:0:0:s_042.ogg
332,192,29300,1,0,0:0:0:0:s_054.ogg
332,192,29400,1,0,0:0:0:0:s_054.ogg
332,192,29500,1,0,0:0:0:0:s_054.ogg
332,192,29600,1,0,0:0:0:0:s_054.ogg
384,192,29700,1,0,0:0:0:0:s_066.ogg
384,192,29800,1,0,0:0:0:0:s_066.ogg
486,192,29900,1,0,0:0:0:0:s_078.ogg
384,192,30000,1,0,0:0:0:0:s_066.ogg
384,192,30100,1,0,0:0:0:0:s_066.ogg
486,192,30200,1,0,0:0:0:0:s_078.ogg
332,192,30300,1,0,0:0:0:0:s_064.ogg
332,192,30400,1,0,0:0:0:0:s_064.ogg
435,192,30500,1,0,0:0:0:0:s_076.ogg
76,192,30600,1,0,0:0:0:0:m_023.ogg
281,192,30600,1,0,0:0:0:0:s_062.ogg
281,192,30700,1,0,0:0:0:0:s_062.ogg
384,192,30800,1,0,0:0:0:0:s_074.ogg
25,192,30900,1,0,0:0:0:0:m_038.ogg
128,192,30900,1,0,0:0:0:0:m_030.ogg
281,192,30900,1,0,0:0:0:0:s_062.ogg
281,192,31000,1,0,0:0:0:0:s_062.ogg
384,192,31100,1,0,0:0:0:0:s_074.ogg
25,192,31200,1,0,0:0:0:0:m_038.ogg
128,192,31200,1,0,0:0:0:0:m_030.ogg
486,192,31200,1,0,0:0:0:0:s_061.ogg
486,192,31300,1,0,0:0:0:0:s_061.ogg
332,192,31400,1,0,0:0:0:0:s_073.ogg
230,192,31500,1,0,0:0:0:0:m_026.ogg
435,192,31500,1,0,0:0:0:0:s_059.ogg
435,192,31600,1,0,0:0:0:0:s_059.ogg
281,192,31700,1,0,0:0:0:0:s_071.ogg
76,192,31800,1,0,0:0:0:0:m_042.ogg
179,192,31800,1,0,0:0:0:0:m_035.ogg
384,192,31800,1,0,0:0:0:0:s_058.ogg
384,192,31900,1,0,0:0:0:0:s_058.ogg
486,192,32000,1,0,0:0:0:0:s_070.ogg
76,192,32100,1,0,0:0:0:0:m_035.ogg
179,192,32100,1,0,0:0:0:0:m_042.ogg
435,192,32100,1,0,0:0:0:0:s_059.ogg
435,192,32200,1,0,0:0:0:0:s_059.ogg
281,192,32300,1,0,0:0:0:0:s_071.ogg
25,192,32400,1,0,0:0:0:0:m_030.ogg
486,192,32400,1,0,0:0:0:0:s_061.ogg
486,192,32500,1,0,0:0:0:0:s_061.ogg
435,192,32600,1,0,0:0:0:0:s_073.ogg
128,192,32700,1,0,0:0:0:0:m_046.ogg
230,192,32700,1,0,0:0:0:0:m_037.ogg
384,192,32700,1,0,0:0:0:0:s_054.ogg
384,192,32800,1,0,0:0:0:0:s_054.ogg
332,192,32900,1,0,0:0:0:0:s_066.ogg
128,192,33000,1,0,0:0:0:0:m_049.ogg
179,192,33000,1,0,0:0:0:0:m_046.ogg
384,192,33000,1,0,0:0:0:0:s_054.ogg
384,192,33100,1,0,0:0:0:0:s_054.ogg
332,192,33200,1,0,0:0:0:0:s_066.ogg
76,192,33300,1,0,0:0:0:0:m_047.ogg
230,192,33300,1,0,0:0:0:0:m_050.ogg
435,192,33300,1,0,0:0:0:0:s_055.ogg
435,192,33400,1,0,0:0:0:0:s_055.ogg
486,192,33500,1,0,0:0:0:0:s_067.ogg
25,192,33600,1,0,0:0:0:0:m_045.ogg
179,192,33600,1,0,0:0:0:0:m_049.ogg
384,192,33600,1,0,0:0:0:0:s_054.ogg
384,192,33700,1,0,0:0:0:0:s_054.ogg
435,192,33800,1,0,0:0:0:0:s_066.ogg
76,192,33900,1,0,0:0:0:0:m_043.ogg
128,192,33900,1,0,0:0:0:0:m_047.ogg
332,192,33900,1,0,0:0:0:0:s_052.ogg
332,192,34000,1,0,0:0:0:0:s_052.ogg
384,192,34100,1,0,0:0:0:0:s_064.ogg
25,192,34200,1,0,0:0:0:0:m_042.ogg
281,192,34200,1,0,0:0:0:0:s_054.ogg
76,192,34250,1,0,0:0:0:0:m_047.ogg
128,192,34300,1,0,0:0:0:0:m_050.ogg
281,192,34300,1,0,0:0:0:0:s_054.ogg
435,192,34400,1,0,0:0:0:0:s_066.ogg
332,192,34500,1,0,0:0:0:0:s_055.ogg
332,192,34600,1,0,0:0:0:0:s_055.ogg
486,192,34700,1,0,0:0:0:0:s_066.ogg
384,192,34800,1,0,0:0:0:0:s_056.ogg
384,192,34900,1,0,0:0:0:0:s_056.ogg
281,192,35000,1,0,0:0:0:0:s_066.ogg
435,192,35100,1,0,0:0:0:0:s_057.ogg
435,192,35200,1,0,0:0:0:0:s_057.ogg
332,192,35300,1,0,0:0:0:0:s_066.ogg
486,192,35400,1,0,0:0:0:0:s_058.ogg
486,192,35500,1,0,0:0:0:0:s_058.ogg
384,192,35600,1,0,0:0:0:0:s_066.ogg
281,192,35700,1,0,0:0:0:0:s_059.ogg
281,192,35800,1,0,0:0:0:0:s_059.ogg
435,192,35900,1,0,0:0:0:0:s_066.ogg
25,192,36000,1,0,0:0:0:0:l_046.ogg
179,192,36000,1,0,0:0:0:0:l_040.ogg
230,192,36000,1,0,0:0:0:0:l_030.ogg
332,192,36000,1,0,0:0:0:0:s_060.ogg
332,192,36100,1,0,0:0:0:0:s_060.ogg
486,192,36200,1,0,0:0:0:0:s_066.ogg
384,192,36300,1,0,0:0:0:0:s_061.ogg
384,192,36400,1,0,0:0:0:0:s_061.ogg
281,192,36500,1,0,0:0:0:0:s_066.ogg
435,192,36600,1,0,0:0:0:0:s_062.ogg
435,192,36700,1,0,0:0:0:0:s_062.ogg
332,192,36800,1,0,0:0:0:0:s_066.ogg
486,192,36900,1,0,0:0:0:0:s_063.ogg
486,192,37000,1,0,0:0:0:0:s_063.ogg
384,192,37100,1,0,0:0:0:0:s_066.ogg
281,192,37200,1,0,0:0:0:0:s_064.ogg
281,192,37300,1,0,0:0:0:0:s_064.ogg
435,192,37400,1,0,0:0:0:0:s_066.ogg
332,192,37500,1,0,0:0:0:0:s_065.ogg
332,192,37600,1,0,0:0:0:0:s_065.ogg
486,192,37700,1,0,0:0:0:0:s_066.ogg
25,192,37800,1,0,0:0:0:0:l_023.ogg
384,192,37800,1,0,0:0:0:0:s_066.ogg
76,192,37850,1,0,0:0:0:0:l_030.ogg
128,192,37900,1,0,0:0:0:0:l_038.ogg
230,192,37900,1,0,0:0:0:0:l_047.ogg
384,192,37900,1,0,0:0:0:0:s_066.ogg
281,192,38000,1,0,0:0:0:0:s_078.ogg
435,192,38100,1,0,0:0:0:0:s_067.ogg
435,192,38200,1,0,0:0:0:0:s_067.ogg
332,192,38300,1,0,0:0:0:0:s_078.ogg
486,192,38400,1,0,0:0:0:0:s_068.ogg
486,192,38500,1,0,0:0:0:0:s_068.ogg
384,192,38600,1,0,0:0:0:0:s_078.ogg
281,192,38700,1,0,0:0:0:0:s_069.ogg
281,192,38800,1,0,0:0:0:0:s_069.ogg
435,192,38900,1,0,0:0:0:0:s_078.ogg
332,192,39000,1,0,0:0:0:0:s_070.ogg
332,192,39100,1,0,0:0:0:0:s_070.ogg
486,192,39200,1,0,0:0:0:0:s_078.ogg
384,192,39300,1,0,0:0:0:0:s_071.ogg
384,192,39400,1,0,0:0:0:0:s_071.ogg
281,192,39500,1,0,0:0:0:0:s_078.ogg
128,192,40500,1,0,0:0:0:0:m_050.ogg
384,192,40500,1,0,0:0:0:0:s_047.ogg
76,192,40650,1,0,0:0:0:0:s_046.ogg
230,192,40650,1,0,0:0:0:0:s_049.ogg
25,192,40800,1,0,0:0:0:0:s_045.ogg
179,192,40800,1,0,0:0:0:0:s_048.ogg
384,192,40800,1,0,0:0:0:0:s_050.ogg
128,192,40950,1,0,0:0:0:0:s_044.ogg
230,192,40950,1,0,0:0:0:0:s_047.ogg
384,192,40950,1,0,0:0:0:0:s_050.ogg
76,192,41100,1,0,0:0:0:0:s_043.ogg
179,192,41100,1,0,0:0:0:0:s_046.ogg
384,192,41100,1,0,0:0:0:0:s_050.ogg
25,192,41250,1,0,0:0:0:0:s_045.ogg
128,192,41250,1,0,0:0:0:0:s_042.ogg
384,192,41250,1,0,0:0:0:0:s_050.ogg
76,192,41400,1,0,0:0:0:0:s_041.ogg
230,192,41400,1,0,0:0:0:0:s_044.ogg
384,192,41400,1,0,0:0:0:0:s_050.ogg
25,192,41550,1,0,0:0:0:0:s_040.ogg
179,192,41550,1,0,0:0:0:0:s_043.ogg
384,192,41550,1,0,0:0:0:0:s_050.ogg
435,192,41700,1,0,0:0:0:0:s_052.ogg
384,192,41775,1,0,0:0:0:0:s_050.ogg
332,192,41850,1,0,0:0:0:0:s_049.ogg
384,192,41925,1,0,0:0:0:0:s_050.ogg
76,192,42000,1,0,0:0:0:0:s_038.ogg
179,192,42000,1,0,0:0:0:0:s_045.ogg
281,192,42000,1,0,0:0:0:0:s_042.ogg
332,192,42075,1,0,0:0:0:0:s_057.ogg
435,192,42150,1,0,0:0:0:0:s_057.ogg
332,192,42225,1,0,0:0:0:0:s_057.ogg
25,192,42300,1,0,0:0:0:0:s_042.ogg
128,192,42300,1,0,0:0:0:0:s_050.ogg
179,192,42300,1,0,0:0:0:0:m_045.ogg
281,192,42300,1,0,0:0:0:0:s_033.ogg
384,192,42375,1,0,0:0:0:0:s_062.ogg
486,192,42450,1,0,0:0:0:0:s_062.ogg
384,192,42525,1,0,0:0:0:0:s_062.ogg
281,192,42600,1,0,0:0:0:0:s_052.ogg
435,192,42675,1,0,0:0:0:0:s_064.ogg
332,192,42750,1,0,0:0:0:0:s_064.ogg
435,192,42825,1,0,0:0:0:0:s_064.ogg
76,192,42900,1,0,0:0:0:0:s_037.ogg
179,192,42900,1,0,0:0:0:0:s_057.ogg
281,192,42900,1,0,0:0:0:0:s_043.ogg
486,192,42975,1,0,0:0:0:0:s_069.ogg
384,192,43050,1,0,0:0:0:0:s_069.ogg
486,192,43125,1,0,0:0:0:0:s_069.ogg
76,192,43200,1,0,0:0:0:0:s_037.ogg
128,192,43200,1,0,0:0:0:0:s_033.ogg
230,192,43200,1,0,0:0:0:0:s_045.ogg
281,192,43200,1,0,0:0:0:0:s_064.ogg
384,192,43300,1,0,0:0:0:0:s_069.ogg
486,192,43300,1,0,0:0:0:0:s_076.ogg
384,192,43400,1,0,0:0:0:0:s_069.ogg
486,192,43400,1,0,0:0:0:0:s_076.ogg
25,192,43500,1,0,0:0:0:0:s_026.ogg
281,192,43500,1,0,0:0:0:0:m_066.ogg
435,192,43600,1,0,0:0:0:0:s_078.ogg
486,192,43600,1,0,0:0:0:0:s_069.ogg
435,192,43700,1,0,0:0:0:0:s_078.ogg
486,192,43700,1,0,0:0:0:0:s_069.ogg
76,192,43800,1,0,0:0:0:0:s_033.ogg
179,192,43800,1,0,0:0:0:0:s_042.ogg
281,192,43800,1,0,0:0:0:0:s_066.ogg
230,192,44100,1,0,0:0:0:0:m_050.ogg
435,192,44100,1,0,0:0:0:0:m_054.ogg
179,192,44250,1,0,0:0:0:0:s_053.ogg
25,192,44400,1,0,0:0:0:0:s_052.ogg
128,192,44400,1,0,0:0:0:0:s_049.ogg
435,192,44400,1,0,0:0:0:0:s_054.ogg
76,192,44550,1,0,0:0:0:0:s_048.ogg
230,192,44550,1,0,0:0:0:0:s_051.ogg
435,192,44550,1,0,0:0:0:0:s_054.ogg
25,192,44700,1,0,0:0:0:0:s_047.ogg
179,192,44700,1,0,0:0:0:0:s_050.ogg
435,192,44700,1,0,0:0:0:0:s_054.ogg
128,192,44850,1,0,0:0:0:0:s_046.ogg
230,192,44850,1,0,0:0:0:0:s_049.ogg
435,192,44850,1,0,0:0:0:0:s_054.ogg
76,192,45000,1,0,0:0:0:0:s_045.ogg
179,192,45000,1,0,0:0:0:0:s_048.ogg
435,192,45000,1,0,0:0:0:0:s_054.ogg
25,192,45150,1,0,0:0:0:0:s_044.ogg
128,192,45150,1,0,0:0:0:0:s_047.ogg
435,192,45150,1,0,0:0:0:0:s_054.ogg
486,192,45300,1,0,0:0:0:0:s_056.ogg
435,192,45375,1,0,0:0:0:0:s_054.ogg
384,192,45450,1,0,0:0:0:0:s_053.ogg
435,192,45525,1,0,0:0:0:0:s_054.ogg
76,192,45600,1,0,0:0:0:0:s_045.ogg
179,192,45600,1,0,0:0:0:0:s_042.ogg
281,192,45600,1,0,0:0:0:0:s_049.ogg
332,192,45675,1,0,0:0:0:0:s_061.ogg
435,192,45750,1,0,0:0:0:0:s_061.ogg
332,192,45825,1,0,0:0:0:0:s_061.ogg
25,192,45900,1,0,0:0:0:0:s_037.ogg
128,192,45900,1,0,0:0:0:0:s_045.ogg
179,192,45900,1,0,0:0:0:0:s_049.ogg
281,192,45900,1,0,0:0:0:0:s_054.ogg
384,192,45975,1,0,0:0:0:0:s_066.ogg
486,192,46050,1,0,0:0:0:0:s_066.ogg
384,192,46125,1,0,0:0:0:0:s_066.ogg
281,192,46200,1,0,0:0:0:0:s_056.ogg
435,192,46275,1,0,0:0:0:0:s_068.ogg
332,192,46350,1,0,0:0:0:0:s_068.ogg
435,192,46425,1,0,0:0:0:0:s_068.ogg
76,192,46500,1,0,0:0:0:0:s_047.ogg
179,192,46500,1,0,0:0:0:0:s_041.ogg
281,192,46500,1,0,0:0:0:0:s_061.ogg
486,192,46575,1,0,0:0:0:0:s_073.ogg
384,192,46650,1,0,0:0:0:0:s_073.ogg
486,192,46725,1,0,0:0:0:0:s_073.ogg
76,192,46800,1,0,0:0:0:0:s_049.ogg
128,192,46800,1,0,0:0:0:0:s_041.ogg
230,192,46800,1,0,0:0:0:0:s_037.ogg
281,192,46800,1,0,0:0:0:0:s_068.ogg
332,192,46900,1,0,0:0:0:0:s_080.ogg
486,192,46900,1,0,0:0:0:0:s_073.ogg
332,192,47000,1,0,0:0:0:0:s_073.ogg
486,192,47000,1,0,0:0:0:0:s_080.ogg
25,192,47100,1,0,0:0:0:0:s_030.ogg
281,192,47100,1,0,0:0:0:0:m_069.ogg
384,192,47200,1,0,0:0:0:0:s_081.ogg
486,192,47200,1,0,0:0:0:0:s_073.ogg
384,192,47300,1,0,0:0:0:0:s_081.ogg
486,192,47300,1,0,0:0:0:0:s_073.ogg
76,192,47400,1,0,0:0:0:0:s_045.ogg
179,192,47400,1,0,0:0:0:0:s_037.ogg
281,192,47400,1,0,0:0:0:0:s_066.ogg
128,192,47700,1,0,0:0:0:0:s_054.ogg
486,192,47700,1,0,0:0:0:0:m_057.ogg
76,192,47850,1,0,0:0:0:0:s_053.ogg
230,192,47850,1,0,0:0:0:0:s_056.ogg
25,192,48000,1,0,0:0:0:0:s_052.ogg
179,192,48000,1,0,0:0:0:0:s_055.ogg
486,192,48000,1,0,0:0:0:0:s_057.ogg
128,192,48150,1,0,0:0:0:0:s_051.ogg
230,192,48150,1,0,0:0:0:0:s_054.ogg
486,192,48150,1,0,0:0:0:0:s_057.ogg
76,192,48300,1,0,0:0:0:0:s_050.ogg
179,192,48300,1,0,0:0:0:0:s_053.ogg
486,192,48300,1,0,0:0:0:0:s_057.ogg
25,192,48450,1,0,0:0:0:0:s_052.ogg
128,192,48450,1,0,0:0:0:0:s_049.ogg
486,192,48450,1,0,0:0:0:0:s_057.ogg
76,192,48600,1,0,0:0:0:0:s_048.ogg
230,192,48600,1,0,0:0:0:0:s_051.ogg
486,192,48600,1,0,0:0:0:0:s_057.ogg
25,192,48750,1,0,0:0:0:0:s_047.ogg
179,192,48750,1,0,0:0:0:0:s_050.ogg
486,192,48750,1,0,0:0:0:0:s_057.ogg
435,192,48900,1,0,0:0:0:0:s_059.ogg
384,192,48975,1,0,0:0:0:0:s_057.ogg
332,192,49050,1,0,0:0:0:0:s_056.ogg
384,192,49125,1,0,0:0:0:0:s_057.ogg
76,192,49200,1,0,0:0:0:0:s_045.ogg
179,192,49200,1,0,0:0:0:0:s_052.ogg
281,192,49200,1,0,0:0:0:0:s_049.ogg
332,192,49275,1,0,0:0:0:0:s_064.ogg
435,192,49350,1,0,0:0:0:0:s_064.ogg
332,192,49425,1,0,0:0:0:0:s_064.ogg
25,192,49500,1,0,0:0:0:0:s_057.ogg
128,192,49500,1,0,0:0:0:0:s_049.ogg
179,192,49500,1,0,0:0:0:0:s_052.ogg
281,192,49500,1,0,0:0:0:0:s_040.ogg
384,192,49575,1,0,0:0:0:0:s_069.ogg
486,192,49650,1,0,0:0:0:0:s_069.ogg
384,192,49725,1,0,0:0:0:0:s_069.ogg
281,192,49800,1,0,0:0:0:0:s_059.ogg
435,192,49875,1,0,0:0:0:0:s_071.ogg
332,192,49950,1,0,0:0:0:0:s_071.ogg
435,192,50025,1,0,0:0:0:0:s_071.ogg
76,192,50100,1,0,0:0:0:0:s_050.ogg
179,192,50100,1,0,0:0:0:0:s_044.ogg
281,192,50100,1,0,0:0:0:0:s_064.ogg
384,192,50200,1,0,0:0:0:0:s_071.ogg
486,192,50200,1,0,0:0:0:0:s_076.ogg
384,192,50300,1,0,0:0:0:0:s_076.ogg
486,192,50300,1,0,0:0:0:0:s_071.ogg
76,192,50400,1,0,0:0:0:0:s_052.ogg
128,192,50400,1,0,0:0:0:0:s_040.ogg
230,192,50400,1,0,0:0:0:0:s_044.ogg
384,192,50400,1,0,0:0:0:0:s_071.ogg
486,192,50400,1,0,0:0:0:0:s_076.ogg
384,192,50500,1,0,0:0:0:0:s_071.ogg
486,192,50500,1,0,0:0:0:0:s_076.ogg
384,192,50600,1,0,0:0:0:0:s_076.ogg
486,192,50600,1,0,0:0:0:0:s_071.ogg
179,192,50700,1,0,0:0:0:0:m_045.ogg
332,192,50700,1,0,0:0:0:0:s_076.ogg
435,192,50775,1,0,0:0:0:0:s_078.ogg
332,192,50850,1,0,0:0:0:0:s_076.ogg
435,192,50925,1,0,0:0:0:0:s_078.ogg
25,192,51000,1,0,0:0:0:0:s_057.ogg
128,192,51000,1,0,0:0:0:0:s_061.ogg
332,192,51000,1,0,0:0:0:0:s_076.ogg
435,192,51075,1,0,0:0:0:0:s_078.ogg
76,192,51150,1,0,0:0:0:0:s_059.ogg
179,192,51150,1,0,0:0:0:0:s_062.ogg
332,192,51150,1,0,0:0:0:0:s_076.ogg
435,192,51225,1,0,0:0:0:0:s_078.ogg
128,192,51300,1,0,0:0:0:0:s_064.ogg
230,192,51300,1,0,0:0:0:0:s_061.ogg
332,192,51300,1,0,0:0:0:0:s_076.ogg
435,192,51375,1,0,0:0:0:0:s_078.ogg
332,192,51450,1,0,0:0:0:0:s_076.ogg
435,192,51525,1,0,0:0:0:0:s_078.ogg
76,192,51600,1,0,0:0:0:0:m_038.ogg
281,192,51600,1,0,0:0:0:0:s_074.ogg
384,192,51675,1,0,0:0:0:0:s_076.ogg
281,192,51750,1,0,0:0:0:0:s_074.ogg
384,192,51825,1,0,0:0:0:0:s_076.ogg
25,192,51900,1,0,0:0:0:0:s_059.ogg
128,192,51900,1,0,0:0:0:0:s_050.ogg
281,192,51900,1,0,0:0:0:0:s_074.ogg
384,192,51975,1,0,0:0:0:0:s_076.ogg
76,192,52050,1,0,0:0:0:0:s_061.ogg
179,192,52050,1,0,0:0:0:0:s_052.ogg
281,192,52050,1,0,0:0:0:0:s_074.ogg
384,192,52125,1,0,0:0:0:0:s_076.ogg
128,192,52200,1,0,0:0:0:0:s_062.ogg
230,192,52200,1,0,0:0:0:0:s_054.ogg
281,192,52200,1,0,0:0:0:0:s_074.ogg
384,192,52275,1,0,0:0:0:0:s_076.ogg
281,192,52350,1,0,0:0:0:0:s_074.ogg
384,192,52425,1,0,0:0:0:0:s_076.ogg
179,192,52500,1,0,0:0:0:0:m_040.ogg
332,192,52500,1,0,0:0:0:0:s_073.ogg
486,192,52575,1,0,0:0:0:0:s_074.ogg
332,192,52650,1,0,0:0:0:0:s_073.ogg
486,192,52725,1,0,0:0:0:0:s_074.ogg
25,192,52800,1,0,0:0:0:0:s_057.ogg
128,192,52800,1,0,0:0:0:0:s_049.ogg
332,192,52800,1,0,0:0:0:0:s_073.ogg
486,192,52875,1,0,0:0:0:0:s_074.ogg
76,192,52950,1,0,0:0:0:0:s_050.ogg
179,192,52950,1,0,0:0:0:0:s_059.ogg
332,192,52950,1,0,0:0:0:0:s_073.ogg
486,192,53025,1,0,0:0:0:0:s_074.ogg
128,192,53100,1,0,0:0:0:0:s_061.ogg
230,192,53100,1,0,0:0:0:0:s_052.ogg
332,192,53100,1,0,0:0:0:0:s_073.ogg
486,192,53175,1,0,0:0:0:0:s_074.ogg
332,192,53250,1,0,0:0:0:0:s_073.ogg
486,192,53325,1,0,0:0:0:0:s_074.ogg
179,192,53400,1,0,0:0:0:0:m_040.ogg
281,192,53400,1,0,0:0:0:0:s_071.ogg
435,192,53475,1,0,0:0:0:0:s_073.ogg
281,192,53550,1,0,0:0:0:0:s_071.ogg
435,192,53625,1,0,0:0:0:0:s_073.ogg
25,192,53700,1,0,0:0:0:0:s_056.ogg
128,192,53700,1,0,0:0:0:0:s_047.ogg
281,192,53700,1,0,0:0:0:0:s_071.ogg
435,192,53775,1,0,0:0:0:0:s_073.ogg
76,192,53850,1,0,0:0:0:0:s_057.ogg
179,192,53850,1,0,0:0:0:0:s_049.ogg
281,192,53850,1,0,0:0:0:0:s_071.ogg
435,192,53925,1,0,0:0:0:0:s_073.ogg
128,192,54000,1,0,0:0:0:0:s_059.ogg
230,192,54000,1,0,0:0:0:0:s_050.ogg
281,192,54000,1,0,0:0:0:0:s_071.ogg
332,192,54075,1,0,0:0:0:0:s_066.ogg
384,192,54150,1,0,0:0:0:0:s_067.ogg
435,192,54225,1,0,0:0:0:0:s_068.ogg
25,192,54300,1,0,0:0:0:0:m_061.ogg
76,192,54300,1,0,0:0:0:0:m_052.ogg
179,192,54300,1,0,0:0:0:0:m_045.ogg
486,192,54300,1,0,0:0:0:0:s_069.ogg
384,192,54375,1,0,0:0:0:0:s_071.ogg
281,192,54450,1,0,0:0:0:0:s_069.ogg
384,192,54525,1,0,0:0:0:0:s_071.ogg
128,192,54600,1,0,0:0:0:0:s_057.ogg
281,192,54600,1,0,0:0:0:0:s_069.ogg
332,192,54675,1,0,0:0:0:0:s_069.ogg
435,192,54750,1,0,0:0:0:0:s_071.ogg
332,192,54825,1,0,0:0:0:0:s_069.ogg
179,192,54900,1,0,0:0:0:0:s_058.ogg
384,192,54975,1,0,0:0:0:0:s_070.ogg
486,192,55050,1,0,0:0:0:0:s_071.ogg
384,192,55125,1,0,0:0:0:0:s_070.ogg
230,192,55200,1,0,0:0:0:0:s_059.ogg
435,192,55200,1,0,0:0:0:0:s_072.ogg
281,192,55275,1,0,0:0:0:0:s_071.ogg
435,192,55350,1,0,0:0:0:0:s_072.ogg
281,192,55425,1,0,0:0:0:0:s_071.ogg
128,192,55500,1,0,0:0:0:0:m_043.ogg
435,192,55500,1,0,0:0:0:0:s_072.ogg
230,192,55550,1,0,0:0:0:0:m_059.ogg
281,192,55575,1,0,0:0:0:0:s_071.ogg
435,192,55650,1,0,0:0:0:0:s_072.ogg
281,192,55725,1,0,0:0:0:0:s_071.ogg
76,192,55800,1,0,0:0:0:0:m_042.ogg
435,192,55800,1,0,0:0:0:0:s_072.ogg
179,192,55850,1,0,0:0:0:0:m_057.ogg
281,192,55875,1,0,0:0:0:0:s_071.ogg
435,192,55950,1,0,0:0:0:0:s_072.ogg
281,192,56025,1,0,0:0:0:0:s_071.ogg
25,192,56100,1,0,0:0:0:0:m_040.ogg
76,192,56100,1,0,0:0:0:0:s_070.ogg
332,192,56125,1,0,0:0:0:0:s_071.ogg
128,192,56150,1,0,0:0:0:0:m_055.ogg
486,192,56175,1,0,0:0:0:0:s_072.ogg
332,192,56250,1,0,0:0:0:0:s_071.ogg
486,192,56325,1,0,0:0:0:0:s_072.ogg
128,192,56400,1,0,0:0:0:0:m_081.ogg
230,192,56400,1,0,0:0:0:0:s_066.ogg
332,192,56400,1,0,0:0:0:0:s_071.ogg
486,192,56475,1,0,0:0:0:0:s_072.ogg
332,192,56550,1,0,0:0:0:0:s_071.ogg
486,192,56625,1,0,0:0:0:0:s_072.ogg
76,192,56700,1,0,0:0:0:0:m_079.ogg
179,192,56700,1,0,0:0:0:0:s_064.ogg
332,192,56700,1,0,0:0:0:0:s_071.ogg
486,192,56775,1,0,0:0:0:0:s_072.ogg
332,192,56850,1,0,0:0:0:0:s_071.ogg
486,192,56925,1,0,0:0:0:0:s_072.ogg
25,192,57000,1,0,0:0:0:0:m_047.ogg
179,192,57000,1,0,0:0:0:0:m_078.ogg
332,192,57000,1,0,0:0:0:0:s_071.ogg
128,192,57050,1,0,0:0:0:0:s_063.ogg
486,192,57075,1,0,0:0:0:0:s_072.ogg
332,192,57150,1,0,0:0:0:0:s_071.ogg
486,192,57225,1,0,0:0:0:0:s_072.ogg
76,192,57300,1,0,0:0:0:0:s_061.ogg
179,192,57300,1,0,0:0:0:0:m_076.ogg
332,192,57300,1,0,0:0:0:0:s_071.ogg
486,192,57375,1,0,0:0:0:0:s_072.ogg
332,192,57450,1,0,0:0:0:0:s_071.ogg
486,192,57525,1,0,0:0:0:0:s_072.ogg
128,192,57600,1,0,0:0:0:0:s_063.ogg
230,192,57600,1,0,0:0:0:0:m_078.ogg
332,192,57600,1,0,0:0:0:0:s_071.ogg
486,192,57675,1,0,0:0:0:0:s_072.ogg
332,192,57750,1,0,0:0:0:0:s_071.ogg
486,192,57825,1,0,0:0:0:0:s_072.ogg
76,192,57900,1,0,0:0:0:0:m_052.ogg
128,192,57900,1,0,0:0:0:0:m_079.ogg
179,192,57900,1,0,0:0:0:0:s_064.ogg
332,192,57900,1,0,0:0:0:0:s_071.ogg
486,192,57975,1,0,0:0:0:0:s_072.ogg
332,192,58050,1,0,0:0:0:0:s_071.ogg
486,192,58125,1,0,0:0:0:0:s_072.ogg
25,192,58200,1,0,0:0:0:0:s_076.ogg
230,192,58200,1,0,0:0:0:0:s_067.ogg
332,192,58200,1,0,0:0:0:0:s_071.ogg
128,192,58500,1,0,0:0:0:0:m_058.ogg
384,192,58575,1,0,0:0:0:0:s_070.ogg
486,192,58650,1,0,0:0:0:0:s_072.ogg
384,192,58725,1,0,0:0:0:0:s_070.ogg
76,192,58800,1,0,0:0:0:0:m_057.ogg
332,192,58875,1,0,0:0:0:0:s_069.ogg
435,192,58950,1,0,0:0:0:0:s_071.ogg
332,192,59025,1,0,0:0:0:0:s_069.ogg
128,192,59100,1,0,0:0:0:0:m_042.ogg
435,192,59100,1,0,0:0:0:0:s_071.ogg
230,192,59150,1,0,0:0:0:0:m_057.ogg
332,192,59175,1,0,0:0:0:0:s_069.ogg
435,192,59250,1,0,0:0:0:0:s_071.ogg
332,192,59325,1,0,0:0:0:0:s_069.ogg
76,192,59400,1,0,0:0:0:0:m_040.ogg
435,192,59400,1,0,0:0:0:0:s_071.ogg
179,192,59450,1,0,0:0:0:0:m_055.ogg
332,192,59475,1,0,0:0:0:0:s_069.ogg
435,192,59550,1,0,0:0:0:0:s_071.ogg
332,192,59625,1,0,0:0:0:0:s_069.ogg
25,192,59700,1,0,0:0:0:0:m_038.ogg
179,192,59700,1,0,0:0:0:0:s_068.ogg
281,192,59725,1,0,0:0:0:0:s_069.ogg
128,192,59750,1,0,0:0:0:0:m_054.ogg
384,192,59775,1,0,0:0:0:0:s_071.ogg
281,192,59850,1,0,0:0:0:0:s_069.ogg
384,192,59925,1,0,0:0:0:0:s_071.ogg
76,192,60000,1,0,0:0:0:0:m_079.ogg
230,192,60000,1,0,0:0:0:0:s_064.ogg
281,192,60000,1,0,0:0:0:0:s_069.ogg
384,192,60075,1,0,0:0:0:0:s_071.ogg
281,192,60150,1,0,0:0:0:0:s_069.ogg
384,192,60225,1,0,0:0:0:0:s_071.ogg
25,192,60300,1,0,0:0:0:0:m_078.ogg
179,192,60300,1,0,0:0:0:0:s_062.ogg
281,192,60300,1,0,0:0:0:0:s_069.ogg
384,192,60375,1,0,0:0:0:0:s_071.ogg
281,192,60450,1,0,0:0:0:0:s_069.ogg
384,192,60525,1,0,0:0:0:0:s_071.ogg
25,192,60600,1,0,0:0:0:0:m_045.ogg
76,192,60600,1,0,0:0:0:0:m_076.ogg
281,192,60600,1,0,0:0:0:0:s_069.ogg
128,192,60650,1,0,0:0:0:0:s_061.ogg
384,192,60675,1,0,0:0:0:0:s_071.ogg
281,192,60750,1,0,0:0:0:0:s_069.ogg
384,192,60825,1,0,0:0:0:0:s_071.ogg
76,192,60900,1,0,0:0:0:0:s_059.ogg
179,192,60900,1,0,0:0:0:0:m_074.ogg
281,192,60900,1,0,0:0:0:0:s_069.ogg
384,192,60975,1,0,0:0:0:0:s_071.ogg
281,192,61050,1,0,0:0:0:0:s_069.ogg
384,192,61125,1,0,0:0:0:0:s_071.ogg
128,192,61200,1,0,0:0:0:0:s_061.ogg
230,192,61200,1,0,0:0:0:0:m_076.ogg
281,192,61200,1,0,0:0:0:0:s_069.ogg
384,192,61275,1,0,0:0:0:0:s_071.ogg
281,192,61350,1,0,0:0:0:0:s_069.ogg
384,192,61425,1,0,0:0:0:0:s_071.ogg
76,192,61500,1,0,0:0:0:0:m_050.ogg
128,192,61500,1,0,0:0:0:0:m_078.ogg
179,192,61500,1,0,0:0:0:0:s_062.ogg
281,192,61500,1,0,0:0:0:0:s_069.ogg
384,192,61575,1,0,0:0:0:0:s_071.ogg
281,192,61650,1,0,0:0:0:0:s_069.ogg
384,192,61725,1,0,0:0:0:0:s_071.ogg
25,192,61800,1,0,0:0:0:0:s_074.ogg
230,192,61800,1,0,0:0:0:0:s_066.ogg
281,192,61800,1,0,0:0:0:0:s_069.ogg
128,192,62100,1,0,0:0:0:0:s_053.ogg
332,192,62175,1,0,0:0:0:0:s_065.ogg
486,192,62250,1,0,0:0:0:0:s_066.ogg
332,192,62325,1,0,0:0:0:0:s_065.ogg
179,192,62400,1,0,0:0:0:0:s_054.ogg
281,192,62475,1,0,0:0:0:0:s_066.ogg
435,192,62550,1,0,0:0:0:0:s_067.ogg
281,192,62625,1,0,0:0:0:0:s_066.ogg
25,192,62700,1,0,0:0:0:0:s_042.ogg
128,192,62700,1,0,0:0:0:0:s_046.ogg
230,192,62700,1,0,0:0:0:0:s_054.ogg
435,192,62700,1,0,0:0:0:0:s_067.ogg
281,192,62775,1,0,0:0:0:0:s_066.ogg
435,192,62850,1,0,0:0:0:0:s_067.ogg
281,192,62925,1,0,0:0:0:0:s_066.ogg
76,192,63000,1,0,0:0:0:0:s_044.ogg
128,192,63000,1,0,0:0:0:0:s_047.ogg
179,192,63000,1,0,0:0:0:0:s_053.ogg
435,192,63000,1,0,0:0:0:0:s_067.ogg
281,192,63075,1,0,0:0:0:0:s_066.ogg
435,192,63150,1,0,0:0:0:0:s_067.ogg
281,192,63225,1,0,0:0:0:0:s_066.ogg
128,192,63300,1,0,0:0:0:0:m_046.ogg
435,192,63300,1,0,0:0:0:0:s_067.ogg
179,192,63350,1,0,0:0:0:0:m_049.ogg
384,192,63350,1,0,0:0:0:0:s_066.ogg
230,192,63400,1,0,0:0:0:0:m_052.ogg
332,192,63400,1,0,0:0:0:0:s_065.ogg
25,192,63450,1,0,0:0:0:0:s_066.ogg
76,192,63500,1,0,0:0:0:0:s_067.ogg
128,192,63550,1,0,0:0:0:0:s_068.ogg
179,192,63600,1,0,0:0:0:0:s_069.ogg
230,192,63650,1,0,0:0:0:0:s_070.ogg
281,192,63700,1,0,0:0:0:0:s_071.ogg
332,192,63750,1,0,0:0:0:0:s_072.ogg
384,192,63800,1,0,0:0:0:0:s_073.ogg
435,192,63850,1,0,0:0:0:0:s_074.ogg
486,192,63900,1,0,0:0:0:0:s_075.ogg
25,192,63975,1,0,0:0:0:0:s_076.ogg
76,192,64050,1,0,0:0:0:0:s_077.ogg
128,192,64125,1,0,0:0:0:0:s_078.ogg
179,192,64200,1,0,0:0:0:0:s_079.ogg
281,192,64200,1,0,0:0:0:0:m_047.ogg
332,192,64250,1,0,0:0:0:0:m_050.ogg
230,192,64275,1,0,0:0:0:0:s_081.ogg
384,192,64300,1,0,0:0:0:0:m_055.ogg
179,192,64350,1,0,0:0:0:0:s_079.ogg
128,192,64425,1,0,0:0:0:0:s_078.ogg
76,192,64500,1,0,0:0:0:0:s_077.ogg
25,192,64550,1,0,0:0:0:0:s_076.ogg
486,192,64600,1,0,0:0:0:0:s_075.ogg
435,192,64650,1,0,0:0:0:0:s_074.ogg
384,192,64700,1,0,0:0:0:0:s_073.ogg
332,192,64750,1,0,0:0:0:0:s_072.ogg
281,192,64800,1,0,0:0:0:0:s_071.ogg
230,192,64850,1,0,0:0:0:0:s_070.ogg
179,192,64900,1,0,0:0:0:0:s_069.ogg
128,192,64950,1,0,0:0:0:0:s_068.ogg
76,192,65000,1,0,0:0:0:0:s_067.ogg
25,192,65100,1,0,0:0:0:0:m_042.ogg
486,192,65100,1,0,0:0:0:0:m_066.ogg
230,192,65150,1,0,0:0:0:0:m_058.ogg
76,192,65400,1,0,0:0:0:0:s_049.ogg
332,192,65475,1,0,0:0:0:0:s_061.ogg
435,192,65550,1,0,0:0:0:0:s_062.ogg
332,192,65625,1,0,0:0:0:0:s_061.ogg
128,192,65700,1,0,0:0:0:0:s_053.ogg
384,192,65775,1,0,0:0:0:0:s_065.ogg
486,192,65850,1,0,0:0:0:0:s_066.ogg
384,192,65925,1,0,0:0:0:0:s_065.ogg
179,192,66000,1,0,0:0:0:0:s_054.ogg
281,192,66075,1,0,0:0:0:0:s_066.ogg
435,192,66150,1,0,0:0:0:0:s_067.ogg
281,192,66225,1,0,0:0:0:0:s_066.ogg
25,192,66300,1,0,0:0:0:0:s_042.ogg
128,192,66300,1,0,0:0:0:0:s_046.ogg
230,192,66300,1,0,0:0:0:0:s_054.ogg
435,192,66300,1,0,0:0:0:0:s_067.ogg
281,192,66375,1,0,0:0:0:0:s_066.ogg
435,192,66450,1,0,0:0:0:0:s_067.ogg
281,192,66525,1,0,0:0:0:0:s_066.ogg
76,192,66600,1,0,0:0:0:0:s_053.ogg
128,192,66600,1,0,0:0:0:0:s_047.ogg
179,192,66600,1,0,0:0:0:0:s_044.ogg
435,192,66600,1,0,0:0:0:0:s_067.ogg
281,192,66675,1,0,0:0:0:0:s_066.ogg
435,192,66750,1,0,0:0:0:0:s_067.ogg
281,192,66825,1,0,0:0:0:0:s_066.ogg
128,192,66900,1,0,0:0:0:0:m_046.ogg
435,192,66900,1,0,0:0:0:0:s_067.ogg
179,192,66950,1,0,0:0:0:0:m_049.ogg
384,192,66950,1,0,0:0:0:0:s_066.ogg
230,192,67000,1,0,0:0:0:0:m_052.ogg
332,192,67000,1,0,0:0:0:0:s_065.ogg
25,192,67050,1,0,0:0:0:0:s_066.ogg
76,192,67100,1,0,0:0:0:0:s_067.ogg
128,192,67150,1,0,0:0:0:0:s_068.ogg
179,192,67200,1,0,0:0:0:0:s_069.ogg
230,192,67250,1,0,0:0:0:0:s_070.ogg
281,192,67300,1,0,0:0:0:0:s_071.ogg
332,192,67350,1,0,0:0:0:0:s_072.ogg
384,192,67400,1,0,0:0:0:0:s_073.ogg
435,192,67450,1,0,0:0:0:0:s_074.ogg
486,192,67500,1,0,0:0:0:0:s_075.ogg
25,192,67575,1,0,0:0:0:0:s_076.ogg
76,192,67650,1,0,0:0:0:0:s_077.ogg
128,192,67725,1,0,0:0:0:0:s_078.ogg
179,192,67800,1,0,0:0:0:0:s_079.ogg
281,192,67800,1,0,0:0:0:0:m_047.ogg
332,192,67850,1,0,0:0:0:0:m_050.ogg
230,192,67875,1,0,0:0:0:0:s_081.ogg
384,192,67900,1,0,0:0:0:0:m_055.ogg
179,192,67950,1,0,0:0:0:0:s_079.ogg
128,192,68025,1,0,0:0:0:0:s_078.ogg
76,192,68100,1,0,0:0:0:0:s_077.ogg
25,192,68150,1,0,0:0:0:0:s_076.ogg
486,192,68200,1,0,0:0:0:0:s_075.ogg
435,192,68250,1,0,0:0:0:0:s_074.ogg
384,192,68300,1,0,0:0:0:0:s_073.ogg
332,192,68350,1,0,0:0:0:0:s_072.ogg
281,192,68400,1,0,0:0:0:0:s_071.ogg
230,192,68450,1,0,0:0:0:0:s_070.ogg
179,192,68500,1,0,0:0:0:0:s_069.ogg
128,192,68550,1,0,0:0:0:0:s_068.ogg
76,192,68600,1,0,0:0:0:0:s_067.ogg
128,192,68700,1,0,0:0:0:0:m_042.ogg
435,192,68700,1,0,0:0:0:0:s_066.ogg
179,192,68750,1,0,0:0:0:0:m_049.ogg
384,192,68750,1,0,0:0:0:0:s_067.ogg
230,192,68800,1,0,0:0:0:0:m_058.ogg
332,192,68800,1,0,0:0:0:0:s_066.ogg
281,192,68850,1,0,0:0:0:0:s_065.ogg
25,192,68900,1,0,0:0:0:0:s_066.ogg
76,192,68950,1,0,0:0:0:0:s_067.ogg
128,192,69000,1,0,0:0:0:0:s_068.ogg
179,192,69050,1,0,0:0:0:0:s_069.ogg
230,192,69100,1,0,0:0:0:0:s_070.ogg
281,192,69150,1,0,0:0:0:0:s_071.ogg
332,192,69200,1,0,0:0:0:0:s_072.ogg
384,192,69250,1,0,0:0:0:0:s_073.ogg
435,192,69300,1,0,0:0:0:0:s_074.ogg
486,192,69350,1,0,0:0:0:0:s_075.ogg
25,192,69400,1,0,0:0:0:0:s_076.ogg
76,192,69450,1,0,0:0:0:0:s_077.ogg
128,192,69500,1,0,0:0:0:0:s_078.ogg
179,192,69600,1,0,0:0:0:0:s_079.ogg
281,192,69600,1,0,0:0:0:0:m_035.ogg
332,192,69650,1,0,0:0:0:0:m_050.ogg
230,192,69675,1,0,0:0:0:0:s_081.ogg
179,192,69750,1,0,0:0:0:0:s_079.ogg
128,192,69825,1,0,0:0:0:0:s_078.ogg
76,192,69900,1,0,0:0:0:0:s_077.ogg
25,192,69950,1,0,0:0:0:0:s_076.ogg
486,192,70000,1,0,0:0:0:0:s_075.ogg
435,192,70050,1,0,0:0:0:0:s_074.ogg
384,192,70100,1,0,0:0:0:0:s_073.ogg
332,192,70150,1,0,0:0:0:0:s_072.ogg
281,192,70200,1,0,0:0:0:0:s_071.ogg
230,192,70250,1,0,0:0:0:0:s_070.ogg
179,192,70300,1,0,0:0:0:0:s_069.ogg
128,192,70350,1,0,0:0:0:0:s_068.ogg
76,192,70400,1,0,0:0:0:0:s_067.ogg
179,192,70500,1,0,0:0:0:0:m_030.ogg
435,192,70500,1,0,0:0:0:0:s_066.ogg
230,192,70550,1,0,0:0:0:0:m_046.ogg
384,192,70550,1,0,0:0:0:0:s_067.ogg
332,192,70600,1,0,0:0:0:0:s_066.ogg
281,192,70650,1,0,0:0:0:0:s_065.ogg
25,192,70700,1,0,0:0:0:0:s_066.ogg
76,192,70750,1,0,0:0:0:0:s_067.ogg
128,192,70800,1,0,0:0:0:0:s_068.ogg
179,192,70850,1,0,0:0:0:0:s_069.ogg
230,192,70900,1,0,0:0:0:0:s_070.ogg
281,192,70950,1,0,0:0:0:0:s_071.ogg
332,192,71000,1,0,0:0:0:0:s_072.ogg
384,192,71050,1,0,0:0:0:0:s_073.ogg
435,192,71100,1,0,0:0:0:0:s_074.ogg
486,192,71150,1,0,0:0:0:0:s_075.ogg
76,192,71200,1,0,0:0:0:0:s_076.ogg
128,192,71250,1,0,0:0:0:0:s_077.ogg
179,192,71300,1,0,0:0:0:0:s_078.ogg
230,192,71400,1,0,0:0:0:0:s_079.ogg
281,192,71400,1,0,0:0:0:0:l_023.ogg
332,192,71450,1,0,0:0:0:0:l_038.ogg
486,192,71475,1,0,0:0:0:0:s_081.ogg
435,192,71550,1,0,0:0:0:0:s_079.ogg
384,192,71625,1,0,0:0:0:0:s_078.ogg
332,192,71700,1,0,0:0:0:0:s_077.ogg
435,192,71775,1,0,0:0:0:0:s_078.ogg
384,192,71850,1,0,0:0:0:0:s_077.ogg
332,192,71925,1,0,0:0:0:0:s_076.ogg
281,192,72000,1,0,0:0:0:0:s_075.ogg
384,192,72075,1,0,0:0:0:0:s_076.ogg
332,192,72150,1,0,0:0:0:0:s_075.ogg
281,192,72225,1,0,0:0:0:0:s_074.ogg
230,192,72300,1,0,0:0:0:0:s_073.ogg
332,192,72375,1,0,0:0:0:0:s_074.ogg
281,192,72450,1,0,0:0:0:0:s_073.ogg
230,192,72525,1,0,0:0:0:0:s_072.ogg
179,192,72600,1,0,0:0:0:0:s_071.ogg
281,192,72675,1,0,0:0:0:0:s_072.ogg
230,192,72750,1,0,0:0:0:0:s_071.ogg
179,192,72825,1,0,0:0:0:0:s_070.ogg
128,192,72900,1,0,0:0:0:0:s_069.ogg
230,192,72975,1,0,0:0:0:0:s_070.ogg
179,192,73050,1,0,0:0:0:0:s_069.ogg
128,192,73125,1,0,0:0:0:0:s_068.ogg
76,192,73200,1,0,0:0:0:0:s_067.ogg
179,192,73275,1,0,0:0:0:0:s_068.ogg
128,192,73350,1,0,0:0:0:0:s_067.ogg
76,192,73425,1,0,0:0:0:0:s_066.ogg
25,192,73500,1,0,0:0:0:0:s_065.ogg
128,192,73575,1,0,0:0:0:0:s_066.ogg
76,192,73650,1,0,0:0:0:0:s_065.ogg
25,192,73725,1,0,0:0:0:0:s_064.ogg
486,192,73800,1,0,0:0:0:0:s_063.ogg
76,192,73875,1,0,0:0:0:0:s_064.ogg
25,192,73950,1,0,0:0:0:0:s_063.ogg
486,192,74025,1,0,0:0:0:0:s_062.ogg
435,192,74100,1,0,0:0:0:0:s_061.ogg
25,192,74175,1,0,0:0:0:0:s_062.ogg
486,192,74250,1,0,0:0:0:0:s_061.ogg
435,192,74325,1,0,0:0:0:0:s_060.ogg
384,192,74400,1,0,0:0:0:0:s_059.ogg
486,192,74475,1,0,0:0:0:0:s_060.ogg
435,192,74550,1,0,0:0:0:0:s_059.ogg
384,192,74625,1,0,0:0:0:0:s_058.ogg
332,192,74700,1,0,0:0:0:0:s_057.ogg
435,192,74775,1,0,0:0:0:0:s_058.ogg
384,192,74850,1,0,0:0:0:0:s_057.ogg
332,192,74925,1,0,0:0:0:0:s_056.ogg
281,192,75000,1,0,0:0:0:0:s_055.ogg
384,192,75075,1,0,0:0:0:0:s_056.ogg
332,192,75150,1,0,0:0:0:0:s_055.ogg
281,192,75225,1,0,0:0:0:0:s_054.ogg
230,192,75300,1,0,0:0:0:0:s_053.ogg
332,192,75375,1,0,0:0:0:0:s_054.ogg
281,192,75450,1,0,0:0:0:0:s_053.ogg
230,192,75525,1,0,0:0:0:0:s_052.ogg
179,192,75600,1,0,0:0:0:0:s_051.ogg
281,192,75675,1,0,0:0:0:0:s_052.ogg
230,192,75750,1,0,0:0:0:0:s_051.ogg
179,192,75825,1,0,0:0:0:0:s_050.ogg
128,192,75900,1,0,0:0:0:0:s_049.ogg
230,192,75975,1,0,0:0:0:0:s_050.ogg
179,192,76050,1,0,0:0:0:0:s_049.ogg
128,192,76125,1,0,0:0:0:0:s_048.ogg
76,192,76200,1,0,0:0:0:0:s_047.ogg
179,192,76275,1,0,0:0:0:0:s_048.ogg
128,192,76350,1,0,0:0:0:0:s_047.ogg
76,192,76425,1,0,0:0:0:0:s_046.ogg
25,192,76500,1,0,0:0:0:0:s_045.ogg
230,192,76575,1,0,0:0:0:0:s_046.ogg
179,192,76650,1,0,0:0:0:0:s_045.ogg
128,192,76725,1,0,0:0:0:0:s_044.ogg
76,192,76800,1,0,0:0:0:0:s_043.ogg
384,192,76800,1,0,0:0:0:0:l_022.ogg
435,192,76850,1,0,0:0:0:0:l_037.ogg
25,192,76875,1,0,0:0:0:0:s_041.ogg
486,192,76900,1,0,0:0:0:0:l_040.ogg
281,192,76950,1,0,0:0:0:0:s_043.ogg
76,192,77025,1,0,0:0:0:0:s_042.ogg
332,192,77100,1,0,0:0:0:0:s_044.ogg
128,192,77175,1,0,0:0:0:0:s_043.ogg
384,192,77250,1,0,0:0:0:0:s_045.ogg
179,192,77325,1,0,0:0:0:0:s_044.ogg
435,192,77400,1,0,0:0:0:0:s_046.ogg
230,192,77475,1,0,0:0:0:0:s_045.ogg
486,192,77550,1,0,0:0:0:0:s_047.ogg
25,192,77625,1,0,0:0:0:0:s_046.ogg
281,192,77700,1,0,0:0:0:0:s_048.ogg
76,192,77775,1,0,0:0:0:0:s_047.ogg
332,192,77850,1,0,0:0:0:0:s_049.ogg
128,192,77925,1,0,0:0:0:0:s_048.ogg
384,192,78000,1,0,0:0:0:0:s_050.ogg
179,192,78075,1,0,0:0:0:0:s_049.ogg
435,192,78150,1,0,0:0:0:0:s_051.ogg
230,192,78225,1,0,0:0:0:0:s_050.ogg
486,192,78300,1,0,0:0:0:0:s_052.ogg
25,192,78375,1,0,0:0:0:0:s_051.ogg
281,192,78450,1,0,0:0:0:0:s_053.ogg
76,192,78525,1,0,0:0:0:0:s_052.ogg
332,192,78600,1,0,0:0:0:0:s_054.ogg
128,192,78675,1,0,0:0:0:0:s_053.ogg
384,192,78750,1,0,0:0:0:0:s_055.ogg
179,192,78825,1,0,0:0:0:0:s_054.ogg
435,192,78900,1,0,0:0:0:0:s_056.ogg
230,192,78975,1,0,0:0:0:0:s_055.ogg
486,192,79050,1,0,0:0:0:0:s_057.ogg
25,192,79125,1,0,0:0:0:0:s_056.ogg
281,192,79200,1,0,0:0:0:0:s_058.ogg
76,192,79275,1,0,0:0:0:0:s_057.ogg
332,192,79350,1,0,0:0:0:0:s_059.ogg
128,192,79425,1,0,0:0:0:0:s_058.ogg
384,192,79500,1,0,0:0:0:0:s_060.ogg
179,192,79575,1,0,0:0:0:0:s_059.ogg
435,192,79650,1,0,0:0:0:0:s_061.ogg
230,192,79725,1,0,0:0:0:0:s_060.ogg
486,192,79800,1,0,0:0:0:0:s_062.ogg
25,192,79875,1,0,0:0:0:0:s_061.ogg
281,192,79950,1,0,0:0:0:0:s_063.ogg
76,192,80025,1,0,0:0:0:0:s_062.ogg
332,192,80100,1,0,0:0:0:0:s_064.ogg
128,192,80175,1,0,0:0:0:0:s_063.ogg
384,192,80250,1,0,0:0:0:0:s_065.ogg
179,192,80325,1,0,0:0:0:0:s_064.ogg
435,192,80400,1,0,0:0:0:0:s_066.ogg
230,192,80475,1,0,0:0:0:0:s_065.ogg
486,192,80550,1,0,0:0:0:0:s_067.ogg
25,192,80625,1,0,0:0:0:0:s_066.ogg
281,192,80700,1,0,0:0:0:0:s_068.ogg
76,192,80775,1,0,0:0:0:0:s_067.ogg
332,192,80850,1,0,0:0:0:0:s_069.ogg
128,192,80925,1,0,0:0:0:0:s_068.ogg
384,192,81000,1,0,0:0:0:0:s_070.ogg
179,192,81075,1,0,0:0:0:0:s_069.ogg
435,192,81150,1,0,0:0:0:0:s_071.ogg
230,192,81225,1,0,0:0:0:0:s_070.ogg
486,192,81300,1,0,0:0:0:0:s_072.ogg
25,192,81375,1,0,0:0:0:0:s_071.ogg
281,192,81450,1,0,0:0:0:0:s_073.ogg
76,192,81525,1,0,0:0:0:0:s_072.ogg
332,192,81600,1,0,0:0:0:0:s_074.ogg
128,192,81675,1,0,0:0:0:0:s_073.ogg
384,192,81750,1,0,0:0:0:0:s_075.ogg
179,192,81825,1,0,0:0:0:0:s_074.ogg
435,192,81900,1,0,0:0:0:0:s_076.ogg
230,192,81975,1,0,0:0:0:0:s_075.ogg
486,192,82050,1,0,0:0:0:0:s_077.ogg
25,192,82125,1,0,0:0:0:0:s_076.ogg
332,192,82200,1,0,0:0:0:0:s_078.ogg
76,192,82275,1,0,0:0:0:0:s_077.ogg
384,192,82350,1,0,0:0:0:0:s_079.ogg
128,192,82425,1,0,0:0:0:0:s_077.ogg
332,192,82500,1,0,0:0:0:0:s_078.ogg
76,192,82575,1,0,0:0:0:0:s_077.ogg
384,192,82650,1,0,0:0:0:0:s_079.ogg
128,192,82725,1,0,0:0:0:0:s_077.ogg
332,192,82800,1,0,0:0:0:0:s_078.ogg
76,192,82875,1,0,0:0:0:0:s_077.ogg
384,192,82950,1,0,0:0:0:0:s_079.ogg
128,192,83025,1,0,0:0:0:0:s_077.ogg
332,192,83100,1,0,0:0:0:0:s_078.ogg
76,192,83175,1,0,0:0:0:0:s_077.ogg
384,192,83250,1,0,0:0:0:0:s_079.ogg
128,192,83325,1,0,0:0:0:0:s_077.ogg
332,192,83400,1,0,0:0:0:0:s_078.ogg
76,192,83475,1,0,0:0:0:0:s_077.ogg
384,192,83550,1,0,0:0:0:0:s_079.ogg
128,192,83625,1,0,0:0:0:0:s_077.ogg
332,192,83700,1,0,0:0:0:0:s_078.ogg
76,192,83775,1,0,0:0:0:0:s_077.ogg
384,192,83850,1,0,0:0:0:0:s_079.ogg
128,192,83925,1,0,0:0:0:0:s_077.ogg
230,192,84000,1,0,0:0:0:0:s_066.ogg
486,192,84075,1,0,0:0:0:0:s_078.ogg
230,192,84150,1,0,0:0:0:0:s_066.ogg
486,192,84225,1,0,0:0:0:0:s_078.ogg
230,192,84300,1,0,0:0:0:0:s_066.ogg
486,192,84375,1,0,0:0:0:0:s_078.ogg
230,192,84450,1,0,0:0:0:0:s_066.ogg
486,192,84525,1,0,0:0:0:0:s_078.ogg
230,192,84600,1,0,0:0:0:0:s_066.ogg
486,192,84675,1,0,0:0:0:0:s_078.ogg
230,192,84750,1,0,0:0:0:0:s_066.ogg
486,192,84825,1,0,0:0:0:0:s_078.ogg
281,192,84900,1,0,0:0:0:0:s_066.ogg
435,192,84900,1,0,0:0:0:0:s_078.ogg
281,192,85050,1,0,0:0:0:0:s_066.ogg
435,192,85050,1,0,0:0:0:0:s_078.ogg
281,192,85200,1,0,0:0:0:0:s_066.ogg
435,192,85200,1,0,0:0:0:0:s_078.ogg
281,192,85350,1,0,0:0:0:0:s_078.ogg
435,192,85350,1,0,0:0:0:0:s_066.ogg
76,192,85500,1,0,0:0:0:0:m_042.ogg
281,192,85500,1,0,0:0:0:0:s_078.ogg
435,192,85500,1,0,0:0:0:0:s_066.ogg
281,192,85650,1,0,0:0:0:0:s_078.ogg
435,192,85650,1,0,0:0:0:0:s_066.ogg
281,192,85800,1,0,0:0:0:0:s_078.ogg
435,192,85800,1,0,0:0:0:0:s_066.ogg
179,192,85800,128,0,86250:0:0:0:0:m_054.ogg
281,192,85950,1,0,0:0:0:0:s_078.ogg
435,192,85950,1,0,0:0:0:0:s_066.ogg
281,192,86100,1,0,0:0:0:0:s_078.ogg
435,192,86100,1,0,0:0:0:0:s_066.ogg
281,192,86250,1,0,0:0:0:0:s_078.ogg
435,192,86250,1,0,0:0:0:0:s_066.ogg
384,192,86400,1,0,0:0:0:0:s_076.ogg
486,192,86400,1,0,0:0:0:0:s_064.ogg
384,192,86550,1,0,0:0:0:0:s_076.ogg
486,192,86550,1,0,0:0:0:0:s_064.ogg
25,192,86700,1,0,0:0:0:0:m_011.ogg
128,192,86700,1,0,0:0:0:0:m_023.ogg
332,192,86700,1,0,0:0:0:0:s_062.ogg
435,192,86700,1,0,0:0:0:0:s_074.ogg
332,192,86850,1,0,0:0:0:0:s_062.ogg
435,192,86850,1,0,0:0:0:0:s_074.ogg
76,192,87000,1,0,0:0:0:0:s_042.ogg
179,192,87000,1,0,0:0:0:0:s_030.ogg
332,192,87000,1,0,0:0:0:0:s_062.ogg
435,192,87000,1,0,0:0:0:0:s_074.ogg
76,192,87150,1,0,0:0:0:0:s_038.ogg
179,192,87150,1,0,0:0:0:0:s_030.ogg
332,192,87150,1,0,0:0:0:0:s_062.ogg
435,192,87150,1,0,0:0:0:0:s_074.ogg
179,192,87300,1,0,0:0:0:0:m_038.ogg
230,192,87300,1,0,0:0:0:0:m_042.ogg
281,192,87300,1,0,0:0:0:0:s_061.ogg
384,192,87300,1,0,0:0:0:0:s_073.ogg
281,192,87450,1,0,0:0:0:0:s_061.ogg
384,192,87450,1,0,0:0:0:0:s_073.ogg
25,192,87600,1,0,0:0:0:0:m_014.ogg
128,192,87600,1,0,0:0:0:0:m_026.ogg
332,192,87600,1,0,0:0:0:0:s_059.ogg
486,192,87600,1,0,0:0:0:0:s_071.ogg
332,192,87750,1,0,0:0:0:0:s_059.ogg
486,192,87750,1,0,0:0:0:0:s_071.ogg
76,192,87900,1,0,0:0:0:0:s_042.ogg
179,192,87900,1,0,0:0:0:0:s_030.ogg
281,192,87900,1,0,0:0:0:0:s_070.ogg
435,192,87900,1,0,0:0:0:0:s_058.ogg
76,192,88050,1,0,0:0:0:0:s_038.ogg
179,192,88050,1,0,0:0:0:0:s_030.ogg
281,192,88050,1,0,0:0:0:0:s_070.ogg
435,192,88050,1,0,0:0:0:0:s_058.ogg
179,192,88200,1,0,0:0:0:0:m_038.ogg
230,192,88200,1,0,0:0:0:0:m_042.ogg
332,192,88200,1,0,0:0:0:0:s_071.ogg
486,192,88200,1,0,0:0:0:0:s_059.ogg
332,192,88350,1,0,0:0:0:0:s_071.ogg
486,192,88350,1,0,0:0:0:0:s_059.ogg
25,192,88500,1,0,0:0:0:0:m_018.ogg
76,192,88500,1,0,0:0:0:0:m_030.ogg
384,192,88500,1,0,0:0:0:0:s_073.ogg
435,192,88500,1,0,0:0:0:0:s_061.ogg
384,192,88650,1,0,0:0:0:0:s_073.ogg
435,192,88650,1,0,0:0:0:0:s_061.ogg
128,192,88800,1,0,0:0:0:0:s_034.ogg
230,192,88800,1,0,0:0:0:0:s_042.ogg
281,192,88800,1,0,0:0:0:0:s_066.ogg
332,192,88800,1,0,0:0:0:0:s_054.ogg
128,192,88950,1,0,0:0:0:0:s_034.ogg
230,192,88950,1,0,0:0:0:0:s_042.ogg
281,192,88950,1,0,0:0:0:0:s_066.ogg
332,192,88950,1,0,0:0:0:0:s_054.ogg
179,192,89100,1,0,0:0:0:0:m_042.ogg
230,192,89100,1,0,0:0:0:0:m_046.ogg
281,192,89100,1,0,0:0:0:0:s_066.ogg
332,192,89100,1,0,0:0:0:0:s_054.ogg
281,192,89250,1,0,0:0:0:0:s_066.ogg
332,192,89250,1,0,0:0:0:0:s_054.ogg
25,192,89400,1,0,0:0:0:0:m_034.ogg
76,192,89400,1,0,0:0:0:0:m_022.ogg
384,192,89400,1,0,0:0:0:0:s_055.ogg
486,192,89400,1,0,0:0:0:0:s_067.ogg
384,192,89550,1,0,0:0:0:0:s_055.ogg
486,192,89550,1,0,0:0:0:0:s_067.ogg
179,192,89700,1,0,0:0:0:0:s_040.ogg
230,192,89700,1,0,0:0:0:0:s_042.ogg
332,192,89700,1,0,0:0:0:0:s_066.ogg
435,192,89700,1,0,0:0:0:0:s_054.ogg
179,192,89850,1,0,0:0:0:0:s_040.ogg
230,192,89850,1,0,0:0:0:0:s_042.ogg
332,192,89850,1,0,0:0:0:0:s_066.ogg
435,192,89850,1,0,0:0:0:0:s_054.ogg
179,192,90000,1,0,0:0:0:0:m_042.ogg
230,192,90000,1,0,0:0:0:0:m_049.ogg
281,192,90000,1,0,0:0:0:0:s_052.ogg
384,192,90000,1,0,0:0:0:0:s_064.ogg
281,192,90150,1,0,0:0:0:0:s_052.ogg
384,192,90150,1,0,0:0:0:0:s_064.ogg
25,192,90300,1,0,0:0:0:0:m_023.ogg
76,192,90300,1,0,0:0:0:0:m_035.ogg
332,192,90300,1,0,0:0:0:0:s_050.ogg
486,192,90300,1,0,0:0:0:0:s_062.ogg
332,192,90450,1,0,0:0:0:0:s_050.ogg
486,192,90450,1,0,0:0:0:0:s_062.ogg
128,192,90600,1,0,0:0:0:0:s_038.ogg
230,192,90600,1,0,0:0:0:0:s_042.ogg
332,192,90600,1,0,0:0:0:0:s_062.ogg
486,192,90600,1,0,0:0:0:0:s_050.ogg
128,192,90750,1,0,0:0:0:0:s_038.ogg
230,192,90750,1,0,0:0:0:0:s_042.ogg
332,192,90750,1,0,0:0:0:0:s_062.ogg
486,192,90750,1,0,0:0:0:0:s_050.ogg
179,192,90900,1,0,0:0:0:0:m_038.ogg
230,192,90900,1,0,0:0:0:0:m_042.ogg
281,192,90900,1,0,0:0:0:0:s_049.ogg
435,192,90900,1,0,0:0:0:0:s_061.ogg
281,192,91050,1,0,0:0:0:0:s_049.ogg
435,192,91050,1,0,0:0:0:0:s_061.ogg
25,192,91200,1,0,0:0:0:0:m_019.ogg
384,192,91200,1,0,0:0:0:0:s_047.ogg
486,192,91200,1,0,0:0:0:0:s_059.ogg
384,192,91350,1,0,0:0:0:0:s_047.ogg
486,192,91350,1,0,0:0:0:0:s_059.ogg
76,192,91500,1,0,0:0:0:0:s_037.ogg
179,192,91500,1,0,0:0:0:0:s_041.ogg
332,192,91500,1,0,0:0:0:0:s_058.ogg
435,192,91500,1,0,0:0:0:0:s_046.ogg
76,192,91650,1,0,0:0:0:0:s_037.ogg
179,192,91650,1,0,0:0:0:0:s_041.ogg
332,192,91650,1,0,0:0:0:0:s_058.ogg
435,192,91650,1,0,0:0:0:0:s_046.ogg
76,192,91800,1,0,0:0:0:0:m_037.ogg
179,192,91800,1,0,0:0:0:0:m_041.ogg
384,192,91800,1,0,0:0:0:0:s_047.ogg
486,192,91800,1,0,0:0:0:0:s_059.ogg
384,192,91950,1,0,0:0:0:0:s_047.ogg
486,192,91950,1,0,0:0:0:0:s_059.ogg
25,192,92100,1,0,0:0:0:0:m_018.ogg
281,192,92100,1,0,0:0:0:0:s_049.ogg
435,192,92100,1,0,0:0:0:0:s_061.ogg
281,192,92250,1,0,0:0:0:0:s_049.ogg
435,192,92250,1,0,0:0:0:0:s_061.ogg
76,192,92400,1,0,0:0:0:0:s_037.ogg
179,192,92400,1,0,0:0:0:0:s_042.ogg
332,192,92400,1,0,0:0:0:0:s_054.ogg
76,192,92550,1,0,0:0:0:0:s_037.ogg
179,192,92550,1,0,0:0:0:0:s_042.ogg
332,192,92550,1,0,0:0:0:0:s_054.ogg
76,192,92700,1,0,0:0:0:0:m_042.ogg
179,192,92700,1,0,0:0:0:0:m_034.ogg
384,192,92700,1,0,0:0:0:0:s_066.ogg
435,192,92700,1,0,0:0:0:0:s_054.ogg
384,192,92850,1,0,0:0:0:0:s_066.ogg
435,192,92850,1,0,0:0:0:0:s_054.ogg
128,192,93000,1,0,0:0:0:0:m_054.ogg
230,192,93000,1,0,0:0:0:0:m_046.ogg
332,192,93000,1,0,0:0:0:0:s_066.ogg
486,192,93000,1,0,0:0:0:0:s_078.ogg
332,192,93150,1,0,0:0:0:0:s_066.ogg
486,192,93150,1,0,0:0:0:0:s_078.ogg
332,192,93300,1,0,0:0:0:0:s_066.ogg
486,192,93300,1,0,0:0:0:0:s_078.ogg
332,192,93450,1,0,0:0:0:0:s_066.ogg
486,192,93450,1,0,0:0:0:0:s_078.ogg
281,192,93600,1,0,0:0:0:0:s_064.ogg
435,192,93600,1,0,0:0:0:0:s_076.ogg
281,192,93750,1,0,0:0:0:0:s_064.ogg
435,192,93750,1,0,0:0:0:0:s_076.ogg
25,192,93900,1,0,0:0:0:0:m_011.ogg
76,192,93900,1,0,0:0:0:0:m_023.ogg
384,192,93900,1,0,0:0:0:0:s_063.ogg
486,192,93900,1,0,0:0:0:0:s_075.ogg
384,192,94050,1,0,0:0:0:0:s_063.ogg
486,192,94050,1,0,0:0:0:0:s_075.ogg
128,192,94200,1,0,0:0:0:0:s_033.ogg
230,192,94200,1,0,0:0:0:0:s_036.ogg
384,192,94200,1,0,0:0:0:0:s_063.ogg
486,192,94200,1,0,0:0:0:0:s_075.ogg
128,192,94350,1,0,0:0:0:0:s_033.ogg
230,192,94350,1,0,0:0:0:0:s_036.ogg
384,192,94350,1,0,0:0:0:0:s_063.ogg
486,192,94350,1,0,0:0:0:0:s_075.ogg
128,192,94500,1,0,0:0:0:0:m_036.ogg
230,192,94500,1,0,0:0:0:0:m_042.ogg
332,192,94500,1,0,0:0:0:0:s_060.ogg
435,192,94500,1,0,0:0:0:0:s_072.ogg
332,192,94650,1,0,0:0:0:0:s_060.ogg
435,192,94650,1,0,0:0:0:0:s_072.ogg
25,192,94800,1,0,0:0:0:0:m_015.ogg
128,192,94800,1,0,0:0:0:0:m_027.ogg
281,192,94800,1,0,0:0:0:0:s_059.ogg
384,192,94800,1,0,0:0:0:0:s_071.ogg
281,192,94950,1,0,0:0:0:0:s_059.ogg
384,192,94950,1,0,0:0:0:0:s_071.ogg
179,192,95100,1,0,0:0:0:0:s_036.ogg
230,192,95100,1,0,0:0:0:0:s_042.ogg
281,192,95100,1,0,0:0:0:0:s_059.ogg
384,192,95100,1,0,0:0:0:0:s_071.ogg
179,192,95250,1,0,0:0:0:0:s_048.ogg
230,192,95250,1,0,0:0:0:0:s_042.ogg
281,192,95250,1,0,0:0:0:0:s_059.ogg
384,192,95250,1,0,0:0:0:0:s_071.ogg
179,192,95400,1,0,0:0:0:0:m_042.ogg
230,192,95400,1,0,0:0:0:0:m_036.ogg
332,192,95400,1,0,0:0:0:0:s_057.ogg
486,192,95400,1,0,0:0:0:0:s_069.ogg
332,192,95550,1,0,0:0:0:0:s_057.ogg
486,192,95550,1,0,0:0:0:0:s_069.ogg
25,192,95700,1,0,0:0:0:0:m_016.ogg
128,192,95700,1,0,0:0:0:0:m_028.ogg
281,192,95700,1,0,0:0:0:0:m_055.ogg
435,192,95700,1,0,0:0:0:0:m_067.ogg
179,192,96000,1,0,0:0:0:0:s_031.ogg
230,192,96000,1,0,0:0:0:0:s_040.ogg
281,192,96000,1,0,0:0:0:0:s_043.ogg
332,192,96000,1,0,0:0:0:0:s_052.ogg
179,192,96150,1,0,0:0:0:0:s_031.ogg
230,192,96150,1,0,0:0:0:0:s_040.ogg
281,192,96150,1,0,0:0:0:0:s_043.ogg
332,192,96150,1,0,0:0:0:0:s_052.ogg
128,192,96300,1,0,0:0:0:0:s_030.ogg
230,192,96300,1,0,0:0:0:0:s_040.ogg
281,192,96300,1,0,0:0:0:0:s_043.ogg
384,192,96300,1,0,0:0:0:0:s_054.ogg
128,192,96450,1,0,0:0:0:0:s_030.ogg
230,192,96450,1,0,0:0:0:0:s_040.ogg
281,192,96450,1,0,0:0:0:0:s_043.ogg
384,192,96450,1,0,0:0:0:0:s_054.ogg
76,192,96600,1,0,0:0:0:0:s_028.ogg
230,192,96600,1,0,0:0:0:0:s_040.ogg
281,192,96600,1,0,0:0:0:0:s_043.ogg
435,192,96600,1,0,0:0:0:0:s_055.ogg
76,192,96750,1,0,0:0:0:0:s_028.ogg
230,192,96750,1,0,0:0:0:0:s_040.ogg
281,192,96750,1,0,0:0:0:0:s_043.ogg
435,192,96750,1,0,0:0:0:0:s_055.ogg
128,192,96900,1,0,0:0:0:0:s_030.ogg
230,192,96900,1,0,0:0:0:0:s_040.ogg
281,192,96900,1,0,0:0:0:0:s_043.ogg
384,192,96900,1,0,0:0:0:0:s_054.ogg
128,192,97050,1,0,0:0:0:0:s_030.ogg
230,192,97050,1,0,0:0:0:0:s_040.ogg
281,192,97050,1,0,0:0:0:0:s_043.ogg
384,192,97050,1,0,0:0:0:0:s_054.ogg
179,192,97200,1,0,0:0:0:0:s_031.ogg
230,192,97200,1,0,0:0:0:0:s_040.ogg
281,192,97200,1,0,0:0:0:0:s_043.ogg
332,192,97200,1,0,0:0:0:0:s_052.ogg
179,192,97350,1,0,0:0:0:0:s_031.ogg
230,192,97350,1,0,0:0:0:0:s_040.ogg
281,192,97350,1,0,0:0:0:0:s_043.ogg
332,192,97350,1,0,0:0:0:0:s_052.ogg
25,192,97500,1,0,0:0:0:0:m_030.ogg
76,192,97500,1,0,0:0:0:0:m_038.ogg
435,192,97500,1,0,0:0:0:0:m_035.ogg
486,192,97500,1,0,0:0:0:0:m_054.ogg
128,192,97650,1,0,0:0:0:0:m_041.ogg
230,192,97650,1,0,0:0:0:0:m_029.ogg
281,192,97650,1,0,0:0:0:0:m_043.ogg
384,192,97650,1,0,0:0:0:0:m_055.ogg
76,192,97800,1,0,0:0:0:0:m_040.ogg
179,192,97800,1,0,0:0:0:0:m_028.ogg
332,192,97800,1,0,0:0:0:0:m_044.ogg
435,192,97800,1,0,0:0:0:0:m_056.ogg
25,192,97950,1,0,0:0:0:0:m_039.ogg
128,192,97950,1,0,0:0:0:0:m_027.ogg
384,192,97950,1,0,0:0:0:0:m_045.ogg
486,192,97950,1,0,0:0:0:0:m_057.ogg
76,192,98100,1,0,0:0:0:0:m_038.ogg
230,192,98100,1,0,0:0:0:0:m_026.ogg
281,192,98100,1,0,0:0:0:0:m_046.ogg
435,192,98100,1,0,0:0:0:0:m_058.ogg
25,192,98250,1,0,0:0:0:0:m_037.ogg
179,192,98250,1,0,0:0:0:0:m_025.ogg
332,192,98250,1,0,0:0:0:0:m_047.ogg
486,192,98250,1,0,0:0:0:0:m_059.ogg
128,192,98400,1,0,0:0:0:0:m_036.ogg
230,192,98400,1,0,0:0:0:0:m_024.ogg
281,192,98400,1,0,0:0:0:0:m_048.ogg
384,192,98400,1,0,0:0:0:0:m_060.ogg
76,192,98550,1,0,0:0:0:0:m_035.ogg
179,192,98550,1,0,0:0:0:0:m_023.ogg
332,192,98550,1,0,0:0:0:0:m_049.ogg
435,192,98550,1,0,0:0:0:0:m_061.ogg
25,192,98700,1,0,0:0:0:0:m_034.ogg
128,192,98700,1,0,0:0:0:0:m_022.ogg
384,192,98700,1,0,0:0:0:0:m_050.ogg
486,192,98700,1,0,0:0:0:0:m_062.ogg
76,192,98850,1,0,0:0:0:0:m_033.ogg
230,192,98850,1,0,0:0:0:0:m_021.ogg
281,192,98850,1,0,0:0:0:0:m_051.ogg
435,192,98850,1,0,0:0:0:0:m_063.ogg
25,192,99000,1,0,0:0:0:0:m_032.ogg
179,192,99000,1,0,0:0:0:0:m_020.ogg
332,192,99000,1,0,0:0:0:0:m_052.ogg
486,192,99000,1,0,0:0:0:0:m_064.ogg
128,192,99150,1,0,0:0:0:0:m_031.ogg
230,192,99150,1,0,0:0:0:0:m_019.ogg
281,192,99150,1,0,0:0:0:0:m_053.ogg
384,192,99150,1,0,0:0:0:0:m_065.ogg
76,192,99300,1,0,0:0:0:0:m_025.ogg
179,192,99300,1,0,0:0:0:0:m_030.ogg
332,192,99300,1,0,0:0:0:0:m_066.ogg
435,192,99300,1,0,0:0:0:0:m_058.ogg
25,192,99450,1,0,0:0:0:0:m_029.ogg
128,192,99450,1,0,0:0:0:0:m_017.ogg
384,192,99450,1,0,0:0:0:0:m_055.ogg
486,192,99450,1,0,0:0:0:0:m_067.ogg
76,192,99600,1,0,0:0:0:0:m_028.ogg
230,192,99600,1,0,0:0:0:0:m_016.ogg
281,192,99600,1,0,0:0:0:0:m_056.ogg
435,192,99600,1,0,0:0:0:0:m_068.ogg
25,192,99750,1,0,0:0:0:0:m_027.ogg
179,192,99750,1,0,0:0:0:0:m_015.ogg
332,192,99750,1,0,0:0:0:0:m_057.ogg
486,192,99750,1,0,0:0:0:0:m_069.ogg
128,192,99900,1,0,0:0:0:0:m_014.ogg
230,192,99900,1,0,0:0:0:0:m_026.ogg
281,192,99900,1,0,0:0:0:0:m_070.ogg
384,192,99900,1,0,0:0:0:0:m_058.ogg
76,192,100050,1,0,0:0:0:0:m_013.ogg
179,192,100050,1,0,0:0:0:0:m_025.ogg
332,192,100050,1,0,0:0:0:0:m_071.ogg
435,192,100050,1,0,0:0:0:0:m_059.ogg
25,192,100200,1,0,0:0:0:0:m_012.ogg
128,192,100200,1,0,0:0:0:0:m_024.ogg
384,192,100200,1,0,0:0:0:0:m_072.ogg
486,192,100200,1,0,0:0:0:0:m_060.ogg
76,192,100350,1,0,0:0:0:0:m_011.ogg
230,192,100350,1,0,0:0:0:0:m_023.ogg
281,192,100350,1,0,0:0:0:0:m_061.ogg
435,192,100350,1,0,0:0:0:0:m_073.ogg
25,192,100500,1,0,0:0:0:0:m_010.ogg
179,192,100500,1,0,0:0:0:0:m_022.ogg
332,192,100500,1,0,0:0:0:0:m_062.ogg
486,192,100500,1,0,0:0:0:0:m_074.ogg
128,192,100650,1,0,0:0:0:0:m_009.ogg
230,192,100650,1,0,0:0:0:0:m_021.ogg
281,192,100650,1,0,0:0:0:0:m_064.ogg
384,192,100650,1,0,0:0:0:0:m_076.ogg
76,192,100800,1,0,0:0:0:0:m_007.ogg
179,192,100800,1,0,0:0:0:0:m_019.ogg
332,192,100800,1,0,0:0:0:0:m_065.ogg
435,192,100800,1,0,0:0:0:0:m_077.ogg
25,192,100950,1,0,0:0:0:0:m_018.ogg
128,192,100950,1,0,0:0:0:0:m_006.ogg
384,192,100950,1,0,0:0:0:0:m_066.ogg
486,192,100950,1,0,0:0:0:0:m_078.ogg
76,192,101100,1,0,0:0:0:0:m_011.ogg
230,192,101100,1,0,0:0:0:0:m_023.ogg
281,192,101100,1,0,0:0:0:0:m_050.ogg
435,192,101100,1,0,0:0:0:0:m_038.ogg
25,192,101400,1,0,0:0:0:0:s_030.ogg
128,192,101400,1,0,0:0:0:0:s_018.ogg
76,192,101550,1,0,0:0:0:0:s_035.ogg
179,192,101550,1,0,0:0:0:0:s_023.ogg
128,192,101700,1,0,0:0:0:0:m_042.ogg
230,192,101700,1,0,0:0:0:0:m_030.ogg
332,192,101700,1,0,0:0:0:0:m_050.ogg
486,192,101700,1,0,0:0:0:0:m_054.ogg
76,192,102000,1,0,0:0:0:0:m_011.ogg
230,192,102000,1,0,0:0:0:0:m_023.ogg
281,192,102000,1,0,0:0:0:0:s_049.ogg
384,192,102000,1,0,0:0:0:0:s_054.ogg
332,192,102150,1,0,0:0:0:0:s_050.ogg
435,192,102150,1,0,0:0:0:0:s_062.ogg
25,192,102300,1,0,0:0:0:0:s_030.ogg
128,192,102300,1,0,0:0:0:0:s_018.ogg
384,192,102300,1,0,0:0:0:0:m_052.ogg
486,192,102300,1,0,0:0:0:0:m_064.ogg
76,192,102450,1,0,0:0:0:0:s_035.ogg
179,192,102450,1,0,0:0:0:0:s_023.ogg
128,192,102600,1,0,0:0:0:0:m_042.ogg
230,192,102600,1,0,0:0:0:0:m_030.ogg
332,192,102600,1,0,0:0:0:0:s_054.ogg
486,192,102600,1,0,0:0:0:0:s_062.ogg
281,192,102750,1,0,0:0:0:0:s_049.ogg
435,192,102750,1,0,0:0:0:0:s_061.ogg
76,192,102900,1,0,0:0:0:0:m_011.ogg
230,192,102900,1,0,0:0:0:0:m_023.ogg
332,192,102900,1,0,0:0:0:0:s_050.ogg
384,192,102900,1,0,0:0:0:0:s_054.ogg
281,192,103050,1,0,0:0:0:0:s_052.ogg
435,192,103050,1,0,0:0:0:0:s_064.ogg
25,192,103200,1,0,0:0:0:0:s_030.ogg
128,192,103200,1,0,0:0:0:0:s_018.ogg
332,192,103200,1,0,0:0:0:0:m_054.ogg
486,192,103200,1,0,0:0:0:0:m_066.ogg
76,192,103350,1,0,0:0:0:0:s_035.ogg
179,192,103350,1,0,0:0:0:0:s_023.ogg
128,192,103500,1,0,0:0:0:0:m_042.ogg
230,192,103500,1,0,0:0:0:0:m_030.ogg
384,192,103500,1,0,0:0:0:0:s_052.ogg
486,192,103500,1,0,0:0:0:0:s_064.ogg
332,192,103650,1,0,0:0:0:0:s_050.ogg
435,192,103650,1,0,0:0:0:0:s_062.ogg
76,192,103800,1,0,0:0:0:0:m_011.ogg
230,192,103800,1,0,0:0:0:0:m_023.ogg
281,192,103800,1,0,0:0:0:0:s_054.ogg
384,192,103800,1,0,0:0:0:0:s_049.ogg
332,192,103950,1,0,0:0:0:0:s_050.ogg
435,192,103950,1,0,0:0:0:0:s_062.ogg
25,192,104100,1,0,0:0:0:0:s_030.ogg
128,192,104100,1,0,0:0:0:0:s_018.ogg
384,192,104100,1,0,0:0:0:0:m_052.ogg
486,192,104100,1,0,0:0:0:0:m_064.ogg
76,192,104250,1,0,0:0:0:0:s_035.ogg
179,192,104250,1,0,0:0:0:0:s_023.ogg
128,192,104400,1,0,0:0:0:0:m_042.ogg
230,192,104400,1,0,0:0:0:0:m_030.ogg
332,192,104400,1,0,0:0:0:0:s_050.ogg
486,192,104400,1,0,0:0:0:0:s_062.ogg
281,192,104550,1,0,0:0:0:0:s_049.ogg
435,192,104550,1,0,0:0:0:0:s_061.ogg
76,192,104700,1,0,0:0:0:0:m_011.ogg
230,192,104700,1,0,0:0:0:0:m_023.ogg
332,192,104700,1,0,0:0:0:0:s_054.ogg
486,192,104700,1,0,0:0:0:0:s_062.ogg
281,192,104850,1,0,0:0:0:0:s_049.ogg
435,192,104850,1,0,0:0:0:0:s_061.ogg
25,192,105000,1,0,0:0:0:0:s_030.ogg
128,192,105000,1,0,0:0:0:0:s_018.ogg
332,192,105000,1,0,0:0:0:0:m_059.ogg
384,192,105000,1,0,0:0:0:0:m_047.ogg
76,192,105150,1,0,0:0:0:0:s_035.ogg
179,192,105150,1,0,0:0:0:0:s_023.ogg
128,192,105300,1,0,0:0:0:0:m_042.ogg
230,192,105300,1,0,0:0:0:0:m_030.ogg
332,192,105300,1,0,0:0:0:0:m_062.ogg
486,192,105300,1,0,0:0:0:0:m_066.ogg
76,192,105600,1,0,0:0:0:0:m_011.ogg
230,192,105600,1,0,0:0:0:0:m_023.ogg
281,192,105600,1,0,0:0:0:0:s_061.ogg
384,192,105600,1,0,0:0:0:0:s_066.ogg
332,192,105750,1,0,0:0:0:0:s_062.ogg
435,192,105750,1,0,0:0:0:0:s_074.ogg
25,192,105900,1,0,0:0:0:0:s_030.ogg
128,192,105900,1,0,0:0:0:0:s_018.ogg
384,192,105900,1,0,0:0:0:0:m_064.ogg
486,192,105900,1,0,0:0:0:0:m_076.ogg
76,192,106050,1,0,0:0:0:0:s_035.ogg
179,192,106050,1,0,0:0:0:0:s_023.ogg
128,192,106200,1,0,0:0:0:0:m_042.ogg
230,192,106200,1,0,0:0:0:0:m_030.ogg
332,192,106200,1,0,0:0:0:0:s_062.ogg
486,192,106200,1,0,0:0:0:0:s_074.ogg
281,192,106350,1,0,0:0:0:0:s_061.ogg
435,192,106350,1,0,0:0:0:0:s_073.ogg
76,192,106500,1,0,0:0:0:0:m_011.ogg
230,192,106500,1,0,0:0:0:0:m_023.ogg
332,192,106500,1,0,0:0:0:0:s_066.ogg
384,192,106500,1,0,0:0:0:0:s_074.ogg
281,192,106650,1,0,0:0:0:0:s_064.ogg
435,192,106650,1,0,0:0:0:0:s_076.ogg
25,192,106800,1,0,0:0:0:0:s_030.ogg
128,192,106800,1,0,0:0:0:0:s_018.ogg
332,192,106800,1,0,0:0:0:0:m_078.ogg
486,192,106800,1,0,0:0:0:0:m_066.ogg
76,192,106950,1,0,0:0:0:0:s_035.ogg
179,192,106950,1,0,0:0:0:0:s_023.ogg
128,192,107100,1,0,0:0:0:0:m_042.ogg
230,192,107100,1,0,0:0:0:0:m_030.ogg
384,192,107100,1,0,0:0:0:0:s_064.ogg
486,192,107100,1,0,0:0:0:0:s_076.ogg
332,192,107250,1,0,0:0:0:0:s_062.ogg
435,192,107250,1,0,0:0:0:0:s_074.ogg
76,192,107400,1,0,0:0:0:0:m_011.ogg
230,192,107400,1,0,0:0:0:0:m_023.ogg
281,192,107400,1,0,0:0:0:0:s_066.ogg
384,192,107400,1,0,0:0:0:0:s_061.ogg
332,192,107550,1,0,0:0:0:0:s_062.ogg
435,192,107550,1,0,0:0:0:0:s_074.ogg
25,192,107700,1,0,0:0:0:0:s_030.ogg
128,192,107700,1,0,0:0:0:0:s_018.ogg
384,192,107700,1,0,0:0:0:0:m_064.ogg
486,192,107700,1,0,0:0:0:0:m_076.ogg
76,192,107850,1,0,0:0:0:0:s_035.ogg
179,192,107850,1,0,0:0:0:0:s_023.ogg
128,192,108000,1,0,0:0:0:0:m_042.ogg
230,192,108000,1,0,0:0:0:0:m_030.ogg
332,192,108000,1,0,0:0:0:0:s_062.ogg
486,192,108000,1,0,0:0:0:0:s_074.ogg
281,192,108150,1,0,0:0:0:0:s_061.ogg
435,192,108150,1,0,0:0:0:0:s_073.ogg
76,192,108300,1,0,0:0:0:0:m_023.ogg
332,192,108300,1,0,0:0:0:0:s_062.ogg
486,192,108300,1,0,0:0:0:0:s_074.ogg
281,192,108450,1,0,0:0:0:0:s_061.ogg
435,192,108450,1,0,0:0:0:0:s_073.ogg
25,192,108600,1,0,0:0:0:0:s_030.ogg
128,192,108600,1,0,0:0:0:0:s_018.ogg
332,192,108600,1,0,0:0:0:0:m_059.ogg
384,192,108600,1,0,0:0:0:0:m_071.ogg
76,192,108750,1,0,0:0:0:0:s_035.ogg
179,192,108750,1,0,0:0:0:0:s_023.ogg
128,192,108900,1,0,0:0:0:0:m_030.ogg
230,192,108900,1,0,0:0:0:0:m_038.ogg
332,192,108900,1,0,0:0:0:0:m_050.ogg
384,192,108900,1,0,0:0:0:0:m_054.ogg
25,192,109200,1,0,0:0:0:0:s_025.ogg
179,192,109200,1,0,0:0:0:0:s_030.ogg
281,192,109200,1,0,0:0:0:0:s_042.ogg
332,192,109200,1,0,0:0:0:0:s_049.ogg
76,192,109350,1,0,0:0:0:0:s_026.ogg
179,192,109350,1,0,0:0:0:0:s_030.ogg
281,192,109350,1,0,0:0:0:0:s_042.ogg
384,192,109350,1,0,0:0:0:0:s_050.ogg
128,192,109500,1,0,0:0:0:0:m_028.ogg
179,192,109500,1,0,0:0:0:0:m_030.ogg
281,192,109500,1,0,0:0:0:0:m_042.ogg
435,192,109500,1,0,0:0:0:0:m_052.ogg
128,192,109800,1,0,0:0:0:0:s_026.ogg
179,192,109800,1,0,0:0:0:0:s_030.ogg
281,192,109800,1,0,0:0:0:0:s_042.ogg
384,192,109800,1,0,0:0:0:0:s_050.ogg
76,192,109950,1,0,0:0:0:0:s_025.ogg
179,192,109950,1,0,0:0:0:0:s_030.ogg
281,192,109950,1,0,0:0:0:0:s_042.ogg
332,192,109950,1,0,0:0:0:0:s_049.ogg
128,192,110100,1,0,0:0:0:0:s_026.ogg
179,192,110100,1,0,0:0:0:0:s_030.ogg
281,192,110100,1,0,0:0:0:0:s_042.ogg
435,192,110100,1,0,0:0:0:0:s_050.ogg
76,192,110250,1,0,0:0:0:0:s_025.ogg
179,192,110250,1,0,0:0:0:0:s_030.ogg
281,192,110250,1,0,0:0:0:0:s_042.ogg
384,192,110250,1,0,0:0:0:0:s_049.ogg
25,192,110400,1,0,0:0:0:0:m_023.ogg
179,192,110400,1,0,0:0:0:0:m_030.ogg
281,192,110400,1,0,0:0:0:0:m_042.ogg
332,192,110400,1,0,0:0:0:0:m_047.ogg
76,192,110700,1,0,0:0:0:0:m_023.ogg
128,192,110700,1,0,0:0:0:0:m_018.ogg
230,192,110700,1,0,0:0:0:0:m_011.ogg
384,192,110700,1,0,0:0:0:0:m_059.ogg
435,192,110700,1,0,0:0:0:0:m_066.ogg
486,192,110700,1,0,0:0:0:0:m_054.ogg
25,192,111000,1,0,0:0:0:0:s_025.ogg
179,192,111000,1,0,0:0:0:0:s_030.ogg
281,192,111000,1,0,0:0:0:0:s_042.ogg
332,192,111000,1,0,0:0:0:0:s_049.ogg
76,192,111150,1,0,0:0:0:0:s_026.ogg
179,192,111150,1,0,0:0:0:0:s_030.ogg
281,192,111150,1,0,0:0:0:0:s_042.ogg
384,192,111150,1,0,0:0:0:0:s_050.ogg
128,192,111300,1,0,0:0:0:0:m_028.ogg
179,192,111300,1,0,0:0:0:0:m_030.ogg
281,192,111300,1,0,0:0:0:0:m_042.ogg
435,192,111300,1,0,0:0:0:0:m_052.ogg
128,192,111600,1,0,0:0:0:0:s_026.ogg
179,192,111600,1,0,0:0:0:0:s_030.ogg
281,192,111600,1,0,0:0:0:0:s_042.ogg
384,192,111600,1,0,0:0:0:0:s_050.ogg
76,192,111750,1,0,0:0:0:0:s_025.ogg
179,192,111750,1,0,0:0:0:0:s_030.ogg
281,192,111750,1,0,0:0:0:0:s_042.ogg
332,192,111750,1,0,0:0:0:0:s_049.ogg
128,192,111900,1,0,0:0:0:0:s_026.ogg
179,192,111900,1,0,0:0:0:0:s_030.ogg
281,192,111900,1,0,0:0:0:0:s_042.ogg
435,192,111900,1,0,0:0:0:0:s_050.ogg
76,192,112050,1,0,0:0:0:0:s_025.ogg
179,192,112050,1,0,0:0:0:0:s_030.ogg
281,192,112050,1,0,0:0:0:0:s_042.ogg
384,192,112050,1,0,0:0:0:0:s_049.ogg
25,192,112200,1,0,0:0:0:0:m_023.ogg
179,192,112200,1,0,0:0:0:0:m_030.ogg
281,192,112200,1,0,0:0:0:0:m_042.ogg
332,192,112200,1,0,0:0:0:0:m_047.ogg
76,192,112500,1,0,0:0:0:0:m_011.ogg
128,192,112500,1,0,0:0:0:0:m_018.ogg
230,192,112500,1,0,0:0:0:0:m_023.ogg
384,192,112500,1,0,0:0:0:0:m_059.ogg
435,192,112500,1,0,0:0:0:0:m_066.ogg
486,192,112500,1,0,0:0:0:0:m_054.ogg
128,192,112800,1,0,0:0:0:0:s_026.ogg
179,192,112800,1,0,0:0:0:0:s_030.ogg
281,192,112800,1,0,0:0:0:0:s_042.ogg
435,192,112800,1,0,0:0:0:0:s_050.ogg
76,192,112950,1,0,0:0:0:0:s_025.ogg
179,192,112950,1,0,0:0:0:0:s_030.ogg
281,192,112950,1,0,0:0:0:0:s_042.ogg
384,192,112950,1,0,0:0:0:0:s_049.ogg
25,192,113100,1,0,0:0:0:0:m_023.ogg
179,192,113100,1,0,0:0:0:0:m_030.ogg
281,192,113100,1,0,0:0:0:0:m_042.ogg
332,192,113100,1,0,0:0:0:0:m_047.ogg
76,192,113400,1,0,0:0:0:0:m_018.ogg
128,192,113400,1,0,0:0:0:0:m_011.ogg
230,192,113400,1,0,0:0:0:0:m_023.ogg
384,192,113400,1,0,0:0:0:0:m_066.ogg
435,192,113400,1,0,0:0:0:0:m_071.ogg
486,192,113400,1,0,0:0:0:0:m_059.ogg
128,192,113700,1,0,0:0:0:0:s_026.ogg
179,192,113700,1,0,0:0:0:0:s_030.ogg
281,192,113700,1,0,0:0:0:0:s_042.ogg
435,192,113700,1,0,0:0:0:0:s_050.ogg
76,192,113850,1,0,0:0:0:0:s_025.ogg
179,192,113850,1,0,0:0:0:0:s_030.ogg
281,192,113850,1,0,0:0:0:0:s_042.ogg
384,192,113850,1,0,0:0:0:0:s_049.ogg
25,192,114000,1,0,0:0:0:0:m_023.ogg
179,192,114000,1,0,0:0:0:0:m_030.ogg
281,192,114000,1,0,0:0:0:0:m_042.ogg
332,192,114000,1,0,0:0:0:0:m_047.ogg
76,192,114300,1,0,0:0:0:0:m_018.ogg
128,192,114300,1,0,0:0:0:0:m_011.ogg
230,192,114300,1,0,0:0:0:0:m_023.ogg
384,192,114300,1,0,0:0:0:0:m_074.ogg
435,192,114300,1,0,0:0:0:0:m_066.ogg
486,192,114300,1,0,0:0:0:0:m_062.ogg
128,192,114600,1,0,0:0:0:0:s_026.ogg
179,192,114600,1,0,0:0:0:0:s_030.ogg
281,192,114600,1,0,0:0:0:0:s_042.ogg
435,192,114600,1,0,0:0:0:0:s_050.ogg
76,192,114750,1,0,0:0:0:0:s_025.ogg
179,192,114750,1,0,0:0:0:0:s_030.ogg
281,192,114750,1,0,0:0:0:0:s_042.ogg
384,192,114750,1,0,0:0:0:0:s_049.ogg
25,192,114900,1,0,0:0:0:0:m_023.ogg
179,192,114900,1,0,0:0:0:0:m_030.ogg
281,192,114900,1,0,0:0:0:0:m_042.ogg
332,192,114900,1,0,0:0:0:0:m_047.ogg
76,192,115200,1,0,0:0:0:0:m_018.ogg
128,192,115200,1,0,0:0:0:0:m_011.ogg
230,192,115200,1,0,0:0:0:0:m_023.ogg
384,192,115200,1,0,0:0:0:0:m_078.ogg
435,192,115200,1,0,0:0:0:0:m_071.ogg
486,192,115200,1,0,0:0:0:0:m_066.ogg
25,192,115800,1,0,0:0:0:0:m_035.ogg
128,192,115800,1,0,0:0:0:0:m_030.ogg
179,192,115800,1,0,0:0:0:0:m_023.ogg
384,192,115800,1,0,0:0:0:0:m_071.ogg
435,192,115800,1,0,0:0:0:0:m_066.ogg
486,192,115800,1,0,0:0:0:0:m_078.ogg
76,192,116100,1,0,0:0:0:0:m_042.ogg
179,192,116100,1,0,0:0:0:0:m_035.ogg
230,192,116100,1,0,0:0:0:0:m_047.ogg
384,192,116100,1,0,0:0:0:0:m_071.ogg
435,192,116100,1,0,0:0:0:0:m_066.ogg
486,192,116100,1,0,0:0:0:0:m_078.ogg
128,192,116400,1,0,0:0:0:0:m_047.ogg
179,192,116400,1,0,0:0:0:0:m_054.ogg
230,192,116400,1,0,0:0:0:0:m_059.ogg
384,192,116400,1,0,0:0:0:0:m_071.ogg
435,192,116400,1,0,0:0:0:0:m_066.ogg
486,192,116400,1,0,0:0:0:0:m_078.ogg
76,192,116700,1,0,0:0:0:0:m_042.ogg
179,192,116700,1,0,0:0:0:0:m_035.ogg
230,192,116700,1,0,0:0:0:0:m_047.ogg
384,192,116700,1,0,0:0:0:0:m_071.ogg
435,192,116700,1,0,0:0:0:0:m_066.ogg
486,192,116700,1,0,0:0:0:0:m_078.ogg
25,192,117000,1,0,0:0:0:0:m_030.ogg
128,192,117000,1,0,0:0:0:0:m_035.ogg
179,192,117000,1,0,0:0:0:0:m_023.ogg
384,192,117000,1,0,0:0:0:0:m_071.ogg
435,192,117000,1,0,0:0:0:0:m_066.ogg
486,192,117000,1,0,0:0:0:0:m_078.ogg
25,192,117300,1,0,0:0:0:0:m_011.ogg
76,192,117300,1,0,0:0:0:0:m_018.ogg
128,192,117300,1,0,0:0:0:0:m_023.ogg
384,192,117300,1,0,0:0:0:0:m_071.ogg
435,192,117300,1,0,0:0:0:0:m_066.ogg
486,192,117300,1,0,0:0:0:0:m_078.ogg
76,192,118200,1,0,0:0:0:0:m_030.ogg
128,192,118200,1,0,0:0:0:0:m_035.ogg
179,192,118200,1,0,0:0:0:0:m_023.ogg
281,192,118200,1,0,0:0:0:0:m_047.ogg
332,192,118200,1,0,0:0:0:0:m_042.ogg
384,192,118200,1,0,0:0:0:0:m_038.ogg
128,192,119100,1,0,0:0:0:0:l_042.ogg
179,192,119100,1,0,0:0:0:0:l_047.ogg
230,192,119100,1,0,0:0:0:0:l_050.ogg
384,192,119100,1,0,0:0:0:0:l_066.ogg
435,192,119100,1,0,0:0:0:0:l_062.ogg
486,192,119100,1,0,0:0:0:0:l_059.ogg
