osu file format v14

[General]
AudioFilename: virtual
AudioLeadIn: 0
PreviewTime: 0
Countdown: 0
SampleSet: Soft
StackLeniency: 0.7
Mode: 3
LetterboxInBreaks: 0
SpecialStyle: 0
WidescreenStoryboard: 1

[Editor]
DistanceSpacing: 0.8
BeatDivisor: 4
GridSize: 16
TimelineZoom: 0.7000059

[Metadata]
Title:Piano Beatmap Set
TitleUnicode:Piano Beatmap Set
Artist:Collection
ArtistUnicode:Collection
Creator:CircusGalop
Version:La Campanella - 10K NM
Source:BMS
Tags:
BeatmapID:1316773
BeatmapSetID:332673

[Difficulty]
HPDrainRate:7
CircleSize:10
OverallDifficulty:5
ApproachRate:5
SliderMultiplier:1.4
SliderTickRate:1

[Events]
//Background and Video events
0,0,"CircusGalop.jpg",0,0
//Break Periods
//Storyboard Layer 0 (Background)
//Storyboard Layer 1 (Fail)
//Storyboard Layer 2 (Pass)
//Storyboard Layer 3 (Foreground)
//Storyboard Sound Samples
Sample,2100,0,"m_042.ogg",100
Sample,2400,0,"m_042.ogg",100
Sample,2700,0,"m_042.ogg",100
Sample,3000,0,"m_078.ogg",100
Sample,3300,0,"m_078.ogg",100
Sample,3600,0,"m_078.ogg",100
Sample,3900,0,"m_042.ogg",100
Sample,4200,0,"m_042.ogg",100
Sample,4500,0,"m_042.ogg",100
Sample,4800,0,"m_078.ogg",100
Sample,5100,0,"m_078.ogg",100
Sample,5400,0,"m_078.ogg",100
Sample,5700,0,"m_042.ogg",100
Sample,6000,0,"m_078.ogg",100
Sample,6300,0,"m_078.ogg",100
Sample,6600,0,"m_054.ogg",100
Sample,6900,0,"m_078.ogg",100
Sample,7200,0,"m_078.ogg",100
Sample,8250,0,"s_078.ogg",100
Sample,8550,0,"s_078.ogg",100
Sample,8850,0,"s_078.ogg",100
Sample,9150,0,"s_078.ogg",100
Sample,9450,0,"s_078.ogg",100
Sample,9750,0,"s_078.ogg",100
Sample,10050,0,"s_078.ogg",100
Sample,10350,0,"s_078.ogg",100
Sample,10650,0,"s_078.ogg",100
Sample,10950,0,"s_078.ogg",100
Sample,11250,0,"s_078.ogg",100
Sample,11550,0,"s_066.ogg",100
Sample,11850,0,"s_066.ogg",100
Sample,12150,0,"s_066.ogg",100
Sample,12450,0,"s_066.ogg",100
Sample,12750,0,"s_066.ogg",100
Sample,13050,0,"s_066.ogg",100
Sample,13350,0,"s_066.ogg",100
Sample,13650,0,"s_066.ogg",100
Sample,13950,0,"s_066.ogg",100
Sample,14250,0,"s_066.ogg",100
Sample,14550,0,"s_066.ogg",100
Sample,15450,0,"s_078.ogg",100
Sample,15750,0,"s_078.ogg",100
Sample,16050,0,"s_078.ogg",100
Sample,16350,0,"s_078.ogg",100
Sample,16650,0,"s_078.ogg",100
Sample,16950,0,"s_078.ogg",100
Sample,17250,0,"s_078.ogg",100
Sample,17550,0,"s_078.ogg",100
Sample,17850,0,"s_078.ogg",100
Sample,18150,0,"s_078.ogg",100
Sample,18450,0,"s_078.ogg",100
Sample,18750,0,"s_066.ogg",100
Sample,19050,0,"s_066.ogg",100
Sample,19350,0,"s_066.ogg",100
Sample,19650,0,"s_066.ogg",100
Sample,19950,0,"s_066.ogg",100
Sample,20550,0,"s_078.ogg",100
Sample,20700,0,"m_052.ogg",100
Sample,20850,0,"s_066.ogg",100
Sample,21450,0,"s_078.ogg",100
Sample,22500,0,"s_078.ogg",100
Sample,22800,0,"s_078.ogg",100
Sample,23100,0,"s_078.ogg",100
Sample,23550,0,"s_078.ogg",100
Sample,23850,0,"s_078.ogg",100
Sample,24150,0,"s_078.ogg",100
Sample,24450,0,"s_078.ogg",100
Sample,24750,0,"s_078.ogg",100
Sample,25050,0,"s_078.ogg",100
Sample,25350,0,"s_078.ogg",100
Sample,25650,0,"s_078.ogg",100
Sample,25950,0,"s_066.ogg",100
Sample,26250,0,"s_066.ogg",100
Sample,26550,0,"s_066.ogg",100
Sample,26850,0,"s_066.ogg",100
Sample,27150,0,"s_066.ogg",100
Sample,27450,0,"s_066.ogg",100
Sample,27750,0,"s_066.ogg",100
Sample,27900,0,"m_041.ogg",100
Sample,28050,0,"s_066.ogg",100
Sample,28200,0,"m_041.ogg",100
Sample,28350,0,"s_066.ogg",100
Sample,28650,0,"s_066.ogg",100
Sample,28950,0,"s_066.ogg",100
Sample,29850,0,"s_078.ogg",100
Sample,30150,0,"s_078.ogg",100
Sample,30450,0,"s_078.ogg",100
Sample,30750,0,"s_078.ogg",100
Sample,31050,0,"s_078.ogg",100
Sample,31350,0,"s_078.ogg",100
Sample,31650,0,"s_078.ogg",100
Sample,31950,0,"s_078.ogg",100
Sample,32250,0,"s_078.ogg",100
Sample,32550,0,"s_078.ogg",100
Sample,32850,0,"s_078.ogg",100
Sample,33150,0,"s_066.ogg",100
Sample,33300,0,"m_047.ogg",100
Sample,33450,0,"s_071.ogg",100
Sample,33600,0,"m_042.ogg",100
Sample,33750,0,"s_071.ogg",100
Sample,33900,0,"m_043.ogg",100
Sample,34050,0,"s_071.ogg",100
Sample,34350,0,"s_066.ogg",100
Sample,34950,0,"s_078.ogg",100
Sample,35100,0,"m_046.ogg",100
Sample,35250,0,"s_066.ogg",100
Sample,35850,0,"s_078.ogg",100
Sample,38550,0,"s_047.ogg",100
Sample,38850,0,"s_048.ogg",100
Sample,39150,0,"s_047.ogg",100
Sample,39450,0,"s_046.ogg",100
Sample,39900,0,"s_045.ogg",100
Sample,39900,0,"m_038.ogg",100
Sample,40050,0,"s_069.ogg",100
Sample,40200,0,"m_042.ogg",100
Sample,40200,0,"s_050.ogg",100
Sample,40350,0,"s_069.ogg",100
Sample,40800,0,"s_045.ogg",100
Sample,40800,0,"m_043.ogg",100
Sample,40950,0,"s_069.ogg",100
Sample,41100,0,"m_043.ogg",100
Sample,41100,0,"s_052.ogg",100
Sample,41250,0,"s_069.ogg",100
Sample,41700,0,"s_050.ogg",100
Sample,41850,0,"s_069.ogg",100
Sample,42150,0,"s_050.ogg",100
Sample,42450,0,"s_052.ogg",100
Sample,42750,0,"s_051.ogg",100
Sample,43050,0,"s_050.ogg",100
Sample,43500,0,"s_049.ogg",100
Sample,43500,0,"m_042.ogg",100
Sample,43650,0,"s_073.ogg",100
Sample,43800,0,"m_045.ogg",100
Sample,43800,0,"s_054.ogg",100
Sample,43950,0,"s_073.ogg",100
Sample,44400,0,"s_049.ogg",100
Sample,44400,0,"m_041.ogg",100
Sample,44550,0,"s_073.ogg",100
Sample,44700,0,"m_049.ogg",100
Sample,44700,0,"s_056.ogg",100
Sample,44850,0,"s_073.ogg",100
Sample,45300,0,"s_054.ogg",100
Sample,45450,0,"s_073.ogg",100
Sample,45750,0,"s_053.ogg",100
Sample,46050,0,"s_055.ogg",100
Sample,46350,0,"s_054.ogg",100
Sample,46650,0,"s_053.ogg",100
Sample,47100,0,"s_052.ogg",100
Sample,47100,0,"m_045.ogg",100
Sample,47250,0,"s_076.ogg",100
Sample,47400,0,"m_040.ogg",100
Sample,47400,0,"s_057.ogg",100
Sample,47550,0,"s_076.ogg",100
Sample,48000,0,"s_052.ogg",100
Sample,48000,0,"m_050.ogg",100
Sample,48150,0,"s_076.ogg",100
Sample,48300,0,"m_040.ogg",100
Sample,48300,0,"s_059.ogg",100
Sample,48450,0,"s_076.ogg",100
Sample,48600,0,"s_057.ogg",100
Sample,48750,0,"s_059.ogg",100
Sample,48950,0,"m_061.ogg",100
Sample,49050,0,"s_076.ogg",100
Sample,49050,0,"s_073.ogg",100
Sample,49200,0,"s_062.ogg",100
Sample,49350,0,"s_061.ogg",100
Sample,49500,0,"s_059.ogg",100
Sample,49650,0,"s_061.ogg",100
Sample,49850,0,"m_054.ogg",100
Sample,49950,0,"s_066.ogg",100
Sample,49950,0,"s_074.ogg",100
Sample,50100,0,"s_052.ogg",100
Sample,50250,0,"s_050.ogg",100
Sample,50400,0,"s_049.ogg",100
Sample,50550,0,"s_050.ogg",100
Sample,50750,0,"m_052.ogg",100
Sample,50850,0,"s_073.ogg",100
Sample,50850,0,"s_064.ogg",100
Sample,51000,0,"s_050.ogg",100
Sample,51150,0,"s_049.ogg",100
Sample,51300,0,"s_047.ogg",100
Sample,51450,0,"s_049.ogg",100
Sample,51650,0,"m_050.ogg",100
Sample,51750,0,"s_062.ogg",100
Sample,51750,0,"s_071.ogg",100
Sample,51900,0,"s_045.ogg",100
Sample,52050,0,"s_047.ogg",100
Sample,52200,0,"m_049.ogg",100
Sample,52350,0,"s_061.ogg",100
Sample,53400,0,"m_071.ogg",100
Sample,53400,0,"m_043.ogg",100
Sample,53700,0,"m_047.ogg",100
Sample,53700,0,"m_071.ogg",100
Sample,54000,0,"m_071.ogg",100
Sample,54000,0,"m_047.ogg",100
Sample,54300,0,"m_054.ogg",100
Sample,54600,0,"m_052.ogg",100
Sample,54900,0,"m_035.ogg",100
Sample,54900,0,"m_051.ogg",100
Sample,55200,0,"m_049.ogg",100
Sample,55500,0,"m_051.ogg",100
Sample,55800,0,"m_052.ogg",100
Sample,55800,0,"m_040.ogg",100
Sample,56100,0,"m_055.ogg",100
Sample,57000,0,"m_069.ogg",100
Sample,57000,0,"m_042.ogg",100
Sample,57300,0,"m_045.ogg",100
Sample,57300,0,"m_069.ogg",100
Sample,57600,0,"m_045.ogg",100
Sample,57600,0,"m_069.ogg",100
Sample,57900,0,"m_052.ogg",100
Sample,58200,0,"m_050.ogg",100
Sample,58500,0,"m_033.ogg",100
Sample,58500,0,"m_049.ogg",100
Sample,58800,0,"m_047.ogg",100
Sample,59100,0,"m_049.ogg",100
Sample,59400,0,"m_050.ogg",100
Sample,59400,0,"m_038.ogg",100
Sample,59700,0,"m_054.ogg",100
Sample,60600,0,"m_042.ogg",100
Sample,60600,0,"s_066.ogg",100
Sample,60900,0,"s_066.ogg",100
Sample,60900,0,"m_044.ogg",100
Sample,61200,0,"m_037.ogg",100
Sample,61200,0,"s_066.ogg",100
Sample,61500,0,"s_066.ogg",100
Sample,61500,0,"m_046.ogg",100
Sample,61800,0,"m_047.ogg",100
Sample,61800,0,"s_066.ogg",100
Sample,62100,0,"s_055.ogg",100
Sample,62250,0,"s_066.ogg",100
Sample,62400,0,"s_064.ogg",100
Sample,62550,0,"s_062.ogg",100
Sample,62700,0,"s_061.ogg",100
Sample,62850,0,"s_059.ogg",100
Sample,63000,0,"s_058.ogg",100
Sample,63150,0,"s_061.ogg",100
Sample,63300,0,"s_062.ogg",100
Sample,63450,0,"s_061.ogg",100
Sample,64200,0,"s_078.ogg",100
Sample,64200,0,"m_054.ogg",100
Sample,64500,0,"m_047.ogg",100
Sample,64500,0,"s_078.ogg",100
Sample,64800,0,"s_078.ogg",100
Sample,64800,0,"m_049.ogg",100
Sample,65100,0,"m_058.ogg",100
Sample,65100,0,"s_078.ogg",100
Sample,65400,0,"m_059.ogg",100
Sample,65400,0,"s_078.ogg",100
Sample,65700,0,"m_052.ogg",100
Sample,65850,0,"s_072.ogg",100
Sample,66000,0,"s_064.ogg",100
Sample,66150,0,"s_067.ogg",100
Sample,66300,0,"m_056.ogg",100
Sample,66450,0,"s_068.ogg",100
Sample,66600,0,"m_058.ogg",100
Sample,66750,0,"s_066.ogg",100
Sample,67500,0,"s_078.ogg",100
Sample,68400,0,"s_078.ogg",100
Sample,69300,0,"s_078.ogg",100
Sample,69900,0,"s_078.ogg",100
Sample,70500,0,"s_078.ogg",100
Sample,71100,0,"s_078.ogg",100
Sample,71400,0,"s_078.ogg",100
Sample,71700,0,"s_078.ogg",100
Sample,72000,0,"s_078.ogg",100
Sample,72300,0,"s_078.ogg",100
Sample,72600,0,"s_078.ogg",100
Sample,72900,0,"s_078.ogg",100
Sample,73200,0,"s_078.ogg",100
Sample,73500,0,"s_078.ogg",100
Sample,73800,0,"s_078.ogg",100
Sample,74100,0,"s_078.ogg",100
Sample,74400,0,"s_078.ogg",100
Sample,74700,0,"s_078.ogg",100
Sample,75150,0,"s_066.ogg",100
Sample,75450,0,"s_066.ogg",100
Sample,75750,0,"s_066.ogg",100
Sample,76050,0,"s_066.ogg",100
Sample,76350,0,"s_066.ogg",100
Sample,76650,0,"s_066.ogg",100
Sample,76950,0,"s_066.ogg",100
Sample,77250,0,"s_066.ogg",100
Sample,77550,0,"s_066.ogg",100
Sample,77850,0,"s_066.ogg",100
Sample,78150,0,"s_066.ogg",100
Sample,78450,0,"s_066.ogg",100
Sample,78750,0,"s_066.ogg",100
Sample,79050,0,"s_066.ogg",100
Sample,79350,0,"s_066.ogg",100
Sample,79650,0,"s_066.ogg",100
Sample,79950,0,"s_066.ogg",100
Sample,80250,0,"s_066.ogg",100
Sample,80550,0,"s_066.ogg",100
Sample,80850,0,"s_066.ogg",100
Sample,81150,0,"s_066.ogg",100
Sample,81450,0,"s_066.ogg",100
Sample,81750,0,"s_066.ogg",100
Sample,82050,0,"s_066.ogg",100
Sample,82350,0,"s_066.ogg",100
Sample,82650,0,"s_066.ogg",100
Sample,82950,0,"s_066.ogg",100
Sample,83250,0,"s_066.ogg",100
Sample,83550,0,"s_066.ogg",100
Sample,83850,0,"s_066.ogg",100
Sample,84150,0,"s_066.ogg",100
Sample,84450,0,"s_066.ogg",100
Sample,84750,0,"s_066.ogg",100
Sample,85050,0,"s_066.ogg",100
Sample,85350,0,"s_066.ogg",100
Sample,85650,0,"s_066.ogg",100
Sample,85950,0,"s_066.ogg",100
Sample,86250,0,"s_066.ogg",100
Sample,86550,0,"s_066.ogg",100
Sample,86850,0,"s_066.ogg",100
Sample,87150,0,"s_066.ogg",100
Sample,87300,0,"m_040.ogg",100
Sample,87450,0,"s_066.ogg",100
Sample,87600,0,"m_042.ogg",100
Sample,87750,0,"s_066.ogg",100
Sample,87900,0,"m_043.ogg",100
Sample,88050,0,"s_066.ogg",100
Sample,88200,0,"m_042.ogg",100
Sample,88350,0,"s_066.ogg",100
Sample,88950,0,"s_078.ogg",100
Sample,89100,0,"m_054.ogg",100
Sample,89250,0,"s_066.ogg",100
Sample,89850,0,"s_078.ogg",100
Sample,90100,0,"m_030.ogg",100
Sample,90200,0,"m_035.ogg",100
Sample,90300,0,"m_038.ogg",100
Sample,90400,0,"m_042.ogg",100
Sample,90500,0,"m_047.ogg",100
Sample,90600,0,"m_050.ogg",100
Sample,90700,0,"m_054.ogg",100
Sample,90800,0,"m_059.ogg",100
Sample,90900,0,"m_062.ogg",100
Sample,91000,0,"m_066.ogg",100
Sample,91100,0,"m_074.ogg",100
Sample,91200,0,"m_071.ogg",100

[TimingPoints]
0,600.000000000006,4,2,0,100,1,0

[HitObjects]
128,192,2100,5,0,0:0:0:0:m_054.ogg
128,192,2400,1,0,0:0:0:0:m_054.ogg
128,192,2700,1,0,0:0:0:0:m_054.ogg
384,192,3000,1,0,0:0:0:0:m_066.ogg
384,192,3300,1,0,0:0:0:0:m_066.ogg
384,192,3600,1,0,0:0:0:0:m_066.ogg
128,192,3900,1,0,0:0:0:0:m_054.ogg
128,192,4200,1,0,0:0:0:0:m_054.ogg
128,192,4500,1,0,0:0:0:0:m_054.ogg
384,192,4800,1,0,0:0:0:0:m_066.ogg
384,192,5100,1,0,0:0:0:0:m_066.ogg
384,192,5400,1,0,0:0:0:0:m_066.ogg
128,192,5700,1,0,0:0:0:0:m_054.ogg
384,192,6000,1,0,0:0:0:0:m_066.ogg
384,192,6300,1,0,0:0:0:0:m_066.ogg
128,192,6600,1,0,0:0:0:0:m_042.ogg
384,192,6900,1,0,0:0:0:0:m_066.ogg
384,192,7200,1,0,0:0:0:0:m_066.ogg
179,192,7800,1,0,0:0:0:0:m_054.ogg
384,192,7950,1,0,0:0:0:0:s_066.ogg
486,192,8100,1,0,0:0:0:0:m_066.ogg
486,192,8400,1,0,0:0:0:0:m_066.ogg
435,192,8700,1,0,0:0:0:0:m_064.ogg
25,192,9000,1,0,0:0:0:0:m_035.ogg
332,192,9000,1,0,0:0:0:0:m_062.ogg
76,192,9050,1,0,0:0:0:0:m_042.ogg
128,192,9100,1,0,0:0:0:0:m_050.ogg
332,192,9300,1,0,0:0:0:0:m_062.ogg
281,192,9600,1,0,0:0:0:0:m_061.ogg
76,192,9900,1,0,0:0:0:0:m_038.ogg
384,192,9900,1,0,0:0:0:0:m_059.ogg
128,192,9950,1,0,0:0:0:0:m_047.ogg
179,192,10000,1,0,0:0:0:0:m_054.ogg
332,192,10200,1,0,0:0:0:0:m_058.ogg
384,192,10500,1,0,0:0:0:0:m_059.ogg
128,192,10800,1,0,0:0:0:0:m_042.ogg
486,192,10800,1,0,0:0:0:0:m_061.ogg
179,192,10850,1,0,0:0:0:0:m_049.ogg
230,192,10900,1,0,0:0:0:0:m_058.ogg
332,192,11100,1,0,0:0:0:0:m_054.ogg
332,192,11400,1,0,0:0:0:0:m_054.ogg
76,192,11700,1,0,0:0:0:0:m_046.ogg
384,192,11700,1,0,0:0:0:0:m_055.ogg
230,192,11750,1,0,0:0:0:0:m_049.ogg
332,192,12000,1,0,0:0:0:0:m_054.ogg
281,192,12300,1,0,0:0:0:0:m_052.ogg
179,192,12600,1,0,0:0:0:0:m_047.ogg
486,192,12600,1,0,0:0:0:0:m_050.ogg
486,192,12900,1,0,0:0:0:0:m_050.ogg
435,192,13200,1,0,0:0:0:0:m_049.ogg
25,192,13500,1,0,0:0:0:0:m_038.ogg
384,192,13500,1,0,0:0:0:0:m_047.ogg
76,192,13550,1,0,0:0:0:0:m_041.ogg
128,192,13600,1,0,0:0:0:0:m_044.ogg
332,192,13800,1,0,0:0:0:0:m_046.ogg
384,192,14100,1,0,0:0:0:0:m_047.ogg
25,192,14400,1,0,0:0:0:0:m_046.ogg
179,192,14400,1,0,0:0:0:0:m_042.ogg
435,192,14400,1,0,0:0:0:0:m_049.ogg
281,192,14700,1,0,0:0:0:0:m_042.ogg
384,192,14850,1,0,0:0:0:0:s_054.ogg
384,192,15000,1,0,0:0:0:0:s_054.ogg
486,192,15150,1,0,0:0:0:0:s_066.ogg
486,192,15300,1,0,0:0:0:0:m_066.ogg
486,192,15600,1,0,0:0:0:0:m_066.ogg
435,192,15900,1,0,0:0:0:0:m_064.ogg
25,192,16200,1,0,0:0:0:0:m_035.ogg
332,192,16200,1,0,0:0:0:0:m_062.ogg
76,192,16250,1,0,0:0:0:0:m_042.ogg
128,192,16300,1,0,0:0:0:0:m_050.ogg
332,192,16500,1,0,0:0:0:0:m_062.ogg
281,192,16800,1,0,0:0:0:0:m_061.ogg
76,192,17100,1,0,0:0:0:0:m_038.ogg
384,192,17100,1,0,0:0:0:0:m_059.ogg
128,192,17150,1,0,0:0:0:0:m_047.ogg
179,192,17200,1,0,0:0:0:0:m_054.ogg
332,192,17400,1,0,0:0:0:0:m_058.ogg
384,192,17700,1,0,0:0:0:0:m_059.ogg
128,192,18000,1,0,0:0:0:0:m_042.ogg
486,192,18000,1,0,0:0:0:0:m_061.ogg
179,192,18050,1,0,0:0:0:0:m_049.ogg
230,192,18100,1,0,0:0:0:0:m_058.ogg
332,192,18300,1,0,0:0:0:0:m_054.ogg
332,192,18600,1,0,0:0:0:0:m_054.ogg
76,192,18900,1,0,0:0:0:0:m_046.ogg
435,192,18900,1,0,0:0:0:0:m_055.ogg
230,192,18950,1,0,0:0:0:0:m_049.ogg
384,192,19200,1,0,0:0:0:0:m_054.ogg
179,192,19500,1,0,0:0:0:0:m_054.ogg
332,192,19500,1,0,0:0:0:0:m_052.ogg
76,192,19800,1,0,0:0:0:0:m_047.ogg
128,192,19800,1,0,0:0:0:0:m_054.ogg
281,192,19800,1,0,0:0:0:0:m_050.ogg
384,192,20100,1,0,0:0:0:0:s_059.ogg
435,192,20250,1,0,0:0:0:0:s_062.ogg
486,192,20400,1,0,0:0:0:0:m_066.ogg
25,192,20700,1,0,0:0:0:0:m_042.ogg
179,192,20700,1,0,0:0:0:0:m_054.ogg
281,192,20700,1,0,0:0:0:0:m_046.ogg
332,192,21000,1,0,0:0:0:0:s_058.ogg
384,192,21150,1,0,0:0:0:0:s_061.ogg
435,192,21300,1,0,0:0:0:0:m_066.ogg
25,192,21600,1,0,0:0:0:0:m_035.ogg
76,192,21750,1,0,0:0:0:0:m_042.ogg
128,192,21900,1,0,0:0:0:0:m_050.ogg
230,192,22050,1,0,0:0:0:0:m_059.ogg
179,192,22200,1,0,0:0:0:0:s_054.ogg
486,192,22350,1,0,0:0:0:0:s_066.ogg
486,192,22650,1,0,0:0:0:0:s_066.ogg
486,192,22950,1,0,0:0:0:0:s_066.ogg
435,192,23250,1,0,0:0:0:0:s_064.ogg
76,192,23400,1,0,0:0:0:0:m_023.ogg
384,192,23400,1,0,0:0:0:0:s_064.ogg
332,192,23450,1,0,0:0:0:0:m_062.ogg
25,192,23700,1,0,0:0:0:0:m_030.ogg
128,192,23700,1,0,0:0:0:0:m_038.ogg
332,192,23700,1,0,0:0:0:0:m_062.ogg
281,192,24000,1,0,0:0:0:0:m_061.ogg
128,192,24300,1,0,0:0:0:0:m_026.ogg
281,192,24300,1,0,0:0:0:0:s_061.ogg
435,192,24350,1,0,0:0:0:0:m_059.ogg
76,192,24600,1,0,0:0:0:0:m_042.ogg
179,192,24600,1,0,0:0:0:0:m_035.ogg
384,192,24600,1,0,0:0:0:0:m_058.ogg
435,192,24900,1,0,0:0:0:0:m_059.ogg
179,192,25200,1,0,0:0:0:0:m_030.ogg
384,192,25200,1,0,0:0:0:0:s_058.ogg
435,192,25250,1,0,0:0:0:0:s_059.ogg
486,192,25300,1,0,0:0:0:0:s_061.ogg
128,192,25500,1,0,0:0:0:0:m_046.ogg
230,192,25500,1,0,0:0:0:0:m_037.ogg
332,192,25500,1,0,0:0:0:0:m_054.ogg
332,192,25800,1,0,0:0:0:0:m_054.ogg
25,192,26100,1,0,0:0:0:0:m_049.ogg
128,192,26100,1,0,0:0:0:0:m_046.ogg
435,192,26100,1,0,0:0:0:0:s_058.ogg
384,192,26150,1,0,0:0:0:0:m_055.ogg
25,192,26400,1,0,0:0:0:0:m_046.ogg
128,192,26400,1,0,0:0:0:0:m_049.ogg
332,192,26400,1,0,0:0:0:0:m_054.ogg
281,192,26700,1,0,0:0:0:0:m_052.ogg
179,192,27000,1,0,0:0:0:0:m_047.ogg
281,192,27000,1,0,0:0:0:0:s_052.ogg
486,192,27050,1,0,0:0:0:0:m_050.ogg
179,192,27300,1,0,0:0:0:0:m_047.ogg
486,192,27300,1,0,0:0:0:0:m_050.ogg
435,192,27600,1,0,0:0:0:0:m_049.ogg
25,192,27900,1,0,0:0:0:0:m_044.ogg
76,192,27900,1,0,0:0:0:0:m_038.ogg
435,192,27900,1,0,0:0:0:0:s_049.ogg
384,192,27950,1,0,0:0:0:0:m_047.ogg
25,192,28200,1,0,0:0:0:0:m_044.ogg
76,192,28200,1,0,0:0:0:0:m_038.ogg
332,192,28200,1,0,0:0:0:0:m_046.ogg
384,192,28500,1,0,0:0:0:0:m_047.ogg
128,192,28800,1,0,0:0:0:0:m_046.ogg
179,192,28800,1,0,0:0:0:0:m_030.ogg
435,192,28800,1,0,0:0:0:0:m_049.ogg
281,192,29100,1,0,0:0:0:0:s_042.ogg
384,192,29250,1,0,0:0:0:0:s_054.ogg
384,192,29400,1,0,0:0:0:0:s_054.ogg
486,192,29550,1,0,0:0:0:0:s_066.ogg
486,192,29700,1,0,0:0:0:0:m_066.ogg
486,192,30000,1,0,0:0:0:0:m_066.ogg
435,192,30300,1,0,0:0:0:0:m_064.ogg
76,192,30600,1,0,0:0:0:0:m_023.ogg
435,192,30600,1,0,0:0:0:0:s_064.ogg
332,192,30650,1,0,0:0:0:0:m_062.ogg
25,192,30900,1,0,0:0:0:0:m_030.ogg
128,192,30900,1,0,0:0:0:0:m_038.ogg
332,192,30900,1,0,0:0:0:0:m_062.ogg
281,192,31200,1,0,0:0:0:0:m_061.ogg
128,192,31500,1,0,0:0:0:0:m_026.ogg
281,192,31500,1,0,0:0:0:0:s_061.ogg
435,192,31550,1,0,0:0:0:0:m_059.ogg
76,192,31800,1,0,0:0:0:0:m_042.ogg
179,192,31800,1,0,0:0:0:0:m_035.ogg
384,192,31800,1,0,0:0:0:0:m_058.ogg
435,192,32100,1,0,0:0:0:0:m_059.ogg
179,192,32400,1,0,0:0:0:0:m_030.ogg
384,192,32400,1,0,0:0:0:0:s_058.ogg
435,192,32450,1,0,0:0:0:0:s_059.ogg
486,192,32500,1,0,0:0:0:0:s_061.ogg
128,192,32700,1,0,0:0:0:0:m_046.ogg
230,192,32700,1,0,0:0:0:0:m_037.ogg
332,192,32700,1,0,0:0:0:0:m_054.ogg
332,192,33000,1,0,0:0:0:0:m_054.ogg
25,192,33300,1,0,0:0:0:0:m_049.ogg
179,192,33300,1,0,0:0:0:0:m_040.ogg
384,192,33300,1,0,0:0:0:0:s_058.ogg
435,192,33350,1,0,0:0:0:0:m_055.ogg
76,192,33600,1,0,0:0:0:0:m_047.ogg
179,192,33600,1,0,0:0:0:0:m_049.ogg
332,192,33600,1,0,0:0:0:0:m_054.ogg
128,192,33900,1,0,0:0:0:0:m_047.ogg
179,192,33900,1,0,0:0:0:0:m_049.ogg
281,192,33900,1,0,0:0:0:0:m_052.ogg
76,192,34200,1,0,0:0:0:0:m_050.ogg
230,192,34200,1,0,0:0:0:0:m_047.ogg
332,192,34200,1,0,0:0:0:0:m_054.ogg
384,192,34500,1,0,0:0:0:0:s_059.ogg
435,192,34650,1,0,0:0:0:0:s_062.ogg
486,192,34800,1,0,0:0:0:0:m_066.ogg
25,192,35100,1,0,0:0:0:0:m_042.ogg
179,192,35100,1,0,0:0:0:0:m_052.ogg
281,192,35100,1,0,0:0:0:0:m_054.ogg
332,192,35400,1,0,0:0:0:0:s_058.ogg
384,192,35550,1,0,0:0:0:0:s_061.ogg
435,192,35700,1,0,0:0:0:0:m_066.ogg
76,192,36000,1,0,0:0:0:0:m_023.ogg
128,192,36150,1,0,0:0:0:0:m_038.ogg
179,192,36300,1,0,0:0:0:0:m_042.ogg
230,192,36450,1,0,0:0:0:0:m_047.ogg
281,192,36600,1,0,0:0:0:0:m_054.ogg
332,192,36750,1,0,0:0:0:0:m_059.ogg
384,192,36900,1,0,0:0:0:0:m_062.ogg
435,192,37050,1,0,0:0:0:0:m_066.ogg
486,192,37200,1,0,0:0:0:0:m_071.ogg
332,192,38400,1,0,0:0:0:0:s_050.ogg
179,192,38550,1,0,0:0:0:0:s_049.ogg
332,192,38700,1,0,0:0:0:0:s_050.ogg
128,192,38850,1,0,0:0:0:0:s_046.ogg
332,192,39000,1,0,0:0:0:0:s_050.ogg
76,192,39150,1,0,0:0:0:0:s_044.ogg
332,192,39300,1,0,0:0:0:0:s_050.ogg
25,192,39450,1,0,0:0:0:0:s_043.ogg
384,192,39600,1,0,0:0:0:0:s_052.ogg
332,192,39675,1,0,0:0:0:0:s_050.ogg
281,192,39750,1,0,0:0:0:0:s_049.ogg
435,192,39825,1,0,0:0:0:0:s_050.ogg
128,192,39900,1,0,0:0:0:0:m_042.ogg
25,192,40200,1,0,0:0:0:0:m_033.ogg
128,192,40200,1,0,0:0:0:0:m_045.ogg
435,192,40500,1,0,0:0:0:0:s_054.ogg
384,192,40575,1,0,0:0:0:0:s_052.ogg
332,192,40650,1,0,0:0:0:0:s_051.ogg
486,192,40725,1,0,0:0:0:0:s_052.ogg
179,192,40800,1,0,0:0:0:0:m_037.ogg
76,192,41100,1,0,0:0:0:0:m_033.ogg
179,192,41100,1,0,0:0:0:0:m_045.ogg
486,192,41400,1,0,0:0:0:0:s_055.ogg
435,192,41475,1,0,0:0:0:0:s_054.ogg
384,192,41550,1,0,0:0:0:0:s_053.ogg
281,192,41625,1,0,0:0:0:0:s_054.ogg
128,192,41700,1,0,0:0:0:0:m_038.ogg
230,192,41700,1,0,0:0:0:0:m_042.ogg
384,192,42000,1,0,0:0:0:0:s_054.ogg
179,192,42150,1,0,0:0:0:0:s_053.ogg
384,192,42300,1,0,0:0:0:0:s_054.ogg
128,192,42450,1,0,0:0:0:0:s_049.ogg
384,192,42600,1,0,0:0:0:0:s_054.ogg
76,192,42750,1,0,0:0:0:0:s_048.ogg
384,192,42900,1,0,0:0:0:0:s_054.ogg
25,192,43050,1,0,0:0:0:0:s_047.ogg
384,192,43200,1,0,0:0:0:0:s_056.ogg
332,192,43275,1,0,0:0:0:0:s_054.ogg
281,192,43350,1,0,0:0:0:0:s_053.ogg
435,192,43425,1,0,0:0:0:0:s_054.ogg
128,192,43500,1,0,0:0:0:0:m_045.ogg
25,192,43800,1,0,0:0:0:0:m_037.ogg
128,192,43800,1,0,0:0:0:0:m_049.ogg
435,192,44100,1,0,0:0:0:0:s_057.ogg
384,192,44175,1,0,0:0:0:0:s_056.ogg
332,192,44250,1,0,0:0:0:0:s_055.ogg
486,192,44325,1,0,0:0:0:0:s_056.ogg
179,192,44400,1,0,0:0:0:0:m_047.ogg
76,192,44700,1,0,0:0:0:0:m_037.ogg
179,192,44700,1,0,0:0:0:0:m_047.ogg
486,192,45000,1,0,0:0:0:0:s_059.ogg
435,192,45075,1,0,0:0:0:0:s_057.ogg
384,192,45150,1,0,0:0:0:0:s_056.ogg
281,192,45225,1,0,0:0:0:0:s_057.ogg
128,192,45300,1,0,0:0:0:0:m_045.ogg
230,192,45300,1,0,0:0:0:0:m_042.ogg
435,192,45600,1,0,0:0:0:0:s_057.ogg
179,192,45750,1,0,0:0:0:0:s_056.ogg
435,192,45900,1,0,0:0:0:0:s_057.ogg
128,192,46050,1,0,0:0:0:0:s_052.ogg
435,192,46200,1,0,0:0:0:0:s_057.ogg
76,192,46350,1,0,0:0:0:0:s_051.ogg
435,192,46500,1,0,0:0:0:0:s_057.ogg
25,192,46650,1,0,0:0:0:0:s_050.ogg
384,192,46800,1,0,0:0:0:0:s_059.ogg
332,192,46875,1,0,0:0:0:0:s_057.ogg
281,192,46950,1,0,0:0:0:0:s_056.ogg
435,192,47025,1,0,0:0:0:0:s_057.ogg
128,192,47100,1,0,0:0:0:0:m_049.ogg
25,192,47400,1,0,0:0:0:0:m_052.ogg
128,192,47400,1,0,0:0:0:0:m_049.ogg
435,192,47700,1,0,0:0:0:0:s_061.ogg
384,192,47775,1,0,0:0:0:0:s_059.ogg
332,192,47850,1,0,0:0:0:0:s_058.ogg
486,192,47925,1,0,0:0:0:0:s_059.ogg
179,192,48000,1,0,0:0:0:0:m_044.ogg
76,192,48300,1,0,0:0:0:0:m_052.ogg
179,192,48300,1,0,0:0:0:0:m_050.ogg
384,192,48600,1,0,0:0:0:0:s_061.ogg
435,192,48750,1,0,0:0:0:0:s_062.ogg
486,192,48900,1,0,0:0:0:0:m_064.ogg
128,192,48900,128,0,49500:0:0:0:0:m_045.ogg
435,192,49200,1,0,0:0:0:0:s_059.ogg
384,192,49350,1,0,0:0:0:0:s_057.ogg
332,192,49500,1,0,0:0:0:0:s_050.ogg
384,192,49650,1,0,0:0:0:0:s_052.ogg
435,192,49800,1,0,0:0:0:0:m_062.ogg
25,192,49800,128,0,50400:0:0:0:0:m_038.ogg
384,192,50100,1,0,0:0:0:0:s_061.ogg
332,192,50250,1,0,0:0:0:0:s_059.ogg
281,192,50400,1,0,0:0:0:0:s_057.ogg
332,192,50550,1,0,0:0:0:0:s_059.ogg
384,192,50700,1,0,0:0:0:0:m_061.ogg
76,192,50700,128,0,51300:0:0:0:0:m_040.ogg
435,192,51000,1,0,0:0:0:0:s_059.ogg
384,192,51150,1,0,0:0:0:0:s_057.ogg
332,192,51300,1,0,0:0:0:0:s_056.ogg
384,192,51450,1,0,0:0:0:0:s_057.ogg
435,192,51600,1,0,0:0:0:0:m_059.ogg
76,192,51600,128,0,52200:0:0:0:0:m_040.ogg
384,192,51900,1,0,0:0:0:0:s_054.ogg
435,192,52050,1,0,0:0:0:0:s_056.ogg
25,192,52200,1,0,0:0:0:0:m_033.ogg
486,192,52200,1,0,0:0:0:0:s_057.ogg
281,192,52350,1,0,0:0:0:0:s_069.ogg
76,192,52500,1,0,0:0:0:0:s_045.ogg
332,192,52650,1,0,0:0:0:0:s_057.ogg
128,192,52800,1,0,0:0:0:0:s_046.ogg
384,192,52950,1,0,0:0:0:0:s_058.ogg
179,192,53100,1,0,0:0:0:0:s_047.ogg
435,192,53250,1,0,0:0:0:0:s_059.ogg
179,192,53400,1,0,0:0:0:0:m_047.ogg
435,192,53550,1,0,0:0:0:0:s_059.ogg
179,192,53700,1,0,0:0:0:0:m_042.ogg
384,192,53850,1,0,0:0:0:0:s_057.ogg
179,192,54000,1,0,0:0:0:0:m_040.ogg
332,192,54150,1,0,0:0:0:0:s_055.ogg
486,192,54300,1,0,0:0:0:0:m_081.ogg
230,192,54450,1,0,0:0:0:0:s_059.ogg
435,192,54600,1,0,0:0:0:0:m_079.ogg
230,192,54750,1,0,0:0:0:0:s_059.ogg
384,192,54900,1,0,0:0:0:0:m_078.ogg
230,192,55050,1,0,0:0:0:0:s_059.ogg
332,192,55200,1,0,0:0:0:0:m_076.ogg
230,192,55350,1,0,0:0:0:0:s_059.ogg
384,192,55500,1,0,0:0:0:0:m_078.ogg
230,192,55650,1,0,0:0:0:0:s_059.ogg
435,192,55800,1,0,0:0:0:0:m_079.ogg
230,192,55950,1,0,0:0:0:0:s_059.ogg
281,192,56100,1,0,0:0:0:0:m_076.ogg
230,192,56250,1,0,0:0:0:0:s_059.ogg
179,192,56400,1,0,0:0:0:0:s_046.ogg
486,192,56550,1,0,0:0:0:0:s_058.ogg
128,192,56700,1,0,0:0:0:0:s_045.ogg
435,192,56850,1,0,0:0:0:0:s_057.ogg
128,192,57000,1,0,0:0:0:0:m_045.ogg
435,192,57150,1,0,0:0:0:0:s_057.ogg
128,192,57300,1,0,0:0:0:0:m_040.ogg
384,192,57450,1,0,0:0:0:0:s_055.ogg
128,192,57600,1,0,0:0:0:0:m_038.ogg
332,192,57750,1,0,0:0:0:0:s_054.ogg
435,192,57900,1,0,0:0:0:0:m_079.ogg
179,192,58050,1,0,0:0:0:0:s_057.ogg
384,192,58200,1,0,0:0:0:0:m_078.ogg
179,192,58350,1,0,0:0:0:0:s_057.ogg
332,192,58500,1,0,0:0:0:0:m_076.ogg
179,192,58650,1,0,0:0:0:0:s_057.ogg
281,192,58800,1,0,0:0:0:0:m_074.ogg
179,192,58950,1,0,0:0:0:0:s_057.ogg
332,192,59100,1,0,0:0:0:0:m_076.ogg
179,192,59250,1,0,0:0:0:0:s_057.ogg
384,192,59400,1,0,0:0:0:0:m_078.ogg
179,192,59550,1,0,0:0:0:0:s_057.ogg
281,192,59700,1,0,0:0:0:0:m_074.ogg
179,192,59850,1,0,0:0:0:0:s_057.ogg
25,192,60000,1,0,0:0:0:0:s_041.ogg
435,192,60150,1,0,0:0:0:0:s_053.ogg
76,192,60300,1,0,0:0:0:0:s_042.ogg
486,192,60450,1,0,0:0:0:0:s_054.ogg
76,192,60600,1,0,0:0:0:0:m_034.ogg
486,192,60750,1,0,0:0:0:0:s_054.ogg
128,192,60900,1,0,0:0:0:0:m_035.ogg
435,192,61050,1,0,0:0:0:0:s_053.ogg
179,192,61200,1,0,0:0:0:0:m_046.ogg
435,192,61350,1,0,0:0:0:0:s_053.ogg
179,192,61500,1,0,0:0:0:0:m_037.ogg
384,192,61650,1,0,0:0:0:0:s_052.ogg
230,192,61800,1,0,0:0:0:0:m_038.ogg
332,192,61950,1,0,0:0:0:0:s_050.ogg
25,192,62100,1,0,0:0:0:0:m_049.ogg
128,192,62100,1,0,0:0:0:0:m_040.ogg
435,192,62100,1,0,0:0:0:0:s_067.ogg
384,192,62250,1,0,0:0:0:0:s_061.ogg
332,192,62400,1,0,0:0:0:0:s_052.ogg
281,192,62550,1,0,0:0:0:0:s_055.ogg
76,192,62700,1,0,0:0:0:0:m_044.ogg
179,192,62700,1,0,0:0:0:0:m_041.ogg
384,192,62700,1,0,0:0:0:0:s_050.ogg
332,192,62850,1,0,0:0:0:0:s_056.ogg
128,192,63000,1,0,0:0:0:0:m_046.ogg
230,192,63000,1,0,0:0:0:0:m_042.ogg
281,192,63000,1,0,0:0:0:0:s_049.ogg
332,192,63150,1,0,0:0:0:0:s_054.ogg
384,192,63300,1,0,0:0:0:0:s_058.ogg
281,192,63450,1,0,0:0:0:0:s_054.ogg
25,192,63600,1,0,0:0:0:0:s_053.ogg
435,192,63750,1,0,0:0:0:0:s_065.ogg
76,192,63900,1,0,0:0:0:0:s_054.ogg
486,192,64050,1,0,0:0:0:0:s_066.ogg
76,192,64200,1,0,0:0:0:0:m_046.ogg
486,192,64350,1,0,0:0:0:0:s_066.ogg
128,192,64500,1,0,0:0:0:0:m_056.ogg
435,192,64650,1,0,0:0:0:0:s_065.ogg
179,192,64800,1,0,0:0:0:0:m_058.ogg
435,192,64950,1,0,0:0:0:0:s_065.ogg
179,192,65100,1,0,0:0:0:0:m_049.ogg
384,192,65250,1,0,0:0:0:0:s_064.ogg
230,192,65400,1,0,0:0:0:0:m_050.ogg
332,192,65550,1,0,0:0:0:0:s_062.ogg
25,192,65700,1,0,0:0:0:0:m_060.ogg
128,192,65700,1,0,0:0:0:0:s_067.ogg
435,192,65700,1,0,0:0:0:0:s_079.ogg
384,192,65850,1,0,0:0:0:0:s_078.ogg
332,192,66000,1,0,0:0:0:0:s_076.ogg
281,192,66150,1,0,0:0:0:0:s_074.ogg
76,192,66300,1,0,0:0:0:0:m_053.ogg
179,192,66300,1,0,0:0:0:0:s_062.ogg
384,192,66300,1,0,0:0:0:0:s_073.ogg
332,192,66450,1,0,0:0:0:0:s_071.ogg
128,192,66600,1,0,0:0:0:0:s_061.ogg
230,192,66600,1,0,0:0:0:0:m_054.ogg
281,192,66600,1,0,0:0:0:0:s_070.ogg
332,192,66750,1,0,0:0:0:0:s_073.ogg
25,192,66900,1,0,0:0:0:0:s_053.ogg
281,192,67050,1,0,0:0:0:0:s_065.ogg
76,192,67200,1,0,0:0:0:0:s_054.ogg
332,192,67350,1,0,0:0:0:0:s_066.ogg
332,192,67650,1,0,0:0:0:0:s_066.ogg
76,192,67800,1,0,0:0:0:0:s_054.ogg
332,192,67950,1,0,0:0:0:0:s_066.ogg
128,192,68100,1,0,0:0:0:0:s_055.ogg
384,192,68250,1,0,0:0:0:0:s_067.ogg
332,192,68550,1,0,0:0:0:0:s_066.ogg
128,192,68700,1,0,0:0:0:0:s_055.ogg
384,192,68850,1,0,0:0:0:0:s_067.ogg
179,192,69000,1,0,0:0:0:0:s_056.ogg
435,192,69150,1,0,0:0:0:0:s_068.ogg
332,192,69450,1,0,0:0:0:0:s_066.ogg
230,192,69600,1,0,0:0:0:0:s_057.ogg
435,192,69750,1,0,0:0:0:0:s_069.ogg
332,192,70050,1,0,0:0:0:0:s_066.ogg
25,192,70200,1,0,0:0:0:0:s_058.ogg
486,192,70350,1,0,0:0:0:0:s_070.ogg
332,192,70650,1,0,0:0:0:0:s_066.ogg
76,192,70800,1,0,0:0:0:0:s_059.ogg
486,192,70950,1,0,0:0:0:0:s_071.ogg
128,192,71250,1,0,0:0:0:0:s_060.ogg
179,192,71550,1,0,0:0:0:0:s_061.ogg
230,192,71850,1,0,0:0:0:0:s_062.ogg
281,192,72150,1,0,0:0:0:0:s_063.ogg
332,192,72450,1,0,0:0:0:0:s_064.ogg
384,192,72750,1,0,0:0:0:0:s_065.ogg
435,192,73050,1,0,0:0:0:0:s_066.ogg
435,192,73350,1,0,0:0:0:0:s_066.ogg
435,192,73650,1,0,0:0:0:0:s_066.ogg
435,192,73950,1,0,0:0:0:0:s_066.ogg
435,192,74250,1,0,0:0:0:0:s_066.ogg
435,192,74550,1,0,0:0:0:0:s_066.ogg
435,192,74850,1,0,0:0:0:0:s_066.ogg
25,192,75000,128,0,75450:0:0:0:0:m_054.ogg
486,192,75300,1,0,0:0:0:0:s_078.ogg
25,192,75600,1,0,0:0:0:0:s_054.ogg
486,192,75900,1,0,0:0:0:0:s_078.ogg
76,192,76200,1,0,0:0:0:0:m_042.ogg
230,192,76200,1,0,0:0:0:0:s_054.ogg
230,192,76500,1,0,0:0:0:0:s_054.ogg
486,192,76500,1,0,0:0:0:0:s_078.ogg
230,192,76800,1,0,0:0:0:0:m_054.ogg
179,192,77100,1,0,0:0:0:0:s_052.ogg
486,192,77100,1,0,0:0:0:0:s_078.ogg
25,192,77400,1,0,0:0:0:0:m_035.ogg
281,192,77400,1,0,0:0:0:0:s_054.ogg
128,192,77450,1,0,0:0:0:0:s_050.ogg
128,192,77700,1,0,0:0:0:0:s_050.ogg
486,192,77700,1,0,0:0:0:0:s_078.ogg
76,192,78000,1,0,0:0:0:0:s_049.ogg
281,192,78000,1,0,0:0:0:0:s_054.ogg
25,192,78300,1,0,0:0:0:0:m_038.ogg
486,192,78300,1,0,0:0:0:0:s_078.ogg
179,192,78350,1,0,0:0:0:0:s_047.ogg
128,192,78600,1,0,0:0:0:0:s_046.ogg
281,192,78600,1,0,0:0:0:0:s_054.ogg
179,192,78900,1,0,0:0:0:0:s_047.ogg
486,192,78900,1,0,0:0:0:0:s_078.ogg
25,192,79200,1,0,0:0:0:0:m_046.ogg
281,192,79200,1,0,0:0:0:0:s_054.ogg
230,192,79250,1,0,0:0:0:0:s_049.ogg
128,192,79500,1,0,0:0:0:0:s_042.ogg
486,192,79500,1,0,0:0:0:0:s_078.ogg
128,192,79800,1,0,0:0:0:0:s_042.ogg
281,192,79800,1,0,0:0:0:0:s_054.ogg
25,192,80100,1,0,0:0:0:0:m_034.ogg
486,192,80100,1,0,0:0:0:0:s_078.ogg
230,192,80150,1,0,0:0:0:0:s_043.ogg
179,192,80400,1,0,0:0:0:0:s_042.ogg
281,192,80400,1,0,0:0:0:0:s_054.ogg
128,192,80700,1,0,0:0:0:0:s_040.ogg
486,192,80700,1,0,0:0:0:0:s_078.ogg
25,192,81000,1,0,0:0:0:0:m_035.ogg
281,192,81000,1,0,0:0:0:0:s_054.ogg
76,192,81050,1,0,0:0:0:0:s_038.ogg
76,192,81300,1,0,0:0:0:0:s_038.ogg
486,192,81300,1,0,0:0:0:0:s_078.ogg
179,192,81600,1,0,0:0:0:0:s_037.ogg
281,192,81600,1,0,0:0:0:0:s_054.ogg
25,192,81900,1,0,0:0:0:0:m_031.ogg
486,192,81900,1,0,0:0:0:0:s_078.ogg
128,192,81950,1,0,0:0:0:0:s_035.ogg
76,192,82200,1,0,0:0:0:0:s_034.ogg
281,192,82200,1,0,0:0:0:0:s_054.ogg
128,192,82500,1,0,0:0:0:0:s_035.ogg
486,192,82500,1,0,0:0:0:0:s_078.ogg
179,192,82800,1,0,0:0:0:0:m_034.ogg
230,192,82800,1,0,0:0:0:0:m_037.ogg
281,192,82800,1,0,0:0:0:0:s_054.ogg
128,192,83100,1,0,0:0:0:0:m_030.ogg
486,192,83100,1,0,0:0:0:0:s_078.ogg
281,192,83400,1,0,0:0:0:0:s_054.ogg
179,192,83625,1,0,0:0:0:0:m_042.ogg
230,192,83700,1,0,0:0:0:0:s_054.ogg
486,192,83700,1,0,0:0:0:0:s_078.ogg
230,192,84000,1,0,0:0:0:0:s_054.ogg
179,192,84300,1,0,0:0:0:0:s_052.ogg
486,192,84300,1,0,0:0:0:0:s_078.ogg
25,192,84600,1,0,0:0:0:0:m_035.ogg
281,192,84600,1,0,0:0:0:0:s_054.ogg
128,192,84650,1,0,0:0:0:0:s_050.ogg
128,192,84900,1,0,0:0:0:0:s_050.ogg
486,192,84900,1,0,0:0:0:0:s_078.ogg
76,192,85200,1,0,0:0:0:0:s_049.ogg
281,192,85200,1,0,0:0:0:0:s_054.ogg
25,192,85500,1,0,0:0:0:0:m_038.ogg
486,192,85500,1,0,0:0:0:0:s_078.ogg
179,192,85550,1,0,0:0:0:0:s_047.ogg
128,192,85800,1,0,0:0:0:0:s_046.ogg
281,192,85800,1,0,0:0:0:0:s_054.ogg
179,192,86100,1,0,0:0:0:0:s_047.ogg
486,192,86100,1,0,0:0:0:0:s_078.ogg
128,192,86400,1,0,0:0:0:0:m_046.ogg
281,192,86400,1,0,0:0:0:0:s_054.ogg
230,192,86450,1,0,0:0:0:0:s_049.ogg
76,192,86700,1,0,0:0:0:0:m_042.ogg
486,192,86700,1,0,0:0:0:0:s_078.ogg
281,192,87000,1,0,0:0:0:0:m_054.ogg
76,192,87300,1,0,0:0:0:0:m_047.ogg
179,192,87300,1,0,0:0:0:0:m_049.ogg
384,192,87300,1,0,0:0:0:0:m_055.ogg
76,192,87600,1,0,0:0:0:0:m_047.ogg
179,192,87600,1,0,0:0:0:0:m_049.ogg
332,192,87600,1,0,0:0:0:0:m_054.ogg
76,192,87900,1,0,0:0:0:0:m_047.ogg
179,192,87900,1,0,0:0:0:0:m_049.ogg
281,192,87900,1,0,0:0:0:0:m_052.ogg
76,192,88200,1,0,0:0:0:0:m_047.ogg
230,192,88200,1,0,0:0:0:0:m_050.ogg
332,192,88200,1,0,0:0:0:0:m_054.ogg
384,192,88500,1,0,0:0:0:0:s_059.ogg
435,192,88650,1,0,0:0:0:0:s_062.ogg
486,192,88800,1,0,0:0:0:0:m_066.ogg
25,192,89100,1,0,0:0:0:0:m_052.ogg
179,192,89100,1,0,0:0:0:0:m_042.ogg
281,192,89100,1,0,0:0:0:0:m_046.ogg
332,192,89400,1,0,0:0:0:0:s_058.ogg
384,192,89550,1,0,0:0:0:0:s_061.ogg
435,192,89700,1,0,0:0:0:0:m_066.ogg
128,192,90000,128,0,91200:0:0:0:0:m_023.ogg
