osu file format v14

[General]
AudioFilename: virtual
AudioLeadIn: 0
PreviewTime: 0
Countdown: 0
SampleSet: Soft
StackLeniency: 0.7
Mode: 3
LetterboxInBreaks: 0
SpecialStyle: 0
WidescreenStoryboard: 1

[Editor]
DistanceSpacing: 0.8
BeatDivisor: 4
GridSize: 32
TimelineZoom: 3.200005

[Metadata]
Title:Piano Beatmap Set
TitleUnicode:Piano Beatmap Set
Artist:Collection
ArtistUnicode:Collection
Creator:CircusGalop
Version:Hungarian Rhapsody - 5K Full
Source:BMS
Tags:
BeatmapID:1341463
BeatmapSetID:332673

[Difficulty]
HPDrainRate:9
CircleSize:5
OverallDifficulty:5
ApproachRate:5
SliderMultiplier:1.4
SliderTickRate:1

[Events]
//Background and Video events
0,0,"CircusGalop.jpg",0,0
//Break Periods
//Storyboard Layer 0 (Background)
//Storyboard Layer 1 (Fail)
//Storyboard Layer 2 (Pass)
//Storyboard Layer 3 (Foreground)
//Storyboard Sound Samples
Sample,33933,0,"m_040.ogg",100
Sample,34433,0,"s_040.ogg",100
Sample,34766,0,"s_044.ogg",100
Sample,35266,0,"m_040.ogg",100
Sample,35766,0,"s_036.ogg",100
Sample,36100,0,"s_036.ogg",100
Sample,36600,0,"m_040.ogg",100
Sample,37100,0,"s_040.ogg",100
Sample,37433,0,"s_040.ogg",100
Sample,37933,0,"m_048.ogg",100
Sample,38433,0,"s_040.ogg",100
Sample,38766,0,"s_036.ogg",100
Sample,39266,0,"m_040.ogg",100
Sample,39933,0,"m_044.ogg",100
Sample,40600,0,"m_040.ogg",100
Sample,41266,0,"m_040.ogg",100
Sample,41766,0,"s_040.ogg",100
Sample,42100,0,"s_044.ogg",100
Sample,42433,0,"s_044.ogg",100
Sample,42766,0,"s_044.ogg",100
Sample,43100,0,"s_045.ogg",100
Sample,43433,0,"s_045.ogg",100
Sample,43766,0,"s_045.ogg",100
Sample,44100,0,"s_040.ogg",100
Sample,44433,0,"s_044.ogg",100
Sample,44766,0,"s_044.ogg",100
Sample,45100,0,"s_044.ogg",100
Sample,45433,0,"s_044.ogg",100
Sample,45766,0,"s_040.ogg",100
Sample,46100,0,"s_045.ogg",100
Sample,46433,0,"s_045.ogg",100
Sample,46766,0,"s_045.ogg",100
Sample,46933,0,"s_035.ogg",100
Sample,46933,0,"s_023.ogg",100
Sample,47183,0,"s_035.ogg",100
Sample,47183,0,"s_044.ogg",100
Sample,47183,0,"s_040.ogg",100
Sample,47433,0,"s_028.ogg",100
Sample,47433,0,"s_016.ogg",100
Sample,47683,0,"s_035.ogg",100
Sample,47933,0,"s_023.ogg",100
Sample,47933,0,"s_035.ogg",100
Sample,48183,0,"s_035.ogg",100
Sample,48183,0,"s_040.ogg",100
Sample,48183,0,"s_044.ogg",100
Sample,48433,0,"s_016.ogg",100
Sample,48433,0,"s_028.ogg",100
Sample,48683,0,"s_040.ogg",100
Sample,48933,0,"s_033.ogg",100
Sample,48933,0,"s_021.ogg",100
Sample,49133,0,"s_040.ogg",100
Sample,49133,0,"s_045.ogg",100
Sample,49133,0,"s_037.ogg",100
Sample,49333,0,"s_028.ogg",100
Sample,49333,0,"s_016.ogg",100
Sample,49533,0,"s_040.ogg",100
Sample,49633,0,"s_061.ogg",100
Sample,49733,0,"s_033.ogg",100
Sample,49733,0,"s_021.ogg",100
Sample,49933,0,"s_037.ogg",100
Sample,49933,0,"s_045.ogg",100
Sample,49933,0,"s_040.ogg",100
Sample,50133,0,"s_016.ogg",100
Sample,50133,0,"s_028.ogg",100
Sample,50333,0,"s_045.ogg",100
Sample,50433,0,"s_052.ogg",100
Sample,50533,0,"s_035.ogg",100
Sample,50700,0,"s_044.ogg",100
Sample,50700,0,"s_040.ogg",100
Sample,50866,0,"s_016.ogg",100
Sample,50866,0,"s_028.ogg",100
Sample,51033,0,"s_040.ogg",100
Sample,51116,0,"s_064.ogg",100
Sample,51200,0,"s_035.ogg",100
Sample,51366,0,"s_038.ogg",100
Sample,51366,0,"s_040.ogg",100
Sample,51366,0,"s_044.ogg",100
Sample,51533,0,"s_016.ogg",100
Sample,51533,0,"s_028.ogg",100
Sample,51700,0,"s_038.ogg",100
Sample,51783,0,"s_064.ogg",100
Sample,51866,0,"s_033.ogg",100
Sample,51866,0,"s_021.ogg",100
Sample,52033,0,"s_040.ogg",100
Sample,52033,0,"s_045.ogg",100
Sample,52033,0,"s_037.ogg",100
Sample,52200,0,"s_016.ogg",100
Sample,52200,0,"s_028.ogg",100
Sample,52366,0,"s_040.ogg",100
Sample,52533,0,"s_021.ogg",100
Sample,52533,0,"s_033.ogg",100
Sample,52700,0,"s_037.ogg",100
Sample,52700,0,"s_045.ogg",100
Sample,52700,0,"s_040.ogg",100
Sample,52866,0,"s_016.ogg",100
Sample,52866,0,"s_028.ogg",100
Sample,53033,0,"s_040.ogg",100
Sample,53200,0,"s_035.ogg",100
Sample,53366,0,"s_040.ogg",100
Sample,53533,0,"s_028.ogg",100
Sample,53700,0,"s_044.ogg",100
Sample,53866,0,"s_023.ogg",100
Sample,54033,0,"s_040.ogg",100
Sample,54033,0,"s_035.ogg",100
Sample,54200,0,"s_016.ogg",100
Sample,54366,0,"s_040.ogg",100
Sample,54533,0,"s_033.ogg",100
Sample,54700,0,"s_045.ogg",100
Sample,54700,0,"s_037.ogg",100
Sample,54700,0,"s_040.ogg",100
Sample,54866,0,"s_028.ogg",100
Sample,55033,0,"s_037.ogg",100
Sample,55116,0,"s_064.ogg",100
Sample,55200,0,"s_021.ogg",100
Sample,55366,0,"s_045.ogg",100
Sample,55366,0,"s_040.ogg",100
Sample,55366,0,"s_037.ogg",100
Sample,55533,0,"s_016.ogg",100
Sample,55700,0,"s_045.ogg",100
Sample,55783,0,"s_052.ogg",100
Sample,56033,0,"s_040.ogg",100
Sample,56033,0,"s_044.ogg",100
Sample,56200,0,"s_028.ogg",100
Sample,56366,0,"s_040.ogg",100
Sample,56450,0,"s_059.ogg",100
Sample,56700,0,"s_044.ogg",100
Sample,56700,0,"s_035.ogg",100
Sample,56700,0,"s_040.ogg",100
Sample,56866,0,"s_016.ogg",100
Sample,57033,0,"s_040.ogg",100
Sample,57116,0,"s_064.ogg",100
Sample,57200,0,"s_051.ogg",100
Sample,57366,0,"s_037.ogg",100
Sample,57366,0,"s_045.ogg",100
Sample,57366,0,"s_040.ogg",100
Sample,57533,0,"s_028.ogg",100
Sample,57700,0,"s_045.ogg",100
Sample,57866,0,"s_021.ogg",100
Sample,58033,0,"s_045.ogg",100
Sample,58033,0,"s_040.ogg",100
Sample,58033,0,"s_037.ogg",100
Sample,58200,0,"s_016.ogg",100
Sample,58366,0,"s_037.ogg",100
Sample,58533,0,"s_033.ogg",100
Sample,58700,0,"s_038.ogg",100
Sample,59033,0,"s_045.ogg",100
Sample,59366,0,"s_042.ogg",100
Sample,59700,0,"s_045.ogg",100
Sample,59866,0,"s_033.ogg",100
Sample,60033,0,"s_037.ogg",100
Sample,60366,0,"s_040.ogg",100
Sample,60700,0,"s_037.ogg",100
Sample,60866,0,"s_028.ogg",100
Sample,61366,0,"s_042.ogg",100
Sample,61700,0,"s_042.ogg",100
Sample,62033,0,"s_042.ogg",100
Sample,62366,0,"s_045.ogg",100
Sample,62533,0,"s_033.ogg",100
Sample,62700,0,"s_037.ogg",100
Sample,63033,0,"s_045.ogg",100
Sample,63366,0,"s_037.ogg",100
Sample,63533,0,"s_028.ogg",100
Sample,64033,0,"s_044.ogg",100
Sample,64366,0,"s_040.ogg",100
Sample,64700,0,"s_052.ogg",100
Sample,65033,0,"s_056.ogg",100
Sample,65366,0,"s_040.ogg",100
Sample,65366,0,"s_037.ogg",100
Sample,65700,0,"s_037.ogg",100
Sample,65700,0,"s_040.ogg",100
Sample,66033,0,"s_057.ogg",100
Sample,66366,0,"s_057.ogg",100
Sample,66700,0,"s_040.ogg",100
Sample,67033,0,"s_044.ogg",100
Sample,67366,0,"s_056.ogg",100
Sample,67700,0,"s_052.ogg",100
Sample,68033,0,"s_045.ogg",100
Sample,68033,0,"s_040.ogg",100
Sample,68366,0,"s_040.ogg",100
Sample,68366,0,"s_045.ogg",100
Sample,68700,0,"s_057.ogg",100
Sample,69033,0,"s_052.ogg",100
Sample,69366,0,"s_050.ogg",100
Sample,69700,0,"s_054.ogg",100
Sample,70033,0,"s_054.ogg",100
Sample,70366,0,"s_057.ogg",100
Sample,70700,0,"s_052.ogg",100
Sample,71033,0,"s_057.ogg",100
Sample,71366,0,"s_057.ogg",100
Sample,71700,0,"s_052.ogg",100
Sample,72033,0,"s_054.ogg",100
Sample,72366,0,"s_054.ogg",100
Sample,72700,0,"s_057.ogg",100
Sample,73033,0,"s_054.ogg",100
Sample,73366,0,"s_052.ogg",100
Sample,73700,0,"s_052.ogg",100
Sample,74033,0,"s_052.ogg",100
Sample,74366,0,"s_057.ogg",100
Sample,74700,0,"s_039.ogg",100
Sample,75033,0,"s_043.ogg",100
Sample,75366,0,"s_048.ogg",100
Sample,75700,0,"s_046.ogg",100
Sample,76033,0,"s_044.ogg",100
Sample,76200,0,"s_043.ogg",100
Sample,76366,0,"s_042.ogg",100
Sample,76700,0,"s_041.ogg",100
Sample,76866,0,"s_040.ogg",100
Sample,77033,0,"s_039.ogg",100
Sample,77366,0,"s_039.ogg",100
Sample,77700,0,"s_043.ogg",100
Sample,78033,0,"s_048.ogg",100
Sample,78366,0,"s_046.ogg",100
Sample,78700,0,"s_044.ogg",100
Sample,78866,0,"s_043.ogg",100
Sample,79033,0,"s_042.ogg",100
Sample,79366,0,"s_041.ogg",100
Sample,79533,0,"s_040.ogg",100
Sample,79700,0,"s_039.ogg",100
Sample,80033,0,"s_040.ogg",100
Sample,80366,0,"s_044.ogg",100
Sample,80533,0,"s_047.ogg",100
Sample,80700,0,"s_044.ogg",100
Sample,80866,0,"m_047.ogg",100
Sample,80866,0,"m_050.ogg",100
Sample,81366,0,"s_045.ogg",100
Sample,81700,0,"s_040.ogg",100
Sample,81866,0,"s_051.ogg",100
Sample,82033,0,"s_052.ogg",100
Sample,82200,0,"m_045.ogg",100
Sample,82200,0,"m_064.ogg",100
Sample,82700,0,"s_044.ogg",100
Sample,83033,0,"s_040.ogg",100
Sample,83200,0,"s_047.ogg",100
Sample,83366,0,"s_044.ogg",100
Sample,83533,0,"m_047.ogg",100
Sample,83533,0,"m_050.ogg",100
Sample,84033,0,"s_040.ogg",100
Sample,84366,0,"s_040.ogg",100
Sample,84533,0,"s_048.ogg",100
Sample,84700,0,"s_049.ogg",100
Sample,84866,0,"m_057.ogg",100
Sample,84866,0,"m_049.ogg",100
Sample,85366,0,"s_040.ogg",100
Sample,85700,0,"s_040.ogg",100
Sample,86033,0,"s_044.ogg",100
Sample,86366,0,"s_044.ogg",100
Sample,86700,0,"s_040.ogg",100
Sample,87033,0,"s_045.ogg",100
Sample,87366,0,"s_045.ogg",100
Sample,87700,0,"s_045.ogg",100
Sample,88033,0,"s_044.ogg",100
Sample,88366,0,"s_040.ogg",100
Sample,88700,0,"s_044.ogg",100
Sample,89033,0,"s_040.ogg",100
Sample,89366,0,"s_040.ogg",100
Sample,89700,0,"s_040.ogg",100
Sample,90033,0,"s_040.ogg",100
Sample,90366,0,"s_045.ogg",100
Sample,90700,0,"s_044.ogg",100
Sample,91033,0,"s_044.ogg",100
Sample,91366,0,"s_040.ogg",100
Sample,91700,0,"s_050.ogg",100
Sample,92033,0,"s_040.ogg",100
Sample,93366,0,"s_038.ogg",100
Sample,93700,0,"s_038.ogg",100
Sample,94033,0,"s_038.ogg",100
Sample,94366,0,"s_038.ogg",100
Sample,94700,0,"s_037.ogg",100
Sample,95033,0,"s_037.ogg",100
Sample,95366,0,"s_037.ogg",100
Sample,95700,0,"s_037.ogg",100
Sample,96033,0,"s_035.ogg",100
Sample,97366,0,"s_044.ogg",100
Sample,98700,0,"s_035.ogg",100
Sample,99033,0,"s_033.ogg",100
Sample,99366,0,"s_039.ogg",100
Sample,100033,0,"s_044.ogg",100
Sample,100700,0,"s_035.ogg",100
Sample,101366,0,"s_039.ogg",100
Sample,102700,0,"s_035.ogg",100
Sample,104033,0,"s_033.ogg",100
Sample,104366,0,"s_033.ogg",100
Sample,104700,0,"s_035.ogg",100
Sample,105200,0,"s_040.ogg",100
Sample,105200,0,"s_028.ogg",100
Sample,105200,0,"s_035.ogg",100
Sample,105366,0,"s_041.ogg",100
Sample,105533,0,"s_039.ogg",100
Sample,105700,0,"s_028.ogg",100
Sample,105866,0,"s_026.ogg",100
Sample,106033,0,"s_039.ogg",100
Sample,106200,0,"s_025.ogg",100
Sample,106366,0,"s_026.ogg",100
Sample,106533,0,"s_036.ogg",100
Sample,106700,0,"s_025.ogg",100
Sample,106866,0,"s_035.ogg",100
Sample,107033,0,"s_024.ogg",100
Sample,107200,0,"s_022.ogg",100
Sample,107366,0,"s_035.ogg",100
Sample,107533,0,"s_021.ogg",100
Sample,107700,0,"s_034.ogg",100
Sample,107866,0,"s_020.ogg",100
Sample,108033,0,"s_021.ogg",100
Sample,108200,0,"s_019.ogg",100
Sample,108366,0,"s_020.ogg",100
Sample,108533,0,"s_018.ogg",100
Sample,108700,0,"s_019.ogg",100
Sample,108866,0,"s_017.ogg",100
Sample,109033,0,"s_018.ogg",100
Sample,109200,0,"s_028.ogg",100
Sample,109366,0,"s_017.ogg",100
Sample,109533,0,"s_023.ogg",100
Sample,109533,0,"s_028.ogg",100
Sample,109700,0,"s_029.ogg",100
Sample,109866,0,"s_028.ogg",100
Sample,109866,0,"s_023.ogg",100
Sample,110033,0,"s_029.ogg",100
Sample,110200,0,"s_028.ogg",100
Sample,110200,0,"s_021.ogg",100
Sample,110366,0,"s_017.ogg",100
Sample,110533,0,"s_023.ogg",100
Sample,110533,0,"s_016.ogg",100
Sample,110700,0,"s_039.ogg",100
Sample,110866,0,"s_040.ogg",100
Sample,111033,0,"s_027.ogg",100
Sample,111200,0,"s_040.ogg",100
Sample,111366,0,"s_015.ogg",100
Sample,111533,0,"s_016.ogg",100
Sample,111700,0,"s_015.ogg",100
Sample,111866,0,"m_016.ogg",100
Sample,112033,0,"s_035.ogg",100
Sample,112033,0,"s_032.ogg",100
Sample,112200,0,"m_020.ogg",100
Sample,112366,0,"s_040.ogg",100
Sample,112366,0,"s_035.ogg",100
Sample,112533,0,"m_025.ogg",100
Sample,112700,0,"s_044.ogg",100
Sample,112700,0,"s_040.ogg",100
Sample,112866,0,"s_040.ogg",100
Sample,112866,0,"s_044.ogg",100
Sample,113033,0,"s_023.ogg",100
Sample,113200,0,"s_028.ogg",100
Sample,113200,0,"s_033.ogg",100
Sample,113200,0,"s_021.ogg",100
Sample,113366,0,"s_032.ogg",100
Sample,113533,0,"s_031.ogg",100
Sample,113720,0,"s_021.ogg",100
Sample,113741,0,"s_025.ogg",100
Sample,113762,0,"s_030.ogg",100
Sample,113866,0,"s_029.ogg",100
Sample,114054,0,"s_021.ogg",100
Sample,114075,0,"s_025.ogg",100
Sample,114095,0,"s_028.ogg",100
Sample,114200,0,"s_015.ogg",100
Sample,114366,0,"s_016.ogg",100
Sample,114533,0,"m_028.ogg",100
Sample,114700,0,"s_035.ogg",100
Sample,114700,0,"s_032.ogg",100
Sample,114866,0,"m_020.ogg",100
Sample,115033,0,"s_035.ogg",100
Sample,115033,0,"s_040.ogg",100
Sample,115200,0,"m_025.ogg",100
Sample,115366,0,"s_044.ogg",100
Sample,115366,0,"s_040.ogg",100
Sample,115533,0,"s_040.ogg",100
Sample,115533,0,"s_044.ogg",100
Sample,115700,0,"s_023.ogg",100
Sample,115866,0,"s_021.ogg",100
Sample,115866,0,"s_028.ogg",100
Sample,115866,0,"s_025.ogg",100
Sample,116033,0,"s_020.ogg",100
Sample,116200,0,"s_030.ogg",100
Sample,116366,0,"s_025.ogg",100
Sample,116366,0,"s_021.ogg",100
Sample,116366,0,"s_016.ogg",100
Sample,116533,0,"m_028.ogg",100
Sample,116533,0,"m_025.ogg",100
Sample,116533,0,"m_033.ogg",100
Sample,116866,0,"m_025.ogg",100
Sample,116866,0,"m_033.ogg",100
Sample,116866,0,"m_037.ogg",100
Sample,117200,0,"s_028.ogg",100
Sample,117200,0,"s_062.ogg",100
Sample,117366,0,"s_064.ogg",100
Sample,117366,0,"s_040.ogg",100
Sample,117533,0,"s_035.ogg",100
Sample,117533,0,"s_068.ogg",100
Sample,117700,0,"s_064.ogg",100
Sample,117700,0,"s_044.ogg",100
Sample,117866,0,"s_028.ogg",100
Sample,117866,0,"s_068.ogg",100
Sample,118033,0,"m_037.ogg",100
Sample,118033,0,"s_064.ogg",100
Sample,118200,0,"s_068.ogg",100
Sample,118366,0,"s_071.ogg",100
Sample,118366,0,"s_047.ogg",100
Sample,118533,0,"s_061.ogg",100
Sample,118533,0,"s_045.ogg",100
Sample,118700,0,"s_064.ogg",100
Sample,118700,0,"s_044.ogg",100
Sample,118866,0,"s_043.ogg",100
Sample,118866,0,"s_069.ogg",100
Sample,119033,0,"s_042.ogg",100
Sample,119033,0,"s_064.ogg",100
Sample,119200,0,"s_061.ogg",100
Sample,119200,0,"s_041.ogg",100
Sample,119366,0,"s_064.ogg",100
Sample,119366,0,"s_040.ogg",100
Sample,119533,0,"s_037.ogg",100
Sample,119533,0,"s_063.ogg",100
Sample,119700,0,"s_033.ogg",100
Sample,119700,0,"s_073.ogg",100
Sample,119866,0,"s_068.ogg",100
Sample,119866,0,"s_028.ogg",100
Sample,120033,0,"s_040.ogg",100
Sample,120033,0,"s_064.ogg",100
Sample,120200,0,"s_023.ogg",100
Sample,120200,0,"s_063.ogg",100
Sample,120366,0,"s_071.ogg",100
Sample,120366,0,"s_044.ogg",100
Sample,120533,0,"s_040.ogg",100
Sample,120533,0,"s_068.ogg",100
Sample,120700,0,"m_037.ogg",100
Sample,120700,0,"s_064.ogg",100
Sample,120866,0,"s_068.ogg",100
Sample,121033,0,"s_071.ogg",100
Sample,121033,0,"s_035.ogg",100
Sample,121200,0,"s_045.ogg",100
Sample,121200,0,"s_033.ogg",100
Sample,121366,0,"s_032.ogg",100
Sample,121366,0,"s_044.ogg",100
Sample,121533,0,"s_031.ogg",100
Sample,121533,0,"s_043.ogg",100
Sample,121700,0,"s_030.ogg",100
Sample,121700,0,"s_042.ogg",100
Sample,121866,0,"s_029.ogg",100
Sample,121866,0,"s_041.ogg",100
Sample,122033,0,"s_028.ogg",100
Sample,122033,0,"s_040.ogg",100
Sample,122200,0,"s_039.ogg",100
Sample,122200,0,"s_027.ogg",100
Sample,122366,0,"s_040.ogg",100
Sample,122366,0,"s_028.ogg",100
Sample,122700,0,"s_047.ogg",100
Sample,122700,0,"s_040.ogg",100
Sample,123033,0,"s_044.ogg",100
Sample,123033,0,"s_040.ogg",100
Sample,123200,0,"s_051.ogg",100
Sample,123366,0,"s_052.ogg",100
Sample,123533,0,"m_050.ogg",100
Sample,123533,0,"m_047.ogg",100
Sample,124033,0,"s_045.ogg",100
Sample,124033,0,"s_040.ogg",100
Sample,124366,0,"s_040.ogg",100
Sample,124366,0,"s_045.ogg",100
Sample,124533,0,"s_051.ogg",100
Sample,124700,0,"s_052.ogg",100
Sample,124866,0,"m_045.ogg",100
Sample,124866,0,"m_049.ogg",100
Sample,125366,0,"s_040.ogg",100
Sample,125700,0,"s_040.ogg",100
Sample,125866,0,"s_051.ogg",100
Sample,126033,0,"s_052.ogg",100
Sample,126200,0,"m_047.ogg",100
Sample,126200,0,"m_050.ogg",100
Sample,126700,0,"s_045.ogg",100
Sample,127033,0,"s_040.ogg",100
Sample,127200,0,"s_048.ogg",100
Sample,127366,0,"s_049.ogg",100
Sample,127533,0,"m_049.ogg",100
Sample,127533,0,"m_045.ogg",100
Sample,128033,0,"s_054.ogg",100
Sample,128366,0,"s_054.ogg",100
Sample,128700,0,"s_057.ogg",100
Sample,129033,0,"s_057.ogg",100
Sample,129366,0,"s_052.ogg",100
Sample,129700,0,"s_057.ogg",100
Sample,130033,0,"s_052.ogg",100
Sample,130366,0,"s_052.ogg",100
Sample,130700,0,"s_050.ogg",100
Sample,131033,0,"s_054.ogg",100
Sample,131366,0,"s_057.ogg",100
Sample,131700,0,"s_054.ogg",100
Sample,132033,0,"s_052.ogg",100
Sample,132366,0,"s_052.ogg",100
Sample,132700,0,"s_052.ogg",100
Sample,138700,0,"s_044.ogg",100
Sample,139033,0,"s_040.ogg",100
Sample,139366,0,"s_038.ogg",100
Sample,139700,0,"s_038.ogg",100
Sample,140033,0,"s_037.ogg",100
Sample,140366,0,"s_040.ogg",100
Sample,140700,0,"s_037.ogg",100
Sample,141033,0,"s_037.ogg",100
Sample,141366,0,"s_044.ogg",100
Sample,141700,0,"s_040.ogg",100
Sample,142033,0,"s_038.ogg",100
Sample,142366,0,"s_038.ogg",100
Sample,142700,0,"s_045.ogg",100
Sample,143033,0,"s_040.ogg",100
Sample,143366,0,"s_037.ogg",100
Sample,143700,0,"s_040.ogg",100
Sample,149366,0,"s_045.ogg",100
Sample,149366,0,"s_035.ogg",100
Sample,149700,0,"s_035.ogg",100
Sample,149700,0,"s_039.ogg",100
Sample,150033,0,"s_035.ogg",100
Sample,150033,0,"s_039.ogg",100
Sample,150366,0,"s_039.ogg",100
Sample,150366,0,"s_045.ogg",100
Sample,150700,0,"s_040.ogg",100
Sample,150700,0,"s_044.ogg",100
Sample,151033,0,"s_040.ogg",100
Sample,151033,0,"s_035.ogg",100
Sample,151366,0,"s_040.ogg",100
Sample,151366,0,"s_044.ogg",100
Sample,151700,0,"s_040.ogg",100
Sample,151700,0,"s_035.ogg",100
Sample,152033,0,"s_035.ogg",100
Sample,152033,0,"s_045.ogg",100
Sample,152366,0,"s_035.ogg",100
Sample,152366,0,"s_039.ogg",100
Sample,152700,0,"s_039.ogg",100
Sample,152700,0,"s_035.ogg",100
Sample,153033,0,"s_039.ogg",100
Sample,153033,0,"s_035.ogg",100
Sample,153366,0,"s_044.ogg",100
Sample,153366,0,"s_035.ogg",100
Sample,153700,0,"s_040.ogg",100
Sample,153700,0,"s_035.ogg",100
Sample,154033,0,"s_035.ogg",100
Sample,154033,0,"s_044.ogg",100
Sample,154366,0,"s_044.ogg",100
Sample,154366,0,"s_035.ogg",100
Sample,154700,0,"s_039.ogg",100
Sample,154700,0,"s_035.ogg",100
Sample,155033,0,"s_045.ogg",100
Sample,155033,0,"s_039.ogg",100
Sample,155366,0,"s_039.ogg",100
Sample,155366,0,"s_035.ogg",100
Sample,155700,0,"s_035.ogg",100
Sample,155700,0,"s_039.ogg",100
Sample,156033,0,"s_035.ogg",100
Sample,156033,0,"s_044.ogg",100
Sample,156366,0,"s_035.ogg",100
Sample,156366,0,"s_040.ogg",100
Sample,156700,0,"s_044.ogg",100
Sample,156700,0,"s_040.ogg",100
Sample,157033,0,"s_035.ogg",100
Sample,157033,0,"s_044.ogg",100
Sample,157366,0,"s_035.ogg",100
Sample,157366,0,"s_045.ogg",100
Sample,157700,0,"s_035.ogg",100
Sample,157700,0,"s_039.ogg",100
Sample,158033,0,"s_045.ogg",100
Sample,158033,0,"s_035.ogg",100
Sample,158366,0,"s_035.ogg",100
Sample,158366,0,"s_045.ogg",100
Sample,158533,0,"s_040.ogg",100
Sample,158533,0,"s_028.ogg",100
Sample,158700,0,"s_039.ogg",100
Sample,158700,0,"s_027.ogg",100
Sample,158866,0,"s_026.ogg",100
Sample,158866,0,"s_038.ogg",100
Sample,159033,0,"s_025.ogg",100
Sample,159033,0,"s_037.ogg",100
Sample,159200,0,"s_036.ogg",100
Sample,159200,0,"s_024.ogg",100
Sample,159366,0,"s_037.ogg",100
Sample,159366,0,"s_025.ogg",100
Sample,159533,0,"s_026.ogg",100
Sample,159533,0,"s_038.ogg",100
Sample,159700,0,"s_039.ogg",100
Sample,159700,0,"s_027.ogg",100
Sample,159866,0,"s_026.ogg",100
Sample,159866,0,"s_038.ogg",100
Sample,160033,0,"s_037.ogg",100
Sample,160033,0,"s_025.ogg",100
Sample,160200,0,"s_024.ogg",100
Sample,160200,0,"s_036.ogg",100
Sample,160366,0,"s_023.ogg",100
Sample,160366,0,"s_035.ogg",100
Sample,160533,0,"s_022.ogg",100
Sample,160533,0,"s_034.ogg",100
Sample,160700,0,"s_023.ogg",100
Sample,160700,0,"s_035.ogg",100
Sample,160866,0,"s_024.ogg",100
Sample,160866,0,"s_036.ogg",100
Sample,161033,0,"s_025.ogg",100
Sample,161033,0,"s_037.ogg",100
Sample,161200,0,"s_024.ogg",100
Sample,161200,0,"s_036.ogg",100
Sample,161366,0,"s_023.ogg",100
Sample,161366,0,"s_035.ogg",100
Sample,161533,0,"s_034.ogg",100
Sample,161533,0,"s_022.ogg",100
Sample,161700,0,"s_021.ogg",100
Sample,161700,0,"s_033.ogg",100
Sample,161866,0,"s_032.ogg",100
Sample,161866,0,"s_020.ogg",100
Sample,162033,0,"s_021.ogg",100
Sample,162033,0,"s_033.ogg",100
Sample,162200,0,"s_022.ogg",100
Sample,162200,0,"s_034.ogg",100
Sample,162366,0,"s_035.ogg",100
Sample,162366,0,"s_023.ogg",100
Sample,162533,0,"s_034.ogg",100
Sample,162533,0,"s_022.ogg",100
Sample,162700,0,"s_033.ogg",100
Sample,162700,0,"s_021.ogg",100
Sample,162866,0,"s_032.ogg",100
Sample,162866,0,"s_020.ogg",100
Sample,163033,0,"s_019.ogg",100
Sample,163033,0,"s_031.ogg",100
Sample,163200,0,"s_018.ogg",100
Sample,163200,0,"s_030.ogg",100
Sample,163366,0,"s_017.ogg",100
Sample,163366,0,"s_029.ogg",100
Sample,163533,0,"s_016.ogg",100
Sample,163533,0,"s_028.ogg",100
Sample,163700,0,"s_027.ogg",100
Sample,163700,0,"s_015.ogg",100
Sample,163866,0,"s_014.ogg",100
Sample,163866,0,"s_026.ogg",100
Sample,164033,0,"s_013.ogg",100
Sample,164033,0,"s_025.ogg",100
Sample,164200,0,"s_012.ogg",100
Sample,164200,0,"s_024.ogg",100
Sample,164366,0,"s_013.ogg",100
Sample,164366,0,"s_025.ogg",100
Sample,164533,0,"s_026.ogg",100
Sample,164533,0,"s_014.ogg",100
Sample,164700,0,"s_015.ogg",100
Sample,164700,0,"s_027.ogg",100
Sample,164866,0,"s_028.ogg",100
Sample,164866,0,"s_016.ogg",100
Sample,165033,0,"s_029.ogg",100
Sample,165033,0,"s_017.ogg",100
Sample,165200,0,"s_030.ogg",100
Sample,165200,0,"s_018.ogg",100
Sample,165366,0,"s_031.ogg",100
Sample,165366,0,"s_019.ogg",100
Sample,165533,0,"s_032.ogg",100
Sample,165533,0,"s_020.ogg",100
Sample,165700,0,"s_031.ogg",100
Sample,165700,0,"s_019.ogg",100
Sample,165866,0,"s_018.ogg",100
Sample,165866,0,"s_030.ogg",100
Sample,166033,0,"s_029.ogg",100
Sample,166033,0,"s_017.ogg",100
Sample,166200,0,"s_028.ogg",100
Sample,166200,0,"s_016.ogg",100
Sample,166366,0,"s_027.ogg",100
Sample,166366,0,"s_015.ogg",100
Sample,166533,0,"s_014.ogg",100
Sample,166533,0,"s_026.ogg",100
Sample,166700,0,"s_025.ogg",100
Sample,166700,0,"s_013.ogg",100
Sample,166866,0,"s_012.ogg",100
Sample,166866,0,"s_024.ogg",100
Sample,167033,0,"s_013.ogg",100
Sample,167033,0,"s_025.ogg",100
Sample,167200,0,"s_026.ogg",100
Sample,167200,0,"s_014.ogg",100
Sample,167366,0,"s_015.ogg",100
Sample,167366,0,"s_027.ogg",100
Sample,167533,0,"s_016.ogg",100
Sample,167533,0,"s_023.ogg",100
Sample,167700,0,"s_017.ogg",100
Sample,167866,0,"s_023.ogg",100
Sample,167866,0,"s_016.ogg",100
Sample,168033,0,"s_029.ogg",100
Sample,168200,0,"s_023.ogg",100
Sample,168200,0,"s_028.ogg",100
Sample,168366,0,"s_029.ogg",100
Sample,168533,0,"s_023.ogg",100
Sample,168533,0,"s_028.ogg",100
Sample,168700,0,"s_039.ogg",100
Sample,168866,0,"s_028.ogg",100
Sample,169033,0,"s_027.ogg",100
Sample,169200,0,"s_040.ogg",100
Sample,169366,0,"s_016.ogg",100
Sample,169533,0,"s_029.ogg",100
Sample,169700,0,"s_018.ogg",100
Sample,169866,0,"m_031.ogg",100
Sample,170033,0,"s_035.ogg",100
Sample,170033,0,"s_038.ogg",100
Sample,170200,0,"m_035.ogg",100
Sample,170366,0,"s_043.ogg",100
Sample,170366,0,"s_038.ogg",100
Sample,170533,0,"m_040.ogg",100
Sample,170700,0,"s_047.ogg",100
Sample,170700,0,"s_043.ogg",100
Sample,170866,0,"s_043.ogg",100
Sample,170866,0,"s_047.ogg",100
Sample,171033,0,"s_038.ogg",100
Sample,171200,0,"s_031.ogg",100
Sample,171200,0,"s_028.ogg",100
Sample,171200,0,"s_024.ogg",100
Sample,171366,0,"s_035.ogg",100
Sample,171533,0,"s_022.ogg",100
Sample,171720,0,"s_024.ogg",100
Sample,171741,0,"s_028.ogg",100
Sample,171762,0,"s_033.ogg",100
Sample,171866,0,"s_020.ogg",100
Sample,172054,0,"s_024.ogg",100
Sample,172075,0,"s_028.ogg",100
Sample,172095,0,"s_031.ogg",100
Sample,172200,0,"s_018.ogg",100
Sample,172387,0,"s_024.ogg",100
Sample,172408,0,"s_028.ogg",100
Sample,172429,0,"s_031.ogg",100
Sample,172533,0,"m_031.ogg",100
Sample,172700,0,"s_035.ogg",100
Sample,172700,0,"s_038.ogg",100
Sample,172866,0,"m_035.ogg",100
Sample,173033,0,"s_038.ogg",100
Sample,173033,0,"s_043.ogg",100
Sample,173200,0,"m_040.ogg",100
Sample,173366,0,"s_043.ogg",100
Sample,173366,0,"s_047.ogg",100
Sample,173533,0,"s_047.ogg",100
Sample,173533,0,"s_043.ogg",100
Sample,173700,0,"s_038.ogg",100
Sample,173866,0,"s_031.ogg",100
Sample,173866,0,"s_028.ogg",100
Sample,173866,0,"s_024.ogg",100
Sample,174033,0,"s_035.ogg",100
Sample,174200,0,"s_033.ogg",100
Sample,174366,0,"s_019.ogg",100
Sample,174366,0,"s_024.ogg",100
Sample,174366,0,"s_028.ogg",100
Sample,174533,0,"m_028.ogg",100
Sample,174533,0,"m_036.ogg",100
Sample,174533,0,"m_031.ogg",100
Sample,174866,0,"m_036.ogg",100
Sample,174866,0,"m_031.ogg",100
Sample,174866,0,"m_040.ogg",100
Sample,175200,0,"s_031.ogg",100
Sample,175200,0,"s_019.ogg",100
Sample,175366,0,"s_043.ogg",100
Sample,175366,0,"s_031.ogg",100
Sample,175533,0,"s_038.ogg",100
Sample,175533,0,"s_026.ogg",100
Sample,175700,0,"s_035.ogg",100
Sample,175700,0,"s_047.ogg",100
Sample,175866,0,"s_043.ogg",100
Sample,175866,0,"s_031.ogg",100
Sample,176033,0,"s_067.ogg",100
Sample,176033,0,"m_052.ogg",100
Sample,176200,0,"s_065.ogg",100
Sample,176366,0,"s_050.ogg",100
Sample,176366,0,"s_038.ogg",100
Sample,176533,0,"s_048.ogg",100
Sample,176533,0,"s_036.ogg",100
Sample,176700,0,"s_047.ogg",100
Sample,176700,0,"s_035.ogg",100
Sample,176866,0,"s_034.ogg",100
Sample,176866,0,"s_046.ogg",100
Sample,177033,0,"s_033.ogg",100
Sample,177033,0,"s_045.ogg",100
Sample,177200,0,"s_044.ogg",100
Sample,177200,0,"s_032.ogg",100
Sample,177366,0,"s_043.ogg",100
Sample,177366,0,"s_031.ogg",100
Sample,177533,0,"s_040.ogg",100
Sample,177533,0,"s_028.ogg",100
Sample,177700,0,"s_036.ogg",100
Sample,177700,0,"s_024.ogg",100
Sample,177866,0,"s_019.ogg",100
Sample,177866,0,"s_031.ogg",100
Sample,178033,0,"s_043.ogg",100
Sample,178033,0,"s_031.ogg",100
Sample,178200,0,"s_038.ogg",100
Sample,178200,0,"s_026.ogg",100
Sample,178366,0,"s_047.ogg",100
Sample,178366,0,"s_035.ogg",100
Sample,178533,0,"s_043.ogg",100
Sample,178533,0,"s_031.ogg",100
Sample,178700,0,"m_052.ogg",100
Sample,178700,0,"s_067.ogg",100
Sample,178866,0,"s_065.ogg",100
Sample,179033,0,"s_050.ogg",100
Sample,179033,0,"s_038.ogg",100
Sample,179200,0,"s_048.ogg",100
Sample,179200,0,"s_036.ogg",100
Sample,179366,0,"s_047.ogg",100
Sample,179366,0,"s_035.ogg",100
Sample,179533,0,"s_046.ogg",100
Sample,179533,0,"s_034.ogg",100
Sample,179700,0,"s_033.ogg",100
Sample,179700,0,"s_045.ogg",100
Sample,179866,0,"s_044.ogg",100
Sample,179866,0,"s_032.ogg",100
Sample,180033,0,"s_031.ogg",100
Sample,180033,0,"s_043.ogg",100
Sample,180200,0,"s_042.ogg",100
Sample,180200,0,"s_030.ogg",100
Sample,180366,0,"s_043.ogg",100
Sample,180366,0,"s_031.ogg",100
Sample,180533,0,"s_041.ogg",100
Sample,180533,0,"s_043.ogg",100
Sample,180866,0,"s_043.ogg",100
Sample,180866,0,"s_041.ogg",100
Sample,181200,0,"s_035.ogg",100
Sample,181200,0,"s_043.ogg",100
Sample,181533,0,"s_043.ogg",100
Sample,181533,0,"s_041.ogg",100
Sample,181866,0,"s_043.ogg",100
Sample,181866,0,"s_036.ogg",100
Sample,182200,0,"s_043.ogg",100
Sample,182200,0,"s_040.ogg",100
Sample,182533,0,"s_040.ogg",100
Sample,182533,0,"s_036.ogg",100
Sample,182866,0,"s_040.ogg",100
Sample,182866,0,"s_043.ogg",100
Sample,183200,0,"s_043.ogg",100
Sample,183200,0,"s_041.ogg",100
Sample,183533,0,"s_043.ogg",100
Sample,183533,0,"s_041.ogg",100
Sample,183866,0,"s_043.ogg",100
Sample,183866,0,"s_041.ogg",100
Sample,184200,0,"s_035.ogg",100
Sample,184200,0,"s_041.ogg",100
Sample,184533,0,"s_040.ogg",100
Sample,184533,0,"s_043.ogg",100
Sample,184866,0,"s_040.ogg",100
Sample,184866,0,"s_036.ogg",100
Sample,185200,0,"s_040.ogg",100
Sample,185200,0,"s_036.ogg",100
Sample,185533,0,"s_040.ogg",100
Sample,185533,0,"s_036.ogg",100
Sample,185866,0,"s_044.ogg",100
Sample,185866,0,"s_040.ogg",100
Sample,186200,0,"s_040.ogg",100
Sample,186200,0,"s_035.ogg",100
Sample,186533,0,"s_035.ogg",100
Sample,186533,0,"s_040.ogg",100
Sample,186866,0,"s_044.ogg",100
Sample,186866,0,"s_035.ogg",100
Sample,187200,0,"s_037.ogg",100
Sample,187533,0,"s_037.ogg",100
Sample,187533,0,"s_040.ogg",100
Sample,187866,0,"s_040.ogg",100
Sample,187866,0,"s_037.ogg",100
Sample,188200,0,"s_040.ogg",100
Sample,188200,0,"s_037.ogg",100
Sample,188533,0,"s_035.ogg",100
Sample,188533,0,"s_044.ogg",100
Sample,188866,0,"s_040.ogg",100
Sample,188866,0,"s_035.ogg",100
Sample,189200,0,"s_040.ogg",100
Sample,189200,0,"s_035.ogg",100
Sample,189533,0,"s_035.ogg",100
Sample,189533,0,"s_040.ogg",100
Sample,189866,0,"s_040.ogg",100
Sample,190200,0,"s_040.ogg",100
Sample,190200,0,"s_037.ogg",100
Sample,190533,0,"s_037.ogg",100
Sample,190533,0,"s_040.ogg",100
Sample,190866,0,"s_045.ogg",100
Sample,190866,0,"s_040.ogg",100
Sample,191366,0,"s_047.ogg",100
Sample,191366,0,"s_044.ogg",100
Sample,191700,0,"s_047.ogg",100
Sample,191700,0,"s_044.ogg",100
Sample,191866,0,"s_047.ogg",100
Sample,192033,0,"s_052.ogg",100
Sample,192200,0,"m_050.ogg",100
Sample,192450,0,"s_044.ogg",100
Sample,192700,0,"s_040.ogg",100
Sample,192700,0,"s_045.ogg",100
Sample,193033,0,"s_045.ogg",100
Sample,193033,0,"s_049.ogg",100
Sample,193200,0,"s_048.ogg",100
Sample,193366,0,"s_049.ogg",100
Sample,193533,0,"m_049.ogg",100
Sample,194033,0,"s_040.ogg",100
Sample,194033,0,"s_047.ogg",100
Sample,194366,0,"s_044.ogg",100
Sample,194366,0,"s_040.ogg",100
Sample,194533,0,"s_051.ogg",100
Sample,194700,0,"s_052.ogg",100
Sample,194866,0,"m_050.ogg",100
Sample,195116,0,"s_044.ogg",100
Sample,195366,0,"s_040.ogg",100
Sample,195366,0,"s_045.ogg",100
Sample,195700,0,"s_040.ogg",100
Sample,195700,0,"s_045.ogg",100
Sample,195866,0,"s_048.ogg",100
Sample,196033,0,"s_049.ogg",100
Sample,196200,0,"m_045.ogg",100
Sample,196700,0,"s_040.ogg",100
Sample,196700,0,"s_050.ogg",100
Sample,197033,0,"s_040.ogg",100
Sample,197033,0,"s_050.ogg",100
Sample,197200,0,"s_051.ogg",100
Sample,197366,0,"s_052.ogg",100
Sample,197533,0,"m_047.ogg",100
Sample,197866,0,"s_063.ogg",100
Sample,198033,0,"s_064.ogg",100
Sample,198200,0,"m_059.ogg",100
Sample,198533,0,"s_059.ogg",100
Sample,198700,0,"s_056.ogg",100
Sample,198866,0,"m_062.ogg",100
Sample,199116,0,"s_059.ogg",100
Sample,202066,0,"s_049.ogg",100
Sample,202466,0,"s_049.ogg",100
Sample,202866,0,"s_048.ogg",100
Sample,203266,0,"s_040.ogg",100
Sample,203666,0,"s_040.ogg",100
Sample,204066,0,"s_040.ogg",100
Sample,204466,0,"s_044.ogg",100
Sample,204866,0,"s_040.ogg",100
Sample,205266,0,"s_040.ogg",100
Sample,205666,0,"s_040.ogg",100
Sample,206066,0,"s_040.ogg",100
Sample,206466,0,"s_048.ogg",100
Sample,206866,0,"s_040.ogg",100
Sample,207266,0,"s_040.ogg",100
Sample,207666,0,"s_044.ogg",100
Sample,208066,0,"s_040.ogg",100
Sample,208466,0,"s_040.ogg",100
Sample,208866,0,"s_049.ogg",100
Sample,209266,0,"s_040.ogg",100
Sample,209666,0,"s_040.ogg",100
Sample,210066,0,"s_044.ogg",100
Sample,210466,0,"s_044.ogg",100
Sample,216266,0,"s_023.ogg",100
Sample,216341,0,"s_047.ogg",100
Sample,216341,0,"s_044.ogg",100
Sample,216491,0,"s_054.ogg",100
Sample,216641,0,"s_044.ogg",100
Sample,216791,0,"s_057.ogg",100
Sample,216941,0,"s_052.ogg",100
Sample,217091,0,"s_058.ogg",100
Sample,217241,0,"s_047.ogg",100
Sample,217391,0,"s_056.ogg",100
Sample,217466,0,"s_033.ogg",100
Sample,217541,0,"s_049.ogg",100
Sample,217541,0,"s_057.ogg",100
Sample,217691,0,"s_047.ogg",100
Sample,217841,0,"s_049.ogg",100
Sample,217991,0,"s_050.ogg",100
Sample,218141,0,"s_052.ogg",100
Sample,218291,0,"s_063.ogg",100
Sample,218441,0,"s_052.ogg",100
Sample,218591,0,"s_049.ogg",100
Sample,218666,0,"s_035.ogg",100
Sample,218741,0,"s_064.ogg",100
Sample,218741,0,"s_059.ogg",100
Sample,218891,0,"s_066.ogg",100
Sample,219041,0,"s_068.ogg",100
Sample,219191,0,"s_069.ogg",100
Sample,219341,0,"s_059.ogg",100
Sample,219491,0,"s_070.ogg",100
Sample,219641,0,"s_064.ogg",100
Sample,219791,0,"s_068.ogg",100
Sample,219866,0,"s_033.ogg",100
Sample,219941,0,"s_061.ogg",100
Sample,219941,0,"s_057.ogg",100
Sample,220091,0,"s_071.ogg",100
Sample,220241,0,"s_073.ogg",100
Sample,220391,0,"s_074.ogg",100
Sample,220541,0,"s_064.ogg",100
Sample,220691,0,"s_075.ogg",100
Sample,220841,0,"s_069.ogg",100
Sample,220991,0,"s_061.ogg",100
Sample,225866,0,"s_014.ogg",100
Sample,226016,0,"m_033.ogg",100
Sample,226016,0,"m_038.ogg",100
Sample,226466,0,"s_028.ogg",100
Sample,226466,0,"s_016.ogg",100
Sample,226616,0,"m_040.ogg",100
Sample,226616,0,"m_028.ogg",100
Sample,226616,0,"m_035.ogg",100
Sample,226616,0,"m_032.ogg",100
Sample,227066,0,"s_021.ogg",100
Sample,227066,0,"s_009.ogg",100
Sample,227216,0,"m_037.ogg",100
Sample,227216,0,"m_040.ogg",100
Sample,227216,0,"m_033.ogg",100
Sample,227216,0,"m_028.ogg",100
Sample,228266,0,"s_040.ogg",100
Sample,228266,0,"s_049.ogg",100
Sample,228266,0,"s_045.ogg",100
Sample,228566,0,"s_064.ogg",100
Sample,228566,0,"s_061.ogg",100
Sample,228566,0,"s_057.ogg",100

[TimingPoints]
0,400.000000000003,4,2,0,100,1,0
0,-83.3333333333333,4,2,0,100,0,0
33600,333.333333333334,4,2,0,100,1,0
46933,500,4,2,0,100,1,0
46933,-66.6666666666667,4,2,0,100,0,0
48933,400,4,2,0,100,1,0
48933,-83.3333333333333,4,2,0,100,0,0
50533.334,333.333333333334,4,2,0,100,1,0
201866,400,4,2,0,100,1,0
201866,-83.3333333333333,4,2,0,100,0,0
211466,300,4,2,0,100,1,0
211466,-111.111111111111,4,2,0,100,0,0

[HitObjects]
51,192,1600,5,0,0:0:0:0:s_052.ogg
256,192,1650,1,0,0:0:0:0:s_059.ogg
460,192,1700,1,0,0:0:0:0:s_064.ogg
256,192,1750,1,0,0:0:0:0:s_059.ogg
153,192,1900,1,0,0:0:0:0:s_052.ogg
256,192,2000,1,0,0:0:0:0:m_059.ogg
358,192,2300,1,0,0:0:0:0:s_060.ogg
51,192,2400,1,0,0:0:0:0:s_052.ogg
256,192,2450,1,0,0:0:0:0:s_059.ogg
460,192,2500,1,0,0:0:0:0:s_064.ogg
256,192,2550,1,0,0:0:0:0:s_059.ogg
358,192,2700,1,0,0:0:0:0:s_062.ogg
256,192,2800,1,0,0:0:0:0:m_060.ogg
153,192,3100,1,0,0:0:0:0:s_059.ogg
51,192,3200,1,0,0:0:0:0:s_052.ogg
256,192,3250,1,0,0:0:0:0:s_057.ogg
460,192,3300,1,0,0:0:0:0:s_064.ogg
256,192,3350,1,0,0:0:0:0:s_057.ogg
153,192,3500,1,0,0:0:0:0:s_052.ogg
256,192,3600,1,0,0:0:0:0:m_057.ogg
358,192,3900,1,0,0:0:0:0:s_059.ogg
51,192,4000,1,0,0:0:0:0:s_052.ogg
256,192,4050,1,0,0:0:0:0:s_060.ogg
460,192,4100,1,0,0:0:0:0:s_064.ogg
256,192,4150,1,0,0:0:0:0:s_060.ogg
358,192,4300,1,0,0:0:0:0:s_064.ogg
256,192,4400,1,0,0:0:0:0:m_062.ogg
153,192,4700,1,0,0:0:0:0:s_060.ogg
51,192,4800,1,0,0:0:0:0:s_052.ogg
256,192,4850,1,0,0:0:0:0:s_059.ogg
460,192,4900,1,0,0:0:0:0:s_064.ogg
256,192,4950,1,0,0:0:0:0:s_059.ogg
153,192,5100,1,0,0:0:0:0:s_052.ogg
256,192,5200,1,0,0:0:0:0:m_059.ogg
358,192,5500,1,0,0:0:0:0:s_060.ogg
51,192,5600,1,0,0:0:0:0:s_052.ogg
256,192,5650,1,0,0:0:0:0:s_059.ogg
460,192,5700,1,0,0:0:0:0:s_064.ogg
256,192,5750,1,0,0:0:0:0:s_059.ogg
358,192,5900,1,0,0:0:0:0:s_062.ogg
256,192,6000,1,0,0:0:0:0:m_060.ogg
153,192,6300,1,0,0:0:0:0:s_059.ogg
51,192,6400,1,0,0:0:0:0:s_052.ogg
256,192,6450,1,0,0:0:0:0:s_057.ogg
460,192,6500,1,0,0:0:0:0:s_064.ogg
256,192,6550,1,0,0:0:0:0:s_057.ogg
153,192,6700,1,0,0:0:0:0:s_052.ogg
256,192,6800,1,0,0:0:0:0:m_057.ogg
358,192,7100,1,0,0:0:0:0:s_059.ogg
51,192,7200,1,0,0:0:0:0:s_052.ogg
256,192,7250,1,0,0:0:0:0:s_057.ogg
460,192,7300,1,0,0:0:0:0:s_064.ogg
256,192,7350,1,0,0:0:0:0:s_057.ogg
153,192,7500,1,0,0:0:0:0:s_052.ogg
358,192,7600,1,0,0:0:0:0:m_060.ogg
153,192,7900,1,0,0:0:0:0:s_052.ogg
51,192,8000,1,0,0:0:0:0:s_052.ogg
256,192,8050,1,0,0:0:0:0:s_059.ogg
460,192,8100,1,0,0:0:0:0:s_064.ogg
256,192,8150,1,0,0:0:0:0:s_059.ogg
358,192,8300,1,0,0:0:0:0:s_052.ogg
51,192,8400,1,0,0:0:0:0:s_047.ogg
256,192,8400,1,0,0:0:0:0:m_059.ogg
153,192,8450,1,0,0:0:0:0:s_056.ogg
51,192,8500,1,0,0:0:0:0:m_047.ogg
358,192,8700,1,0,0:0:0:0:s_060.ogg
51,192,8800,1,0,0:0:0:0:s_052.ogg
256,192,8850,1,0,0:0:0:0:s_059.ogg
460,192,8900,1,0,0:0:0:0:s_064.ogg
256,192,8950,1,0,0:0:0:0:s_059.ogg
153,192,9100,1,0,0:0:0:0:s_062.ogg
256,192,9200,1,0,0:0:0:0:m_060.ogg
358,192,9200,1,0,0:0:0:0:s_071.ogg
460,192,9250,1,0,0:0:0:0:s_076.ogg
358,192,9300,1,0,0:0:0:0:m_071.ogg
153,192,9500,1,0,0:0:0:0:s_059.ogg
51,192,9600,1,0,0:0:0:0:s_052.ogg
256,192,9650,1,0,0:0:0:0:s_057.ogg
460,192,9700,1,0,0:0:0:0:s_064.ogg
256,192,9750,1,0,0:0:0:0:s_057.ogg
358,192,9900,1,0,0:0:0:0:s_052.ogg
51,192,10000,1,0,0:0:0:0:s_040.ogg
256,192,10000,1,0,0:0:0:0:m_057.ogg
153,192,10050,1,0,0:0:0:0:s_048.ogg
51,192,10100,1,0,0:0:0:0:m_040.ogg
358,192,10300,1,0,0:0:0:0:s_059.ogg
51,192,10400,1,0,0:0:0:0:s_052.ogg
256,192,10450,1,0,0:0:0:0:s_060.ogg
460,192,10500,1,0,0:0:0:0:s_064.ogg
256,192,10550,1,0,0:0:0:0:s_060.ogg
153,192,10700,1,0,0:0:0:0:s_064.ogg
256,192,10800,1,0,0:0:0:0:m_062.ogg
358,192,10800,1,0,0:0:0:0:s_069.ogg
460,192,10850,1,0,0:0:0:0:s_076.ogg
358,192,10900,1,0,0:0:0:0:m_069.ogg
153,192,11100,1,0,0:0:0:0:s_060.ogg
51,192,11200,1,0,0:0:0:0:s_052.ogg
256,192,11250,1,0,0:0:0:0:s_059.ogg
460,192,11300,1,0,0:0:0:0:s_064.ogg
256,192,11350,1,0,0:0:0:0:s_059.ogg
358,192,11500,1,0,0:0:0:0:s_052.ogg
51,192,11600,1,0,0:0:0:0:s_047.ogg
256,192,11600,1,0,0:0:0:0:m_059.ogg
153,192,11650,1,0,0:0:0:0:s_056.ogg
51,192,11700,1,0,0:0:0:0:m_047.ogg
358,192,11900,1,0,0:0:0:0:s_060.ogg
51,192,12000,1,0,0:0:0:0:s_052.ogg
256,192,12050,1,0,0:0:0:0:s_059.ogg
460,192,12100,1,0,0:0:0:0:s_064.ogg
256,192,12150,1,0,0:0:0:0:s_059.ogg
153,192,12300,1,0,0:0:0:0:s_062.ogg
256,192,12400,1,0,0:0:0:0:m_060.ogg
358,192,12400,1,0,0:0:0:0:s_071.ogg
460,192,12450,1,0,0:0:0:0:s_076.ogg
358,192,12500,1,0,0:0:0:0:m_071.ogg
153,192,12700,1,0,0:0:0:0:s_059.ogg
51,192,12800,1,0,0:0:0:0:s_052.ogg
256,192,12850,1,0,0:0:0:0:s_057.ogg
460,192,12900,1,0,0:0:0:0:s_064.ogg
256,192,12950,1,0,0:0:0:0:s_057.ogg
358,192,13100,1,0,0:0:0:0:s_052.ogg
51,192,13200,1,0,0:0:0:0:s_040.ogg
256,192,13200,1,0,0:0:0:0:m_057.ogg
153,192,13250,1,0,0:0:0:0:s_048.ogg
51,192,13300,1,0,0:0:0:0:m_040.ogg
358,192,13500,1,0,0:0:0:0:s_059.ogg
51,192,13600,1,0,0:0:0:0:s_052.ogg
256,192,13650,1,0,0:0:0:0:s_057.ogg
460,192,13700,1,0,0:0:0:0:s_064.ogg
256,192,13750,1,0,0:0:0:0:s_057.ogg
153,192,13900,1,0,0:0:0:0:s_052.ogg
256,192,14000,1,0,0:0:0:0:m_060.ogg
358,192,14000,1,0,0:0:0:0:s_069.ogg
460,192,14050,1,0,0:0:0:0:s_076.ogg
358,192,14100,1,0,0:0:0:0:m_069.ogg
153,192,14300,1,0,0:0:0:0:s_052.ogg
256,192,14400,1,0,0:0:0:0:s_059.ogg
460,192,14450,1,0,0:0:0:0:s_064.ogg
256,192,14500,1,0,0:0:0:0:s_059.ogg
256,192,14700,1,0,0:0:0:0:s_052.ogg
51,192,14800,1,0,0:0:0:0:s_047.ogg
358,192,14800,1,0,0:0:0:0:m_064.ogg
153,192,14850,1,0,0:0:0:0:s_056.ogg
51,192,14900,1,0,0:0:0:0:m_047.ogg
153,192,15100,1,0,0:0:0:0:s_052.ogg
256,192,15200,1,0,0:0:0:0:s_059.ogg
460,192,15250,1,0,0:0:0:0:s_064.ogg
256,192,15300,1,0,0:0:0:0:s_059.ogg
153,192,15500,1,0,0:0:0:0:s_052.ogg
256,192,15600,1,0,0:0:0:0:m_064.ogg
358,192,15600,1,0,0:0:0:0:s_071.ogg
460,192,15650,1,0,0:0:0:0:s_076.ogg
358,192,15700,1,0,0:0:0:0:m_071.ogg
51,192,15900,1,0,0:0:0:0:s_052.ogg
153,192,16000,1,0,0:0:0:0:s_057.ogg
358,192,16050,1,0,0:0:0:0:s_064.ogg
153,192,16100,1,0,0:0:0:0:s_057.ogg
256,192,16300,1,0,0:0:0:0:s_052.ogg
51,192,16400,1,0,0:0:0:0:s_040.ogg
460,192,16400,1,0,0:0:0:0:m_064.ogg
153,192,16450,1,0,0:0:0:0:s_048.ogg
51,192,16500,1,0,0:0:0:0:m_040.ogg
51,192,16700,1,0,0:0:0:0:s_052.ogg
256,192,16800,1,0,0:0:0:0:s_060.ogg
460,192,16850,1,0,0:0:0:0:s_064.ogg
256,192,16900,1,0,0:0:0:0:s_060.ogg
153,192,17100,1,0,0:0:0:0:s_052.ogg
256,192,17200,1,0,0:0:0:0:m_064.ogg
358,192,17200,1,0,0:0:0:0:s_069.ogg
460,192,17250,1,0,0:0:0:0:s_076.ogg
358,192,17300,1,0,0:0:0:0:m_069.ogg
153,192,17500,1,0,0:0:0:0:s_052.ogg
256,192,17600,1,0,0:0:0:0:s_059.ogg
460,192,17650,1,0,0:0:0:0:s_064.ogg
256,192,17700,1,0,0:0:0:0:s_059.ogg
256,192,17900,1,0,0:0:0:0:s_052.ogg
51,192,18000,1,0,0:0:0:0:s_047.ogg
358,192,18000,1,0,0:0:0:0:m_064.ogg
153,192,18050,1,0,0:0:0:0:s_056.ogg
51,192,18100,1,0,0:0:0:0:m_047.ogg
153,192,18300,1,0,0:0:0:0:s_052.ogg
256,192,18400,1,0,0:0:0:0:s_059.ogg
460,192,18450,1,0,0:0:0:0:s_064.ogg
256,192,18500,1,0,0:0:0:0:s_059.ogg
153,192,18700,1,0,0:0:0:0:s_052.ogg
256,192,18800,1,0,0:0:0:0:m_064.ogg
358,192,18800,1,0,0:0:0:0:s_071.ogg
460,192,18850,1,0,0:0:0:0:s_076.ogg
358,192,18900,1,0,0:0:0:0:m_071.ogg
51,192,19100,1,0,0:0:0:0:s_052.ogg
153,192,19200,1,0,0:0:0:0:s_057.ogg
358,192,19250,1,0,0:0:0:0:s_064.ogg
153,192,19300,1,0,0:0:0:0:s_057.ogg
256,192,19500,1,0,0:0:0:0:s_052.ogg
51,192,19600,1,0,0:0:0:0:s_040.ogg
460,192,19600,1,0,0:0:0:0:m_064.ogg
153,192,19650,1,0,0:0:0:0:s_048.ogg
51,192,19700,1,0,0:0:0:0:m_040.ogg
51,192,19900,1,0,0:0:0:0:s_052.ogg
256,192,20000,1,0,0:0:0:0:s_060.ogg
460,192,20050,1,0,0:0:0:0:s_064.ogg
256,192,20100,1,0,0:0:0:0:s_060.ogg
153,192,20300,1,0,0:0:0:0:s_052.ogg
256,192,20400,1,0,0:0:0:0:m_064.ogg
358,192,20400,1,0,0:0:0:0:s_069.ogg
460,192,20450,1,0,0:0:0:0:s_076.ogg
358,192,20500,1,0,0:0:0:0:m_069.ogg
153,192,20700,1,0,0:0:0:0:s_052.ogg
358,192,20800,1,0,0:0:0:0:m_047.ogg
256,192,20900,1,0,0:0:0:0:s_052.ogg
51,192,21000,1,0,0:0:0:0:s_028.ogg
256,192,21000,1,0,0:0:0:0:s_052.ogg
256,192,21100,1,0,0:0:0:0:s_052.ogg
153,192,21200,1,0,0:0:0:0:s_038.ogg
256,192,21200,1,0,0:0:0:0:s_052.ogg
256,192,21300,1,0,0:0:0:0:s_052.ogg
256,192,21400,1,0,0:0:0:0:s_052.ogg
358,192,21400,1,0,0:0:0:0:s_044.ogg
256,192,21500,1,0,0:0:0:0:s_052.ogg
460,192,21600,1,0,0:0:0:0:s_048.ogg
256,192,21700,1,0,0:0:0:0:s_052.ogg
153,192,21800,1,0,0:0:0:0:s_040.ogg
256,192,21800,1,0,0:0:0:0:s_052.ogg
256,192,21900,1,0,0:0:0:0:s_052.ogg
358,192,22000,1,0,0:0:0:0:s_047.ogg
256,192,22100,1,0,0:0:0:0:s_052.ogg
153,192,22200,1,0,0:0:0:0:s_040.ogg
256,192,22200,1,0,0:0:0:0:s_052.ogg
256,192,22300,1,0,0:0:0:0:s_052.ogg
51,192,22400,1,0,0:0:0:0:m_045.ogg
256,192,22500,1,0,0:0:0:0:s_052.ogg
256,192,22600,1,0,0:0:0:0:s_052.ogg
153,192,22600,1,0,0:0:0:0:s_028.ogg
256,192,22700,1,0,0:0:0:0:s_052.ogg
256,192,22800,1,0,0:0:0:0:s_052.ogg
358,192,22800,1,0,0:0:0:0:s_036.ogg
256,192,22900,1,0,0:0:0:0:s_052.ogg
256,192,23000,1,0,0:0:0:0:s_052.ogg
460,192,23000,1,0,0:0:0:0:s_040.ogg
358,192,23100,1,0,0:0:0:0:s_047.ogg
153,192,23200,1,0,0:0:0:0:s_048.ogg
256,192,23300,1,0,0:0:0:0:s_052.ogg
51,192,23400,1,0,0:0:0:0:s_040.ogg
256,192,23400,1,0,0:0:0:0:s_052.ogg
256,192,23500,1,0,0:0:0:0:s_052.ogg
358,192,23600,1,0,0:0:0:0:s_045.ogg
256,192,23700,1,0,0:0:0:0:s_052.ogg
51,192,23800,1,0,0:0:0:0:s_040.ogg
256,192,23800,1,0,0:0:0:0:s_052.ogg
256,192,23900,1,0,0:0:0:0:s_052.ogg
358,192,24000,1,0,0:0:0:0:m_047.ogg
256,192,24100,1,0,0:0:0:0:s_052.ogg
51,192,24200,1,0,0:0:0:0:s_028.ogg
256,192,24200,1,0,0:0:0:0:s_052.ogg
256,192,24300,1,0,0:0:0:0:s_052.ogg
153,192,24400,1,0,0:0:0:0:s_038.ogg
256,192,24400,1,0,0:0:0:0:s_052.ogg
256,192,24500,1,0,0:0:0:0:s_052.ogg
256,192,24600,1,0,0:0:0:0:s_052.ogg
358,192,24600,1,0,0:0:0:0:s_044.ogg
460,192,24700,1,0,0:0:0:0:s_050.ogg
51,192,24800,1,0,0:0:0:0:s_048.ogg
256,192,24900,1,0,0:0:0:0:s_052.ogg
153,192,25000,1,0,0:0:0:0:s_040.ogg
256,192,25000,1,0,0:0:0:0:s_052.ogg
256,192,25100,1,0,0:0:0:0:s_052.ogg
358,192,25200,1,0,0:0:0:0:s_047.ogg
256,192,25300,1,0,0:0:0:0:s_052.ogg
153,192,25400,1,0,0:0:0:0:s_040.ogg
256,192,25400,1,0,0:0:0:0:s_052.ogg
256,192,25500,1,0,0:0:0:0:s_052.ogg
51,192,25600,1,0,0:0:0:0:m_045.ogg
256,192,25700,1,0,0:0:0:0:s_052.ogg
51,192,25800,1,0,0:0:0:0:s_028.ogg
256,192,25800,1,0,0:0:0:0:s_052.ogg
256,192,25900,1,0,0:0:0:0:s_052.ogg
153,192,26000,1,0,0:0:0:0:s_036.ogg
256,192,26000,1,0,0:0:0:0:s_052.ogg
256,192,26100,1,0,0:0:0:0:s_052.ogg
358,192,26200,1,0,0:0:0:0:s_040.ogg
256,192,26200,1,0,0:0:0:0:s_052.ogg
460,192,26300,1,0,0:0:0:0:s_047.ogg
51,192,26400,1,0,0:0:0:0:s_048.ogg
256,192,26500,1,0,0:0:0:0:s_052.ogg
153,192,26600,1,0,0:0:0:0:s_040.ogg
256,192,26600,1,0,0:0:0:0:s_052.ogg
256,192,26700,1,0,0:0:0:0:s_052.ogg
358,192,26800,1,0,0:0:0:0:s_045.ogg
256,192,26900,1,0,0:0:0:0:s_052.ogg
153,192,27000,1,0,0:0:0:0:s_040.ogg
256,192,27000,1,0,0:0:0:0:s_052.ogg
256,192,27100,1,0,0:0:0:0:s_052.ogg
51,192,27200,1,0,0:0:0:0:s_059.ogg
460,192,27200,1,0,0:0:0:0:s_047.ogg
256,192,27300,1,0,0:0:0:0:s_052.ogg
153,192,27400,1,0,0:0:0:0:s_028.ogg
256,192,27400,1,0,0:0:0:0:s_052.ogg
256,192,27500,1,0,0:0:0:0:s_052.ogg
256,192,27600,1,0,0:0:0:0:s_052.ogg
358,192,27600,1,0,0:0:0:0:s_038.ogg
256,192,27700,1,0,0:0:0:0:s_052.ogg
256,192,27800,1,0,0:0:0:0:s_052.ogg
460,192,27800,1,0,0:0:0:0:s_044.ogg
256,192,27900,1,0,0:0:0:0:s_052.ogg
358,192,28000,1,0,0:0:0:0:s_060.ogg
460,192,28000,1,0,0:0:0:0:s_048.ogg
256,192,28100,1,0,0:0:0:0:s_052.ogg
51,192,28200,1,0,0:0:0:0:s_044.ogg
256,192,28200,1,0,0:0:0:0:s_052.ogg
256,192,28300,1,0,0:0:0:0:s_052.ogg
153,192,28400,1,0,0:0:0:0:s_047.ogg
358,192,28400,1,0,0:0:0:0:s_059.ogg
460,192,28400,1,0,0:0:0:0:s_038.ogg
256,192,28500,1,0,0:0:0:0:s_052.ogg
256,192,28600,1,0,0:0:0:0:s_052.ogg
358,192,28600,1,0,0:0:0:0:s_028.ogg
256,192,28700,1,0,0:0:0:0:s_052.ogg
51,192,28800,1,0,0:0:0:0:m_045.ogg
153,192,28800,1,0,0:0:0:0:m_057.ogg
256,192,28900,1,0,0:0:0:0:s_052.ogg
256,192,29000,1,0,0:0:0:0:s_052.ogg
358,192,29000,1,0,0:0:0:0:s_028.ogg
256,192,29100,1,0,0:0:0:0:s_052.ogg
256,192,29200,1,0,0:0:0:0:s_052.ogg
460,192,29200,1,0,0:0:0:0:s_036.ogg
256,192,29300,1,0,0:0:0:0:s_052.ogg
153,192,29400,1,0,0:0:0:0:s_045.ogg
256,192,29400,1,0,0:0:0:0:s_052.ogg
51,192,29500,1,0,0:0:0:0:s_059.ogg
358,192,29500,1,0,0:0:0:0:s_047.ogg
153,192,29600,1,0,0:0:0:0:m_060.ogg
460,192,29600,1,0,0:0:0:0:m_048.ogg
256,192,29700,1,0,0:0:0:0:s_052.ogg
256,192,29800,1,0,0:0:0:0:s_052.ogg
358,192,29800,1,0,0:0:0:0:s_045.ogg
256,192,29900,1,0,0:0:0:0:s_052.ogg
51,192,30000,1,0,0:0:0:0:m_045.ogg
153,192,30000,1,0,0:0:0:0:m_057.ogg
460,192,30000,1,0,0:0:0:0:s_036.ogg
256,192,30100,1,0,0:0:0:0:s_052.ogg
51,192,30200,1,0,0:0:0:0:s_028.ogg
256,192,30200,1,0,0:0:0:0:s_052.ogg
256,192,30300,1,0,0:0:0:0:s_052.ogg
358,192,30400,1,0,0:0:0:0:m_047.ogg
460,192,30400,1,0,0:0:0:0:m_059.ogg
256,192,30500,1,0,0:0:0:0:s_052.ogg
153,192,30600,1,0,0:0:0:0:s_028.ogg
256,192,30600,1,0,0:0:0:0:s_052.ogg
256,192,30700,1,0,0:0:0:0:s_052.ogg
256,192,30800,1,0,0:0:0:0:s_052.ogg
358,192,30800,1,0,0:0:0:0:s_038.ogg
256,192,30900,1,0,0:0:0:0:s_052.ogg
51,192,31000,1,0,0:0:0:0:s_044.ogg
153,192,31000,1,0,0:0:0:0:s_050.ogg
460,192,31000,1,0,0:0:0:0:s_062.ogg
256,192,31100,1,0,0:0:0:0:s_052.ogg
51,192,31200,1,0,0:0:0:0:s_048.ogg
358,192,31200,1,0,0:0:0:0:s_060.ogg
256,192,31300,1,0,0:0:0:0:s_052.ogg
256,192,31400,1,0,0:0:0:0:s_052.ogg
460,192,31400,1,0,0:0:0:0:s_044.ogg
256,192,31500,1,0,0:0:0:0:s_052.ogg
153,192,31600,1,0,0:0:0:0:s_038.ogg
358,192,31600,1,0,0:0:0:0:s_059.ogg
460,192,31600,1,0,0:0:0:0:s_047.ogg
256,192,31700,1,0,0:0:0:0:s_052.ogg
51,192,31800,1,0,0:0:0:0:s_028.ogg
256,192,31800,1,0,0:0:0:0:s_052.ogg
256,192,31900,1,0,0:0:0:0:s_052.ogg
51,192,32000,1,0,0:0:0:0:m_057.ogg
153,192,32000,1,0,0:0:0:0:m_045.ogg
256,192,32100,1,0,0:0:0:0:s_052.ogg
256,192,32200,1,0,0:0:0:0:s_052.ogg
358,192,32200,1,0,0:0:0:0:s_028.ogg
256,192,32300,1,0,0:0:0:0:s_052.ogg
256,192,32400,1,0,0:0:0:0:s_052.ogg
460,192,32400,1,0,0:0:0:0:s_036.ogg
256,192,32500,1,0,0:0:0:0:s_052.ogg
153,192,32600,1,0,0:0:0:0:s_045.ogg
256,192,32600,1,0,0:0:0:0:s_052.ogg
51,192,32700,1,0,0:0:0:0:s_059.ogg
358,192,32700,1,0,0:0:0:0:s_047.ogg
153,192,32800,1,0,0:0:0:0:m_060.ogg
460,192,32800,1,0,0:0:0:0:m_048.ogg
256,192,32900,1,0,0:0:0:0:s_052.ogg
256,192,33000,1,0,0:0:0:0:s_052.ogg
358,192,33000,1,0,0:0:0:0:s_045.ogg
256,192,33100,1,0,0:0:0:0:s_052.ogg
51,192,33200,1,0,0:0:0:0:m_045.ogg
153,192,33200,1,0,0:0:0:0:s_036.ogg
460,192,33200,1,0,0:0:0:0:m_057.ogg
256,192,33300,1,0,0:0:0:0:s_052.ogg
153,192,33400,1,0,0:0:0:0:s_028.ogg
256,192,33400,1,0,0:0:0:0:s_052.ogg
256,192,33500,1,0,0:0:0:0:s_052.ogg
51,192,33600,1,0,0:0:0:0:m_035.ogg
460,192,33600,1,0,0:0:0:0:s_064.ogg
256,192,33683,1,0,0:0:0:0:s_052.ogg
358,192,33766,1,0,0:0:0:0:s_052.ogg
256,192,33850,1,0,0:0:0:0:s_052.ogg
51,192,33933,1,0,0:0:0:0:m_050.ogg
153,192,33933,1,0,0:0:0:0:m_044.ogg
460,192,33933,1,0,0:0:0:0:s_064.ogg
256,192,34016,1,0,0:0:0:0:s_052.ogg
358,192,34100,1,0,0:0:0:0:s_052.ogg
256,192,34183,1,0,0:0:0:0:s_052.ogg
51,192,34266,1,0,0:0:0:0:s_028.ogg
460,192,34266,1,0,0:0:0:0:s_064.ogg
256,192,34350,1,0,0:0:0:0:s_052.ogg
51,192,34433,1,0,0:0:0:0:s_048.ogg
153,192,34433,1,0,0:0:0:0:s_044.ogg
358,192,34433,1,0,0:0:0:0:s_052.ogg
256,192,34516,1,0,0:0:0:0:s_052.ogg
153,192,34600,1,0,0:0:0:0:s_038.ogg
460,192,34600,1,0,0:0:0:0:s_064.ogg
256,192,34683,1,0,0:0:0:0:s_052.ogg
51,192,34766,1,0,0:0:0:0:s_040.ogg
153,192,34766,1,0,0:0:0:0:s_047.ogg
358,192,34766,1,0,0:0:0:0:s_052.ogg
256,192,34850,1,0,0:0:0:0:s_052.ogg
51,192,34933,1,0,0:0:0:0:m_033.ogg
460,192,34933,1,0,0:0:0:0:s_064.ogg
256,192,35016,1,0,0:0:0:0:s_052.ogg
358,192,35100,1,0,0:0:0:0:s_052.ogg
256,192,35183,1,0,0:0:0:0:s_052.ogg
51,192,35266,1,0,0:0:0:0:m_048.ogg
153,192,35266,1,0,0:0:0:0:m_045.ogg
460,192,35266,1,0,0:0:0:0:s_064.ogg
256,192,35350,1,0,0:0:0:0:s_052.ogg
358,192,35433,1,0,0:0:0:0:s_052.ogg
256,192,35516,1,0,0:0:0:0:s_052.ogg
51,192,35600,1,0,0:0:0:0:s_028.ogg
460,192,35600,1,0,0:0:0:0:s_064.ogg
256,192,35683,1,0,0:0:0:0:s_052.ogg
51,192,35766,1,0,0:0:0:0:s_047.ogg
153,192,35766,1,0,0:0:0:0:s_040.ogg
358,192,35766,1,0,0:0:0:0:s_052.ogg
256,192,35850,1,0,0:0:0:0:s_052.ogg
153,192,35933,1,0,0:0:0:0:s_033.ogg
460,192,35933,1,0,0:0:0:0:s_064.ogg
256,192,36016,1,0,0:0:0:0:s_052.ogg
51,192,36100,1,0,0:0:0:0:s_045.ogg
153,192,36100,1,0,0:0:0:0:s_040.ogg
358,192,36100,1,0,0:0:0:0:s_052.ogg
256,192,36183,1,0,0:0:0:0:s_052.ogg
51,192,36266,1,0,0:0:0:0:m_035.ogg
460,192,36266,1,0,0:0:0:0:s_064.ogg
256,192,36350,1,0,0:0:0:0:s_052.ogg
358,192,36433,1,0,0:0:0:0:s_052.ogg
256,192,36516,1,0,0:0:0:0:s_052.ogg
51,192,36600,1,0,0:0:0:0:m_044.ogg
153,192,36600,1,0,0:0:0:0:m_050.ogg
460,192,36600,1,0,0:0:0:0:s_064.ogg
256,192,36683,1,0,0:0:0:0:s_052.ogg
358,192,36766,1,0,0:0:0:0:s_052.ogg
256,192,36850,1,0,0:0:0:0:s_052.ogg
51,192,36933,1,0,0:0:0:0:s_028.ogg
460,192,36933,1,0,0:0:0:0:s_064.ogg
256,192,37016,1,0,0:0:0:0:s_052.ogg
51,192,37100,1,0,0:0:0:0:s_048.ogg
153,192,37100,1,0,0:0:0:0:s_044.ogg
358,192,37100,1,0,0:0:0:0:s_052.ogg
256,192,37183,1,0,0:0:0:0:s_052.ogg
153,192,37266,1,0,0:0:0:0:s_038.ogg
460,192,37266,1,0,0:0:0:0:s_064.ogg
256,192,37350,1,0,0:0:0:0:s_052.ogg
51,192,37433,1,0,0:0:0:0:s_047.ogg
153,192,37433,1,0,0:0:0:0:s_044.ogg
358,192,37433,1,0,0:0:0:0:s_052.ogg
256,192,37516,1,0,0:0:0:0:s_052.ogg
51,192,37600,1,0,0:0:0:0:m_033.ogg
460,192,37600,1,0,0:0:0:0:s_064.ogg
256,192,37683,1,0,0:0:0:0:s_052.ogg
358,192,37766,1,0,0:0:0:0:s_052.ogg
256,192,37850,1,0,0:0:0:0:s_052.ogg
51,192,37933,1,0,0:0:0:0:m_045.ogg
153,192,37933,1,0,0:0:0:0:m_040.ogg
460,192,37933,1,0,0:0:0:0:s_064.ogg
256,192,38016,1,0,0:0:0:0:s_052.ogg
358,192,38100,1,0,0:0:0:0:s_052.ogg
256,192,38183,1,0,0:0:0:0:s_052.ogg
51,192,38266,1,0,0:0:0:0:s_028.ogg
460,192,38266,1,0,0:0:0:0:s_064.ogg
256,192,38350,1,0,0:0:0:0:s_052.ogg
51,192,38433,1,0,0:0:0:0:s_036.ogg
153,192,38433,1,0,0:0:0:0:s_047.ogg
358,192,38433,1,0,0:0:0:0:s_052.ogg
256,192,38516,1,0,0:0:0:0:s_052.ogg
153,192,38600,1,0,0:0:0:0:s_033.ogg
460,192,38600,1,0,0:0:0:0:s_064.ogg
256,192,38683,1,0,0:0:0:0:s_052.ogg
51,192,38766,1,0,0:0:0:0:s_040.ogg
153,192,38766,1,0,0:0:0:0:s_045.ogg
358,192,38766,1,0,0:0:0:0:s_052.ogg
256,192,38850,1,0,0:0:0:0:s_052.ogg
358,192,38933,1,0,0:0:0:0:s_064.ogg
460,192,38933,1,0,0:0:0:0:m_035.ogg
153,192,39016,1,0,0:0:0:0:s_052.ogg
358,192,39100,1,0,0:0:0:0:s_064.ogg
256,192,39183,1,0,0:0:0:0:s_064.ogg
51,192,39266,1,0,0:0:0:0:m_050.ogg
153,192,39266,1,0,0:0:0:0:m_044.ogg
460,192,39266,1,0,0:0:0:0:s_076.ogg
256,192,39350,1,0,0:0:0:0:s_064.ogg
358,192,39433,1,0,0:0:0:0:s_064.ogg
51,192,39516,1,0,0:0:0:0:s_052.ogg
256,192,39600,1,0,0:0:0:0:s_064.ogg
460,192,39600,1,0,0:0:0:0:m_028.ogg
51,192,39683,1,0,0:0:0:0:s_052.ogg
153,192,39766,1,0,0:0:0:0:s_052.ogg
51,192,39850,1,0,0:0:0:0:s_052.ogg
256,192,39933,1,0,0:0:0:0:s_064.ogg
358,192,39933,1,0,0:0:0:0:m_050.ogg
460,192,39933,1,0,0:0:0:0:m_040.ogg
51,192,40016,1,0,0:0:0:0:s_052.ogg
153,192,40100,1,0,0:0:0:0:s_052.ogg
51,192,40183,1,0,0:0:0:0:s_052.ogg
256,192,40266,1,0,0:0:0:0:s_064.ogg
460,192,40266,1,0,0:0:0:0:m_033.ogg
51,192,40350,1,0,0:0:0:0:s_052.ogg
358,192,40433,1,0,0:0:0:0:s_064.ogg
256,192,40516,1,0,0:0:0:0:s_064.ogg
51,192,40600,1,0,0:0:0:0:m_049.ogg
153,192,40600,1,0,0:0:0:0:m_045.ogg
460,192,40600,1,0,0:0:0:0:s_076.ogg
256,192,40683,1,0,0:0:0:0:s_064.ogg
358,192,40766,1,0,0:0:0:0:s_064.ogg
51,192,40850,1,0,0:0:0:0:s_052.ogg
256,192,40933,1,0,0:0:0:0:s_064.ogg
460,192,40933,1,0,0:0:0:0:m_028.ogg
51,192,41016,1,0,0:0:0:0:s_052.ogg
153,192,41100,1,0,0:0:0:0:s_052.ogg
51,192,41183,1,0,0:0:0:0:s_052.ogg
256,192,41266,1,0,0:0:0:0:s_064.ogg
358,192,41266,1,0,0:0:0:0:m_049.ogg
460,192,41266,1,0,0:0:0:0:m_045.ogg
51,192,41350,1,0,0:0:0:0:s_052.ogg
153,192,41433,1,0,0:0:0:0:s_052.ogg
51,192,41516,1,0,0:0:0:0:s_052.ogg
256,192,41600,1,0,0:0:0:0:s_064.ogg
460,192,41600,1,0,0:0:0:0:s_035.ogg
51,192,41683,1,0,0:0:0:0:s_052.ogg
153,192,41766,1,0,0:0:0:0:s_050.ogg
358,192,41766,1,0,0:0:0:0:s_064.ogg
460,192,41766,1,0,0:0:0:0:s_044.ogg
256,192,41850,1,0,0:0:0:0:s_064.ogg
51,192,41933,1,0,0:0:0:0:s_028.ogg
460,192,41933,1,0,0:0:0:0:s_076.ogg
256,192,42016,1,0,0:0:0:0:s_064.ogg
153,192,42100,1,0,0:0:0:0:s_050.ogg
358,192,42100,1,0,0:0:0:0:s_064.ogg
460,192,42100,1,0,0:0:0:0:s_040.ogg
51,192,42183,1,0,0:0:0:0:s_052.ogg
256,192,42266,1,0,0:0:0:0:s_064.ogg
460,192,42266,1,0,0:0:0:0:s_035.ogg
51,192,42350,1,0,0:0:0:0:s_052.ogg
153,192,42433,1,0,0:0:0:0:s_052.ogg
358,192,42433,1,0,0:0:0:0:s_050.ogg
460,192,42433,1,0,0:0:0:0:s_040.ogg
51,192,42516,1,0,0:0:0:0:s_052.ogg
256,192,42600,1,0,0:0:0:0:s_064.ogg
460,192,42600,1,0,0:0:0:0:s_028.ogg
51,192,42683,1,0,0:0:0:0:s_052.ogg
153,192,42766,1,0,0:0:0:0:s_052.ogg
358,192,42766,1,0,0:0:0:0:s_050.ogg
460,192,42766,1,0,0:0:0:0:s_040.ogg
51,192,42850,1,0,0:0:0:0:s_052.ogg
256,192,42933,1,0,0:0:0:0:s_064.ogg
460,192,42933,1,0,0:0:0:0:s_033.ogg
51,192,43016,1,0,0:0:0:0:s_052.ogg
153,192,43100,1,0,0:0:0:0:s_040.ogg
358,192,43100,1,0,0:0:0:0:s_064.ogg
460,192,43100,1,0,0:0:0:0:s_049.ogg
256,192,43183,1,0,0:0:0:0:s_064.ogg
51,192,43266,1,0,0:0:0:0:s_028.ogg
460,192,43266,1,0,0:0:0:0:s_076.ogg
256,192,43350,1,0,0:0:0:0:s_064.ogg
153,192,43433,1,0,0:0:0:0:s_040.ogg
358,192,43433,1,0,0:0:0:0:s_064.ogg
460,192,43433,1,0,0:0:0:0:s_049.ogg
51,192,43516,1,0,0:0:0:0:s_052.ogg
256,192,43600,1,0,0:0:0:0:s_064.ogg
460,192,43600,1,0,0:0:0:0:s_033.ogg
51,192,43683,1,0,0:0:0:0:s_052.ogg
153,192,43766,1,0,0:0:0:0:s_052.ogg
358,192,43766,1,0,0:0:0:0:s_040.ogg
460,192,43766,1,0,0:0:0:0:s_049.ogg
51,192,43850,1,0,0:0:0:0:s_052.ogg
256,192,43933,1,0,0:0:0:0:s_064.ogg
460,192,43933,1,0,0:0:0:0:s_028.ogg
51,192,44016,1,0,0:0:0:0:s_052.ogg
153,192,44100,1,0,0:0:0:0:s_052.ogg
358,192,44100,1,0,0:0:0:0:s_045.ogg
460,192,44100,1,0,0:0:0:0:s_049.ogg
51,192,44183,1,0,0:0:0:0:s_052.ogg
256,192,44266,1,0,0:0:0:0:s_064.ogg
460,192,44266,1,0,0:0:0:0:s_035.ogg
51,192,44350,1,0,0:0:0:0:s_052.ogg
153,192,44433,1,0,0:0:0:0:s_040.ogg
358,192,44433,1,0,0:0:0:0:s_064.ogg
460,192,44433,1,0,0:0:0:0:s_050.ogg
256,192,44516,1,0,0:0:0:0:s_064.ogg
51,192,44600,1,0,0:0:0:0:s_028.ogg
460,192,44600,1,0,0:0:0:0:s_076.ogg
256,192,44683,1,0,0:0:0:0:s_064.ogg
153,192,44766,1,0,0:0:0:0:s_050.ogg
358,192,44766,1,0,0:0:0:0:s_064.ogg
460,192,44766,1,0,0:0:0:0:s_040.ogg
51,192,44850,1,0,0:0:0:0:s_052.ogg
256,192,44933,1,0,0:0:0:0:s_064.ogg
358,192,44933,1,0,0:0:0:0:s_035.ogg
51,192,45016,1,0,0:0:0:0:s_052.ogg
153,192,45100,1,0,0:0:0:0:s_064.ogg
358,192,45100,1,0,0:0:0:0:s_040.ogg
460,192,45100,1,0,0:0:0:0:s_050.ogg
256,192,45183,1,0,0:0:0:0:s_064.ogg
51,192,45266,1,0,0:0:0:0:s_028.ogg
460,192,45266,1,0,0:0:0:0:s_076.ogg
256,192,45350,1,0,0:0:0:0:s_064.ogg
153,192,45433,1,0,0:0:0:0:s_064.ogg
358,192,45433,1,0,0:0:0:0:s_040.ogg
460,192,45433,1,0,0:0:0:0:s_050.ogg
51,192,45516,1,0,0:0:0:0:s_052.ogg
153,192,45600,1,0,0:0:0:0:s_033.ogg
256,192,45600,1,0,0:0:0:0:s_064.ogg
51,192,45683,1,0,0:0:0:0:s_052.ogg
153,192,45766,1,0,0:0:0:0:s_045.ogg
358,192,45766,1,0,0:0:0:0:s_064.ogg
460,192,45766,1,0,0:0:0:0:s_049.ogg
256,192,45850,1,0,0:0:0:0:s_064.ogg
51,192,45933,1,0,0:0:0:0:s_028.ogg
460,192,45933,1,0,0:0:0:0:s_076.ogg
256,192,46016,1,0,0:0:0:0:s_064.ogg
153,192,46100,1,0,0:0:0:0:s_040.ogg
358,192,46100,1,0,0:0:0:0:s_064.ogg
460,192,46100,1,0,0:0:0:0:s_049.ogg
51,192,46183,1,0,0:0:0:0:s_052.ogg
256,192,46266,1,0,0:0:0:0:s_064.ogg
358,192,46266,1,0,0:0:0:0:s_033.ogg
51,192,46350,1,0,0:0:0:0:s_052.ogg
153,192,46433,1,0,0:0:0:0:s_064.ogg
358,192,46433,1,0,0:0:0:0:s_040.ogg
460,192,46433,1,0,0:0:0:0:s_049.ogg
256,192,46516,1,0,0:0:0:0:s_064.ogg
51,192,46600,1,0,0:0:0:0:s_028.ogg
460,192,46600,1,0,0:0:0:0:s_076.ogg
256,192,46683,1,0,0:0:0:0:s_064.ogg
153,192,46766,1,0,0:0:0:0:s_064.ogg
358,192,46766,1,0,0:0:0:0:s_049.ogg
460,192,46766,1,0,0:0:0:0:s_040.ogg
51,192,46850,1,0,0:0:0:0:s_052.ogg
153,192,46933,1,0,0:0:0:0:s_056.ogg
256,192,46933,1,0,0:0:0:0:s_051.ogg
358,192,46933,1,0,0:0:0:0:s_063.ogg
256,192,47183,1,0,0:0:0:0:s_052.ogg
358,192,47183,1,0,0:0:0:0:s_059.ogg
460,192,47183,1,0,0:0:0:0:s_064.ogg
51,192,47433,1,0,0:0:0:0:m_056.ogg
153,192,47433,1,0,0:0:0:0:m_062.ogg
256,192,47433,1,0,0:0:0:0:m_050.ogg
153,192,47683,1,0,0:0:0:0:s_040.ogg
358,192,47683,1,0,0:0:0:0:s_044.ogg
51,192,47808,1,0,0:0:0:0:s_052.ogg
460,192,47808,1,0,0:0:0:0:s_064.ogg
153,192,47933,1,0,0:0:0:0:s_051.ogg
256,192,47933,1,0,0:0:0:0:s_056.ogg
358,192,47933,1,0,0:0:0:0:s_063.ogg
256,192,48183,1,0,0:0:0:0:s_059.ogg
358,192,48183,1,0,0:0:0:0:s_052.ogg
460,192,48183,1,0,0:0:0:0:s_064.ogg
51,192,48433,1,0,0:0:0:0:m_050.ogg
153,192,48433,1,0,0:0:0:0:m_056.ogg
256,192,48433,1,0,0:0:0:0:m_062.ogg
51,192,48683,1,0,0:0:0:0:s_044.ogg
153,192,48683,1,0,0:0:0:0:s_035.ogg
358,192,48808,1,0,0:0:0:0:s_052.ogg
460,192,48808,1,0,0:0:0:0:s_064.ogg
51,192,48933,1,0,0:0:0:0:s_051.ogg
153,192,48933,1,0,0:0:0:0:s_060.ogg
256,192,48933,1,0,0:0:0:0:s_063.ogg
256,192,49133,1,0,0:0:0:0:s_061.ogg
358,192,49133,1,0,0:0:0:0:s_064.ogg
460,192,49133,1,0,0:0:0:0:s_052.ogg
153,192,49333,1,0,0:0:0:0:m_049.ogg
256,192,49333,1,0,0:0:0:0:m_061.ogg
358,192,49333,1,0,0:0:0:0:m_057.ogg
51,192,49533,1,0,0:0:0:0:s_037.ogg
153,192,49533,1,0,0:0:0:0:s_045.ogg
358,192,49633,1,0,0:0:0:0:s_052.ogg
460,192,49633,1,0,0:0:0:0:s_064.ogg
51,192,49733,1,0,0:0:0:0:s_051.ogg
153,192,49733,1,0,0:0:0:0:s_060.ogg
256,192,49733,1,0,0:0:0:0:s_063.ogg
256,192,49933,1,0,0:0:0:0:s_064.ogg
358,192,49933,1,0,0:0:0:0:s_061.ogg
460,192,49933,1,0,0:0:0:0:s_052.ogg
153,192,50133,1,0,0:0:0:0:m_061.ogg
256,192,50133,1,0,0:0:0:0:m_057.ogg
358,192,50133,1,0,0:0:0:0:m_049.ogg
51,192,50333,1,0,0:0:0:0:s_040.ogg
153,192,50333,1,0,0:0:0:0:s_037.ogg
358,192,50433,1,0,0:0:0:0:s_064.ogg
460,192,50433,1,0,0:0:0:0:s_061.ogg
51,192,50533,1,0,0:0:0:0:s_023.ogg
153,192,50533,1,0,0:0:0:0:s_063.ogg
256,192,50533,1,0,0:0:0:0:s_051.ogg
153,192,50700,1,0,0:0:0:0:s_064.ogg
256,192,50700,1,0,0:0:0:0:s_059.ogg
358,192,50700,1,0,0:0:0:0:s_052.ogg
256,192,50866,1,0,0:0:0:0:m_066.ogg
358,192,50866,1,0,0:0:0:0:m_062.ogg
460,192,50866,1,0,0:0:0:0:m_054.ogg
51,192,51033,1,0,0:0:0:0:s_044.ogg
153,192,51033,1,0,0:0:0:0:s_038.ogg
358,192,51116,1,0,0:0:0:0:s_059.ogg
460,192,51116,1,0,0:0:0:0:s_052.ogg
51,192,51200,1,0,0:0:0:0:s_023.ogg
153,192,51200,1,0,0:0:0:0:s_063.ogg
256,192,51200,1,0,0:0:0:0:s_051.ogg
153,192,51366,1,0,0:0:0:0:s_064.ogg
256,192,51366,1,0,0:0:0:0:s_059.ogg
358,192,51366,1,0,0:0:0:0:s_052.ogg
256,192,51533,1,0,0:0:0:0:m_054.ogg
358,192,51533,1,0,0:0:0:0:m_066.ogg
460,192,51533,1,0,0:0:0:0:m_062.ogg
51,192,51700,1,0,0:0:0:0:s_040.ogg
153,192,51700,1,0,0:0:0:0:s_044.ogg
358,192,51783,1,0,0:0:0:0:s_059.ogg
460,192,51783,1,0,0:0:0:0:s_052.ogg
51,192,51866,1,0,0:0:0:0:s_051.ogg
153,192,51866,1,0,0:0:0:0:s_060.ogg
256,192,51866,1,0,0:0:0:0:s_063.ogg
153,192,52033,1,0,0:0:0:0:s_064.ogg
256,192,52033,1,0,0:0:0:0:s_061.ogg
358,192,52033,1,0,0:0:0:0:s_052.ogg
256,192,52200,1,0,0:0:0:0:m_069.ogg
358,192,52200,1,0,0:0:0:0:m_057.ogg
460,192,52200,1,0,0:0:0:0:m_061.ogg
51,192,52366,1,0,0:0:0:0:s_045.ogg
153,192,52366,1,0,0:0:0:0:s_037.ogg
358,192,52450,1,0,0:0:0:0:s_064.ogg
460,192,52450,1,0,0:0:0:0:s_052.ogg
51,192,52533,1,0,0:0:0:0:s_060.ogg
153,192,52533,1,0,0:0:0:0:s_063.ogg
256,192,52533,1,0,0:0:0:0:s_051.ogg
153,192,52700,1,0,0:0:0:0:s_061.ogg
256,192,52700,1,0,0:0:0:0:s_052.ogg
358,192,52700,1,0,0:0:0:0:s_064.ogg
256,192,52866,1,0,0:0:0:0:m_061.ogg
358,192,52866,1,0,0:0:0:0:m_057.ogg
460,192,52866,1,0,0:0:0:0:m_069.ogg
153,192,53033,1,0,0:0:0:0:s_037.ogg
358,192,53033,1,0,0:0:0:0:s_045.ogg
51,192,53116,1,0,0:0:0:0:s_064.ogg
460,192,53116,1,0,0:0:0:0:s_052.ogg
153,192,53200,1,0,0:0:0:0:s_051.ogg
256,192,53200,1,0,0:0:0:0:s_063.ogg
358,192,53200,1,0,0:0:0:0:s_056.ogg
256,192,53366,1,0,0:0:0:0:s_044.ogg
358,192,53366,1,0,0:0:0:0:s_064.ogg
460,192,53366,1,0,0:0:0:0:s_052.ogg
51,192,53533,1,0,0:0:0:0:m_062.ogg
153,192,53533,1,0,0:0:0:0:m_056.ogg
256,192,53533,1,0,0:0:0:0:m_050.ogg
153,192,53700,1,0,0:0:0:0:s_040.ogg
358,192,53700,1,0,0:0:0:0:s_035.ogg
51,192,53783,1,0,0:0:0:0:s_052.ogg
460,192,53783,1,0,0:0:0:0:s_064.ogg
153,192,53866,1,0,0:0:0:0:s_063.ogg
256,192,53866,1,0,0:0:0:0:s_056.ogg
358,192,53866,1,0,0:0:0:0:s_051.ogg
256,192,54033,1,0,0:0:0:0:s_044.ogg
358,192,54033,1,0,0:0:0:0:s_064.ogg
460,192,54033,1,0,0:0:0:0:s_052.ogg
51,192,54200,1,0,0:0:0:0:m_050.ogg
153,192,54200,1,0,0:0:0:0:m_056.ogg
256,192,54200,1,0,0:0:0:0:m_062.ogg
51,192,54366,1,0,0:0:0:0:s_044.ogg
153,192,54366,1,0,0:0:0:0:s_035.ogg
358,192,54450,1,0,0:0:0:0:s_052.ogg
460,192,54450,1,0,0:0:0:0:s_064.ogg
51,192,54533,1,0,0:0:0:0:s_051.ogg
153,192,54533,1,0,0:0:0:0:s_063.ogg
256,192,54533,1,0,0:0:0:0:s_060.ogg
256,192,54700,1,0,0:0:0:0:s_064.ogg
358,192,54700,1,0,0:0:0:0:s_061.ogg
460,192,54700,1,0,0:0:0:0:s_052.ogg
153,192,54866,1,0,0:0:0:0:m_061.ogg
256,192,54866,1,0,0:0:0:0:m_057.ogg
358,192,54866,1,0,0:0:0:0:m_049.ogg
51,192,55033,1,0,0:0:0:0:s_040.ogg
153,192,55033,1,0,0:0:0:0:s_045.ogg
358,192,55116,1,0,0:0:0:0:s_061.ogg
460,192,55116,1,0,0:0:0:0:s_052.ogg
51,192,55200,1,0,0:0:0:0:s_063.ogg
153,192,55200,1,0,0:0:0:0:s_060.ogg
256,192,55200,1,0,0:0:0:0:s_051.ogg
256,192,55366,1,0,0:0:0:0:s_052.ogg
358,192,55366,1,0,0:0:0:0:s_061.ogg
460,192,55366,1,0,0:0:0:0:s_064.ogg
153,192,55533,1,0,0:0:0:0:m_061.ogg
256,192,55533,1,0,0:0:0:0:m_049.ogg
358,192,55533,1,0,0:0:0:0:m_057.ogg
51,192,55700,1,0,0:0:0:0:s_040.ogg
153,192,55700,1,0,0:0:0:0:s_037.ogg
358,192,55783,1,0,0:0:0:0:s_064.ogg
460,192,55783,1,0,0:0:0:0:s_061.ogg
51,192,55866,1,0,0:0:0:0:s_051.ogg
153,192,55866,1,0,0:0:0:0:s_063.ogg
256,192,55866,1,0,0:0:0:0:s_035.ogg
153,192,56033,1,0,0:0:0:0:s_064.ogg
256,192,56033,1,0,0:0:0:0:s_059.ogg
358,192,56033,1,0,0:0:0:0:s_052.ogg
256,192,56200,1,0,0:0:0:0:m_054.ogg
358,192,56200,1,0,0:0:0:0:m_066.ogg
460,192,56200,1,0,0:0:0:0:m_062.ogg
51,192,56366,1,0,0:0:0:0:s_044.ogg
153,192,56366,1,0,0:0:0:0:s_035.ogg
358,192,56450,1,0,0:0:0:0:s_064.ogg
460,192,56450,1,0,0:0:0:0:s_052.ogg
51,192,56533,1,0,0:0:0:0:s_063.ogg
153,192,56533,1,0,0:0:0:0:s_051.ogg
256,192,56533,1,0,0:0:0:0:s_023.ogg
153,192,56700,1,0,0:0:0:0:s_064.ogg
256,192,56700,1,0,0:0:0:0:s_052.ogg
358,192,56700,1,0,0:0:0:0:s_059.ogg
256,192,56866,1,0,0:0:0:0:m_066.ogg
358,192,56866,1,0,0:0:0:0:m_062.ogg
460,192,56866,1,0,0:0:0:0:m_054.ogg
51,192,57033,1,0,0:0:0:0:s_044.ogg
153,192,57033,1,0,0:0:0:0:s_035.ogg
358,192,57116,1,0,0:0:0:0:s_059.ogg
460,192,57116,1,0,0:0:0:0:s_052.ogg
51,192,57200,1,0,0:0:0:0:s_033.ogg
153,192,57200,1,0,0:0:0:0:s_063.ogg
256,192,57200,1,0,0:0:0:0:s_060.ogg
153,192,57366,1,0,0:0:0:0:s_064.ogg
256,192,57366,1,0,0:0:0:0:s_061.ogg
358,192,57366,1,0,0:0:0:0:s_052.ogg
256,192,57533,1,0,0:0:0:0:m_061.ogg
358,192,57533,1,0,0:0:0:0:m_069.ogg
460,192,57533,1,0,0:0:0:0:m_057.ogg
51,192,57700,1,0,0:0:0:0:s_037.ogg
153,192,57700,1,0,0:0:0:0:s_040.ogg
358,192,57783,1,0,0:0:0:0:s_064.ogg
460,192,57783,1,0,0:0:0:0:s_052.ogg
51,192,57866,1,0,0:0:0:0:s_063.ogg
153,192,57866,1,0,0:0:0:0:s_060.ogg
256,192,57866,1,0,0:0:0:0:s_051.ogg
153,192,58033,1,0,0:0:0:0:s_064.ogg
256,192,58033,1,0,0:0:0:0:s_052.ogg
358,192,58033,1,0,0:0:0:0:s_061.ogg
256,192,58200,1,0,0:0:0:0:m_069.ogg
358,192,58200,1,0,0:0:0:0:m_061.ogg
460,192,58200,1,0,0:0:0:0:m_057.ogg
51,192,58366,1,0,0:0:0:0:s_045.ogg
358,192,58366,1,0,0:0:0:0:s_040.ogg
153,192,58450,1,0,0:0:0:0:s_052.ogg
256,192,58450,1,0,0:0:0:0:s_064.ogg
51,192,58533,1,0,0:0:0:0:s_066.ogg
358,192,58533,1,0,0:0:0:0:s_062.ogg
460,192,58533,1,0,0:0:0:0:s_054.ogg
153,192,58700,1,0,0:0:0:0:s_042.ogg
256,192,58700,1,0,0:0:0:0:s_057.ogg
460,192,58700,1,0,0:0:0:0:s_062.ogg
51,192,58866,1,0,0:0:0:0:s_028.ogg
256,192,58866,1,0,0:0:0:0:s_054.ogg
358,192,58866,1,0,0:0:0:0:s_057.ogg
153,192,59033,1,0,0:0:0:0:s_050.ogg
358,192,59033,1,0,0:0:0:0:s_054.ogg
460,192,59033,1,0,0:0:0:0:s_042.ogg
51,192,59200,1,0,0:0:0:0:s_033.ogg
153,192,59200,1,0,0:0:0:0:s_054.ogg
256,192,59200,1,0,0:0:0:0:s_057.ogg
153,192,59366,1,0,0:0:0:0:s_062.ogg
358,192,59366,1,0,0:0:0:0:s_057.ogg
460,192,59366,1,0,0:0:0:0:s_038.ogg
51,192,59533,1,0,0:0:0:0:s_028.ogg
256,192,59533,1,0,0:0:0:0:s_062.ogg
358,192,59533,1,0,0:0:0:0:s_066.ogg
153,192,59700,1,0,0:0:0:0:s_042.ogg
256,192,59700,1,0,0:0:0:0:s_066.ogg
460,192,59700,1,0,0:0:0:0:s_069.ogg
51,192,59866,1,0,0:0:0:0:s_052.ogg
358,192,59866,1,0,0:0:0:0:s_064.ogg
460,192,59866,1,0,0:0:0:0:s_061.ogg
153,192,60033,1,0,0:0:0:0:s_040.ogg
256,192,60033,1,0,0:0:0:0:s_061.ogg
460,192,60033,1,0,0:0:0:0:s_057.ogg
51,192,60200,1,0,0:0:0:0:s_028.ogg
256,192,60200,1,0,0:0:0:0:s_057.ogg
358,192,60200,1,0,0:0:0:0:s_052.ogg
153,192,60366,1,0,0:0:0:0:s_052.ogg
358,192,60366,1,0,0:0:0:0:s_049.ogg
460,192,60366,1,0,0:0:0:0:s_045.ogg
51,192,60533,1,0,0:0:0:0:s_033.ogg
153,192,60533,1,0,0:0:0:0:s_052.ogg
256,192,60533,1,0,0:0:0:0:s_057.ogg
153,192,60700,1,0,0:0:0:0:s_061.ogg
358,192,60700,1,0,0:0:0:0:s_057.ogg
460,192,60700,1,0,0:0:0:0:s_040.ogg
256,192,60866,1,0,0:0:0:0:m_052.ogg
460,192,60866,128,0,61116:0:0:0:0:m_064.ogg
358,192,60866,128,0,61116:0:0:0:0:m_061.ogg
51,192,60866,128,0,61116:0:0:0:0:m_057.ogg
153,192,61033,1,0,0:0:0:0:s_040.ogg
256,192,61033,1,0,0:0:0:0:s_045.ogg
51,192,61200,1,0,0:0:0:0:s_054.ogg
460,192,61200,1,0,0:0:0:0:s_033.ogg
153,192,61220,1,0,0:0:0:0:s_057.ogg
256,192,61241,1,0,0:0:0:0:s_062.ogg
358,192,61262,1,0,0:0:0:0:s_066.ogg
51,192,61366,1,0,0:0:0:0:s_062.ogg
153,192,61366,1,0,0:0:0:0:s_038.ogg
460,192,61366,1,0,0:0:0:0:s_057.ogg
51,192,61533,1,0,0:0:0:0:s_028.ogg
256,192,61533,1,0,0:0:0:0:s_054.ogg
358,192,61533,1,0,0:0:0:0:s_057.ogg
153,192,61700,1,0,0:0:0:0:s_050.ogg
358,192,61700,1,0,0:0:0:0:s_054.ogg
460,192,61700,1,0,0:0:0:0:s_045.ogg
51,192,61866,1,0,0:0:0:0:s_033.ogg
153,192,61866,1,0,0:0:0:0:s_054.ogg
256,192,61866,1,0,0:0:0:0:s_057.ogg
153,192,62033,1,0,0:0:0:0:s_057.ogg
358,192,62033,1,0,0:0:0:0:s_062.ogg
460,192,62033,1,0,0:0:0:0:s_038.ogg
51,192,62200,1,0,0:0:0:0:s_028.ogg
256,192,62200,1,0,0:0:0:0:s_066.ogg
358,192,62200,1,0,0:0:0:0:s_062.ogg
153,192,62366,1,0,0:0:0:0:s_042.ogg
256,192,62366,1,0,0:0:0:0:s_069.ogg
460,192,62366,1,0,0:0:0:0:s_066.ogg
51,192,62533,1,0,0:0:0:0:s_064.ogg
358,192,62533,1,0,0:0:0:0:s_052.ogg
460,192,62533,1,0,0:0:0:0:s_061.ogg
153,192,62700,1,0,0:0:0:0:s_040.ogg
256,192,62700,1,0,0:0:0:0:s_061.ogg
460,192,62700,1,0,0:0:0:0:s_057.ogg
51,192,62866,1,0,0:0:0:0:s_028.ogg
256,192,62866,1,0,0:0:0:0:s_057.ogg
358,192,62866,1,0,0:0:0:0:s_052.ogg
153,192,63033,1,0,0:0:0:0:s_049.ogg
358,192,63033,1,0,0:0:0:0:s_052.ogg
460,192,63033,1,0,0:0:0:0:s_040.ogg
51,192,63200,1,0,0:0:0:0:s_033.ogg
153,192,63200,1,0,0:0:0:0:s_057.ogg
256,192,63200,1,0,0:0:0:0:s_052.ogg
153,192,63366,1,0,0:0:0:0:s_057.ogg
358,192,63366,1,0,0:0:0:0:s_061.ogg
460,192,63366,1,0,0:0:0:0:s_040.ogg
256,192,63533,1,0,0:0:0:0:m_057.ogg
460,192,63533,128,0,63783:0:0:0:0:m_064.ogg
358,192,63533,128,0,63783:0:0:0:0:m_061.ogg
51,192,63533,128,0,63783:0:0:0:0:m_052.ogg
153,192,63700,1,0,0:0:0:0:s_040.ogg
256,192,63700,1,0,0:0:0:0:s_045.ogg
153,192,63866,1,0,0:0:0:0:s_063.ogg
358,192,63866,1,0,0:0:0:0:s_035.ogg
460,192,63950,1,0,0:0:0:0:s_076.ogg
153,192,64033,1,0,0:0:0:0:s_040.ogg
256,192,64033,1,0,0:0:0:0:s_064.ogg
460,192,64116,1,0,0:0:0:0:s_076.ogg
51,192,64200,1,0,0:0:0:0:s_062.ogg
256,192,64200,1,0,0:0:0:0:s_028.ogg
460,192,64283,1,0,0:0:0:0:s_076.ogg
153,192,64366,1,0,0:0:0:0:s_044.ogg
256,192,64366,1,0,0:0:0:0:s_064.ogg
460,192,64450,1,0,0:0:0:0:s_076.ogg
153,192,64533,1,0,0:0:0:0:s_063.ogg
358,192,64533,1,0,0:0:0:0:s_047.ogg
460,192,64616,1,0,0:0:0:0:s_076.ogg
256,192,64700,1,0,0:0:0:0:s_064.ogg
358,192,64700,1,0,0:0:0:0:s_056.ogg
460,192,64783,1,0,0:0:0:0:s_076.ogg
51,192,64866,1,0,0:0:0:0:s_062.ogg
256,192,64866,1,0,0:0:0:0:s_040.ogg
460,192,64950,1,0,0:0:0:0:s_076.ogg
256,192,65033,1,0,0:0:0:0:s_064.ogg
358,192,65033,1,0,0:0:0:0:s_052.ogg
460,192,65116,1,0,0:0:0:0:s_076.ogg
153,192,65200,1,0,0:0:0:0:s_063.ogg
358,192,65200,1,0,0:0:0:0:s_033.ogg
460,192,65283,1,0,0:0:0:0:s_076.ogg
153,192,65366,1,0,0:0:0:0:s_045.ogg
256,192,65366,1,0,0:0:0:0:s_064.ogg
460,192,65450,1,0,0:0:0:0:s_076.ogg
51,192,65533,1,0,0:0:0:0:s_061.ogg
256,192,65533,1,0,0:0:0:0:s_028.ogg
460,192,65616,1,0,0:0:0:0:s_076.ogg
153,192,65700,1,0,0:0:0:0:s_045.ogg
256,192,65700,1,0,0:0:0:0:s_064.ogg
460,192,65783,1,0,0:0:0:0:s_076.ogg
153,192,65866,1,0,0:0:0:0:s_063.ogg
358,192,65866,1,0,0:0:0:0:s_049.ogg
460,192,65950,1,0,0:0:0:0:s_076.ogg
256,192,66033,1,0,0:0:0:0:s_064.ogg
358,192,66033,1,0,0:0:0:0:s_052.ogg
460,192,66116,1,0,0:0:0:0:s_076.ogg
51,192,66200,1,0,0:0:0:0:s_061.ogg
256,192,66200,1,0,0:0:0:0:s_045.ogg
460,192,66283,1,0,0:0:0:0:s_076.ogg
256,192,66366,1,0,0:0:0:0:s_064.ogg
358,192,66366,1,0,0:0:0:0:s_052.ogg
460,192,66450,1,0,0:0:0:0:s_076.ogg
51,192,66533,1,0,0:0:0:0:s_035.ogg
153,192,66533,1,0,0:0:0:0:s_063.ogg
460,192,66616,1,0,0:0:0:0:s_076.ogg
153,192,66700,1,0,0:0:0:0:s_044.ogg
256,192,66700,1,0,0:0:0:0:s_064.ogg
460,192,66783,1,0,0:0:0:0:s_076.ogg
51,192,66866,1,0,0:0:0:0:s_068.ogg
256,192,66866,1,0,0:0:0:0:s_028.ogg
358,192,66866,1,0,0:0:0:0:s_062.ogg
460,192,66950,1,0,0:0:0:0:s_076.ogg
153,192,67033,1,0,0:0:0:0:s_040.ogg
256,192,67033,1,0,0:0:0:0:s_064.ogg
460,192,67116,1,0,0:0:0:0:s_076.ogg
51,192,67200,1,0,0:0:0:0:s_047.ogg
153,192,67200,1,0,0:0:0:0:s_063.ogg
460,192,67283,1,0,0:0:0:0:s_076.ogg
51,192,67366,1,0,0:0:0:0:s_064.ogg
256,192,67366,1,0,0:0:0:0:s_052.ogg
460,192,67450,1,0,0:0:0:0:s_076.ogg
153,192,67533,1,0,0:0:0:0:s_040.ogg
256,192,67533,1,0,0:0:0:0:s_068.ogg
358,192,67533,1,0,0:0:0:0:s_062.ogg
460,192,67616,1,0,0:0:0:0:s_076.ogg
51,192,67700,1,0,0:0:0:0:s_056.ogg
256,192,67700,1,0,0:0:0:0:s_064.ogg
460,192,67783,1,0,0:0:0:0:s_076.ogg
51,192,67866,1,0,0:0:0:0:s_033.ogg
153,192,67866,1,0,0:0:0:0:s_061.ogg
460,192,67950,1,0,0:0:0:0:s_076.ogg
153,192,68033,1,0,0:0:0:0:s_037.ogg
256,192,68033,1,0,0:0:0:0:s_064.ogg
460,192,68116,1,0,0:0:0:0:s_076.ogg
51,192,68200,1,0,0:0:0:0:s_061.ogg
256,192,68200,1,0,0:0:0:0:s_028.ogg
358,192,68200,1,0,0:0:0:0:s_069.ogg
460,192,68283,1,0,0:0:0:0:s_076.ogg
153,192,68366,1,0,0:0:0:0:s_037.ogg
256,192,68366,1,0,0:0:0:0:s_064.ogg
460,192,68450,1,0,0:0:0:0:s_076.ogg
51,192,68533,1,0,0:0:0:0:s_049.ogg
153,192,68533,1,0,0:0:0:0:s_061.ogg
460,192,68616,1,0,0:0:0:0:s_076.ogg
51,192,68700,1,0,0:0:0:0:s_064.ogg
256,192,68700,1,0,0:0:0:0:s_052.ogg
460,192,68783,1,0,0:0:0:0:s_076.ogg
153,192,68866,1,0,0:0:0:0:s_045.ogg
256,192,68866,1,0,0:0:0:0:s_061.ogg
358,192,68866,1,0,0:0:0:0:s_069.ogg
460,192,68950,1,0,0:0:0:0:s_076.ogg
51,192,69033,1,0,0:0:0:0:s_057.ogg
256,192,69033,1,0,0:0:0:0:s_064.ogg
460,192,69116,1,0,0:0:0:0:s_076.ogg
256,192,69200,1,0,0:0:0:0:s_045.ogg
358,192,69200,1,0,0:0:0:0:s_066.ogg
460,192,69283,1,0,0:0:0:0:s_076.ogg
153,192,69366,1,0,0:0:0:0:s_062.ogg
358,192,69366,1,0,0:0:0:0:s_054.ogg
460,192,69450,1,0,0:0:0:0:s_076.ogg
51,192,69533,1,0,0:0:0:0:s_061.ogg
153,192,69533,1,0,0:0:0:0:s_040.ogg
460,192,69616,1,0,0:0:0:0:s_076.ogg
51,192,69700,1,0,0:0:0:0:s_062.ogg
256,192,69700,1,0,0:0:0:0:s_057.ogg
460,192,69783,1,0,0:0:0:0:s_076.ogg
153,192,69866,1,0,0:0:0:0:s_066.ogg
358,192,69866,1,0,0:0:0:0:s_045.ogg
460,192,69950,1,0,0:0:0:0:s_076.ogg
51,192,70033,1,0,0:0:0:0:s_062.ogg
256,192,70033,1,0,0:0:0:0:s_057.ogg
460,192,70116,1,0,0:0:0:0:s_076.ogg
256,192,70200,1,0,0:0:0:0:s_050.ogg
358,192,70200,1,0,0:0:0:0:s_069.ogg
460,192,70283,1,0,0:0:0:0:s_076.ogg
51,192,70366,1,0,0:0:0:0:s_054.ogg
153,192,70366,1,0,0:0:0:0:s_066.ogg
460,192,70450,1,0,0:0:0:0:s_076.ogg
256,192,70533,1,0,0:0:0:0:s_064.ogg
358,192,70533,1,0,0:0:0:0:s_045.ogg
460,192,70616,1,0,0:0:0:0:s_076.ogg
153,192,70700,1,0,0:0:0:0:s_061.ogg
358,192,70700,1,0,0:0:0:0:s_049.ogg
460,192,70783,1,0,0:0:0:0:s_076.ogg
51,192,70866,1,0,0:0:0:0:s_060.ogg
153,192,70866,1,0,0:0:0:0:s_040.ogg
460,192,70950,1,0,0:0:0:0:s_076.ogg
51,192,71033,1,0,0:0:0:0:s_061.ogg
256,192,71033,1,0,0:0:0:0:s_052.ogg
460,192,71116,1,0,0:0:0:0:s_076.ogg
153,192,71200,1,0,0:0:0:0:s_064.ogg
358,192,71200,1,0,0:0:0:0:s_045.ogg
460,192,71283,1,0,0:0:0:0:s_076.ogg
51,192,71366,1,0,0:0:0:0:s_061.ogg
256,192,71366,1,0,0:0:0:0:s_052.ogg
460,192,71450,1,0,0:0:0:0:s_076.ogg
256,192,71533,1,0,0:0:0:0:s_049.ogg
358,192,71533,1,0,0:0:0:0:s_069.ogg
460,192,71616,1,0,0:0:0:0:s_076.ogg
51,192,71700,1,0,0:0:0:0:s_057.ogg
153,192,71700,1,0,0:0:0:0:s_064.ogg
460,192,71783,1,0,0:0:0:0:s_076.ogg
256,192,71866,1,0,0:0:0:0:s_066.ogg
358,192,71866,1,0,0:0:0:0:s_045.ogg
460,192,71950,1,0,0:0:0:0:s_076.ogg
153,192,72033,1,0,0:0:0:0:s_062.ogg
358,192,72033,1,0,0:0:0:0:s_050.ogg
460,192,72116,1,0,0:0:0:0:s_076.ogg
51,192,72200,1,0,0:0:0:0:s_061.ogg
153,192,72200,1,0,0:0:0:0:s_040.ogg
460,192,72283,1,0,0:0:0:0:s_076.ogg
51,192,72366,1,0,0:0:0:0:s_062.ogg
256,192,72366,1,0,0:0:0:0:s_057.ogg
460,192,72450,1,0,0:0:0:0:s_076.ogg
153,192,72533,1,0,0:0:0:0:s_066.ogg
358,192,72533,1,0,0:0:0:0:s_045.ogg
460,192,72616,1,0,0:0:0:0:s_076.ogg
51,192,72700,1,0,0:0:0:0:s_062.ogg
256,192,72700,1,0,0:0:0:0:s_054.ogg
460,192,72783,1,0,0:0:0:0:s_076.ogg
256,192,72866,1,0,0:0:0:0:s_050.ogg
358,192,72866,1,0,0:0:0:0:s_069.ogg
460,192,72950,1,0,0:0:0:0:s_076.ogg
51,192,73033,1,0,0:0:0:0:s_057.ogg
153,192,73033,1,0,0:0:0:0:s_066.ogg
460,192,73116,1,0,0:0:0:0:s_076.ogg
256,192,73200,1,0,0:0:0:0:s_064.ogg
358,192,73200,1,0,0:0:0:0:s_045.ogg
460,192,73283,1,0,0:0:0:0:s_076.ogg
153,192,73366,1,0,0:0:0:0:s_061.ogg
358,192,73366,1,0,0:0:0:0:s_049.ogg
460,192,73450,1,0,0:0:0:0:s_076.ogg
51,192,73533,1,0,0:0:0:0:s_060.ogg
153,192,73533,1,0,0:0:0:0:s_040.ogg
460,192,73616,1,0,0:0:0:0:s_076.ogg
51,192,73700,1,0,0:0:0:0:s_061.ogg
256,192,73700,1,0,0:0:0:0:s_057.ogg
460,192,73783,1,0,0:0:0:0:s_076.ogg
153,192,73866,1,0,0:0:0:0:s_064.ogg
358,192,73866,1,0,0:0:0:0:s_045.ogg
460,192,73950,1,0,0:0:0:0:s_076.ogg
51,192,74033,1,0,0:0:0:0:s_061.ogg
256,192,74033,1,0,0:0:0:0:s_057.ogg
460,192,74116,1,0,0:0:0:0:s_076.ogg
256,192,74200,1,0,0:0:0:0:s_049.ogg
358,192,74200,1,0,0:0:0:0:s_069.ogg
460,192,74283,1,0,0:0:0:0:s_076.ogg
51,192,74366,1,0,0:0:0:0:s_052.ogg
153,192,74366,1,0,0:0:0:0:s_064.ogg
460,192,74450,1,0,0:0:0:0:s_076.ogg
153,192,74533,1,0,0:0:0:0:s_068.ogg
256,192,74533,1,0,0:0:0:0:s_062.ogg
460,192,74616,1,0,0:0:0:0:s_076.ogg
256,192,74700,1,0,0:0:0:0:s_071.ogg
358,192,74700,1,0,0:0:0:0:s_064.ogg
51,192,74741,1,0,0:0:0:0:s_040.ogg
460,192,74783,1,0,0:0:0:0:s_076.ogg
153,192,74866,1,0,0:0:0:0:s_068.ogg
256,192,74866,1,0,0:0:0:0:s_062.ogg
460,192,74950,1,0,0:0:0:0:s_076.ogg
256,192,75033,1,0,0:0:0:0:s_064.ogg
358,192,75033,1,0,0:0:0:0:s_071.ogg
51,192,75075,1,0,0:0:0:0:s_044.ogg
460,192,75116,1,0,0:0:0:0:s_076.ogg
153,192,75200,1,0,0:0:0:0:s_062.ogg
256,192,75200,1,0,0:0:0:0:s_068.ogg
460,192,75283,1,0,0:0:0:0:s_076.ogg
256,192,75366,1,0,0:0:0:0:s_064.ogg
358,192,75366,1,0,0:0:0:0:s_071.ogg
51,192,75408,1,0,0:0:0:0:s_049.ogg
460,192,75450,1,0,0:0:0:0:s_076.ogg
153,192,75533,1,0,0:0:0:0:s_062.ogg
256,192,75533,1,0,0:0:0:0:s_068.ogg
460,192,75616,1,0,0:0:0:0:s_076.ogg
256,192,75700,1,0,0:0:0:0:s_064.ogg
358,192,75700,1,0,0:0:0:0:s_071.ogg
51,192,75741,1,0,0:0:0:0:s_047.ogg
460,192,75783,1,0,0:0:0:0:s_076.ogg
153,192,75866,1,0,0:0:0:0:s_061.ogg
256,192,75866,1,0,0:0:0:0:s_069.ogg
460,192,75950,1,0,0:0:0:0:s_076.ogg
153,192,76033,1,0,0:0:0:0:s_073.ogg
358,192,76033,1,0,0:0:0:0:s_064.ogg
51,192,76075,1,0,0:0:0:0:s_045.ogg
460,192,76116,1,0,0:0:0:0:s_076.ogg
153,192,76200,1,0,0:0:0:0:s_061.ogg
256,192,76200,1,0,0:0:0:0:s_069.ogg
51,192,76241,1,0,0:0:0:0:s_044.ogg
460,192,76283,1,0,0:0:0:0:s_076.ogg
153,192,76366,1,0,0:0:0:0:s_073.ogg
358,192,76366,1,0,0:0:0:0:s_064.ogg
51,192,76408,1,0,0:0:0:0:s_043.ogg
460,192,76450,1,0,0:0:0:0:s_076.ogg
153,192,76533,1,0,0:0:0:0:s_069.ogg
256,192,76533,1,0,0:0:0:0:s_061.ogg
460,192,76616,1,0,0:0:0:0:s_076.ogg
153,192,76700,1,0,0:0:0:0:s_073.ogg
358,192,76700,1,0,0:0:0:0:s_064.ogg
51,192,76741,1,0,0:0:0:0:s_042.ogg
460,192,76783,1,0,0:0:0:0:s_076.ogg
153,192,76866,1,0,0:0:0:0:s_061.ogg
256,192,76866,1,0,0:0:0:0:s_069.ogg
51,192,76908,1,0,0:0:0:0:s_041.ogg
460,192,76950,1,0,0:0:0:0:s_076.ogg
153,192,77033,1,0,0:0:0:0:s_073.ogg
358,192,77033,1,0,0:0:0:0:s_064.ogg
51,192,77075,1,0,0:0:0:0:s_040.ogg
460,192,77116,1,0,0:0:0:0:s_076.ogg
153,192,77200,1,0,0:0:0:0:s_062.ogg
256,192,77200,1,0,0:0:0:0:s_068.ogg
460,192,77283,1,0,0:0:0:0:s_076.ogg
256,192,77366,1,0,0:0:0:0:s_071.ogg
358,192,77366,1,0,0:0:0:0:s_064.ogg
51,192,77408,1,0,0:0:0:0:s_040.ogg
460,192,77450,1,0,0:0:0:0:s_076.ogg
153,192,77533,1,0,0:0:0:0:s_062.ogg
256,192,77533,1,0,0:0:0:0:s_068.ogg
460,192,77616,1,0,0:0:0:0:s_076.ogg
256,192,77700,1,0,0:0:0:0:s_071.ogg
358,192,77700,1,0,0:0:0:0:s_064.ogg
51,192,77741,1,0,0:0:0:0:s_044.ogg
460,192,77783,1,0,0:0:0:0:s_076.ogg
153,192,77866,1,0,0:0:0:0:s_062.ogg
256,192,77866,1,0,0:0:0:0:s_068.ogg
460,192,77950,1,0,0:0:0:0:s_076.ogg
256,192,78033,1,0,0:0:0:0:s_071.ogg
358,192,78033,1,0,0:0:0:0:s_064.ogg
51,192,78075,1,0,0:0:0:0:s_049.ogg
460,192,78116,1,0,0:0:0:0:s_076.ogg
153,192,78200,1,0,0:0:0:0:s_062.ogg
256,192,78200,1,0,0:0:0:0:s_068.ogg
460,192,78283,1,0,0:0:0:0:s_076.ogg
256,192,78366,1,0,0:0:0:0:s_064.ogg
358,192,78366,1,0,0:0:0:0:s_071.ogg
51,192,78408,1,0,0:0:0:0:s_047.ogg
460,192,78450,1,0,0:0:0:0:s_076.ogg
153,192,78533,1,0,0:0:0:0:s_069.ogg
256,192,78533,1,0,0:0:0:0:s_061.ogg
460,192,78616,1,0,0:0:0:0:s_076.ogg
153,192,78700,1,0,0:0:0:0:s_073.ogg
358,192,78700,1,0,0:0:0:0:s_064.ogg
51,192,78741,1,0,0:0:0:0:s_045.ogg
460,192,78783,1,0,0:0:0:0:s_076.ogg
153,192,78866,1,0,0:0:0:0:s_069.ogg
256,192,78866,1,0,0:0:0:0:s_061.ogg
51,192,78908,1,0,0:0:0:0:s_044.ogg
460,192,78950,1,0,0:0:0:0:s_076.ogg
153,192,79033,1,0,0:0:0:0:s_064.ogg
358,192,79033,1,0,0:0:0:0:s_073.ogg
51,192,79075,1,0,0:0:0:0:s_043.ogg
460,192,79116,1,0,0:0:0:0:s_076.ogg
153,192,79200,1,0,0:0:0:0:s_069.ogg
256,192,79200,1,0,0:0:0:0:s_061.ogg
460,192,79283,1,0,0:0:0:0:s_076.ogg
153,192,79366,1,0,0:0:0:0:s_073.ogg
358,192,79366,1,0,0:0:0:0:s_064.ogg
51,192,79408,1,0,0:0:0:0:s_042.ogg
460,192,79450,1,0,0:0:0:0:s_076.ogg
153,192,79533,1,0,0:0:0:0:s_061.ogg
256,192,79533,1,0,0:0:0:0:s_069.ogg
51,192,79575,1,0,0:0:0:0:s_041.ogg
460,192,79616,1,0,0:0:0:0:s_076.ogg
153,192,79700,1,0,0:0:0:0:s_064.ogg
358,192,79700,1,0,0:0:0:0:s_073.ogg
51,192,79741,1,0,0:0:0:0:s_040.ogg
460,192,79783,1,0,0:0:0:0:s_076.ogg
51,192,79866,1,0,0:0:0:0:s_062.ogg
153,192,79866,1,0,0:0:0:0:s_035.ogg
256,192,79866,1,0,0:0:0:0:s_068.ogg
460,192,79950,1,0,0:0:0:0:s_076.ogg
51,192,80033,1,0,0:0:0:0:s_071.ogg
256,192,80033,1,0,0:0:0:0:s_064.ogg
358,192,80033,1,0,0:0:0:0:s_044.ogg
460,192,80116,1,0,0:0:0:0:s_076.ogg
51,192,80200,1,0,0:0:0:0:s_062.ogg
153,192,80200,1,0,0:0:0:0:s_028.ogg
256,192,80200,1,0,0:0:0:0:s_068.ogg
460,192,80283,1,0,0:0:0:0:s_076.ogg
51,192,80366,1,0,0:0:0:0:s_064.ogg
256,192,80366,1,0,0:0:0:0:s_071.ogg
358,192,80366,1,0,0:0:0:0:s_040.ogg
460,192,80450,1,0,0:0:0:0:s_076.ogg
51,192,80533,1,0,0:0:0:0:s_068.ogg
153,192,80533,1,0,0:0:0:0:s_051.ogg
256,192,80533,1,0,0:0:0:0:s_062.ogg
460,192,80616,1,0,0:0:0:0:s_076.ogg
153,192,80700,1,0,0:0:0:0:s_064.ogg
256,192,80700,1,0,0:0:0:0:s_071.ogg
358,192,80700,1,0,0:0:0:0:s_052.ogg
460,192,80783,1,0,0:0:0:0:s_076.ogg
51,192,80866,1,0,0:0:0:0:m_064.ogg
153,192,80866,1,0,0:0:0:0:m_056.ogg
256,192,80866,1,0,0:0:0:0:m_068.ogg
256,192,81116,1,0,0:0:0:0:s_044.ogg
460,192,81116,1,0,0:0:0:0:s_052.ogg
51,192,81200,1,0,0:0:0:0:s_033.ogg
153,192,81200,1,0,0:0:0:0:s_069.ogg
358,192,81200,1,0,0:0:0:0:s_061.ogg
460,192,81283,1,0,0:0:0:0:s_076.ogg
153,192,81366,1,0,0:0:0:0:s_064.ogg
256,192,81366,1,0,0:0:0:0:s_040.ogg
358,192,81366,1,0,0:0:0:0:s_073.ogg
460,192,81450,1,0,0:0:0:0:s_076.ogg
51,192,81533,1,0,0:0:0:0:s_028.ogg
153,192,81533,1,0,0:0:0:0:s_069.ogg
358,192,81533,1,0,0:0:0:0:s_061.ogg
460,192,81616,1,0,0:0:0:0:s_076.ogg
153,192,81700,1,0,0:0:0:0:s_064.ogg
256,192,81700,1,0,0:0:0:0:s_045.ogg
358,192,81700,1,0,0:0:0:0:s_073.ogg
460,192,81783,1,0,0:0:0:0:s_076.ogg
51,192,81866,1,0,0:0:0:0:s_048.ogg
153,192,81866,1,0,0:0:0:0:s_061.ogg
358,192,81866,1,0,0:0:0:0:s_069.ogg
460,192,81950,1,0,0:0:0:0:s_076.ogg
51,192,82033,1,0,0:0:0:0:s_073.ogg
256,192,82033,1,0,0:0:0:0:s_049.ogg
358,192,82033,1,0,0:0:0:0:s_064.ogg
460,192,82116,1,0,0:0:0:0:s_076.ogg
51,192,82200,1,0,0:0:0:0:m_049.ogg
153,192,82200,1,0,0:0:0:0:m_069.ogg
358,192,82200,1,0,0:0:0:0:m_057.ogg
358,192,82450,1,0,0:0:0:0:s_052.ogg
51,192,82533,1,0,0:0:0:0:s_068.ogg
153,192,82533,1,0,0:0:0:0:s_035.ogg
256,192,82533,1,0,0:0:0:0:s_062.ogg
460,192,82616,1,0,0:0:0:0:s_076.ogg
51,192,82700,1,0,0:0:0:0:s_040.ogg
256,192,82700,1,0,0:0:0:0:s_071.ogg
358,192,82700,1,0,0:0:0:0:s_064.ogg
460,192,82783,1,0,0:0:0:0:s_076.ogg
51,192,82866,1,0,0:0:0:0:s_062.ogg
153,192,82866,1,0,0:0:0:0:s_028.ogg
256,192,82866,1,0,0:0:0:0:s_068.ogg
460,192,82950,1,0,0:0:0:0:s_076.ogg
51,192,83033,1,0,0:0:0:0:s_044.ogg
256,192,83033,1,0,0:0:0:0:s_064.ogg
358,192,83033,1,0,0:0:0:0:s_071.ogg
460,192,83116,1,0,0:0:0:0:s_076.ogg
51,192,83200,1,0,0:0:0:0:s_062.ogg
153,192,83200,1,0,0:0:0:0:s_051.ogg
256,192,83200,1,0,0:0:0:0:s_068.ogg
460,192,83283,1,0,0:0:0:0:s_076.ogg
153,192,83366,1,0,0:0:0:0:s_052.ogg
256,192,83366,1,0,0:0:0:0:s_064.ogg
358,192,83366,1,0,0:0:0:0:s_071.ogg
460,192,83450,1,0,0:0:0:0:s_076.ogg
51,192,83533,1,0,0:0:0:0:m_068.ogg
153,192,83533,1,0,0:0:0:0:m_064.ogg
256,192,83533,1,0,0:0:0:0:m_056.ogg
256,192,83783,1,0,0:0:0:0:s_044.ogg
460,192,83783,1,0,0:0:0:0:s_052.ogg
51,192,83866,1,0,0:0:0:0:s_069.ogg
153,192,83866,1,0,0:0:0:0:s_061.ogg
358,192,83866,1,0,0:0:0:0:s_033.ogg
460,192,83950,1,0,0:0:0:0:s_076.ogg
153,192,84033,1,0,0:0:0:0:s_064.ogg
256,192,84033,1,0,0:0:0:0:s_045.ogg
358,192,84033,1,0,0:0:0:0:s_073.ogg
460,192,84116,1,0,0:0:0:0:s_076.ogg
51,192,84200,1,0,0:0:0:0:s_069.ogg
153,192,84200,1,0,0:0:0:0:s_061.ogg
358,192,84200,1,0,0:0:0:0:s_028.ogg
460,192,84283,1,0,0:0:0:0:s_076.ogg
153,192,84366,1,0,0:0:0:0:s_064.ogg
256,192,84366,1,0,0:0:0:0:s_045.ogg
358,192,84366,1,0,0:0:0:0:s_073.ogg
460,192,84450,1,0,0:0:0:0:s_076.ogg
51,192,84533,1,0,0:0:0:0:s_069.ogg
153,192,84533,1,0,0:0:0:0:s_061.ogg
358,192,84533,1,0,0:0:0:0:s_051.ogg
460,192,84616,1,0,0:0:0:0:s_076.ogg
51,192,84700,1,0,0:0:0:0:s_064.ogg
256,192,84700,1,0,0:0:0:0:s_052.ogg
358,192,84700,1,0,0:0:0:0:s_073.ogg
460,192,84783,1,0,0:0:0:0:s_076.ogg
51,192,84866,1,0,0:0:0:0:m_069.ogg
153,192,84866,1,0,0:0:0:0:m_064.ogg
358,192,84866,1,0,0:0:0:0:m_045.ogg
153,192,85116,1,0,0:0:0:0:s_052.ogg
51,192,85200,1,0,0:0:0:0:s_035.ogg
256,192,85200,1,0,0:0:0:0:s_062.ogg
460,192,85241,1,0,0:0:0:0:s_078.ogg
51,192,85366,1,0,0:0:0:0:s_050.ogg
153,192,85366,1,0,0:0:0:0:s_044.ogg
51,192,85533,1,0,0:0:0:0:s_028.ogg
256,192,85533,128,0,85950:0:0:0:0:m_059.ogg
51,192,85700,1,0,0:0:0:0:s_044.ogg
153,192,85700,1,0,0:0:0:0:s_050.ogg
51,192,85866,1,0,0:0:0:0:s_035.ogg
51,192,86033,1,0,0:0:0:0:s_040.ogg
153,192,86033,1,0,0:0:0:0:s_050.ogg
358,192,86033,1,0,0:0:0:0:s_061.ogg
51,192,86200,1,0,0:0:0:0:s_028.ogg
460,192,86200,1,0,0:0:0:0:s_062.ogg
51,192,86366,1,0,0:0:0:0:s_040.ogg
153,192,86366,1,0,0:0:0:0:s_050.ogg
358,192,86366,1,0,0:0:0:0:s_059.ogg
153,192,86533,1,0,0:0:0:0:s_033.ogg
256,192,86533,1,0,0:0:0:0:s_061.ogg
460,192,86575,1,0,0:0:0:0:s_076.ogg
51,192,86700,1,0,0:0:0:0:s_049.ogg
153,192,86700,1,0,0:0:0:0:s_045.ogg
153,192,86866,1,0,0:0:0:0:s_028.ogg
256,192,86866,128,0,87283:0:0:0:0:m_057.ogg
51,192,87033,1,0,0:0:0:0:s_040.ogg
153,192,87033,1,0,0:0:0:0:s_049.ogg
153,192,87200,1,0,0:0:0:0:s_033.ogg
51,192,87366,1,0,0:0:0:0:s_049.ogg
153,192,87366,1,0,0:0:0:0:s_040.ogg
358,192,87366,1,0,0:0:0:0:s_059.ogg
153,192,87533,1,0,0:0:0:0:s_028.ogg
460,192,87533,1,0,0:0:0:0:s_061.ogg
51,192,87700,1,0,0:0:0:0:s_049.ogg
153,192,87700,1,0,0:0:0:0:s_040.ogg
358,192,87700,1,0,0:0:0:0:s_057.ogg
51,192,87866,1,0,0:0:0:0:s_035.ogg
256,192,87866,1,0,0:0:0:0:s_056.ogg
51,192,88033,1,0,0:0:0:0:s_050.ogg
153,192,88033,1,0,0:0:0:0:s_040.ogg
358,192,88033,1,0,0:0:0:0:s_057.ogg
51,192,88200,1,0,0:0:0:0:s_028.ogg
460,192,88200,1,0,0:0:0:0:s_059.ogg
51,192,88366,1,0,0:0:0:0:s_050.ogg
153,192,88366,1,0,0:0:0:0:s_044.ogg
256,192,88366,1,0,0:0:0:0:s_061.ogg
51,192,88533,1,0,0:0:0:0:s_035.ogg
358,192,88533,1,0,0:0:0:0:s_062.ogg
51,192,88700,1,0,0:0:0:0:s_040.ogg
153,192,88700,1,0,0:0:0:0:s_050.ogg
460,192,88700,1,0,0:0:0:0:s_064.ogg
51,192,88866,1,0,0:0:0:0:s_028.ogg
256,192,88866,1,0,0:0:0:0:s_066.ogg
51,192,89033,1,0,0:0:0:0:s_050.ogg
153,192,89033,1,0,0:0:0:0:s_044.ogg
358,192,89033,1,0,0:0:0:0:s_068.ogg
153,192,89200,1,0,0:0:0:0:s_033.ogg
256,192,89200,1,0,0:0:0:0:s_069.ogg
460,192,89241,1,0,0:0:0:0:s_071.ogg
51,192,89366,1,0,0:0:0:0:s_049.ogg
153,192,89366,1,0,0:0:0:0:s_045.ogg
358,192,89366,1,0,0:0:0:0:s_068.ogg
153,192,89533,1,0,0:0:0:0:s_028.ogg
460,192,89533,1,0,0:0:0:0:s_069.ogg
51,192,89700,1,0,0:0:0:0:s_049.ogg
153,192,89700,1,0,0:0:0:0:s_045.ogg
256,192,89700,1,0,0:0:0:0:s_071.ogg
153,192,89866,1,0,0:0:0:0:s_033.ogg
460,192,89866,1,0,0:0:0:0:s_073.ogg
51,192,90033,1,0,0:0:0:0:s_049.ogg
153,192,90033,1,0,0:0:0:0:s_045.ogg
358,192,90033,1,0,0:0:0:0:s_071.ogg
153,192,90200,1,0,0:0:0:0:s_028.ogg
460,192,90200,1,0,0:0:0:0:s_073.ogg
51,192,90366,1,0,0:0:0:0:s_040.ogg
153,192,90366,1,0,0:0:0:0:s_049.ogg
256,192,90366,1,0,0:0:0:0:s_069.ogg
51,192,90533,1,0,0:0:0:0:s_035.ogg
460,192,90533,1,0,0:0:0:0:s_062.ogg
153,192,90575,1,0,0:0:0:0:s_068.ogg
256,192,90616,1,0,0:0:0:0:s_071.ogg
358,192,90658,1,0,0:0:0:0:s_078.ogg
51,192,90700,1,0,0:0:0:0:s_040.ogg
153,192,90700,1,0,0:0:0:0:s_050.ogg
51,192,90866,1,0,0:0:0:0:s_028.ogg
358,192,90866,128,0,91283:0:0:0:0:m_059.ogg
256,192,90866,128,0,91283:0:0:0:0:m_056.ogg
51,192,91033,1,0,0:0:0:0:s_050.ogg
153,192,91033,1,0,0:0:0:0:s_040.ogg
51,192,91200,1,0,0:0:0:0:s_035.ogg
51,192,91366,1,0,0:0:0:0:s_050.ogg
153,192,91366,1,0,0:0:0:0:s_044.ogg
256,192,91366,1,0,0:0:0:0:s_061.ogg
460,192,91366,1,0,0:0:0:0:s_057.ogg
51,192,91533,1,0,0:0:0:0:s_028.ogg
358,192,91533,1,0,0:0:0:0:s_062.ogg
460,192,91533,1,0,0:0:0:0:s_059.ogg
51,192,91700,1,0,0:0:0:0:s_044.ogg
153,192,91700,1,0,0:0:0:0:s_040.ogg
256,192,91700,1,0,0:0:0:0:s_059.ogg
358,192,91700,1,0,0:0:0:0:s_056.ogg
51,192,91866,1,0,0:0:0:0:s_061.ogg
460,192,91866,1,0,0:0:0:0:s_033.ogg
153,192,91908,1,0,0:0:0:0:s_064.ogg
256,192,91950,1,0,0:0:0:0:s_069.ogg
358,192,91991,1,0,0:0:0:0:s_076.ogg
51,192,92033,1,0,0:0:0:0:s_049.ogg
153,192,92033,1,0,0:0:0:0:s_045.ogg
153,192,92200,1,0,0:0:0:0:s_028.ogg
358,192,92200,128,0,92616:0:0:0:0:m_049.ogg
256,192,92200,128,0,92616:0:0:0:0:m_057.ogg
51,192,92366,1,0,0:0:0:0:s_045.ogg
153,192,92366,1,0,0:0:0:0:s_040.ogg
153,192,92533,1,0,0:0:0:0:s_033.ogg
51,192,92700,1,0,0:0:0:0:s_045.ogg
153,192,92700,1,0,0:0:0:0:s_040.ogg
256,192,92700,1,0,0:0:0:0:s_059.ogg
460,192,92700,1,0,0:0:0:0:s_050.ogg
153,192,92866,1,0,0:0:0:0:s_028.ogg
358,192,92866,1,0,0:0:0:0:s_061.ogg
460,192,92866,1,0,0:0:0:0:s_052.ogg
51,192,93033,1,0,0:0:0:0:s_045.ogg
153,192,93033,1,0,0:0:0:0:s_040.ogg
256,192,93033,1,0,0:0:0:0:s_057.ogg
358,192,93033,1,0,0:0:0:0:s_049.ogg
51,192,93200,1,0,0:0:0:0:s_035.ogg
256,192,93200,1,0,0:0:0:0:s_056.ogg
460,192,93200,1,0,0:0:0:0:s_047.ogg
51,192,93366,1,0,0:0:0:0:s_044.ogg
153,192,93366,1,0,0:0:0:0:s_040.ogg
256,192,93366,1,0,0:0:0:0:s_049.ogg
358,192,93366,1,0,0:0:0:0:s_057.ogg
51,192,93533,1,0,0:0:0:0:s_028.ogg
358,192,93533,1,0,0:0:0:0:s_059.ogg
460,192,93533,1,0,0:0:0:0:s_050.ogg
51,192,93700,1,0,0:0:0:0:s_044.ogg
153,192,93700,1,0,0:0:0:0:s_040.ogg
256,192,93700,1,0,0:0:0:0:s_061.ogg
460,192,93700,1,0,0:0:0:0:s_052.ogg
51,192,93866,1,0,0:0:0:0:s_035.ogg
256,192,93866,1,0,0:0:0:0:s_054.ogg
358,192,93866,1,0,0:0:0:0:s_062.ogg
51,192,94033,1,0,0:0:0:0:s_044.ogg
153,192,94033,1,0,0:0:0:0:s_040.ogg
358,192,94033,1,0,0:0:0:0:s_064.ogg
460,192,94033,1,0,0:0:0:0:s_056.ogg
51,192,94200,1,0,0:0:0:0:s_028.ogg
256,192,94200,1,0,0:0:0:0:s_066.ogg
460,192,94200,1,0,0:0:0:0:s_057.ogg
51,192,94366,1,0,0:0:0:0:s_044.ogg
153,192,94366,1,0,0:0:0:0:s_040.ogg
256,192,94366,1,0,0:0:0:0:s_068.ogg
358,192,94366,1,0,0:0:0:0:s_059.ogg
153,192,94533,1,0,0:0:0:0:s_033.ogg
358,192,94533,1,0,0:0:0:0:s_061.ogg
460,192,94533,1,0,0:0:0:0:s_069.ogg
51,192,94700,1,0,0:0:0:0:s_045.ogg
153,192,94700,1,0,0:0:0:0:s_040.ogg
256,192,94700,1,0,0:0:0:0:s_068.ogg
358,192,94700,1,0,0:0:0:0:s_059.ogg
153,192,94866,1,0,0:0:0:0:s_028.ogg
358,192,94866,1,0,0:0:0:0:s_069.ogg
460,192,94866,1,0,0:0:0:0:s_061.ogg
51,192,95033,1,0,0:0:0:0:s_045.ogg
153,192,95033,1,0,0:0:0:0:s_040.ogg
256,192,95033,1,0,0:0:0:0:s_071.ogg
460,192,95033,1,0,0:0:0:0:s_062.ogg
153,192,95200,1,0,0:0:0:0:s_033.ogg
256,192,95200,1,0,0:0:0:0:s_073.ogg
358,192,95200,1,0,0:0:0:0:s_064.ogg
51,192,95366,1,0,0:0:0:0:s_040.ogg
153,192,95366,1,0,0:0:0:0:s_045.ogg
256,192,95366,1,0,0:0:0:0:s_062.ogg
460,192,95366,1,0,0:0:0:0:s_071.ogg
153,192,95533,1,0,0:0:0:0:s_028.ogg
256,192,95533,1,0,0:0:0:0:s_073.ogg
358,192,95533,1,0,0:0:0:0:s_064.ogg
51,192,95700,1,0,0:0:0:0:s_045.ogg
153,192,95700,1,0,0:0:0:0:s_040.ogg
358,192,95700,1,0,0:0:0:0:s_061.ogg
460,192,95700,1,0,0:0:0:0:s_069.ogg
51,192,95866,1,0,0:0:0:0:s_030.ogg
256,192,95866,1,0,0:0:0:0:s_066.ogg
358,192,95908,1,0,0:0:0:0:s_073.ogg
460,192,95950,1,0,0:0:0:0:s_081.ogg
51,192,96033,1,0,0:0:0:0:s_045.ogg
153,192,96033,1,0,0:0:0:0:s_039.ogg
51,192,96200,1,0,0:0:0:0:s_023.ogg
358,192,96200,128,0,96616:0:0:0:0:m_045.ogg
256,192,96200,128,0,96616:0:0:0:0:m_054.ogg
51,192,96366,1,0,0:0:0:0:s_035.ogg
153,192,96366,1,0,0:0:0:0:s_039.ogg
51,192,96533,1,0,0:0:0:0:s_030.ogg
51,192,96700,1,0,0:0:0:0:s_035.ogg
153,192,96700,1,0,0:0:0:0:s_039.ogg
256,192,96700,1,0,0:0:0:0:s_047.ogg
460,192,96700,1,0,0:0:0:0:s_056.ogg
51,192,96866,1,0,0:0:0:0:s_023.ogg
358,192,96866,1,0,0:0:0:0:s_049.ogg
460,192,96866,1,0,0:0:0:0:s_057.ogg
51,192,97033,1,0,0:0:0:0:s_039.ogg
153,192,97033,1,0,0:0:0:0:s_035.ogg
256,192,97033,1,0,0:0:0:0:s_054.ogg
358,192,97033,1,0,0:0:0:0:s_045.ogg
153,192,97200,1,0,0:0:0:0:s_028.ogg
256,192,97200,1,0,0:0:0:0:s_064.ogg
358,192,97241,1,0,0:0:0:0:s_071.ogg
460,192,97283,1,0,0:0:0:0:s_080.ogg
51,192,97366,1,0,0:0:0:0:s_040.ogg
153,192,97366,1,0,0:0:0:0:s_035.ogg
153,192,97533,1,0,0:0:0:0:s_023.ogg
358,192,97533,128,0,97950:0:0:0:0:m_052.ogg
256,192,97533,128,0,97950:0:0:0:0:m_044.ogg
51,192,97700,1,0,0:0:0:0:s_035.ogg
153,192,97700,1,0,0:0:0:0:s_040.ogg
153,192,97866,1,0,0:0:0:0:s_028.ogg
51,192,98033,1,0,0:0:0:0:s_040.ogg
153,192,98033,1,0,0:0:0:0:s_035.ogg
256,192,98033,1,0,0:0:0:0:s_054.ogg
460,192,98033,1,0,0:0:0:0:s_045.ogg
153,192,98200,1,0,0:0:0:0:s_023.ogg
358,192,98200,1,0,0:0:0:0:s_047.ogg
460,192,98200,1,0,0:0:0:0:s_056.ogg
51,192,98366,1,0,0:0:0:0:s_040.ogg
153,192,98366,1,0,0:0:0:0:s_035.ogg
256,192,98366,1,0,0:0:0:0:s_044.ogg
358,192,98366,1,0,0:0:0:0:s_052.ogg
51,192,98533,1,0,0:0:0:0:s_030.ogg
256,192,98533,1,0,0:0:0:0:s_042.ogg
460,192,98533,1,0,0:0:0:0:s_051.ogg
51,192,98700,1,0,0:0:0:0:s_033.ogg
153,192,98700,1,0,0:0:0:0:s_039.ogg
256,192,98700,1,0,0:0:0:0:s_044.ogg
358,192,98700,1,0,0:0:0:0:s_052.ogg
51,192,98866,1,0,0:0:0:0:s_023.ogg
358,192,98866,1,0,0:0:0:0:s_045.ogg
460,192,98866,1,0,0:0:0:0:s_054.ogg
51,192,99033,1,0,0:0:0:0:s_039.ogg
153,192,99033,1,0,0:0:0:0:s_035.ogg
256,192,99033,1,0,0:0:0:0:s_047.ogg
460,192,99033,1,0,0:0:0:0:s_056.ogg
51,192,99200,1,0,0:0:0:0:s_030.ogg
256,192,99200,1,0,0:0:0:0:s_057.ogg
358,192,99200,1,0,0:0:0:0:s_049.ogg
51,192,99366,1,0,0:0:0:0:s_035.ogg
153,192,99366,1,0,0:0:0:0:s_045.ogg
358,192,99366,1,0,0:0:0:0:s_051.ogg
460,192,99366,1,0,0:0:0:0:s_059.ogg
51,192,99533,1,0,0:0:0:0:s_023.ogg
256,192,99533,1,0,0:0:0:0:s_061.ogg
460,192,99533,1,0,0:0:0:0:s_052.ogg
51,192,99700,1,0,0:0:0:0:s_035.ogg
153,192,99700,1,0,0:0:0:0:s_039.ogg
256,192,99700,1,0,0:0:0:0:s_063.ogg
358,192,99700,1,0,0:0:0:0:s_054.ogg
153,192,99866,1,0,0:0:0:0:s_028.ogg
358,192,99866,1,0,0:0:0:0:s_056.ogg
460,192,99866,1,0,0:0:0:0:s_064.ogg
51,192,100033,1,0,0:0:0:0:s_040.ogg
153,192,100033,1,0,0:0:0:0:s_035.ogg
256,192,100033,1,0,0:0:0:0:s_063.ogg
358,192,100033,1,0,0:0:0:0:s_054.ogg
153,192,100200,1,0,0:0:0:0:s_023.ogg
358,192,100200,1,0,0:0:0:0:s_064.ogg
460,192,100200,1,0,0:0:0:0:s_056.ogg
51,192,100366,1,0,0:0:0:0:s_035.ogg
153,192,100366,1,0,0:0:0:0:s_040.ogg
256,192,100366,1,0,0:0:0:0:s_057.ogg
460,192,100366,1,0,0:0:0:0:s_066.ogg
153,192,100533,1,0,0:0:0:0:s_028.ogg
256,192,100533,1,0,0:0:0:0:s_068.ogg
358,192,100533,1,0,0:0:0:0:s_059.ogg
51,192,100700,1,0,0:0:0:0:s_044.ogg
153,192,100700,1,0,0:0:0:0:s_040.ogg
256,192,100700,1,0,0:0:0:0:s_066.ogg
460,192,100700,1,0,0:0:0:0:s_057.ogg
153,192,100866,1,0,0:0:0:0:s_023.ogg
256,192,100866,1,0,0:0:0:0:s_068.ogg
358,192,100866,1,0,0:0:0:0:s_059.ogg
51,192,101033,1,0,0:0:0:0:s_040.ogg
153,192,101033,1,0,0:0:0:0:s_035.ogg
358,192,101033,1,0,0:0:0:0:s_056.ogg
460,192,101033,1,0,0:0:0:0:s_064.ogg
51,192,101200,1,0,0:0:0:0:s_030.ogg
256,192,101200,1,0,0:0:0:0:s_066.ogg
358,192,101241,1,0,0:0:0:0:s_073.ogg
460,192,101283,1,0,0:0:0:0:s_081.ogg
51,192,101366,1,0,0:0:0:0:s_045.ogg
153,192,101366,1,0,0:0:0:0:s_035.ogg
51,192,101533,1,0,0:0:0:0:s_023.ogg
358,192,101533,128,0,101950:0:0:0:0:m_045.ogg
256,192,101533,128,0,101950:0:0:0:0:m_054.ogg
51,192,101700,1,0,0:0:0:0:s_039.ogg
153,192,101700,1,0,0:0:0:0:s_035.ogg
51,192,101866,1,0,0:0:0:0:s_030.ogg
51,192,102033,1,0,0:0:0:0:s_039.ogg
153,192,102033,1,0,0:0:0:0:s_035.ogg
256,192,102033,1,0,0:0:0:0:s_047.ogg
460,192,102033,1,0,0:0:0:0:s_056.ogg
51,192,102200,1,0,0:0:0:0:s_023.ogg
358,192,102200,1,0,0:0:0:0:s_057.ogg
460,192,102200,1,0,0:0:0:0:s_049.ogg
51,192,102366,1,0,0:0:0:0:s_035.ogg
153,192,102366,1,0,0:0:0:0:s_039.ogg
256,192,102366,1,0,0:0:0:0:s_045.ogg
358,192,102366,1,0,0:0:0:0:s_054.ogg
153,192,102533,1,0,0:0:0:0:s_028.ogg
256,192,102533,1,0,0:0:0:0:s_064.ogg
358,192,102575,1,0,0:0:0:0:s_071.ogg
460,192,102616,1,0,0:0:0:0:s_080.ogg
51,192,102700,1,0,0:0:0:0:s_044.ogg
153,192,102700,1,0,0:0:0:0:s_040.ogg
153,192,102866,1,0,0:0:0:0:s_023.ogg
358,192,102866,128,0,103283:0:0:0:0:m_052.ogg
256,192,102866,128,0,103283:0:0:0:0:m_044.ogg
51,192,103033,1,0,0:0:0:0:s_035.ogg
153,192,103033,1,0,0:0:0:0:s_040.ogg
153,192,103200,1,0,0:0:0:0:s_028.ogg
51,192,103366,1,0,0:0:0:0:s_040.ogg
153,192,103366,1,0,0:0:0:0:s_035.ogg
256,192,103366,1,0,0:0:0:0:s_054.ogg
460,192,103366,1,0,0:0:0:0:s_045.ogg
153,192,103533,1,0,0:0:0:0:s_023.ogg
358,192,103533,1,0,0:0:0:0:s_056.ogg
460,192,103533,1,0,0:0:0:0:s_047.ogg
51,192,103700,1,0,0:0:0:0:s_040.ogg
153,192,103700,1,0,0:0:0:0:s_035.ogg
256,192,103700,1,0,0:0:0:0:s_052.ogg
358,192,103700,1,0,0:0:0:0:s_044.ogg
51,192,103866,1,0,0:0:0:0:s_030.ogg
256,192,103866,1,0,0:0:0:0:s_042.ogg
460,192,103866,1,0,0:0:0:0:s_051.ogg
51,192,104033,1,0,0:0:0:0:s_039.ogg
153,192,104033,1,0,0:0:0:0:s_035.ogg
256,192,104033,1,0,0:0:0:0:s_052.ogg
358,192,104033,1,0,0:0:0:0:s_044.ogg
51,192,104200,1,0,0:0:0:0:s_023.ogg
358,192,104200,1,0,0:0:0:0:s_054.ogg
460,192,104200,1,0,0:0:0:0:s_045.ogg
51,192,104366,1,0,0:0:0:0:s_039.ogg
153,192,104366,1,0,0:0:0:0:s_035.ogg
256,192,104366,1,0,0:0:0:0:s_056.ogg
460,192,104366,1,0,0:0:0:0:s_047.ogg
51,192,104533,1,0,0:0:0:0:s_030.ogg
256,192,104533,1,0,0:0:0:0:s_049.ogg
358,192,104533,1,0,0:0:0:0:s_057.ogg
51,192,104700,1,0,0:0:0:0:s_045.ogg
153,192,104700,1,0,0:0:0:0:s_039.ogg
358,192,104700,1,0,0:0:0:0:s_059.ogg
460,192,104700,1,0,0:0:0:0:s_051.ogg
51,192,104866,1,0,0:0:0:0:s_023.ogg
256,192,104866,1,0,0:0:0:0:s_061.ogg
460,192,104866,1,0,0:0:0:0:s_052.ogg
51,192,105033,1,0,0:0:0:0:s_039.ogg
153,192,105033,1,0,0:0:0:0:s_035.ogg
256,192,105033,1,0,0:0:0:0:s_063.ogg
358,192,105033,1,0,0:0:0:0:s_054.ogg
153,192,105200,1,0,0:0:0:0:s_064.ogg
358,192,105200,1,0,0:0:0:0:s_052.ogg
460,192,105200,1,0,0:0:0:0:s_056.ogg
51,192,105366,1,0,0:0:0:0:s_063.ogg
153,192,105366,1,0,0:0:0:0:s_051.ogg
256,192,105366,1,0,0:0:0:0:s_029.ogg
51,192,105533,1,0,0:0:0:0:s_027.ogg
256,192,105533,1,0,0:0:0:0:s_065.ogg
460,192,105533,1,0,0:0:0:0:s_053.ogg
153,192,105700,1,0,0:0:0:0:s_040.ogg
256,192,105700,1,0,0:0:0:0:s_052.ogg
358,192,105700,1,0,0:0:0:0:s_064.ogg
51,192,105866,1,0,0:0:0:0:s_066.ogg
153,192,105866,1,0,0:0:0:0:s_054.ogg
358,192,105866,1,0,0:0:0:0:s_038.ogg
256,192,106033,1,0,0:0:0:0:s_065.ogg
358,192,106033,1,0,0:0:0:0:s_027.ogg
460,192,106033,1,0,0:0:0:0:s_053.ogg
153,192,106200,1,0,0:0:0:0:s_067.ogg
256,192,106200,1,0,0:0:0:0:s_055.ogg
460,192,106200,1,0,0:0:0:0:s_037.ogg
51,192,106366,1,0,0:0:0:0:s_054.ogg
358,192,106366,1,0,0:0:0:0:s_066.ogg
460,192,106366,1,0,0:0:0:0:s_038.ogg
51,192,106533,1,0,0:0:0:0:s_024.ogg
256,192,106533,1,0,0:0:0:0:s_056.ogg
358,192,106533,1,0,0:0:0:0:s_068.ogg
51,192,106700,1,0,0:0:0:0:s_037.ogg
153,192,106700,1,0,0:0:0:0:s_055.ogg
460,192,106700,1,0,0:0:0:0:s_067.ogg
153,192,106866,1,0,0:0:0:0:s_023.ogg
358,192,106866,1,0,0:0:0:0:s_069.ogg
460,192,106866,1,0,0:0:0:0:s_057.ogg
51,192,107033,1,0,0:0:0:0:s_068.ogg
153,192,107033,1,0,0:0:0:0:s_036.ogg
256,192,107033,1,0,0:0:0:0:s_056.ogg
51,192,107200,1,0,0:0:0:0:s_070.ogg
256,192,107200,1,0,0:0:0:0:s_034.ogg
460,192,107200,1,0,0:0:0:0:s_058.ogg
153,192,107366,1,0,0:0:0:0:s_069.ogg
256,192,107366,1,0,0:0:0:0:s_023.ogg
358,192,107366,1,0,0:0:0:0:s_057.ogg
51,192,107533,1,0,0:0:0:0:s_071.ogg
153,192,107533,1,0,0:0:0:0:s_059.ogg
358,192,107533,1,0,0:0:0:0:s_033.ogg
256,192,107700,1,0,0:0:0:0:s_070.ogg
358,192,107700,1,0,0:0:0:0:s_022.ogg
460,192,107700,1,0,0:0:0:0:s_058.ogg
153,192,107866,1,0,0:0:0:0:s_072.ogg
256,192,107866,1,0,0:0:0:0:s_060.ogg
460,192,107866,1,0,0:0:0:0:s_032.ogg
51,192,108033,1,0,0:0:0:0:s_071.ogg
358,192,108033,1,0,0:0:0:0:s_059.ogg
460,192,108033,1,0,0:0:0:0:s_033.ogg
51,192,108200,1,0,0:0:0:0:s_031.ogg
256,192,108200,1,0,0:0:0:0:s_061.ogg
358,192,108200,1,0,0:0:0:0:s_073.ogg
51,192,108366,1,0,0:0:0:0:s_072.ogg
153,192,108366,1,0,0:0:0:0:s_032.ogg
460,192,108366,1,0,0:0:0:0:s_060.ogg
153,192,108533,1,0,0:0:0:0:s_074.ogg
358,192,108533,1,0,0:0:0:0:s_062.ogg
460,192,108533,1,0,0:0:0:0:s_030.ogg
51,192,108700,1,0,0:0:0:0:s_073.ogg
153,192,108700,1,0,0:0:0:0:s_031.ogg
256,192,108700,1,0,0:0:0:0:s_061.ogg
51,192,108866,1,0,0:0:0:0:s_029.ogg
256,192,108866,1,0,0:0:0:0:s_074.ogg
460,192,108866,1,0,0:0:0:0:s_062.ogg
51,192,109033,1,0,0:0:0:0:s_075.ogg
153,192,109033,1,0,0:0:0:0:s_030.ogg
358,192,109033,1,0,0:0:0:0:s_063.ogg
153,192,109200,1,0,0:0:0:0:s_016.ogg
256,192,109200,1,0,0:0:0:0:s_064.ogg
460,192,109200,1,0,0:0:0:0:s_076.ogg
51,192,109366,1,0,0:0:0:0:s_075.ogg
153,192,109366,1,0,0:0:0:0:s_063.ogg
358,192,109366,1,0,0:0:0:0:s_029.ogg
153,192,109533,1,0,0:0:0:0:s_076.ogg
256,192,109533,1,0,0:0:0:0:s_068.ogg
358,192,109533,1,0,0:0:0:0:s_016.ogg
460,192,109533,1,0,0:0:0:0:s_064.ogg
51,192,109700,1,0,0:0:0:0:s_069.ogg
153,192,109700,1,0,0:0:0:0:s_063.ogg
256,192,109700,1,0,0:0:0:0:s_075.ogg
358,192,109700,1,0,0:0:0:0:s_017.ogg
153,192,109866,1,0,0:0:0:0:s_016.ogg
256,192,109866,1,0,0:0:0:0:s_068.ogg
358,192,109866,1,0,0:0:0:0:s_064.ogg
460,192,109866,1,0,0:0:0:0:s_076.ogg
51,192,110033,1,0,0:0:0:0:s_075.ogg
153,192,110033,1,0,0:0:0:0:s_069.ogg
256,192,110033,1,0,0:0:0:0:s_063.ogg
358,192,110033,1,0,0:0:0:0:s_017.ogg
153,192,110200,1,0,0:0:0:0:s_016.ogg
256,192,110200,1,0,0:0:0:0:s_076.ogg
358,192,110200,1,0,0:0:0:0:s_068.ogg
460,192,110200,1,0,0:0:0:0:s_064.ogg
51,192,110366,1,0,0:0:0:0:s_075.ogg
153,192,110366,1,0,0:0:0:0:s_063.ogg
256,192,110366,1,0,0:0:0:0:s_069.ogg
358,192,110366,1,0,0:0:0:0:s_029.ogg
153,192,110533,1,0,0:0:0:0:s_028.ogg
256,192,110533,1,0,0:0:0:0:s_068.ogg
358,192,110533,1,0,0:0:0:0:s_076.ogg
460,192,110533,1,0,0:0:0:0:s_064.ogg
51,192,110700,1,0,0:0:0:0:s_027.ogg
153,192,110700,1,0,0:0:0:0:s_063.ogg
460,192,110700,1,0,0:0:0:0:s_051.ogg
256,192,110866,1,0,0:0:0:0:s_028.ogg
358,192,110866,1,0,0:0:0:0:s_064.ogg
460,192,110866,1,0,0:0:0:0:s_052.ogg
51,192,111033,1,0,0:0:0:0:s_063.ogg
153,192,111033,1,0,0:0:0:0:s_051.ogg
460,192,111033,1,0,0:0:0:0:s_039.ogg
256,192,111200,1,0,0:0:0:0:s_064.ogg
358,192,111200,1,0,0:0:0:0:s_052.ogg
460,192,111200,1,0,0:0:0:0:s_028.ogg
51,192,111366,1,0,0:0:0:0:s_051.ogg
153,192,111366,1,0,0:0:0:0:s_039.ogg
358,192,111366,1,0,0:0:0:0:s_027.ogg
51,192,111533,1,0,0:0:0:0:s_028.ogg
153,192,111533,1,0,0:0:0:0:s_040.ogg
256,192,111533,1,0,0:0:0:0:s_052.ogg
51,192,111700,1,0,0:0:0:0:s_051.ogg
153,192,111700,1,0,0:0:0:0:s_039.ogg
358,192,111700,1,0,0:0:0:0:s_027.ogg
256,192,111866,128,0,112116:0:0:0:0:m_052.ogg
153,192,111866,128,0,112116:0:0:0:0:m_040.ogg
51,192,111866,128,0,112116:0:0:0:0:m_028.ogg
358,192,112033,1,0,0:0:0:0:s_047.ogg
460,192,112033,1,0,0:0:0:0:s_044.ogg
358,192,112200,128,0,112450:0:0:0:0:m_032.ogg
256,192,112200,128,0,112450:0:0:0:0:m_044.ogg
153,192,112200,128,0,112450:0:0:0:0:m_056.ogg
51,192,112366,1,0,0:0:0:0:s_052.ogg
460,192,112366,1,0,0:0:0:0:s_047.ogg
460,192,112533,128,0,112950:0:0:0:0:m_049.ogg
358,192,112533,128,0,112950:0:0:0:0:m_061.ogg
256,192,112533,128,0,112950:0:0:0:0:m_037.ogg
51,192,112700,1,0,0:0:0:0:s_056.ogg
153,192,112700,1,0,0:0:0:0:s_052.ogg
51,192,112866,1,0,0:0:0:0:s_056.ogg
153,192,112866,1,0,0:0:0:0:s_052.ogg
153,192,113033,1,0,0:0:0:0:s_035.ogg
256,192,113033,1,0,0:0:0:0:s_047.ogg
358,192,113033,1,0,0:0:0:0:s_059.ogg
51,192,113200,1,0,0:0:0:0:s_057.ogg
153,192,113200,1,0,0:0:0:0:s_045.ogg
256,192,113200,1,0,0:0:0:0:s_025.ogg
358,192,113200,1,0,0:0:0:0:s_052.ogg
460,192,113200,1,0,0:0:0:0:s_049.ogg
51,192,113366,1,0,0:0:0:0:s_056.ogg
153,192,113366,1,0,0:0:0:0:s_020.ogg
460,192,113366,1,0,0:0:0:0:s_044.ogg
51,192,113533,1,0,0:0:0:0:s_055.ogg
358,192,113533,1,0,0:0:0:0:s_043.ogg
460,192,113533,1,0,0:0:0:0:s_019.ogg
51,192,113700,1,0,0:0:0:0:s_042.ogg
153,192,113700,1,0,0:0:0:0:s_018.ogg
256,192,113720,1,0,0:0:0:0:s_045.ogg
358,192,113741,1,0,0:0:0:0:s_049.ogg
460,192,113762,1,0,0:0:0:0:s_054.ogg
153,192,113866,1,0,0:0:0:0:s_017.ogg
256,192,113866,1,0,0:0:0:0:s_053.ogg
358,192,113866,1,0,0:0:0:0:s_041.ogg
51,192,114033,1,0,0:0:0:0:s_040.ogg
460,192,114033,1,0,0:0:0:0:s_016.ogg
153,192,114054,1,0,0:0:0:0:s_045.ogg
256,192,114075,1,0,0:0:0:0:s_049.ogg
358,192,114095,1,0,0:0:0:0:s_052.ogg
51,192,114200,1,0,0:0:0:0:s_039.ogg
153,192,114200,1,0,0:0:0:0:s_051.ogg
460,192,114200,1,0,0:0:0:0:s_027.ogg
51,192,114366,1,0,0:0:0:0:s_028.ogg
153,192,114366,1,0,0:0:0:0:s_040.ogg
256,192,114366,1,0,0:0:0:0:s_052.ogg
256,192,114533,128,0,114783:0:0:0:0:m_052.ogg
153,192,114533,128,0,114783:0:0:0:0:m_040.ogg
51,192,114533,128,0,114783:0:0:0:0:m_016.ogg
358,192,114700,1,0,0:0:0:0:s_047.ogg
460,192,114700,1,0,0:0:0:0:s_044.ogg
358,192,114866,128,0,115116:0:0:0:0:m_044.ogg
256,192,114866,128,0,115116:0:0:0:0:m_056.ogg
153,192,114866,128,0,115116:0:0:0:0:m_032.ogg
51,192,115033,1,0,0:0:0:0:s_047.ogg
460,192,115033,1,0,0:0:0:0:s_052.ogg
460,192,115200,128,0,115616:0:0:0:0:m_049.ogg
358,192,115200,128,0,115616:0:0:0:0:m_061.ogg
256,192,115200,128,0,115616:0:0:0:0:m_037.ogg
51,192,115366,1,0,0:0:0:0:s_056.ogg
153,192,115366,1,0,0:0:0:0:s_052.ogg
51,192,115533,1,0,0:0:0:0:s_056.ogg
153,192,115533,1,0,0:0:0:0:s_052.ogg
153,192,115700,1,0,0:0:0:0:s_035.ogg
256,192,115700,1,0,0:0:0:0:s_059.ogg
358,192,115700,1,0,0:0:0:0:s_047.ogg
51,192,115866,1,0,0:0:0:0:s_057.ogg
153,192,115866,1,0,0:0:0:0:s_045.ogg
256,192,115866,1,0,0:0:0:0:s_033.ogg
358,192,115866,1,0,0:0:0:0:s_049.ogg
460,192,115866,1,0,0:0:0:0:s_052.ogg
51,192,116033,1,0,0:0:0:0:s_044.ogg
153,192,116033,1,0,0:0:0:0:s_056.ogg
460,192,116033,1,0,0:0:0:0:s_032.ogg
51,192,116200,1,0,0:0:0:0:s_042.ogg
358,192,116200,1,0,0:0:0:0:s_054.ogg
460,192,116200,1,0,0:0:0:0:s_018.ogg
51,192,116366,1,0,0:0:0:0:s_052.ogg
153,192,116366,1,0,0:0:0:0:s_045.ogg
256,192,116366,1,0,0:0:0:0:s_049.ogg
358,192,116366,1,0,0:0:0:0:s_040.ogg
460,192,116366,1,0,0:0:0:0:s_028.ogg
51,192,116533,1,0,0:0:0:0:m_049.ogg
153,192,116533,1,0,0:0:0:0:m_021.ogg
256,192,116533,1,0,0:0:0:0:m_052.ogg
358,192,116533,1,0,0:0:0:0:m_057.ogg
460,192,116533,1,0,0:0:0:0:m_045.ogg
51,192,116866,1,0,0:0:0:0:m_028.ogg
153,192,116866,1,0,0:0:0:0:m_061.ogg
256,192,116866,1,0,0:0:0:0:m_057.ogg
358,192,116866,1,0,0:0:0:0:m_049.ogg
460,192,116866,1,0,0:0:0:0:m_052.ogg
51,192,117200,1,0,0:0:0:0:s_068.ogg
153,192,117200,1,0,0:0:0:0:s_016.ogg
460,192,117283,1,0,0:0:0:0:s_076.ogg
256,192,117366,1,0,0:0:0:0:s_071.ogg
358,192,117366,1,0,0:0:0:0:s_028.ogg
460,192,117450,1,0,0:0:0:0:s_076.ogg
51,192,117533,1,0,0:0:0:0:s_063.ogg
153,192,117533,1,0,0:0:0:0:s_023.ogg
460,192,117616,1,0,0:0:0:0:s_076.ogg
256,192,117700,1,0,0:0:0:0:s_071.ogg
358,192,117700,1,0,0:0:0:0:s_032.ogg
460,192,117783,1,0,0:0:0:0:s_076.ogg
51,192,117866,1,0,0:0:0:0:s_062.ogg
153,192,117866,1,0,0:0:0:0:s_040.ogg
460,192,117950,1,0,0:0:0:0:s_076.ogg
358,192,118033,1,0,0:0:0:0:s_071.ogg
256,192,118033,128,0,118283:0:0:0:0:m_049.ogg
460,192,118116,1,0,0:0:0:0:s_076.ogg
51,192,118200,1,0,0:0:0:0:s_063.ogg
460,192,118283,1,0,0:0:0:0:s_076.ogg
153,192,118366,1,0,0:0:0:0:s_035.ogg
358,192,118366,1,0,0:0:0:0:s_064.ogg
460,192,118450,1,0,0:0:0:0:s_076.ogg
153,192,118533,1,0,0:0:0:0:s_069.ogg
256,192,118533,1,0,0:0:0:0:s_033.ogg
460,192,118616,1,0,0:0:0:0:s_076.ogg
51,192,118700,1,0,0:0:0:0:s_032.ogg
358,192,118700,1,0,0:0:0:0:s_073.ogg
460,192,118783,1,0,0:0:0:0:s_076.ogg
153,192,118866,1,0,0:0:0:0:s_063.ogg
256,192,118866,1,0,0:0:0:0:s_031.ogg
460,192,118950,1,0,0:0:0:0:s_076.ogg
51,192,119033,1,0,0:0:0:0:s_030.ogg
358,192,119033,1,0,0:0:0:0:s_073.ogg
460,192,119116,1,0,0:0:0:0:s_076.ogg
153,192,119200,1,0,0:0:0:0:s_069.ogg
256,192,119200,1,0,0:0:0:0:s_029.ogg
460,192,119283,1,0,0:0:0:0:s_076.ogg
51,192,119366,1,0,0:0:0:0:s_028.ogg
358,192,119366,1,0,0:0:0:0:s_073.ogg
460,192,119450,1,0,0:0:0:0:s_076.ogg
153,192,119533,1,0,0:0:0:0:s_069.ogg
256,192,119533,1,0,0:0:0:0:s_025.ogg
460,192,119616,1,0,0:0:0:0:s_076.ogg
51,192,119700,1,0,0:0:0:0:s_021.ogg
358,192,119700,1,0,0:0:0:0:s_064.ogg
460,192,119783,1,0,0:0:0:0:s_076.ogg
51,192,119866,1,0,0:0:0:0:s_062.ogg
153,192,119866,1,0,0:0:0:0:s_016.ogg
460,192,119950,1,0,0:0:0:0:s_076.ogg
256,192,120033,1,0,0:0:0:0:s_028.ogg
358,192,120033,1,0,0:0:0:0:s_071.ogg
460,192,120116,1,0,0:0:0:0:s_076.ogg
51,192,120200,1,0,0:0:0:0:s_068.ogg
153,192,120200,1,0,0:0:0:0:s_035.ogg
460,192,120283,1,0,0:0:0:0:s_076.ogg
256,192,120366,1,0,0:0:0:0:s_032.ogg
358,192,120366,1,0,0:0:0:0:s_064.ogg
460,192,120450,1,0,0:0:0:0:s_076.ogg
51,192,120533,1,0,0:0:0:0:s_062.ogg
153,192,120533,1,0,0:0:0:0:s_028.ogg
460,192,120616,1,0,0:0:0:0:s_076.ogg
358,192,120700,1,0,0:0:0:0:s_071.ogg
256,192,120700,128,0,120950:0:0:0:0:m_049.ogg
460,192,120783,1,0,0:0:0:0:s_076.ogg
51,192,120866,1,0,0:0:0:0:s_063.ogg
460,192,120950,1,0,0:0:0:0:s_076.ogg
153,192,121033,1,0,0:0:0:0:s_047.ogg
358,192,121033,1,0,0:0:0:0:s_064.ogg
460,192,121116,1,0,0:0:0:0:s_076.ogg
153,192,121200,1,0,0:0:0:0:s_069.ogg
256,192,121200,1,0,0:0:0:0:s_061.ogg
460,192,121283,1,0,0:0:0:0:s_076.ogg
51,192,121366,1,0,0:0:0:0:s_073.ogg
358,192,121366,1,0,0:0:0:0:s_064.ogg
460,192,121450,1,0,0:0:0:0:s_076.ogg
153,192,121533,1,0,0:0:0:0:s_063.ogg
256,192,121533,1,0,0:0:0:0:s_069.ogg
460,192,121616,1,0,0:0:0:0:s_076.ogg
51,192,121700,1,0,0:0:0:0:s_073.ogg
358,192,121700,1,0,0:0:0:0:s_064.ogg
460,192,121783,1,0,0:0:0:0:s_076.ogg
153,192,121866,1,0,0:0:0:0:s_061.ogg
256,192,121866,1,0,0:0:0:0:s_069.ogg
460,192,121950,1,0,0:0:0:0:s_076.ogg
51,192,122033,1,0,0:0:0:0:s_064.ogg
358,192,122033,1,0,0:0:0:0:s_073.ogg
460,192,122116,1,0,0:0:0:0:s_076.ogg
51,192,122200,1,0,0:0:0:0:s_061.ogg
256,192,122200,1,0,0:0:0:0:s_069.ogg
460,192,122283,1,0,0:0:0:0:s_076.ogg
153,192,122366,1,0,0:0:0:0:s_064.ogg
358,192,122366,1,0,0:0:0:0:s_073.ogg
460,192,122450,1,0,0:0:0:0:s_076.ogg
51,192,122533,1,0,0:0:0:0:s_062.ogg
153,192,122533,1,0,0:0:0:0:s_035.ogg
256,192,122533,1,0,0:0:0:0:s_068.ogg
460,192,122616,1,0,0:0:0:0:s_076.ogg
51,192,122700,1,0,0:0:0:0:s_071.ogg
256,192,122700,1,0,0:0:0:0:s_064.ogg
358,192,122700,1,0,0:0:0:0:s_044.ogg
460,192,122783,1,0,0:0:0:0:s_076.ogg
51,192,122866,1,0,0:0:0:0:s_062.ogg
153,192,122866,1,0,0:0:0:0:s_028.ogg
256,192,122866,1,0,0:0:0:0:s_068.ogg
460,192,122950,1,0,0:0:0:0:s_076.ogg
51,192,123033,1,0,0:0:0:0:s_064.ogg
256,192,123033,1,0,0:0:0:0:s_071.ogg
358,192,123033,1,0,0:0:0:0:s_047.ogg
460,192,123116,1,0,0:0:0:0:s_076.ogg
51,192,123200,1,0,0:0:0:0:s_062.ogg
153,192,123200,1,0,0:0:0:0:s_047.ogg
256,192,123200,1,0,0:0:0:0:s_068.ogg
460,192,123283,1,0,0:0:0:0:s_076.ogg
153,192,123366,1,0,0:0:0:0:s_071.ogg
256,192,123366,1,0,0:0:0:0:s_064.ogg
358,192,123366,1,0,0:0:0:0:s_044.ogg
460,192,123450,1,0,0:0:0:0:s_076.ogg
51,192,123533,1,0,0:0:0:0:m_064.ogg
153,192,123533,1,0,0:0:0:0:m_056.ogg
256,192,123533,1,0,0:0:0:0:m_068.ogg
256,192,123783,1,0,0:0:0:0:s_044.ogg
460,192,123783,1,0,0:0:0:0:s_052.ogg
51,192,123866,1,0,0:0:0:0:s_033.ogg
153,192,123866,1,0,0:0:0:0:s_061.ogg
358,192,123866,1,0,0:0:0:0:s_069.ogg
460,192,123950,1,0,0:0:0:0:s_076.ogg
153,192,124033,1,0,0:0:0:0:s_064.ogg
256,192,124033,1,0,0:0:0:0:s_049.ogg
358,192,124033,1,0,0:0:0:0:s_073.ogg
460,192,124116,1,0,0:0:0:0:s_076.ogg
51,192,124200,1,0,0:0:0:0:s_028.ogg
153,192,124200,1,0,0:0:0:0:s_061.ogg
358,192,124200,1,0,0:0:0:0:s_069.ogg
460,192,124283,1,0,0:0:0:0:s_076.ogg
153,192,124366,1,0,0:0:0:0:s_064.ogg
256,192,124366,1,0,0:0:0:0:s_049.ogg
358,192,124366,1,0,0:0:0:0:s_073.ogg
460,192,124450,1,0,0:0:0:0:s_076.ogg
51,192,124533,1,0,0:0:0:0:s_048.ogg
153,192,124533,1,0,0:0:0:0:s_061.ogg
358,192,124533,1,0,0:0:0:0:s_069.ogg
460,192,124616,1,0,0:0:0:0:s_076.ogg
51,192,124700,1,0,0:0:0:0:s_073.ogg
256,192,124700,1,0,0:0:0:0:s_049.ogg
358,192,124700,1,0,0:0:0:0:s_064.ogg
460,192,124783,1,0,0:0:0:0:s_076.ogg
51,192,124866,1,0,0:0:0:0:m_069.ogg
153,192,124866,1,0,0:0:0:0:m_064.ogg
358,192,124866,1,0,0:0:0:0:m_057.ogg
358,192,125116,1,0,0:0:0:0:s_052.ogg
51,192,125200,1,0,0:0:0:0:s_062.ogg
153,192,125200,1,0,0:0:0:0:s_035.ogg
256,192,125200,1,0,0:0:0:0:s_068.ogg
460,192,125283,1,0,0:0:0:0:s_076.ogg
51,192,125366,1,0,0:0:0:0:s_064.ogg
256,192,125366,1,0,0:0:0:0:s_071.ogg
358,192,125366,1,0,0:0:0:0:s_044.ogg
460,192,125450,1,0,0:0:0:0:s_076.ogg
51,192,125533,1,0,0:0:0:0:s_062.ogg
153,192,125533,1,0,0:0:0:0:s_028.ogg
256,192,125533,1,0,0:0:0:0:s_068.ogg
460,192,125616,1,0,0:0:0:0:s_076.ogg
51,192,125700,1,0,0:0:0:0:s_064.ogg
256,192,125700,1,0,0:0:0:0:s_071.ogg
358,192,125700,1,0,0:0:0:0:s_044.ogg
460,192,125783,1,0,0:0:0:0:s_076.ogg
51,192,125866,1,0,0:0:0:0:s_062.ogg
153,192,125866,1,0,0:0:0:0:s_047.ogg
256,192,125866,1,0,0:0:0:0:s_068.ogg
460,192,125950,1,0,0:0:0:0:s_076.ogg
153,192,126033,1,0,0:0:0:0:s_064.ogg
256,192,126033,1,0,0:0:0:0:s_071.ogg
358,192,126033,1,0,0:0:0:0:s_044.ogg
460,192,126116,1,0,0:0:0:0:s_076.ogg
51,192,126200,1,0,0:0:0:0:m_064.ogg
153,192,126200,1,0,0:0:0:0:m_068.ogg
256,192,126200,1,0,0:0:0:0:m_056.ogg
256,192,126450,1,0,0:0:0:0:s_044.ogg
460,192,126450,1,0,0:0:0:0:s_052.ogg
51,192,126533,1,0,0:0:0:0:s_033.ogg
153,192,126533,1,0,0:0:0:0:s_061.ogg
358,192,126533,1,0,0:0:0:0:s_069.ogg
460,192,126616,1,0,0:0:0:0:s_076.ogg
153,192,126700,1,0,0:0:0:0:s_073.ogg
256,192,126700,1,0,0:0:0:0:s_040.ogg
358,192,126700,1,0,0:0:0:0:s_064.ogg
460,192,126783,1,0,0:0:0:0:s_076.ogg
51,192,126866,1,0,0:0:0:0:s_028.ogg
153,192,126866,1,0,0:0:0:0:s_069.ogg
358,192,126866,1,0,0:0:0:0:s_061.ogg
460,192,126950,1,0,0:0:0:0:s_076.ogg
153,192,127033,1,0,0:0:0:0:s_064.ogg
256,192,127033,1,0,0:0:0:0:s_045.ogg
358,192,127033,1,0,0:0:0:0:s_073.ogg
460,192,127116,1,0,0:0:0:0:s_076.ogg
51,192,127200,1,0,0:0:0:0:s_051.ogg
153,192,127200,1,0,0:0:0:0:s_061.ogg
358,192,127200,1,0,0:0:0:0:s_069.ogg
460,192,127283,1,0,0:0:0:0:s_076.ogg
51,192,127366,1,0,0:0:0:0:s_064.ogg
256,192,127366,1,0,0:0:0:0:s_052.ogg
358,192,127366,1,0,0:0:0:0:s_073.ogg
460,192,127450,1,0,0:0:0:0:s_076.ogg
51,192,127533,1,0,0:0:0:0:m_064.ogg
153,192,127533,1,0,0:0:0:0:m_057.ogg
358,192,127533,1,0,0:0:0:0:m_069.ogg
51,192,127783,1,0,0:0:0:0:s_052.ogg
256,192,127866,1,0,0:0:0:0:s_066.ogg
358,192,127866,1,0,0:0:0:0:s_045.ogg
460,192,127950,1,0,0:0:0:0:s_076.ogg
153,192,128033,1,0,0:0:0:0:s_062.ogg
358,192,128033,1,0,0:0:0:0:s_050.ogg
460,192,128116,1,0,0:0:0:0:s_076.ogg
51,192,128200,1,0,0:0:0:0:s_061.ogg
153,192,128200,1,0,0:0:0:0:s_040.ogg
460,192,128283,1,0,0:0:0:0:s_076.ogg
51,192,128366,1,0,0:0:0:0:s_057.ogg
256,192,128366,1,0,0:0:0:0:s_062.ogg
460,192,128450,1,0,0:0:0:0:s_076.ogg
153,192,128533,1,0,0:0:0:0:s_066.ogg
358,192,128533,1,0,0:0:0:0:s_045.ogg
460,192,128616,1,0,0:0:0:0:s_076.ogg
51,192,128700,1,0,0:0:0:0:s_062.ogg
256,192,128700,1,0,0:0:0:0:s_054.ogg
460,192,128783,1,0,0:0:0:0:s_076.ogg
256,192,128866,1,0,0:0:0:0:s_050.ogg
358,192,128866,1,0,0:0:0:0:s_069.ogg
460,192,128950,1,0,0:0:0:0:s_076.ogg
51,192,129033,1,0,0:0:0:0:s_054.ogg
153,192,129033,1,0,0:0:0:0:s_066.ogg
460,192,129116,1,0,0:0:0:0:s_076.ogg
256,192,129200,1,0,0:0:0:0:s_064.ogg
358,192,129200,1,0,0:0:0:0:s_045.ogg
460,192,129283,1,0,0:0:0:0:s_076.ogg
153,192,129366,1,0,0:0:0:0:s_061.ogg
358,192,129366,1,0,0:0:0:0:s_049.ogg
460,192,129450,1,0,0:0:0:0:s_076.ogg
51,192,129533,1,0,0:0:0:0:s_060.ogg
153,192,129533,1,0,0:0:0:0:s_040.ogg
460,192,129616,1,0,0:0:0:0:s_076.ogg
51,192,129700,1,0,0:0:0:0:s_052.ogg
256,192,129700,1,0,0:0:0:0:s_061.ogg
460,192,129783,1,0,0:0:0:0:s_076.ogg
153,192,129866,1,0,0:0:0:0:s_045.ogg
358,192,129866,1,0,0:0:0:0:s_064.ogg
460,192,129950,1,0,0:0:0:0:s_076.ogg
51,192,130033,1,0,0:0:0:0:s_061.ogg
256,192,130033,1,0,0:0:0:0:s_057.ogg
460,192,130116,1,0,0:0:0:0:s_076.ogg
256,192,130200,1,0,0:0:0:0:s_049.ogg
358,192,130200,1,0,0:0:0:0:s_069.ogg
460,192,130283,1,0,0:0:0:0:s_076.ogg
51,192,130366,1,0,0:0:0:0:s_057.ogg
153,192,130366,1,0,0:0:0:0:s_064.ogg
460,192,130450,1,0,0:0:0:0:s_076.ogg
256,192,130533,1,0,0:0:0:0:s_066.ogg
358,192,130533,1,0,0:0:0:0:s_045.ogg
460,192,130616,1,0,0:0:0:0:s_076.ogg
153,192,130700,1,0,0:0:0:0:s_062.ogg
358,192,130700,1,0,0:0:0:0:s_054.ogg
460,192,130783,1,0,0:0:0:0:s_076.ogg
51,192,130866,1,0,0:0:0:0:s_061.ogg
153,192,130866,1,0,0:0:0:0:s_040.ogg
460,192,130950,1,0,0:0:0:0:s_076.ogg
51,192,131033,1,0,0:0:0:0:s_062.ogg
256,192,131033,1,0,0:0:0:0:s_057.ogg
460,192,131116,1,0,0:0:0:0:s_076.ogg
153,192,131200,1,0,0:0:0:0:s_066.ogg
358,192,131200,1,0,0:0:0:0:s_045.ogg
460,192,131283,1,0,0:0:0:0:s_076.ogg
51,192,131366,1,0,0:0:0:0:s_062.ogg
256,192,131366,1,0,0:0:0:0:s_054.ogg
460,192,131450,1,0,0:0:0:0:s_076.ogg
256,192,131533,1,0,0:0:0:0:s_050.ogg
358,192,131533,1,0,0:0:0:0:s_069.ogg
460,192,131616,1,0,0:0:0:0:s_076.ogg
51,192,131700,1,0,0:0:0:0:s_057.ogg
153,192,131700,1,0,0:0:0:0:s_066.ogg
460,192,131783,1,0,0:0:0:0:s_076.ogg
256,192,131866,1,0,0:0:0:0:s_064.ogg
358,192,131866,1,0,0:0:0:0:s_045.ogg
460,192,131950,1,0,0:0:0:0:s_076.ogg
153,192,132033,1,0,0:0:0:0:s_061.ogg
358,192,132033,1,0,0:0:0:0:s_049.ogg
460,192,132116,1,0,0:0:0:0:s_076.ogg
51,192,132200,1,0,0:0:0:0:s_060.ogg
153,192,132200,1,0,0:0:0:0:s_040.ogg
460,192,132283,1,0,0:0:0:0:s_076.ogg
51,192,132366,1,0,0:0:0:0:s_057.ogg
256,192,132366,1,0,0:0:0:0:s_061.ogg
460,192,132450,1,0,0:0:0:0:s_076.ogg
153,192,132533,1,0,0:0:0:0:s_064.ogg
358,192,132533,1,0,0:0:0:0:s_045.ogg
460,192,132616,1,0,0:0:0:0:s_076.ogg
51,192,132700,1,0,0:0:0:0:s_061.ogg
256,192,132700,1,0,0:0:0:0:s_057.ogg
460,192,132783,1,0,0:0:0:0:s_076.ogg
256,192,132866,1,0,0:0:0:0:s_049.ogg
358,192,132866,1,0,0:0:0:0:s_069.ogg
460,192,132950,1,0,0:0:0:0:s_076.ogg
51,192,133033,1,0,0:0:0:0:s_057.ogg
153,192,133033,1,0,0:0:0:0:s_052.ogg
51,192,133200,1,0,0:0:0:0:s_035.ogg
460,192,133200,1,0,0:0:0:0:s_028.ogg
51,192,133366,1,0,0:0:0:0:s_050.ogg
153,192,133366,1,0,0:0:0:0:s_044.ogg
256,192,133366,1,0,0:0:0:0:s_030.ogg
51,192,133533,1,0,0:0:0:0:s_040.ogg
358,192,133533,1,0,0:0:0:0:s_032.ogg
51,192,133700,1,0,0:0:0:0:s_050.ogg
153,192,133700,1,0,0:0:0:0:s_044.ogg
460,192,133700,1,0,0:0:0:0:s_033.ogg
51,192,133866,1,0,0:0:0:0:s_035.ogg
460,192,133866,1,0,0:0:0:0:s_037.ogg
358,192,133908,1,0,0:0:0:0:s_035.ogg
51,192,134033,1,0,0:0:0:0:s_050.ogg
153,192,134033,1,0,0:0:0:0:s_044.ogg
256,192,134033,1,0,0:0:0:0:s_034.ogg
51,192,134200,1,0,0:0:0:0:s_040.ogg
358,192,134200,1,0,0:0:0:0:s_035.ogg
51,192,134366,1,0,0:0:0:0:s_044.ogg
153,192,134366,1,0,0:0:0:0:s_050.ogg
256,192,134366,1,0,0:0:0:0:s_032.ogg
153,192,134533,1,0,0:0:0:0:s_037.ogg
460,192,134533,1,0,0:0:0:0:s_033.ogg
51,192,134700,1,0,0:0:0:0:s_045.ogg
153,192,134700,1,0,0:0:0:0:s_049.ogg
256,192,134700,1,0,0:0:0:0:s_035.ogg
153,192,134866,1,0,0:0:0:0:s_040.ogg
358,192,134866,1,0,0:0:0:0:s_037.ogg
51,192,135033,1,0,0:0:0:0:s_049.ogg
153,192,135033,1,0,0:0:0:0:s_045.ogg
460,192,135033,1,0,0:0:0:0:s_038.ogg
153,192,135200,1,0,0:0:0:0:s_037.ogg
460,192,135200,1,0,0:0:0:0:s_042.ogg
358,192,135241,1,0,0:0:0:0:s_040.ogg
51,192,135366,1,0,0:0:0:0:s_049.ogg
153,192,135366,1,0,0:0:0:0:s_045.ogg
256,192,135366,1,0,0:0:0:0:s_039.ogg
358,192,135533,1,0,0:0:0:0:s_040.ogg
51,192,135700,1,0,0:0:0:0:s_045.ogg
153,192,135700,1,0,0:0:0:0:s_049.ogg
256,192,135700,1,0,0:0:0:0:s_037.ogg
51,192,135866,1,0,0:0:0:0:s_035.ogg
256,192,135866,1,0,0:0:0:0:s_038.ogg
51,192,136033,1,0,0:0:0:0:s_050.ogg
153,192,136033,1,0,0:0:0:0:s_044.ogg
358,192,136033,1,0,0:0:0:0:s_041.ogg
460,192,136075,1,0,0:0:0:0:s_042.ogg
51,192,136200,1,0,0:0:0:0:s_040.ogg
256,192,136200,1,0,0:0:0:0:s_035.ogg
51,192,136366,1,0,0:0:0:0:s_044.ogg
153,192,136366,1,0,0:0:0:0:s_050.ogg
256,192,136366,1,0,0:0:0:0:s_037.ogg
358,192,136408,1,0,0:0:0:0:s_038.ogg
51,192,136533,1,0,0:0:0:0:s_035.ogg
460,192,136533,1,0,0:0:0:0:s_032.ogg
51,192,136700,1,0,0:0:0:0:s_050.ogg
153,192,136700,1,0,0:0:0:0:s_044.ogg
358,192,136700,1,0,0:0:0:0:s_034.ogg
460,192,136741,1,0,0:0:0:0:s_035.ogg
51,192,136866,1,0,0:0:0:0:s_040.ogg
256,192,136866,1,0,0:0:0:0:s_028.ogg
51,192,137033,1,0,0:0:0:0:s_044.ogg
153,192,137033,1,0,0:0:0:0:s_050.ogg
256,192,137033,1,0,0:0:0:0:s_031.ogg
358,192,137075,1,0,0:0:0:0:s_032.ogg
153,192,137200,1,0,0:0:0:0:s_037.ogg
460,192,137200,1,0,0:0:0:0:s_033.ogg
51,192,137366,1,0,0:0:0:0:s_049.ogg
153,192,137366,1,0,0:0:0:0:s_045.ogg
256,192,137366,1,0,0:0:0:0:s_036.ogg
358,192,137408,1,0,0:0:0:0:s_037.ogg
153,192,137533,1,0,0:0:0:0:s_040.ogg
460,192,137533,1,0,0:0:0:0:s_028.ogg
51,192,137700,1,0,0:0:0:0:s_049.ogg
153,192,137700,1,0,0:0:0:0:s_045.ogg
358,192,137700,1,0,0:0:0:0:s_032.ogg
460,192,137741,1,0,0:0:0:0:s_033.ogg
153,192,137866,1,0,0:0:0:0:s_037.ogg
256,192,137866,1,0,0:0:0:0:s_025.ogg
51,192,138033,1,0,0:0:0:0:s_045.ogg
153,192,138033,1,0,0:0:0:0:s_049.ogg
256,192,138033,1,0,0:0:0:0:s_027.ogg
358,192,138075,1,0,0:0:0:0:s_028.ogg
153,192,138200,1,0,0:0:0:0:s_040.ogg
460,192,138200,1,0,0:0:0:0:s_021.ogg
51,192,138366,1,0,0:0:0:0:s_049.ogg
153,192,138366,1,0,0:0:0:0:s_045.ogg
51,192,138533,1,0,0:0:0:0:s_035.ogg
153,192,138533,1,0,0:0:0:0:s_040.ogg
256,192,138533,1,0,0:0:0:0:s_052.ogg
51,192,138700,1,0,0:0:0:0:s_042.ogg
256,192,138700,1,0,0:0:0:0:s_038.ogg
358,192,138700,1,0,0:0:0:0:s_054.ogg
153,192,138866,1,0,0:0:0:0:s_028.ogg
256,192,138866,1,0,0:0:0:0:s_056.ogg
460,192,138866,1,0,0:0:0:0:s_044.ogg
153,192,139033,1,0,0:0:0:0:s_038.ogg
358,192,139033,1,0,0:0:0:0:s_045.ogg
460,192,139033,1,0,0:0:0:0:s_057.ogg
256,192,139200,1,0,0:0:0:0:s_035.ogg
460,192,139200,1,0,0:0:0:0:s_061.ogg
153,192,139241,1,0,0:0:0:0:s_047.ogg
358,192,139241,1,0,0:0:0:0:s_059.ogg
51,192,139366,1,0,0:0:0:0:s_044.ogg
153,192,139366,1,0,0:0:0:0:s_058.ogg
256,192,139366,1,0,0:0:0:0:s_046.ogg
51,192,139533,1,0,0:0:0:0:s_028.ogg
358,192,139533,1,0,0:0:0:0:s_059.ogg
460,192,139533,1,0,0:0:0:0:s_047.ogg
153,192,139700,1,0,0:0:0:0:s_040.ogg
256,192,139700,1,0,0:0:0:0:s_056.ogg
460,192,139700,1,0,0:0:0:0:s_044.ogg
51,192,139866,1,0,0:0:0:0:s_033.ogg
153,192,139866,1,0,0:0:0:0:s_057.ogg
256,192,139866,1,0,0:0:0:0:s_045.ogg
51,192,140033,1,0,0:0:0:0:s_045.ogg
256,192,140033,1,0,0:0:0:0:s_059.ogg
358,192,140033,1,0,0:0:0:0:s_047.ogg
153,192,140200,1,0,0:0:0:0:s_028.ogg
256,192,140200,1,0,0:0:0:0:s_049.ogg
460,192,140200,1,0,0:0:0:0:s_061.ogg
153,192,140366,1,0,0:0:0:0:s_037.ogg
358,192,140366,1,0,0:0:0:0:s_062.ogg
460,192,140366,1,0,0:0:0:0:s_050.ogg
256,192,140533,1,0,0:0:0:0:s_033.ogg
460,192,140533,1,0,0:0:0:0:s_066.ogg
153,192,140575,1,0,0:0:0:0:s_064.ogg
358,192,140575,1,0,0:0:0:0:s_052.ogg
51,192,140700,1,0,0:0:0:0:s_045.ogg
153,192,140700,1,0,0:0:0:0:s_063.ogg
256,192,140700,1,0,0:0:0:0:s_051.ogg
51,192,140866,1,0,0:0:0:0:s_028.ogg
358,192,140866,1,0,0:0:0:0:s_064.ogg
460,192,140866,1,0,0:0:0:0:s_052.ogg
153,192,141033,1,0,0:0:0:0:s_040.ogg
256,192,141033,1,0,0:0:0:0:s_061.ogg
460,192,141033,1,0,0:0:0:0:s_049.ogg
51,192,141200,1,0,0:0:0:0:s_062.ogg
256,192,141200,1,0,0:0:0:0:s_054.ogg
358,192,141200,1,0,0:0:0:0:s_035.ogg
153,192,141366,1,0,0:0:0:0:s_038.ogg
358,192,141366,1,0,0:0:0:0:s_065.ogg
460,192,141408,1,0,0:0:0:0:s_066.ogg
51,192,141533,1,0,0:0:0:0:s_059.ogg
153,192,141533,1,0,0:0:0:0:s_050.ogg
256,192,141533,1,0,0:0:0:0:s_028.ogg
51,192,141700,1,0,0:0:0:0:s_038.ogg
256,192,141700,1,0,0:0:0:0:s_061.ogg
358,192,141741,1,0,0:0:0:0:s_062.ogg
51,192,141866,1,0,0:0:0:0:s_056.ogg
153,192,141866,1,0,0:0:0:0:s_035.ogg
460,192,141866,1,0,0:0:0:0:s_047.ogg
153,192,142033,1,0,0:0:0:0:s_058.ogg
460,192,142033,1,0,0:0:0:0:s_044.ogg
256,192,142075,1,0,0:0:0:0:s_059.ogg
51,192,142200,1,0,0:0:0:0:s_028.ogg
358,192,142200,1,0,0:0:0:0:s_052.ogg
460,192,142200,1,0,0:0:0:0:s_044.ogg
51,192,142366,1,0,0:0:0:0:s_055.ogg
358,192,142366,1,0,0:0:0:0:s_040.ogg
153,192,142408,1,0,0:0:0:0:s_056.ogg
256,192,142533,1,0,0:0:0:0:s_033.ogg
358,192,142533,1,0,0:0:0:0:s_049.ogg
460,192,142533,1,0,0:0:0:0:s_057.ogg
51,192,142700,1,0,0:0:0:0:s_037.ogg
256,192,142700,1,0,0:0:0:0:s_060.ogg
358,192,142741,1,0,0:0:0:0:s_061.ogg
51,192,142866,1,0,0:0:0:0:s_045.ogg
153,192,142866,1,0,0:0:0:0:s_028.ogg
460,192,142866,1,0,0:0:0:0:s_052.ogg
153,192,143033,1,0,0:0:0:0:s_056.ogg
460,192,143033,1,0,0:0:0:0:s_037.ogg
256,192,143075,1,0,0:0:0:0:s_057.ogg
51,192,143200,1,0,0:0:0:0:s_033.ogg
358,192,143200,1,0,0:0:0:0:s_049.ogg
460,192,143200,1,0,0:0:0:0:s_040.ogg
51,192,143366,1,0,0:0:0:0:s_051.ogg
358,192,143366,1,0,0:0:0:0:s_045.ogg
153,192,143408,1,0,0:0:0:0:s_052.ogg
256,192,143533,1,0,0:0:0:0:s_037.ogg
358,192,143533,1,0,0:0:0:0:s_045.ogg
460,192,143533,1,0,0:0:0:0:s_028.ogg
256,192,143700,1,0,0:0:0:0:s_037.ogg
51,192,143866,1,0,0:0:0:0:s_030.ogg
460,192,143866,1,0,0:0:0:0:s_023.ogg
51,192,144033,1,0,0:0:0:0:s_045.ogg
153,192,144033,1,0,0:0:0:0:s_039.ogg
256,192,144033,1,0,0:0:0:0:s_025.ogg
51,192,144200,1,0,0:0:0:0:s_035.ogg
358,192,144200,1,0,0:0:0:0:s_027.ogg
51,192,144366,1,0,0:0:0:0:s_045.ogg
153,192,144366,1,0,0:0:0:0:s_039.ogg
460,192,144366,1,0,0:0:0:0:s_028.ogg
51,192,144533,1,0,0:0:0:0:s_030.ogg
460,192,144533,1,0,0:0:0:0:s_032.ogg
358,192,144575,1,0,0:0:0:0:s_030.ogg
51,192,144700,1,0,0:0:0:0:s_045.ogg
153,192,144700,1,0,0:0:0:0:s_039.ogg
256,192,144700,1,0,0:0:0:0:s_029.ogg
51,192,144866,1,0,0:0:0:0:s_035.ogg
358,192,144866,1,0,0:0:0:0:s_030.ogg
51,192,145033,1,0,0:0:0:0:s_039.ogg
153,192,145033,1,0,0:0:0:0:s_045.ogg
256,192,145033,1,0,0:0:0:0:s_027.ogg
153,192,145200,1,0,0:0:0:0:s_032.ogg
460,192,145200,1,0,0:0:0:0:s_028.ogg
51,192,145366,1,0,0:0:0:0:s_044.ogg
153,192,145366,1,0,0:0:0:0:s_040.ogg
256,192,145366,1,0,0:0:0:0:s_030.ogg
153,192,145533,1,0,0:0:0:0:s_035.ogg
358,192,145533,1,0,0:0:0:0:s_032.ogg
51,192,145700,1,0,0:0:0:0:s_044.ogg
153,192,145700,1,0,0:0:0:0:s_040.ogg
460,192,145700,1,0,0:0:0:0:s_033.ogg
153,192,145866,1,0,0:0:0:0:s_032.ogg
460,192,145866,1,0,0:0:0:0:s_037.ogg
358,192,145908,1,0,0:0:0:0:s_035.ogg
51,192,146033,1,0,0:0:0:0:s_044.ogg
153,192,146033,1,0,0:0:0:0:s_040.ogg
256,192,146033,1,0,0:0:0:0:s_034.ogg
358,192,146200,1,0,0:0:0:0:s_035.ogg
51,192,146366,1,0,0:0:0:0:s_044.ogg
153,192,146366,1,0,0:0:0:0:s_040.ogg
256,192,146366,1,0,0:0:0:0:s_032.ogg
51,192,146533,1,0,0:0:0:0:s_030.ogg
256,192,146533,1,0,0:0:0:0:s_033.ogg
51,192,146700,1,0,0:0:0:0:s_039.ogg
153,192,146700,1,0,0:0:0:0:s_045.ogg
358,192,146700,1,0,0:0:0:0:s_036.ogg
460,192,146741,1,0,0:0:0:0:s_037.ogg
51,192,146866,1,0,0:0:0:0:s_035.ogg
256,192,146866,1,0,0:0:0:0:s_030.ogg
51,192,147033,1,0,0:0:0:0:s_045.ogg
153,192,147033,1,0,0:0:0:0:s_039.ogg
256,192,147033,1,0,0:0:0:0:s_032.ogg
358,192,147075,1,0,0:0:0:0:s_033.ogg
51,192,147200,1,0,0:0:0:0:s_030.ogg
460,192,147200,1,0,0:0:0:0:s_027.ogg
51,192,147366,1,0,0:0:0:0:s_045.ogg
153,192,147366,1,0,0:0:0:0:s_039.ogg
358,192,147366,1,0,0:0:0:0:s_029.ogg
460,192,147408,1,0,0:0:0:0:s_030.ogg
51,192,147533,1,0,0:0:0:0:s_035.ogg
256,192,147533,1,0,0:0:0:0:s_023.ogg
51,192,147700,1,0,0:0:0:0:s_039.ogg
153,192,147700,1,0,0:0:0:0:s_045.ogg
256,192,147700,1,0,0:0:0:0:s_026.ogg
358,192,147741,1,0,0:0:0:0:s_027.ogg
153,192,147866,1,0,0:0:0:0:s_032.ogg
460,192,147866,1,0,0:0:0:0:s_028.ogg
51,192,148033,1,0,0:0:0:0:s_044.ogg
153,192,148033,1,0,0:0:0:0:s_040.ogg
256,192,148033,1,0,0:0:0:0:s_031.ogg
358,192,148075,1,0,0:0:0:0:s_032.ogg
153,192,148200,1,0,0:0:0:0:s_035.ogg
460,192,148200,1,0,0:0:0:0:s_023.ogg
51,192,148366,1,0,0:0:0:0:s_040.ogg
153,192,148366,1,0,0:0:0:0:s_044.ogg
358,192,148366,1,0,0:0:0:0:s_027.ogg
460,192,148408,1,0,0:0:0:0:s_028.ogg
153,192,148533,1,0,0:0:0:0:s_032.ogg
256,192,148533,1,0,0:0:0:0:s_020.ogg
51,192,148700,1,0,0:0:0:0:s_044.ogg
153,192,148700,1,0,0:0:0:0:s_040.ogg
256,192,148700,1,0,0:0:0:0:s_022.ogg
358,192,148741,1,0,0:0:0:0:s_023.ogg
153,192,148866,1,0,0:0:0:0:s_035.ogg
460,192,148866,1,0,0:0:0:0:s_016.ogg
51,192,149033,1,0,0:0:0:0:s_040.ogg
153,192,149033,1,0,0:0:0:0:s_044.ogg
51,192,149200,1,0,0:0:0:0:s_047.ogg
153,192,149200,1,0,0:0:0:0:s_059.ogg
358,192,149200,1,0,0:0:0:0:s_051.ogg
460,192,149200,1,0,0:0:0:0:s_030.ogg
51,192,149366,1,0,0:0:0:0:s_061.ogg
153,192,149366,1,0,0:0:0:0:s_049.ogg
256,192,149366,1,0,0:0:0:0:s_052.ogg
460,192,149366,1,0,0:0:0:0:s_039.ogg
51,192,149533,1,0,0:0:0:0:s_063.ogg
153,192,149533,1,0,0:0:0:0:s_054.ogg
256,192,149533,1,0,0:0:0:0:s_051.ogg
358,192,149533,1,0,0:0:0:0:s_023.ogg
51,192,149700,1,0,0:0:0:0:s_064.ogg
153,192,149700,1,0,0:0:0:0:s_052.ogg
256,192,149700,1,0,0:0:0:0:s_056.ogg
460,192,149700,1,0,0:0:0:0:s_045.ogg
153,192,149866,1,0,0:0:0:0:s_030.ogg
256,192,149866,1,0,0:0:0:0:s_057.ogg
358,192,149866,1,0,0:0:0:0:s_054.ogg
460,192,149866,1,0,0:0:0:0:s_066.ogg
51,192,150033,1,0,0:0:0:0:s_045.ogg
256,192,150033,1,0,0:0:0:0:s_065.ogg
358,192,150033,1,0,0:0:0:0:s_056.ogg
460,192,150033,1,0,0:0:0:0:s_053.ogg
153,192,150200,1,0,0:0:0:0:s_023.ogg
256,192,150200,1,0,0:0:0:0:s_057.ogg
358,192,150200,1,0,0:0:0:0:s_066.ogg
460,192,150200,1,0,0:0:0:0:s_054.ogg
51,192,150366,1,0,0:0:0:0:s_035.ogg
256,192,150366,1,0,0:0:0:0:s_063.ogg
358,192,150366,1,0,0:0:0:0:s_051.ogg
460,192,150366,1,0,0:0:0:0:s_054.ogg
51,192,150533,1,0,0:0:0:0:s_052.ogg
153,192,150533,1,0,0:0:0:0:s_056.ogg
358,192,150533,1,0,0:0:0:0:s_064.ogg
460,192,150533,1,0,0:0:0:0:s_028.ogg
51,192,150700,1,0,0:0:0:0:s_059.ogg
153,192,150700,1,0,0:0:0:0:s_054.ogg
256,192,150700,1,0,0:0:0:0:s_066.ogg
460,192,150700,1,0,0:0:0:0:s_035.ogg
51,192,150866,1,0,0:0:0:0:s_068.ogg
153,192,150866,1,0,0:0:0:0:s_056.ogg
256,192,150866,1,0,0:0:0:0:s_064.ogg
358,192,150866,1,0,0:0:0:0:s_023.ogg
51,192,151033,1,0,0:0:0:0:s_066.ogg
153,192,151033,1,0,0:0:0:0:s_069.ogg
256,192,151033,1,0,0:0:0:0:s_057.ogg
460,192,151033,1,0,0:0:0:0:s_044.ogg
153,192,151200,1,0,0:0:0:0:s_028.ogg
256,192,151200,1,0,0:0:0:0:s_071.ogg
358,192,151200,1,0,0:0:0:0:s_068.ogg
460,192,151200,1,0,0:0:0:0:s_059.ogg
51,192,151366,1,0,0:0:0:0:s_035.ogg
256,192,151366,1,0,0:0:0:0:s_070.ogg
358,192,151366,1,0,0:0:0:0:s_067.ogg
460,192,151366,1,0,0:0:0:0:s_058.ogg
153,192,151533,1,0,0:0:0:0:s_023.ogg
256,192,151533,1,0,0:0:0:0:s_068.ogg
358,192,151533,1,0,0:0:0:0:s_059.ogg
460,192,151533,1,0,0:0:0:0:s_071.ogg
51,192,151700,1,0,0:0:0:0:s_044.ogg
256,192,151700,1,0,0:0:0:0:s_056.ogg
358,192,151700,1,0,0:0:0:0:s_064.ogg
460,192,151700,1,0,0:0:0:0:s_068.ogg
51,192,151866,1,0,0:0:0:0:s_061.ogg
256,192,151866,1,0,0:0:0:0:s_069.ogg
358,192,151866,1,0,0:0:0:0:s_030.ogg
153,192,152033,1,0,0:0:0:0:s_039.ogg
358,192,152033,1,0,0:0:0:0:s_072.ogg
460,192,152075,1,0,0:0:0:0:s_073.ogg
51,192,152200,1,0,0:0:0:0:s_066.ogg
153,192,152200,1,0,0:0:0:0:s_057.ogg
256,192,152200,1,0,0:0:0:0:s_023.ogg
51,192,152366,1,0,0:0:0:0:s_045.ogg
256,192,152366,1,0,0:0:0:0:s_068.ogg
358,192,152408,1,0,0:0:0:0:s_069.ogg
51,192,152533,1,0,0:0:0:0:s_063.ogg
153,192,152533,1,0,0:0:0:0:s_030.ogg
460,192,152533,1,0,0:0:0:0:s_054.ogg
153,192,152700,1,0,0:0:0:0:s_065.ogg
460,192,152700,1,0,0:0:0:0:s_045.ogg
256,192,152741,1,0,0:0:0:0:s_066.ogg
51,192,152866,1,0,0:0:0:0:s_051.ogg
358,192,152866,1,0,0:0:0:0:s_059.ogg
460,192,152866,1,0,0:0:0:0:s_023.ogg
51,192,153033,1,0,0:0:0:0:s_062.ogg
358,192,153033,1,0,0:0:0:0:s_045.ogg
153,192,153075,1,0,0:0:0:0:s_063.ogg
256,192,153200,1,0,0:0:0:0:s_028.ogg
358,192,153200,1,0,0:0:0:0:s_056.ogg
460,192,153200,1,0,0:0:0:0:s_064.ogg
51,192,153366,1,0,0:0:0:0:s_040.ogg
256,192,153366,1,0,0:0:0:0:s_067.ogg
358,192,153408,1,0,0:0:0:0:s_068.ogg
51,192,153533,1,0,0:0:0:0:s_059.ogg
153,192,153533,1,0,0:0:0:0:s_052.ogg
256,192,153533,1,0,0:0:0:0:s_023.ogg
153,192,153700,1,0,0:0:0:0:s_063.ogg
460,192,153700,1,0,0:0:0:0:s_044.ogg
256,192,153741,1,0,0:0:0:0:s_064.ogg
51,192,153866,1,0,0:0:0:0:s_056.ogg
153,192,153866,1,0,0:0:0:0:s_028.ogg
460,192,153866,1,0,0:0:0:0:s_047.ogg
51,192,154033,1,0,0:0:0:0:s_058.ogg
358,192,154033,1,0,0:0:0:0:s_040.ogg
153,192,154075,1,0,0:0:0:0:s_059.ogg
51,192,154200,1,0,0:0:0:0:s_023.ogg
256,192,154200,1,0,0:0:0:0:s_052.ogg
358,192,154200,1,0,0:0:0:0:s_044.ogg
256,192,154366,1,0,0:0:0:0:s_040.ogg
51,192,154533,1,0,0:0:0:0:s_059.ogg
153,192,154533,1,0,0:0:0:0:s_051.ogg
358,192,154533,1,0,0:0:0:0:s_030.ogg
460,192,154533,1,0,0:0:0:0:s_047.ogg
51,192,154700,1,0,0:0:0:0:s_052.ogg
153,192,154700,1,0,0:0:0:0:s_061.ogg
256,192,154700,1,0,0:0:0:0:s_045.ogg
460,192,154700,1,0,0:0:0:0:s_049.ogg
51,192,154866,1,0,0:0:0:0:s_063.ogg
153,192,154866,1,0,0:0:0:0:s_054.ogg
256,192,154866,1,0,0:0:0:0:s_023.ogg
358,192,154866,1,0,0:0:0:0:s_051.ogg
51,192,155033,1,0,0:0:0:0:s_056.ogg
153,192,155033,1,0,0:0:0:0:s_064.ogg
256,192,155033,1,0,0:0:0:0:s_035.ogg
460,192,155033,1,0,0:0:0:0:s_052.ogg
153,192,155200,1,0,0:0:0:0:s_057.ogg
256,192,155200,1,0,0:0:0:0:s_030.ogg
358,192,155200,1,0,0:0:0:0:s_054.ogg
460,192,155200,1,0,0:0:0:0:s_066.ogg
51,192,155366,1,0,0:0:0:0:s_053.ogg
256,192,155366,1,0,0:0:0:0:s_045.ogg
358,192,155366,1,0,0:0:0:0:s_065.ogg
460,192,155366,1,0,0:0:0:0:s_056.ogg
153,192,155533,1,0,0:0:0:0:s_066.ogg
256,192,155533,1,0,0:0:0:0:s_023.ogg
358,192,155533,1,0,0:0:0:0:s_054.ogg
460,192,155533,1,0,0:0:0:0:s_057.ogg
51,192,155700,1,0,0:0:0:0:s_051.ogg
256,192,155700,1,0,0:0:0:0:s_045.ogg
358,192,155700,1,0,0:0:0:0:s_054.ogg
460,192,155700,1,0,0:0:0:0:s_063.ogg
51,192,155866,1,0,0:0:0:0:s_052.ogg
153,192,155866,1,0,0:0:0:0:s_064.ogg
358,192,155866,1,0,0:0:0:0:s_028.ogg
460,192,155866,1,0,0:0:0:0:s_056.ogg
51,192,156033,1,0,0:0:0:0:s_066.ogg
153,192,156033,1,0,0:0:0:0:s_059.ogg
256,192,156033,1,0,0:0:0:0:s_040.ogg
460,192,156033,1,0,0:0:0:0:s_054.ogg
51,192,156200,1,0,0:0:0:0:s_068.ogg
153,192,156200,1,0,0:0:0:0:s_064.ogg
256,192,156200,1,0,0:0:0:0:s_023.ogg
358,192,156200,1,0,0:0:0:0:s_056.ogg
51,192,156366,1,0,0:0:0:0:s_069.ogg
153,192,156366,1,0,0:0:0:0:s_066.ogg
256,192,156366,1,0,0:0:0:0:s_044.ogg
460,192,156366,1,0,0:0:0:0:s_057.ogg
153,192,156533,1,0,0:0:0:0:s_068.ogg
256,192,156533,1,0,0:0:0:0:s_028.ogg
358,192,156533,1,0,0:0:0:0:s_059.ogg
460,192,156533,1,0,0:0:0:0:s_071.ogg
51,192,156700,1,0,0:0:0:0:s_067.ogg
256,192,156700,1,0,0:0:0:0:s_035.ogg
358,192,156700,1,0,0:0:0:0:s_058.ogg
460,192,156700,1,0,0:0:0:0:s_070.ogg
153,192,156866,1,0,0:0:0:0:s_059.ogg
256,192,156866,1,0,0:0:0:0:s_023.ogg
358,192,156866,1,0,0:0:0:0:s_068.ogg
460,192,156866,1,0,0:0:0:0:s_071.ogg
51,192,157033,1,0,0:0:0:0:s_056.ogg
256,192,157033,1,0,0:0:0:0:s_040.ogg
358,192,157033,1,0,0:0:0:0:s_068.ogg
460,192,157033,1,0,0:0:0:0:s_064.ogg
153,192,157200,1,0,0:0:0:0:s_030.ogg
358,192,157200,1,0,0:0:0:0:s_060.ogg
256,192,157241,1,0,0:0:0:0:s_061.ogg
460,192,157241,1,0,0:0:0:0:s_069.ogg
51,192,157366,1,0,0:0:0:0:s_039.ogg
358,192,157366,1,0,0:0:0:0:s_057.ogg
51,192,157533,1,0,0:0:0:0:s_023.ogg
256,192,157533,1,0,0:0:0:0:s_056.ogg
153,192,157575,1,0,0:0:0:0:s_066.ogg
358,192,157575,1,0,0:0:0:0:s_057.ogg
256,192,157700,1,0,0:0:0:0:s_054.ogg
460,192,157700,1,0,0:0:0:0:s_045.ogg
153,192,157866,1,0,0:0:0:0:s_053.ogg
460,192,157866,1,0,0:0:0:0:s_030.ogg
51,192,157908,1,0,0:0:0:0:s_063.ogg
256,192,157908,1,0,0:0:0:0:s_054.ogg
153,192,158033,1,0,0:0:0:0:s_051.ogg
358,192,158033,1,0,0:0:0:0:s_039.ogg
51,192,158200,1,0,0:0:0:0:s_050.ogg
358,192,158200,1,0,0:0:0:0:s_023.ogg
153,192,158241,1,0,0:0:0:0:s_059.ogg
460,192,158241,1,0,0:0:0:0:s_051.ogg
51,192,158366,1,0,0:0:0:0:s_047.ogg
256,192,158366,1,0,0:0:0:0:s_039.ogg
153,192,158533,1,0,0:0:0:0:s_064.ogg
256,192,158533,1,0,0:0:0:0:s_052.ogg
358,192,158533,1,0,0:0:0:0:s_056.ogg
256,192,158700,1,0,0:0:0:0:s_053.ogg
358,192,158700,1,0,0:0:0:0:s_057.ogg
460,192,158700,1,0,0:0:0:0:s_065.ogg
51,192,158866,1,0,0:0:0:0:s_054.ogg
358,192,158866,1,0,0:0:0:0:s_066.ogg
460,192,158866,1,0,0:0:0:0:s_058.ogg
51,192,159033,1,0,0:0:0:0:s_055.ogg
153,192,159033,1,0,0:0:0:0:s_067.ogg
460,192,159033,1,0,0:0:0:0:s_059.ogg
51,192,159200,1,0,0:0:0:0:s_056.ogg
153,192,159200,1,0,0:0:0:0:s_068.ogg
256,192,159200,1,0,0:0:0:0:s_060.ogg
51,192,159366,1,0,0:0:0:0:s_055.ogg
153,192,159366,1,0,0:0:0:0:s_067.ogg
460,192,159366,1,0,0:0:0:0:s_059.ogg
51,192,159533,1,0,0:0:0:0:s_054.ogg
358,192,159533,1,0,0:0:0:0:s_066.ogg
460,192,159533,1,0,0:0:0:0:s_058.ogg
256,192,159700,1,0,0:0:0:0:s_065.ogg
358,192,159700,1,0,0:0:0:0:s_057.ogg
460,192,159700,1,0,0:0:0:0:s_053.ogg
51,192,159866,1,0,0:0:0:0:s_066.ogg
358,192,159866,1,0,0:0:0:0:s_054.ogg
460,192,159866,1,0,0:0:0:0:s_058.ogg
51,192,160033,1,0,0:0:0:0:s_059.ogg
153,192,160033,1,0,0:0:0:0:s_067.ogg
460,192,160033,1,0,0:0:0:0:s_055.ogg
51,192,160200,1,0,0:0:0:0:s_056.ogg
153,192,160200,1,0,0:0:0:0:s_068.ogg
256,192,160200,1,0,0:0:0:0:s_060.ogg
153,192,160366,1,0,0:0:0:0:s_061.ogg
256,192,160366,1,0,0:0:0:0:s_069.ogg
358,192,160366,1,0,0:0:0:0:s_057.ogg
256,192,160533,1,0,0:0:0:0:s_070.ogg
358,192,160533,1,0,0:0:0:0:s_058.ogg
460,192,160533,1,0,0:0:0:0:s_062.ogg
153,192,160700,1,0,0:0:0:0:s_057.ogg
256,192,160700,1,0,0:0:0:0:s_069.ogg
358,192,160700,1,0,0:0:0:0:s_061.ogg
51,192,160866,1,0,0:0:0:0:s_056.ogg
153,192,160866,1,0,0:0:0:0:s_068.ogg
256,192,160866,1,0,0:0:0:0:s_060.ogg
51,192,161033,1,0,0:0:0:0:s_059.ogg
153,192,161033,1,0,0:0:0:0:s_067.ogg
460,192,161033,1,0,0:0:0:0:s_055.ogg
51,192,161200,1,0,0:0:0:0:s_056.ogg
153,192,161200,1,0,0:0:0:0:s_068.ogg
256,192,161200,1,0,0:0:0:0:s_060.ogg
153,192,161366,1,0,0:0:0:0:s_061.ogg
256,192,161366,1,0,0:0:0:0:s_057.ogg
358,192,161366,1,0,0:0:0:0:s_069.ogg
256,192,161533,1,0,0:0:0:0:s_062.ogg
358,192,161533,1,0,0:0:0:0:s_058.ogg
460,192,161533,1,0,0:0:0:0:s_070.ogg
51,192,161700,1,0,0:0:0:0:s_063.ogg
358,192,161700,1,0,0:0:0:0:s_071.ogg
460,192,161700,1,0,0:0:0:0:s_059.ogg
51,192,161866,1,0,0:0:0:0:s_064.ogg
153,192,161866,1,0,0:0:0:0:s_060.ogg
460,192,161866,1,0,0:0:0:0:s_072.ogg
51,192,162033,1,0,0:0:0:0:s_059.ogg
358,192,162033,1,0,0:0:0:0:s_071.ogg
460,192,162033,1,0,0:0:0:0:s_063.ogg
256,192,162200,1,0,0:0:0:0:s_070.ogg
358,192,162200,1,0,0:0:0:0:s_058.ogg
460,192,162200,1,0,0:0:0:0:s_062.ogg
153,192,162366,1,0,0:0:0:0:s_057.ogg
256,192,162366,1,0,0:0:0:0:s_069.ogg
358,192,162366,1,0,0:0:0:0:s_061.ogg
51,192,162533,1,0,0:0:0:0:s_058.ogg
153,192,162533,1,0,0:0:0:0:s_070.ogg
256,192,162533,1,0,0:0:0:0:s_062.ogg
153,192,162700,1,0,0:0:0:0:s_071.ogg
256,192,162700,1,0,0:0:0:0:s_063.ogg
358,192,162700,1,0,0:0:0:0:s_059.ogg
256,192,162866,1,0,0:0:0:0:s_060.ogg
358,192,162866,1,0,0:0:0:0:s_064.ogg
460,192,162866,1,0,0:0:0:0:s_072.ogg
51,192,163033,1,0,0:0:0:0:s_065.ogg
358,192,163033,1,0,0:0:0:0:s_073.ogg
460,192,163033,1,0,0:0:0:0:s_061.ogg
51,192,163200,1,0,0:0:0:0:s_074.ogg
153,192,163200,1,0,0:0:0:0:s_062.ogg
460,192,163200,1,0,0:0:0:0:s_066.ogg
51,192,163366,1,0,0:0:0:0:s_063.ogg
153,192,163366,1,0,0:0:0:0:s_075.ogg
256,192,163366,1,0,0:0:0:0:s_067.ogg
153,192,163533,1,0,0:0:0:0:s_076.ogg
256,192,163533,1,0,0:0:0:0:s_068.ogg
358,192,163533,1,0,0:0:0:0:s_064.ogg
256,192,163700,1,0,0:0:0:0:s_065.ogg
358,192,163700,1,0,0:0:0:0:s_069.ogg
460,192,163700,1,0,0:0:0:0:s_077.ogg
51,192,163866,1,0,0:0:0:0:s_070.ogg
358,192,163866,1,0,0:0:0:0:s_066.ogg
460,192,163866,1,0,0:0:0:0:s_078.ogg
51,192,164033,1,0,0:0:0:0:s_067.ogg
153,192,164033,1,0,0:0:0:0:s_071.ogg
460,192,164033,1,0,0:0:0:0:s_079.ogg
51,192,164200,1,0,0:0:0:0:s_068.ogg
153,192,164200,1,0,0:0:0:0:s_080.ogg
256,192,164200,1,0,0:0:0:0:s_072.ogg
51,192,164366,1,0,0:0:0:0:s_071.ogg
153,192,164366,1,0,0:0:0:0:s_079.ogg
460,192,164366,1,0,0:0:0:0:s_067.ogg
51,192,164533,1,0,0:0:0:0:s_066.ogg
358,192,164533,1,0,0:0:0:0:s_070.ogg
460,192,164533,1,0,0:0:0:0:s_078.ogg
256,192,164700,1,0,0:0:0:0:s_065.ogg
358,192,164700,1,0,0:0:0:0:s_069.ogg
460,192,164700,1,0,0:0:0:0:s_077.ogg
153,192,164866,1,0,0:0:0:0:s_064.ogg
256,192,164866,1,0,0:0:0:0:s_068.ogg
358,192,164866,1,0,0:0:0:0:s_076.ogg
51,192,165033,1,0,0:0:0:0:s_063.ogg
153,192,165033,1,0,0:0:0:0:s_075.ogg
256,192,165033,1,0,0:0:0:0:s_067.ogg
51,192,165200,1,0,0:0:0:0:s_074.ogg
153,192,165200,1,0,0:0:0:0:s_062.ogg
460,192,165200,1,0,0:0:0:0:s_066.ogg
51,192,165366,1,0,0:0:0:0:s_061.ogg
358,192,165366,1,0,0:0:0:0:s_073.ogg
460,192,165366,1,0,0:0:0:0:s_065.ogg
256,192,165533,1,0,0:0:0:0:s_072.ogg
358,192,165533,1,0,0:0:0:0:s_064.ogg
460,192,165533,1,0,0:0:0:0:s_060.ogg
51,192,165700,1,0,0:0:0:0:s_061.ogg
358,192,165700,1,0,0:0:0:0:s_073.ogg
460,192,165700,1,0,0:0:0:0:s_065.ogg
51,192,165866,1,0,0:0:0:0:s_062.ogg
153,192,165866,1,0,0:0:0:0:s_074.ogg
460,192,165866,1,0,0:0:0:0:s_066.ogg
51,192,166033,1,0,0:0:0:0:s_063.ogg
153,192,166033,1,0,0:0:0:0:s_075.ogg
256,192,166033,1,0,0:0:0:0:s_067.ogg
153,192,166200,1,0,0:0:0:0:s_076.ogg
256,192,166200,1,0,0:0:0:0:s_068.ogg
358,192,166200,1,0,0:0:0:0:s_064.ogg
256,192,166366,1,0,0:0:0:0:s_065.ogg
358,192,166366,1,0,0:0:0:0:s_069.ogg
460,192,166366,1,0,0:0:0:0:s_077.ogg
51,192,166533,1,0,0:0:0:0:s_070.ogg
358,192,166533,1,0,0:0:0:0:s_078.ogg
460,192,166533,1,0,0:0:0:0:s_066.ogg
51,192,166700,1,0,0:0:0:0:s_067.ogg
153,192,166700,1,0,0:0:0:0:s_079.ogg
460,192,166700,1,0,0:0:0:0:s_071.ogg
51,192,166866,1,0,0:0:0:0:s_068.ogg
153,192,166866,1,0,0:0:0:0:s_072.ogg
256,192,166866,1,0,0:0:0:0:s_080.ogg
51,192,167033,1,0,0:0:0:0:s_071.ogg
153,192,167033,1,0,0:0:0:0:s_079.ogg
460,192,167033,1,0,0:0:0:0:s_067.ogg
51,192,167200,1,0,0:0:0:0:s_070.ogg
358,192,167200,1,0,0:0:0:0:s_066.ogg
460,192,167200,1,0,0:0:0:0:s_078.ogg
256,192,167366,1,0,0:0:0:0:s_077.ogg
358,192,167366,1,0,0:0:0:0:s_069.ogg
460,192,167366,1,0,0:0:0:0:s_065.ogg
153,192,167533,1,0,0:0:0:0:s_076.ogg
256,192,167533,1,0,0:0:0:0:s_068.ogg
358,192,167533,1,0,0:0:0:0:s_064.ogg
460,192,167533,1,0,0:0:0:0:s_028.ogg
51,192,167700,1,0,0:0:0:0:s_063.ogg
153,192,167700,1,0,0:0:0:0:s_069.ogg
256,192,167700,1,0,0:0:0:0:s_075.ogg
358,192,167700,1,0,0:0:0:0:s_029.ogg
153,192,167866,1,0,0:0:0:0:s_028.ogg
256,192,167866,1,0,0:0:0:0:s_076.ogg
358,192,167866,1,0,0:0:0:0:s_068.ogg
460,192,167866,1,0,0:0:0:0:s_064.ogg
51,192,168033,1,0,0:0:0:0:s_063.ogg
153,192,168033,1,0,0:0:0:0:s_075.ogg
256,192,168033,1,0,0:0:0:0:s_069.ogg
358,192,168033,1,0,0:0:0:0:s_017.ogg
153,192,168200,1,0,0:0:0:0:s_016.ogg
256,192,168200,1,0,0:0:0:0:s_068.ogg
358,192,168200,1,0,0:0:0:0:s_076.ogg
460,192,168200,1,0,0:0:0:0:s_064.ogg
51,192,168366,1,0,0:0:0:0:s_075.ogg
153,192,168366,1,0,0:0:0:0:s_069.ogg
256,192,168366,1,0,0:0:0:0:s_063.ogg
358,192,168366,1,0,0:0:0:0:s_017.ogg
153,192,168533,1,0,0:0:0:0:s_016.ogg
256,192,168533,1,0,0:0:0:0:s_064.ogg
358,192,168533,1,0,0:0:0:0:s_068.ogg
460,192,168533,1,0,0:0:0:0:s_076.ogg
51,192,168700,1,0,0:0:0:0:s_051.ogg
358,192,168700,1,0,0:0:0:0:s_063.ogg
460,192,168700,1,0,0:0:0:0:s_027.ogg
51,192,168866,1,0,0:0:0:0:s_040.ogg
153,192,168866,1,0,0:0:0:0:s_052.ogg
256,192,168866,1,0,0:0:0:0:s_064.ogg
51,192,169033,1,0,0:0:0:0:s_051.ogg
358,192,169033,1,0,0:0:0:0:s_063.ogg
460,192,169033,1,0,0:0:0:0:s_039.ogg
51,192,169200,1,0,0:0:0:0:s_028.ogg
153,192,169200,1,0,0:0:0:0:s_052.ogg
256,192,169200,1,0,0:0:0:0:s_064.ogg
256,192,169366,1,0,0:0:0:0:s_040.ogg
358,192,169366,1,0,0:0:0:0:s_052.ogg
460,192,169366,1,0,0:0:0:0:s_028.ogg
51,192,169533,1,0,0:0:0:0:s_017.ogg
358,192,169533,1,0,0:0:0:0:s_053.ogg
460,192,169533,1,0,0:0:0:0:s_041.ogg
51,192,169700,1,0,0:0:0:0:s_042.ogg
153,192,169700,1,0,0:0:0:0:s_030.ogg
460,192,169700,1,0,0:0:0:0:s_054.ogg
256,192,169866,128,0,170116:0:0:0:0:m_055.ogg
153,192,169866,128,0,170116:0:0:0:0:m_043.ogg
51,192,169866,128,0,170116:0:0:0:0:m_019.ogg
358,192,170033,1,0,0:0:0:0:s_047.ogg
460,192,170033,1,0,0:0:0:0:s_050.ogg
358,192,170200,128,0,170450:0:0:0:0:m_059.ogg
256,192,170200,128,0,170450:0:0:0:0:m_047.ogg
153,192,170200,128,0,170450:0:0:0:0:m_023.ogg
51,192,170366,1,0,0:0:0:0:s_055.ogg
460,192,170366,1,0,0:0:0:0:s_050.ogg
460,192,170533,128,0,170950:0:0:0:0:m_064.ogg
358,192,170533,128,0,170950:0:0:0:0:m_052.ogg
256,192,170533,128,0,170950:0:0:0:0:m_028.ogg
51,192,170700,1,0,0:0:0:0:s_055.ogg
153,192,170700,1,0,0:0:0:0:s_059.ogg
51,192,170866,1,0,0:0:0:0:s_055.ogg
153,192,170866,1,0,0:0:0:0:s_059.ogg
153,192,171033,1,0,0:0:0:0:s_050.ogg
256,192,171033,1,0,0:0:0:0:s_026.ogg
358,192,171033,1,0,0:0:0:0:s_062.ogg
51,192,171200,1,0,0:0:0:0:s_060.ogg
153,192,171200,1,0,0:0:0:0:s_052.ogg
256,192,171200,1,0,0:0:0:0:s_036.ogg
358,192,171200,1,0,0:0:0:0:s_048.ogg
460,192,171200,1,0,0:0:0:0:s_055.ogg
51,192,171366,1,0,0:0:0:0:s_047.ogg
153,192,171366,1,0,0:0:0:0:s_023.ogg
460,192,171366,1,0,0:0:0:0:s_059.ogg
51,192,171533,1,0,0:0:0:0:s_058.ogg
358,192,171533,1,0,0:0:0:0:s_034.ogg
460,192,171533,1,0,0:0:0:0:s_046.ogg
153,192,171700,1,0,0:0:0:0:s_045.ogg
51,192,171700,1,0,0:0:0:0:s_021.ogg
256,192,171720,1,0,0:0:0:0:s_048.ogg
358,192,171741,1,0,0:0:0:0:s_052.ogg
460,192,171762,1,0,0:0:0:0:s_057.ogg
153,192,171866,1,0,0:0:0:0:s_044.ogg
256,192,171866,1,0,0:0:0:0:s_032.ogg
358,192,171866,1,0,0:0:0:0:s_056.ogg
51,192,172033,1,0,0:0:0:0:s_043.ogg
460,192,172033,1,0,0:0:0:0:s_019.ogg
153,192,172054,1,0,0:0:0:0:s_048.ogg
256,192,172075,1,0,0:0:0:0:s_052.ogg
358,192,172095,1,0,0:0:0:0:s_055.ogg
51,192,172200,1,0,0:0:0:0:s_042.ogg
153,192,172200,1,0,0:0:0:0:s_030.ogg
460,192,172200,1,0,0:0:0:0:s_054.ogg
51,192,172366,1,0,0:0:0:0:s_043.ogg
460,192,172366,1,0,0:0:0:0:s_019.ogg
153,192,172387,1,0,0:0:0:0:s_048.ogg
256,192,172408,1,0,0:0:0:0:s_052.ogg
358,192,172429,1,0,0:0:0:0:s_055.ogg
256,192,172533,128,0,172783:0:0:0:0:m_055.ogg
153,192,172533,128,0,172783:0:0:0:0:m_019.ogg
51,192,172533,128,0,172783:0:0:0:0:m_043.ogg
358,192,172700,1,0,0:0:0:0:s_047.ogg
460,192,172700,1,0,0:0:0:0:s_050.ogg
358,192,172866,128,0,173116:0:0:0:0:m_047.ogg
256,192,172866,128,0,173116:0:0:0:0:m_059.ogg
153,192,172866,128,0,173116:0:0:0:0:m_023.ogg
51,192,173033,1,0,0:0:0:0:s_055.ogg
460,192,173033,1,0,0:0:0:0:s_050.ogg
460,192,173200,128,0,173616:0:0:0:0:m_052.ogg
358,192,173200,128,0,173616:0:0:0:0:m_064.ogg
256,192,173200,128,0,173616:0:0:0:0:m_028.ogg
51,192,173366,1,0,0:0:0:0:s_055.ogg
153,192,173366,1,0,0:0:0:0:s_059.ogg
51,192,173533,1,0,0:0:0:0:s_059.ogg
153,192,173533,1,0,0:0:0:0:s_055.ogg
153,192,173700,1,0,0:0:0:0:s_050.ogg
256,192,173700,1,0,0:0:0:0:s_026.ogg
358,192,173700,1,0,0:0:0:0:s_062.ogg
51,192,173866,1,0,0:0:0:0:s_048.ogg
153,192,173866,1,0,0:0:0:0:s_052.ogg
256,192,173866,1,0,0:0:0:0:s_036.ogg
358,192,173866,1,0,0:0:0:0:s_055.ogg
460,192,173866,1,0,0:0:0:0:s_060.ogg
51,192,174033,1,0,0:0:0:0:s_047.ogg
153,192,174033,1,0,0:0:0:0:s_059.ogg
460,192,174033,1,0,0:0:0:0:s_023.ogg
51,192,174200,1,0,0:0:0:0:s_057.ogg
358,192,174200,1,0,0:0:0:0:s_021.ogg
460,192,174200,1,0,0:0:0:0:s_045.ogg
51,192,174366,1,0,0:0:0:0:s_052.ogg
153,192,174366,1,0,0:0:0:0:s_048.ogg
256,192,174366,1,0,0:0:0:0:s_043.ogg
358,192,174366,1,0,0:0:0:0:s_055.ogg
460,192,174366,1,0,0:0:0:0:s_031.ogg
51,192,174533,1,0,0:0:0:0:m_055.ogg
153,192,174533,1,0,0:0:0:0:m_024.ogg
256,192,174533,1,0,0:0:0:0:m_048.ogg
358,192,174533,1,0,0:0:0:0:m_052.ogg
460,192,174533,1,0,0:0:0:0:m_060.ogg
51,192,174866,1,0,0:0:0:0:m_028.ogg
153,192,174866,1,0,0:0:0:0:m_064.ogg
256,192,174866,1,0,0:0:0:0:m_052.ogg
358,192,174866,1,0,0:0:0:0:m_055.ogg
460,192,174866,1,0,0:0:0:0:m_060.ogg
51,192,175200,1,0,0:0:0:0:s_065.ogg
153,192,175200,1,0,0:0:0:0:s_071.ogg
460,192,175283,1,0,0:0:0:0:s_079.ogg
256,192,175366,1,0,0:0:0:0:s_074.ogg
358,192,175366,1,0,0:0:0:0:s_067.ogg
460,192,175450,1,0,0:0:0:0:s_079.ogg
51,192,175533,1,0,0:0:0:0:s_071.ogg
153,192,175533,1,0,0:0:0:0:s_065.ogg
460,192,175616,1,0,0:0:0:0:s_079.ogg
256,192,175700,1,0,0:0:0:0:s_074.ogg
358,192,175700,1,0,0:0:0:0:s_067.ogg
460,192,175783,1,0,0:0:0:0:s_079.ogg
51,192,175866,1,0,0:0:0:0:s_071.ogg
153,192,175866,1,0,0:0:0:0:s_065.ogg
460,192,175950,1,0,0:0:0:0:s_079.ogg
358,192,176033,1,0,0:0:0:0:s_074.ogg
256,192,176033,128,0,176283:0:0:0:0:m_040.ogg
460,192,176116,1,0,0:0:0:0:s_079.ogg
51,192,176200,1,0,0:0:0:0:s_071.ogg
460,192,176283,1,0,0:0:0:0:s_079.ogg
153,192,176366,1,0,0:0:0:0:s_067.ogg
358,192,176366,1,0,0:0:0:0:s_074.ogg
460,192,176450,1,0,0:0:0:0:s_079.ogg
153,192,176533,1,0,0:0:0:0:s_064.ogg
256,192,176533,1,0,0:0:0:0:s_072.ogg
460,192,176616,1,0,0:0:0:0:s_079.ogg
51,192,176700,1,0,0:0:0:0:s_076.ogg
358,192,176700,1,0,0:0:0:0:s_067.ogg
460,192,176783,1,0,0:0:0:0:s_079.ogg
153,192,176866,1,0,0:0:0:0:s_072.ogg
256,192,176866,1,0,0:0:0:0:s_064.ogg
460,192,176950,1,0,0:0:0:0:s_079.ogg
51,192,177033,1,0,0:0:0:0:s_067.ogg
358,192,177033,1,0,0:0:0:0:s_076.ogg
460,192,177116,1,0,0:0:0:0:s_079.ogg
153,192,177200,1,0,0:0:0:0:s_064.ogg
256,192,177200,1,0,0:0:0:0:s_072.ogg
460,192,177283,1,0,0:0:0:0:s_079.ogg
51,192,177366,1,0,0:0:0:0:s_067.ogg
358,192,177366,1,0,0:0:0:0:s_076.ogg
460,192,177450,1,0,0:0:0:0:s_079.ogg
153,192,177533,1,0,0:0:0:0:s_072.ogg
256,192,177533,1,0,0:0:0:0:s_064.ogg
460,192,177616,1,0,0:0:0:0:s_079.ogg
51,192,177700,1,0,0:0:0:0:s_067.ogg
358,192,177700,1,0,0:0:0:0:s_076.ogg
460,192,177783,1,0,0:0:0:0:s_079.ogg
51,192,177866,1,0,0:0:0:0:s_071.ogg
153,192,177866,1,0,0:0:0:0:s_065.ogg
460,192,177950,1,0,0:0:0:0:s_079.ogg
256,192,178033,1,0,0:0:0:0:s_067.ogg
358,192,178033,1,0,0:0:0:0:s_074.ogg
460,192,178116,1,0,0:0:0:0:s_079.ogg
51,192,178200,1,0,0:0:0:0:s_071.ogg
153,192,178200,1,0,0:0:0:0:s_065.ogg
460,192,178283,1,0,0:0:0:0:s_079.ogg
256,192,178366,1,0,0:0:0:0:s_074.ogg
358,192,178366,1,0,0:0:0:0:s_067.ogg
460,192,178450,1,0,0:0:0:0:s_079.ogg
51,192,178533,1,0,0:0:0:0:s_065.ogg
153,192,178533,1,0,0:0:0:0:s_071.ogg
460,192,178616,1,0,0:0:0:0:s_079.ogg
358,192,178700,1,0,0:0:0:0:s_074.ogg
256,192,178700,128,0,178950:0:0:0:0:m_040.ogg
460,192,178783,1,0,0:0:0:0:s_079.ogg
51,192,178866,1,0,0:0:0:0:s_071.ogg
460,192,178950,1,0,0:0:0:0:s_079.ogg
153,192,179033,1,0,0:0:0:0:s_067.ogg
358,192,179033,1,0,0:0:0:0:s_074.ogg
460,192,179116,1,0,0:0:0:0:s_079.ogg
153,192,179200,1,0,0:0:0:0:s_064.ogg
256,192,179200,1,0,0:0:0:0:s_072.ogg
460,192,179283,1,0,0:0:0:0:s_079.ogg
51,192,179366,1,0,0:0:0:0:s_076.ogg
358,192,179366,1,0,0:0:0:0:s_067.ogg
460,192,179450,1,0,0:0:0:0:s_079.ogg
153,192,179533,1,0,0:0:0:0:s_072.ogg
256,192,179533,1,0,0:0:0:0:s_064.ogg
460,192,179616,1,0,0:0:0:0:s_079.ogg
51,192,179700,1,0,0:0:0:0:s_067.ogg
358,192,179700,1,0,0:0:0:0:s_076.ogg
460,192,179783,1,0,0:0:0:0:s_079.ogg
153,192,179866,1,0,0:0:0:0:s_072.ogg
256,192,179866,1,0,0:0:0:0:s_064.ogg
460,192,179950,1,0,0:0:0:0:s_079.ogg
51,192,180033,1,0,0:0:0:0:s_067.ogg
358,192,180033,1,0,0:0:0:0:s_076.ogg
460,192,180116,1,0,0:0:0:0:s_079.ogg
153,192,180200,1,0,0:0:0:0:s_064.ogg
256,192,180200,1,0,0:0:0:0:s_072.ogg
460,192,180283,1,0,0:0:0:0:s_079.ogg
51,192,180366,1,0,0:0:0:0:s_067.ogg
358,192,180366,1,0,0:0:0:0:s_076.ogg
256,192,180450,1,0,0:0:0:0:s_079.ogg
51,192,180533,1,0,0:0:0:0:s_077.ogg
153,192,180533,1,0,0:0:0:0:s_069.ogg
460,192,180533,1,0,0:0:0:0:s_035.ogg
256,192,180575,1,0,0:0:0:0:s_079.ogg
358,192,180616,1,0,0:0:0:0:s_081.ogg
51,192,180700,1,0,0:0:0:0:s_031.ogg
51,192,180866,1,0,0:0:0:0:s_074.ogg
153,192,180866,1,0,0:0:0:0:s_065.ogg
460,192,180866,1,0,0:0:0:0:s_035.ogg
358,192,180908,1,0,0:0:0:0:s_076.ogg
256,192,180950,1,0,0:0:0:0:s_077.ogg
460,192,181033,1,0,0:0:0:0:s_026.ogg
51,192,181200,1,0,0:0:0:0:s_062.ogg
256,192,181200,1,0,0:0:0:0:s_071.ogg
460,192,181200,1,0,0:0:0:0:s_041.ogg
153,192,181241,1,0,0:0:0:0:s_072.ogg
358,192,181283,1,0,0:0:0:0:s_074.ogg
51,192,181366,1,0,0:0:0:0:s_019.ogg
51,192,181533,1,0,0:0:0:0:s_067.ogg
358,192,181533,1,0,0:0:0:0:s_059.ogg
460,192,181533,1,0,0:0:0:0:s_035.ogg
153,192,181575,1,0,0:0:0:0:s_069.ogg
256,192,181616,1,0,0:0:0:0:s_071.ogg
460,192,181700,1,0,0:0:0:0:s_026.ogg
51,192,181866,1,0,0:0:0:0:s_040.ogg
153,192,181866,1,0,0:0:0:0:s_048.ogg
256,192,181908,1,0,0:0:0:0:s_050.ogg
358,192,181956,1,0,0:0:0:0:s_052.ogg
460,192,182005,1,0,0:0:0:0:s_053.ogg
51,192,182033,1,0,0:0:0:0:s_031.ogg
153,192,182054,1,0,0:0:0:0:s_055.ogg
256,192,182102,1,0,0:0:0:0:s_057.ogg
358,192,182151,1,0,0:0:0:0:s_059.ogg
51,192,182200,1,0,0:0:0:0:s_036.ogg
460,192,182200,1,0,0:0:0:0:s_060.ogg
153,192,182241,1,0,0:0:0:0:s_062.ogg
256,192,182290,1,0,0:0:0:0:s_064.ogg
358,192,182338,1,0,0:0:0:0:s_065.ogg
51,192,182366,1,0,0:0:0:0:s_028.ogg
460,192,182387,1,0,0:0:0:0:s_067.ogg
153,192,182436,1,0,0:0:0:0:s_069.ogg
256,192,182484,1,0,0:0:0:0:s_071.ogg
51,192,182533,1,0,0:0:0:0:s_043.ogg
358,192,182533,1,0,0:0:0:0:s_072.ogg
460,192,182575,1,0,0:0:0:0:s_074.ogg
153,192,182623,1,0,0:0:0:0:s_076.ogg
256,192,182672,1,0,0:0:0:0:s_077.ogg
51,192,182700,1,0,0:0:0:0:s_019.ogg
358,192,182720,1,0,0:0:0:0:s_079.ogg
460,192,182769,1,0,0:0:0:0:s_081.ogg
153,192,182818,1,0,0:0:0:0:s_083.ogg
51,192,182866,1,0,0:0:0:0:s_036.ogg
256,192,182866,1,0,0:0:0:0:s_084.ogg
153,192,183033,1,0,0:0:0:0:s_028.ogg
256,192,183033,1,0,0:0:0:0:s_072.ogg
358,192,183033,1,0,0:0:0:0:s_076.ogg
51,192,183200,1,0,0:0:0:0:s_077.ogg
153,192,183200,1,0,0:0:0:0:s_069.ogg
460,192,183200,1,0,0:0:0:0:s_035.ogg
256,192,183241,1,0,0:0:0:0:s_079.ogg
358,192,183283,1,0,0:0:0:0:s_081.ogg
51,192,183366,1,0,0:0:0:0:s_031.ogg
51,192,183533,1,0,0:0:0:0:s_074.ogg
153,192,183533,1,0,0:0:0:0:s_065.ogg
460,192,183533,1,0,0:0:0:0:s_035.ogg
358,192,183575,1,0,0:0:0:0:s_076.ogg
256,192,183616,1,0,0:0:0:0:s_077.ogg
460,192,183700,1,0,0:0:0:0:s_026.ogg
51,192,183866,1,0,0:0:0:0:s_062.ogg
256,192,183866,1,0,0:0:0:0:s_071.ogg
460,192,183866,1,0,0:0:0:0:s_035.ogg
153,192,183908,1,0,0:0:0:0:s_072.ogg
358,192,183950,1,0,0:0:0:0:s_074.ogg
51,192,184033,1,0,0:0:0:0:s_019.ogg
51,192,184200,1,0,0:0:0:0:s_067.ogg
358,192,184200,1,0,0:0:0:0:s_059.ogg
460,192,184200,1,0,0:0:0:0:s_043.ogg
153,192,184241,1,0,0:0:0:0:s_069.ogg
256,192,184283,1,0,0:0:0:0:s_071.ogg
460,192,184366,1,0,0:0:0:0:s_026.ogg
51,192,184533,1,0,0:0:0:0:s_036.ogg
153,192,184533,1,0,0:0:0:0:s_048.ogg
256,192,184575,1,0,0:0:0:0:s_050.ogg
358,192,184623,1,0,0:0:0:0:s_052.ogg
460,192,184672,1,0,0:0:0:0:s_053.ogg
51,192,184700,1,0,0:0:0:0:s_031.ogg
153,192,184720,1,0,0:0:0:0:s_055.ogg
256,192,184769,1,0,0:0:0:0:s_057.ogg
358,192,184818,1,0,0:0:0:0:s_059.ogg
51,192,184866,1,0,0:0:0:0:s_043.ogg
460,192,184866,1,0,0:0:0:0:s_060.ogg
153,192,184908,1,0,0:0:0:0:s_062.ogg
256,192,184956,1,0,0:0:0:0:s_064.ogg
358,192,185005,1,0,0:0:0:0:s_065.ogg
51,192,185033,1,0,0:0:0:0:s_028.ogg
460,192,185054,1,0,0:0:0:0:s_067.ogg
153,192,185102,1,0,0:0:0:0:s_069.ogg
256,192,185151,1,0,0:0:0:0:s_071.ogg
51,192,185200,1,0,0:0:0:0:s_043.ogg
358,192,185200,1,0,0:0:0:0:s_072.ogg
460,192,185241,1,0,0:0:0:0:s_074.ogg
153,192,185290,1,0,0:0:0:0:s_076.ogg
256,192,185338,1,0,0:0:0:0:s_077.ogg
51,192,185366,1,0,0:0:0:0:s_019.ogg
358,192,185387,1,0,0:0:0:0:s_079.ogg
460,192,185436,1,0,0:0:0:0:s_081.ogg
153,192,185484,1,0,0:0:0:0:s_083.ogg
51,192,185533,1,0,0:0:0:0:s_043.ogg
256,192,185533,1,0,0:0:0:0:s_084.ogg
358,192,185700,1,0,0:0:0:0:s_028.ogg
51,192,185866,1,0,0:0:0:0:s_035.ogg
153,192,185866,1,0,0:0:0:0:s_074.ogg
460,192,185866,1,0,0:0:0:0:s_066.ogg
256,192,185908,1,0,0:0:0:0:s_076.ogg
358,192,185950,1,0,0:0:0:0:s_078.ogg
460,192,186033,1,0,0:0:0:0:s_028.ogg
51,192,186200,1,0,0:0:0:0:s_044.ogg
153,192,186200,1,0,0:0:0:0:s_071.ogg
460,192,186200,1,0,0:0:0:0:s_062.ogg
358,192,186241,1,0,0:0:0:0:s_073.ogg
256,192,186283,1,0,0:0:0:0:s_074.ogg
51,192,186366,1,0,0:0:0:0:s_023.ogg
51,192,186533,1,0,0:0:0:0:s_044.ogg
256,192,186533,1,0,0:0:0:0:s_068.ogg
460,192,186533,1,0,0:0:0:0:s_059.ogg
153,192,186575,1,0,0:0:0:0:s_069.ogg
358,192,186616,1,0,0:0:0:0:s_071.ogg
460,192,186700,1,0,0:0:0:0:s_016.ogg
51,192,186866,1,0,0:0:0:0:s_040.ogg
358,192,186866,1,0,0:0:0:0:s_064.ogg
460,192,186866,1,0,0:0:0:0:s_056.ogg
153,192,186908,1,0,0:0:0:0:s_066.ogg
256,192,186950,1,0,0:0:0:0:s_068.ogg
51,192,187033,1,0,0:0:0:0:s_028.ogg
51,192,187200,1,0,0:0:0:0:s_045.ogg
460,192,187200,1,0,0:0:0:0:s_040.ogg
153,192,187241,1,0,0:0:0:0:s_047.ogg
256,192,187290,1,0,0:0:0:0:s_049.ogg
358,192,187338,1,0,0:0:0:0:s_050.ogg
460,192,187366,1,0,0:0:0:0:s_028.ogg
51,192,187387,1,0,0:0:0:0:s_052.ogg
153,192,187436,1,0,0:0:0:0:s_054.ogg
256,192,187484,1,0,0:0:0:0:s_056.ogg
358,192,187533,1,0,0:0:0:0:s_057.ogg
460,192,187533,1,0,0:0:0:0:s_045.ogg
51,192,187575,1,0,0:0:0:0:s_059.ogg
153,192,187623,1,0,0:0:0:0:s_061.ogg
256,192,187672,1,0,0:0:0:0:s_062.ogg
460,192,187700,1,0,0:0:0:0:s_025.ogg
358,192,187720,1,0,0:0:0:0:s_064.ogg
51,192,187769,1,0,0:0:0:0:s_066.ogg
153,192,187818,1,0,0:0:0:0:s_068.ogg
256,192,187866,1,0,0:0:0:0:s_069.ogg
460,192,187866,1,0,0:0:0:0:s_045.ogg
358,192,187908,1,0,0:0:0:0:s_071.ogg
51,192,187956,1,0,0:0:0:0:s_073.ogg
153,192,188005,1,0,0:0:0:0:s_074.ogg
460,192,188033,1,0,0:0:0:0:s_016.ogg
256,192,188054,1,0,0:0:0:0:s_076.ogg
358,192,188102,1,0,0:0:0:0:s_078.ogg
51,192,188151,1,0,0:0:0:0:s_080.ogg
153,192,188200,1,0,0:0:0:0:s_081.ogg
460,192,188200,1,0,0:0:0:0:s_045.ogg
153,192,188366,1,0,0:0:0:0:s_073.ogg
256,192,188366,1,0,0:0:0:0:s_069.ogg
358,192,188366,1,0,0:0:0:0:s_028.ogg
51,192,188533,1,0,0:0:0:0:s_040.ogg
153,192,188533,1,0,0:0:0:0:s_074.ogg
460,192,188533,1,0,0:0:0:0:s_066.ogg
256,192,188575,1,0,0:0:0:0:s_076.ogg
358,192,188616,1,0,0:0:0:0:s_078.ogg
460,192,188700,1,0,0:0:0:0:s_028.ogg
51,192,188866,1,0,0:0:0:0:s_044.ogg
153,192,188866,1,0,0:0:0:0:s_062.ogg
460,192,188866,1,0,0:0:0:0:s_071.ogg
358,192,188908,1,0,0:0:0:0:s_073.ogg
256,192,188950,1,0,0:0:0:0:s_074.ogg
51,192,189033,1,0,0:0:0:0:s_023.ogg
51,192,189200,1,0,0:0:0:0:s_044.ogg
256,192,189200,1,0,0:0:0:0:s_068.ogg
460,192,189200,1,0,0:0:0:0:s_059.ogg
153,192,189241,1,0,0:0:0:0:s_069.ogg
358,192,189283,1,0,0:0:0:0:s_071.ogg
460,192,189366,1,0,0:0:0:0:s_016.ogg
51,192,189533,1,0,0:0:0:0:s_044.ogg
358,192,189533,1,0,0:0:0:0:s_056.ogg
460,192,189533,1,0,0:0:0:0:s_064.ogg
153,192,189575,1,0,0:0:0:0:s_066.ogg
256,192,189616,1,0,0:0:0:0:s_068.ogg
51,192,189700,1,0,0:0:0:0:s_028.ogg
51,192,189866,1,0,0:0:0:0:s_045.ogg
460,192,189866,1,0,0:0:0:0:s_037.ogg
153,192,189908,1,0,0:0:0:0:s_047.ogg
256,192,189956,1,0,0:0:0:0:s_049.ogg
358,192,190005,1,0,0:0:0:0:s_050.ogg
460,192,190033,1,0,0:0:0:0:s_028.ogg
51,192,190054,1,0,0:0:0:0:s_052.ogg
153,192,190102,1,0,0:0:0:0:s_054.ogg
256,192,190151,1,0,0:0:0:0:s_056.ogg
358,192,190200,1,0,0:0:0:0:s_057.ogg
460,192,190200,1,0,0:0:0:0:s_045.ogg
51,192,190241,1,0,0:0:0:0:s_059.ogg
153,192,190290,1,0,0:0:0:0:s_061.ogg
256,192,190338,1,0,0:0:0:0:s_062.ogg
460,192,190366,1,0,0:0:0:0:s_025.ogg
358,192,190387,1,0,0:0:0:0:s_064.ogg
51,192,190436,1,0,0:0:0:0:s_066.ogg
153,192,190484,1,0,0:0:0:0:s_068.ogg
256,192,190533,1,0,0:0:0:0:s_069.ogg
460,192,190533,1,0,0:0:0:0:s_045.ogg
358,192,190595,1,0,0:0:0:0:s_071.ogg
51,192,190665,1,0,0:0:0:0:s_073.ogg
460,192,190700,1,0,0:0:0:0:s_016.ogg
153,192,190727,1,0,0:0:0:0:s_074.ogg
256,192,190797,1,0,0:0:0:0:s_076.ogg
358,192,190866,1,0,0:0:0:0:s_078.ogg
460,192,190866,1,0,0:0:0:0:s_037.ogg
256,192,190929,1,0,0:0:0:0:s_076.ogg
153,192,190998,1,0,0:0:0:0:s_075.ogg
51,192,191033,1,0,0:0:0:0:s_028.ogg
256,192,191061,1,0,0:0:0:0:s_076.ogg
358,192,191130,1,0,0:0:0:0:s_078.ogg
51,192,191200,1,0,0:0:0:0:s_035.ogg
460,192,191200,1,0,0:0:0:0:s_080.ogg
256,192,191283,1,0,0:0:0:0:s_076.ogg
153,192,191366,1,0,0:0:0:0:s_040.ogg
358,192,191366,1,0,0:0:0:0:s_076.ogg
256,192,191450,1,0,0:0:0:0:s_076.ogg
51,192,191533,1,0,0:0:0:0:s_028.ogg
153,192,191533,1,0,0:0:0:0:s_068.ogg
256,192,191616,1,0,0:0:0:0:s_076.ogg
153,192,191700,1,0,0:0:0:0:s_040.ogg
358,192,191700,1,0,0:0:0:0:s_076.ogg
256,192,191783,1,0,0:0:0:0:s_076.ogg
51,192,191866,1,0,0:0:0:0:s_051.ogg
460,192,191866,1,0,0:0:0:0:s_080.ogg
256,192,191950,1,0,0:0:0:0:s_076.ogg
51,192,192033,1,0,0:0:0:0:s_044.ogg
358,192,192033,1,0,0:0:0:0:s_076.ogg
256,192,192116,1,0,0:0:0:0:s_076.ogg
51,192,192200,1,0,0:0:0:0:m_047.ogg
153,192,192200,1,0,0:0:0:0:s_068.ogg
256,192,192283,1,0,0:0:0:0:s_076.ogg
358,192,192366,1,0,0:0:0:0:s_076.ogg
153,192,192450,1,0,0:0:0:0:s_052.ogg
256,192,192450,1,0,0:0:0:0:s_076.ogg
51,192,192533,1,0,0:0:0:0:s_033.ogg
460,192,192533,1,0,0:0:0:0:s_081.ogg
256,192,192616,1,0,0:0:0:0:s_076.ogg
153,192,192700,1,0,0:0:0:0:s_049.ogg
358,192,192700,1,0,0:0:0:0:s_076.ogg
256,192,192783,1,0,0:0:0:0:s_076.ogg
51,192,192866,1,0,0:0:0:0:s_028.ogg
153,192,192866,1,0,0:0:0:0:s_069.ogg
256,192,192950,1,0,0:0:0:0:s_076.ogg
153,192,193033,1,0,0:0:0:0:s_040.ogg
358,192,193033,1,0,0:0:0:0:s_076.ogg
256,192,193116,1,0,0:0:0:0:s_076.ogg
51,192,193200,1,0,0:0:0:0:s_051.ogg
460,192,193200,1,0,0:0:0:0:s_081.ogg
256,192,193283,1,0,0:0:0:0:s_076.ogg
51,192,193366,1,0,0:0:0:0:s_052.ogg
358,192,193366,1,0,0:0:0:0:s_076.ogg
256,192,193450,1,0,0:0:0:0:s_076.ogg
51,192,193533,1,0,0:0:0:0:m_045.ogg
153,192,193533,1,0,0:0:0:0:s_069.ogg
256,192,193616,1,0,0:0:0:0:s_076.ogg
358,192,193700,1,0,0:0:0:0:s_076.ogg
153,192,193783,1,0,0:0:0:0:s_052.ogg
256,192,193783,1,0,0:0:0:0:s_076.ogg
51,192,193866,1,0,0:0:0:0:s_035.ogg
460,192,193866,1,0,0:0:0:0:s_080.ogg
256,192,193950,1,0,0:0:0:0:s_076.ogg
153,192,194033,1,0,0:0:0:0:s_044.ogg
358,192,194033,1,0,0:0:0:0:s_076.ogg
256,192,194116,1,0,0:0:0:0:s_076.ogg
51,192,194200,1,0,0:0:0:0:s_028.ogg
153,192,194200,1,0,0:0:0:0:s_068.ogg
256,192,194283,1,0,0:0:0:0:s_076.ogg
153,192,194366,1,0,0:0:0:0:s_047.ogg
358,192,194366,1,0,0:0:0:0:s_076.ogg
256,192,194450,1,0,0:0:0:0:s_076.ogg
51,192,194533,1,0,0:0:0:0:s_047.ogg
460,192,194533,1,0,0:0:0:0:s_080.ogg
256,192,194616,1,0,0:0:0:0:s_076.ogg
51,192,194700,1,0,0:0:0:0:s_044.ogg
358,192,194700,1,0,0:0:0:0:s_076.ogg
256,192,194783,1,0,0:0:0:0:s_076.ogg
51,192,194866,1,0,0:0:0:0:m_047.ogg
153,192,194866,1,0,0:0:0:0:s_068.ogg
256,192,194950,1,0,0:0:0:0:s_076.ogg
358,192,195033,1,0,0:0:0:0:s_076.ogg
153,192,195116,1,0,0:0:0:0:s_052.ogg
256,192,195116,1,0,0:0:0:0:s_076.ogg
51,192,195200,1,0,0:0:0:0:s_033.ogg
460,192,195200,1,0,0:0:0:0:s_081.ogg
256,192,195283,1,0,0:0:0:0:s_076.ogg
153,192,195366,1,0,0:0:0:0:s_049.ogg
358,192,195366,1,0,0:0:0:0:s_076.ogg
256,192,195450,1,0,0:0:0:0:s_076.ogg
51,192,195533,1,0,0:0:0:0:s_028.ogg
153,192,195533,1,0,0:0:0:0:s_069.ogg
256,192,195616,1,0,0:0:0:0:s_076.ogg
153,192,195700,1,0,0:0:0:0:s_049.ogg
358,192,195700,1,0,0:0:0:0:s_076.ogg
256,192,195783,1,0,0:0:0:0:s_076.ogg
51,192,195866,1,0,0:0:0:0:s_051.ogg
460,192,195866,1,0,0:0:0:0:s_081.ogg
256,192,195950,1,0,0:0:0:0:s_076.ogg
51,192,196033,1,0,0:0:0:0:s_052.ogg
358,192,196033,1,0,0:0:0:0:s_076.ogg
256,192,196116,1,0,0:0:0:0:s_076.ogg
51,192,196200,1,0,0:0:0:0:m_049.ogg
153,192,196200,1,0,0:0:0:0:s_069.ogg
256,192,196283,1,0,0:0:0:0:s_076.ogg
358,192,196366,1,0,0:0:0:0:s_076.ogg
153,192,196450,1,0,0:0:0:0:s_052.ogg
256,192,196450,1,0,0:0:0:0:s_076.ogg
51,192,196533,1,0,0:0:0:0:s_035.ogg
460,192,196533,1,0,0:0:0:0:s_080.ogg
256,192,196616,1,0,0:0:0:0:s_076.ogg
153,192,196700,1,0,0:0:0:0:s_044.ogg
358,192,196700,1,0,0:0:0:0:s_076.ogg
256,192,196783,1,0,0:0:0:0:s_076.ogg
51,192,196866,1,0,0:0:0:0:s_028.ogg
153,192,196866,1,0,0:0:0:0:s_068.ogg
256,192,196950,1,0,0:0:0:0:s_076.ogg
153,192,197033,1,0,0:0:0:0:s_044.ogg
358,192,197033,1,0,0:0:0:0:s_076.ogg
256,192,197116,1,0,0:0:0:0:s_076.ogg
51,192,197200,1,0,0:0:0:0:s_047.ogg
460,192,197200,1,0,0:0:0:0:s_080.ogg
256,192,197283,1,0,0:0:0:0:s_076.ogg
51,192,197366,1,0,0:0:0:0:s_044.ogg
358,192,197366,1,0,0:0:0:0:s_076.ogg
256,192,197450,1,0,0:0:0:0:s_076.ogg
51,192,197533,1,0,0:0:0:0:m_050.ogg
153,192,197533,1,0,0:0:0:0:s_068.ogg
256,192,197616,1,0,0:0:0:0:s_076.ogg
358,192,197700,1,0,0:0:0:0:s_076.ogg
153,192,197783,1,0,0:0:0:0:s_052.ogg
256,192,197783,1,0,0:0:0:0:s_076.ogg
51,192,197866,1,0,0:0:0:0:s_059.ogg
460,192,197866,1,0,0:0:0:0:s_080.ogg
256,192,197950,1,0,0:0:0:0:s_076.ogg
51,192,198033,1,0,0:0:0:0:s_056.ogg
358,192,198033,1,0,0:0:0:0:s_076.ogg
256,192,198116,1,0,0:0:0:0:s_076.ogg
51,192,198200,1,0,0:0:0:0:m_062.ogg
153,192,198200,1,0,0:0:0:0:s_068.ogg
256,192,198283,1,0,0:0:0:0:s_076.ogg
358,192,198366,1,0,0:0:0:0:s_076.ogg
153,192,198450,1,0,0:0:0:0:s_064.ogg
256,192,198450,1,0,0:0:0:0:s_076.ogg
51,192,198533,1,0,0:0:0:0:s_063.ogg
460,192,198533,1,0,0:0:0:0:s_080.ogg
256,192,198616,1,0,0:0:0:0:s_076.ogg
51,192,198700,1,0,0:0:0:0:s_064.ogg
358,192,198700,1,0,0:0:0:0:s_076.ogg
256,192,198783,1,0,0:0:0:0:s_076.ogg
51,192,198866,1,0,0:0:0:0:m_066.ogg
153,192,198866,1,0,0:0:0:0:s_068.ogg
256,192,198950,1,0,0:0:0:0:s_076.ogg
358,192,199033,1,0,0:0:0:0:s_076.ogg
51,192,199116,1,0,0:0:0:0:s_064.ogg
256,192,199116,1,0,0:0:0:0:s_076.ogg
460,192,199200,1,0,0:0:0:0:s_080.ogg
256,192,199283,1,0,0:0:0:0:s_076.ogg
358,192,199366,1,0,0:0:0:0:s_076.ogg
256,192,199450,1,0,0:0:0:0:s_076.ogg
153,192,199533,1,0,0:0:0:0:s_068.ogg
256,192,199616,1,0,0:0:0:0:s_076.ogg
358,192,199700,1,0,0:0:0:0:s_076.ogg
256,192,199783,1,0,0:0:0:0:s_076.ogg
460,192,199866,1,0,0:0:0:0:s_080.ogg
256,192,199950,1,0,0:0:0:0:s_076.ogg
358,192,200033,1,0,0:0:0:0:s_076.ogg
256,192,200116,1,0,0:0:0:0:s_076.ogg
153,192,200200,1,0,0:0:0:0:s_068.ogg
256,192,200283,1,0,0:0:0:0:s_076.ogg
358,192,200366,1,0,0:0:0:0:s_076.ogg
256,192,200450,1,0,0:0:0:0:s_076.ogg
460,192,200533,1,0,0:0:0:0:s_080.ogg
256,192,200616,1,0,0:0:0:0:s_076.ogg
358,192,200700,1,0,0:0:0:0:s_076.ogg
256,192,200783,1,0,0:0:0:0:s_076.ogg
153,192,200866,1,0,0:0:0:0:s_068.ogg
256,192,200950,1,0,0:0:0:0:s_076.ogg
358,192,201033,1,0,0:0:0:0:s_076.ogg
256,192,201116,1,0,0:0:0:0:s_076.ogg
460,192,201200,1,0,0:0:0:0:s_080.ogg
256,192,201283,1,0,0:0:0:0:s_076.ogg
358,192,201366,1,0,0:0:0:0:s_076.ogg
256,192,201450,1,0,0:0:0:0:s_076.ogg
153,192,201533,1,0,0:0:0:0:s_068.ogg
256,192,201616,1,0,0:0:0:0:s_076.ogg
358,192,201700,1,0,0:0:0:0:s_076.ogg
256,192,201783,1,0,0:0:0:0:s_076.ogg
51,192,201866,1,0,0:0:0:0:s_033.ogg
460,192,201866,1,0,0:0:0:0:s_081.ogg
51,192,202066,1,0,0:0:0:0:s_040.ogg
153,192,202066,1,0,0:0:0:0:s_045.ogg
51,192,202266,1,0,0:0:0:0:s_028.ogg
358,192,202266,1,0,0:0:0:0:m_057.ogg
51,192,202466,1,0,0:0:0:0:s_040.ogg
153,192,202466,1,0,0:0:0:0:s_045.ogg
153,192,202666,1,0,0:0:0:0:s_033.ogg
460,192,202666,128,0,203366:0:0:0:0:m_060.ogg
51,192,202866,1,0,0:0:0:0:s_040.ogg
153,192,202866,1,0,0:0:0:0:s_045.ogg
153,192,203066,1,0,0:0:0:0:s_028.ogg
51,192,203266,1,0,0:0:0:0:s_048.ogg
153,192,203266,1,0,0:0:0:0:s_045.ogg
51,192,203466,1,0,0:0:0:0:s_035.ogg
256,192,203466,1,0,0:0:0:0:s_059.ogg
51,192,203666,1,0,0:0:0:0:s_050.ogg
153,192,203666,1,0,0:0:0:0:s_044.ogg
358,192,203766,1,0,0:0:0:0:s_060.ogg
51,192,203866,1,0,0:0:0:0:s_028.ogg
460,192,203866,1,0,0:0:0:0:s_062.ogg
51,192,204066,1,0,0:0:0:0:s_044.ogg
153,192,204066,1,0,0:0:0:0:s_050.ogg
460,192,204166,1,0,0:0:0:0:s_065.ogg
51,192,204266,1,0,0:0:0:0:s_035.ogg
358,192,204266,1,0,0:0:0:0:s_064.ogg
51,192,204466,1,0,0:0:0:0:s_050.ogg
153,192,204466,1,0,0:0:0:0:s_040.ogg
256,192,204566,1,0,0:0:0:0:s_052.ogg
51,192,204666,1,0,0:0:0:0:s_028.ogg
358,192,204666,1,0,0:0:0:0:s_054.ogg
51,192,204866,1,0,0:0:0:0:s_044.ogg
153,192,204866,1,0,0:0:0:0:s_050.ogg
358,192,204966,1,0,0:0:0:0:s_056.ogg
153,192,205066,1,0,0:0:0:0:s_033.ogg
256,192,205066,1,0,0:0:0:0:s_057.ogg
460,192,205116,1,0,0:0:0:0:s_059.ogg
256,192,205166,1,0,0:0:0:0:s_057.ogg
51,192,205266,1,0,0:0:0:0:s_049.ogg
153,192,205266,1,0,0:0:0:0:s_045.ogg
256,192,205366,1,0,0:0:0:0:s_056.ogg
153,192,205466,1,0,0:0:0:0:s_028.ogg
358,192,205466,1,0,0:0:0:0:s_057.ogg
51,192,205666,1,0,0:0:0:0:s_049.ogg
153,192,205666,1,0,0:0:0:0:s_045.ogg
358,192,205766,1,0,0:0:0:0:s_059.ogg
51,192,205866,1,0,0:0:0:0:s_028.ogg
460,192,205866,128,0,206566:0:0:0:0:m_060.ogg
51,192,206066,1,0,0:0:0:0:s_048.ogg
153,192,206066,1,0,0:0:0:0:s_045.ogg
51,192,206266,1,0,0:0:0:0:s_028.ogg
51,192,206466,1,0,0:0:0:0:s_045.ogg
153,192,206466,1,0,0:0:0:0:s_040.ogg
153,192,206666,1,0,0:0:0:0:s_035.ogg
256,192,206666,1,0,0:0:0:0:s_059.ogg
51,192,206866,1,0,0:0:0:0:s_050.ogg
153,192,206866,1,0,0:0:0:0:s_044.ogg
358,192,206966,1,0,0:0:0:0:s_060.ogg
153,192,207066,1,0,0:0:0:0:s_028.ogg
460,192,207066,1,0,0:0:0:0:s_062.ogg
51,192,207266,1,0,0:0:0:0:s_044.ogg
153,192,207266,1,0,0:0:0:0:s_050.ogg
460,192,207366,1,0,0:0:0:0:s_065.ogg
153,192,207466,1,0,0:0:0:0:s_035.ogg
358,192,207466,1,0,0:0:0:0:s_064.ogg
51,192,207666,1,0,0:0:0:0:s_050.ogg
153,192,207666,1,0,0:0:0:0:s_040.ogg
256,192,207766,1,0,0:0:0:0:s_052.ogg
153,192,207866,1,0,0:0:0:0:s_028.ogg
358,192,207866,1,0,0:0:0:0:s_054.ogg
51,192,208066,1,0,0:0:0:0:s_050.ogg
153,192,208066,1,0,0:0:0:0:s_044.ogg
358,192,208166,1,0,0:0:0:0:s_056.ogg
51,192,208266,1,0,0:0:0:0:s_033.ogg
256,192,208266,1,0,0:0:0:0:s_057.ogg
460,192,208316,1,0,0:0:0:0:s_059.ogg
256,192,208366,1,0,0:0:0:0:s_057.ogg
51,192,208466,1,0,0:0:0:0:s_049.ogg
153,192,208466,1,0,0:0:0:0:s_045.ogg
256,192,208566,1,0,0:0:0:0:s_056.ogg
51,192,208666,1,0,0:0:0:0:s_028.ogg
358,192,208666,1,0,0:0:0:0:s_057.ogg
51,192,208866,1,0,0:0:0:0:s_040.ogg
153,192,208866,1,0,0:0:0:0:s_045.ogg
460,192,208966,1,0,0:0:0:0:s_059.ogg
153,192,209066,1,0,0:0:0:0:s_028.ogg
256,192,209066,1,0,0:0:0:0:s_057.ogg
358,192,209116,1,0,0:0:0:0:s_059.ogg
460,192,209166,1,0,0:0:0:0:s_060.ogg
51,192,209266,1,0,0:0:0:0:s_045.ogg
153,192,209266,1,0,0:0:0:0:s_048.ogg
153,192,209466,1,0,0:0:0:0:s_028.ogg
460,192,209466,1,0,0:0:0:0:m_060.ogg
51,192,209666,1,0,0:0:0:0:s_045.ogg
153,192,209666,1,0,0:0:0:0:s_048.ogg
51,192,209866,1,0,0:0:0:0:s_035.ogg
256,192,209866,1,0,0:0:0:0:s_059.ogg
51,192,210066,1,0,0:0:0:0:s_050.ogg
153,192,210066,1,0,0:0:0:0:s_040.ogg
358,192,210166,1,0,0:0:0:0:s_060.ogg
51,192,210266,1,0,0:0:0:0:s_028.ogg
460,192,210266,1,0,0:0:0:0:s_062.ogg
51,192,210466,1,0,0:0:0:0:s_040.ogg
153,192,210466,1,0,0:0:0:0:s_050.ogg
460,192,210566,1,0,0:0:0:0:s_065.ogg
358,192,210666,1,0,0:0:0:0:s_064.ogg
51,192,211466,1,0,0:0:0:0:s_016.ogg
256,192,211541,1,0,0:0:0:0:s_028.ogg
358,192,211541,1,0,0:0:0:0:s_040.ogg
153,192,211616,1,0,0:0:0:0:s_018.ogg
358,192,211691,1,0,0:0:0:0:s_030.ogg
460,192,211691,1,0,0:0:0:0:s_042.ogg
256,192,211766,1,0,0:0:0:0:s_020.ogg
51,192,211841,1,0,0:0:0:0:s_044.ogg
460,192,211841,1,0,0:0:0:0:s_032.ogg
358,192,211916,1,0,0:0:0:0:s_021.ogg
51,192,211991,1,0,0:0:0:0:s_033.ogg
153,192,211991,1,0,0:0:0:0:s_045.ogg
358,192,212066,1,0,0:0:0:0:s_028.ogg
460,192,212066,1,0,0:0:0:0:s_023.ogg
51,192,212141,1,0,0:0:0:0:s_047.ogg
153,192,212141,1,0,0:0:0:0:s_035.ogg
256,192,212141,1,0,0:0:0:0:s_040.ogg
358,192,212216,1,0,0:0:0:0:s_022.ogg
51,192,212291,1,0,0:0:0:0:s_034.ogg
153,192,212291,1,0,0:0:0:0:s_046.ogg
460,192,212366,1,0,0:0:0:0:s_023.ogg
153,192,212441,1,0,0:0:0:0:s_047.ogg
256,192,212441,1,0,0:0:0:0:s_035.ogg
358,192,212516,1,0,0:0:0:0:s_020.ogg
51,192,212591,1,0,0:0:0:0:s_032.ogg
153,192,212591,1,0,0:0:0:0:s_044.ogg
256,192,212666,1,0,0:0:0:0:s_021.ogg
51,192,212741,1,0,0:0:0:0:s_045.ogg
460,192,212741,1,0,0:0:0:0:s_033.ogg
358,192,212816,1,0,0:0:0:0:s_023.ogg
51,192,212891,1,0,0:0:0:0:s_035.ogg
153,192,212891,1,0,0:0:0:0:s_047.ogg
460,192,212966,1,0,0:0:0:0:s_025.ogg
153,192,213041,1,0,0:0:0:0:s_049.ogg
256,192,213041,1,0,0:0:0:0:s_037.ogg
51,192,213116,1,0,0:0:0:0:s_026.ogg
256,192,213191,1,0,0:0:0:0:s_038.ogg
358,192,213191,1,0,0:0:0:0:s_050.ogg
51,192,213266,1,0,0:0:0:0:s_033.ogg
153,192,213266,1,0,0:0:0:0:s_028.ogg
256,192,213341,1,0,0:0:0:0:s_052.ogg
358,192,213341,1,0,0:0:0:0:s_045.ogg
460,192,213341,1,0,0:0:0:0:s_040.ogg
51,192,213416,1,0,0:0:0:0:s_027.ogg
256,192,213491,1,0,0:0:0:0:s_051.ogg
358,192,213491,1,0,0:0:0:0:s_039.ogg
153,192,213566,1,0,0:0:0:0:s_028.ogg
358,192,213641,1,0,0:0:0:0:s_052.ogg
460,192,213641,1,0,0:0:0:0:s_040.ogg
51,192,213716,1,0,0:0:0:0:s_025.ogg
256,192,213791,1,0,0:0:0:0:s_037.ogg
358,192,213791,1,0,0:0:0:0:s_049.ogg
153,192,213866,1,0,0:0:0:0:s_026.ogg
51,192,213941,1,0,0:0:0:0:s_038.ogg
358,192,213941,1,0,0:0:0:0:s_050.ogg
256,192,214016,1,0,0:0:0:0:s_030.ogg
358,192,214091,1,0,0:0:0:0:s_054.ogg
460,192,214091,1,0,0:0:0:0:s_042.ogg
51,192,214166,1,0,0:0:0:0:s_023.ogg
256,192,214241,1,0,0:0:0:0:s_035.ogg
460,192,214241,1,0,0:0:0:0:s_047.ogg
153,192,214316,1,0,0:0:0:0:s_026.ogg
256,192,214391,1,0,0:0:0:0:s_038.ogg
358,192,214391,1,0,0:0:0:0:s_050.ogg
460,192,214466,1,0,0:0:0:0:s_020.ogg
153,192,214541,1,0,0:0:0:0:s_044.ogg
358,192,214541,1,0,0:0:0:0:s_032.ogg
51,192,214616,1,0,0:0:0:0:s_023.ogg
153,192,214691,1,0,0:0:0:0:s_035.ogg
256,192,214691,1,0,0:0:0:0:s_047.ogg
358,192,214766,1,0,0:0:0:0:s_016.ogg
51,192,214841,1,0,0:0:0:0:s_040.ogg
256,192,214841,1,0,0:0:0:0:s_028.ogg
460,192,214916,1,0,0:0:0:0:s_020.ogg
51,192,214991,1,0,0:0:0:0:s_032.ogg
153,192,214991,1,0,0:0:0:0:s_044.ogg
256,192,215066,1,0,0:0:0:0:s_021.ogg
153,192,215141,1,0,0:0:0:0:s_033.ogg
460,192,215141,1,0,0:0:0:0:s_045.ogg
358,192,215216,1,0,0:0:0:0:s_025.ogg
51,192,215291,1,0,0:0:0:0:s_049.ogg
460,192,215291,1,0,0:0:0:0:s_037.ogg
153,192,215366,1,0,0:0:0:0:s_016.ogg
51,192,215441,1,0,0:0:0:0:s_040.ogg
358,192,215441,1,0,0:0:0:0:s_028.ogg
256,192,215516,1,0,0:0:0:0:s_021.ogg
358,192,215591,1,0,0:0:0:0:s_045.ogg
460,192,215591,1,0,0:0:0:0:s_033.ogg
51,192,215666,1,0,0:0:0:0:s_013.ogg
256,192,215741,1,0,0:0:0:0:s_025.ogg
460,192,215741,1,0,0:0:0:0:s_037.ogg
153,192,215816,1,0,0:0:0:0:s_016.ogg
256,192,215891,1,0,0:0:0:0:s_040.ogg
358,192,215891,1,0,0:0:0:0:s_028.ogg
51,192,215966,1,0,0:0:0:0:s_021.ogg
460,192,215966,1,0,0:0:0:0:s_009.ogg
153,192,216041,1,0,0:0:0:0:s_045.ogg
358,192,216041,1,0,0:0:0:0:s_033.ogg
51,192,216116,1,0,0:0:0:0:s_013.ogg
460,192,216116,1,0,0:0:0:0:s_025.ogg
153,192,216191,1,0,0:0:0:0:s_049.ogg
256,192,216191,1,0,0:0:0:0:s_037.ogg
51,192,216266,1,0,0:0:0:0:s_028.ogg
358,192,216266,1,0,0:0:0:0:s_016.ogg
460,192,216266,1,0,0:0:0:0:s_020.ogg
153,192,216341,1,0,0:0:0:0:s_052.ogg
256,192,216341,1,0,0:0:0:0:s_040.ogg
51,192,216416,1,0,0:0:0:0:s_030.ogg
460,192,216416,1,0,0:0:0:0:s_018.ogg
256,192,216491,1,0,0:0:0:0:s_042.ogg
51,192,216566,1,0,0:0:0:0:s_020.ogg
153,192,216566,1,0,0:0:0:0:s_032.ogg
358,192,216641,1,0,0:0:0:0:s_056.ogg
153,192,216716,1,0,0:0:0:0:s_033.ogg
256,192,216716,1,0,0:0:0:0:s_021.ogg
460,192,216791,1,0,0:0:0:0:s_045.ogg
153,192,216866,1,0,0:0:0:0:s_023.ogg
256,192,216866,1,0,0:0:0:0:s_035.ogg
358,192,216866,1,0,0:0:0:0:s_028.ogg
51,192,216941,1,0,0:0:0:0:s_059.ogg
460,192,216941,1,0,0:0:0:0:s_047.ogg
153,192,217016,1,0,0:0:0:0:s_034.ogg
256,192,217016,1,0,0:0:0:0:s_022.ogg
460,192,217091,1,0,0:0:0:0:s_046.ogg
256,192,217166,1,0,0:0:0:0:s_023.ogg
358,192,217166,1,0,0:0:0:0:s_035.ogg
51,192,217241,1,0,0:0:0:0:s_059.ogg
460,192,217241,1,0,0:0:0:0:s_052.ogg
153,192,217316,1,0,0:0:0:0:s_032.ogg
256,192,217316,1,0,0:0:0:0:s_020.ogg
460,192,217391,1,0,0:0:0:0:s_044.ogg
153,192,217466,1,0,0:0:0:0:s_025.ogg
256,192,217466,1,0,0:0:0:0:s_028.ogg
358,192,217466,1,0,0:0:0:0:s_021.ogg
51,192,217541,1,0,0:0:0:0:s_045.ogg
460,192,217541,1,0,0:0:0:0:s_052.ogg
256,192,217616,1,0,0:0:0:0:s_023.ogg
358,192,217616,1,0,0:0:0:0:s_035.ogg
51,192,217691,1,0,0:0:0:0:s_059.ogg
358,192,217766,1,0,0:0:0:0:s_025.ogg
460,192,217766,1,0,0:0:0:0:s_037.ogg
153,192,217841,1,0,0:0:0:0:s_061.ogg
51,192,217916,1,0,0:0:0:0:s_038.ogg
460,192,217916,1,0,0:0:0:0:s_026.ogg
256,192,217991,1,0,0:0:0:0:s_062.ogg
51,192,218066,1,0,0:0:0:0:s_028.ogg
153,192,218066,1,0,0:0:0:0:s_033.ogg
460,192,218066,1,0,0:0:0:0:s_040.ogg
256,192,218141,1,0,0:0:0:0:s_064.ogg
358,192,218141,1,0,0:0:0:0:s_057.ogg
51,192,218216,1,0,0:0:0:0:s_027.ogg
460,192,218216,1,0,0:0:0:0:s_039.ogg
256,192,218291,1,0,0:0:0:0:s_051.ogg
51,192,218366,1,0,0:0:0:0:s_028.ogg
153,192,218366,1,0,0:0:0:0:s_040.ogg
460,192,218366,1,0,0:0:0:0:s_033.ogg
256,192,218441,1,0,0:0:0:0:s_057.ogg
358,192,218441,1,0,0:0:0:0:s_064.ogg
51,192,218516,1,0,0:0:0:0:s_025.ogg
460,192,218516,1,0,0:0:0:0:s_037.ogg
256,192,218591,1,0,0:0:0:0:s_061.ogg
51,192,218666,1,0,0:0:0:0:s_040.ogg
153,192,218666,1,0,0:0:0:0:s_032.ogg
460,192,218666,1,0,0:0:0:0:s_028.ogg
256,192,218741,1,0,0:0:0:0:s_052.ogg
358,192,218741,1,0,0:0:0:0:s_056.ogg
51,192,218816,1,0,0:0:0:0:s_042.ogg
153,192,218816,1,0,0:0:0:0:s_030.ogg
358,192,218891,1,0,0:0:0:0:s_054.ogg
153,192,218966,1,0,0:0:0:0:s_044.ogg
256,192,218966,1,0,0:0:0:0:s_032.ogg
460,192,219041,1,0,0:0:0:0:s_056.ogg
256,192,219116,1,0,0:0:0:0:s_045.ogg
358,192,219116,1,0,0:0:0:0:s_033.ogg
51,192,219191,1,0,0:0:0:0:s_057.ogg
256,192,219266,1,0,0:0:0:0:s_035.ogg
358,192,219266,1,0,0:0:0:0:s_047.ogg
460,192,219266,1,0,0:0:0:0:s_040.ogg
51,192,219341,1,0,0:0:0:0:s_064.ogg
153,192,219341,1,0,0:0:0:0:s_071.ogg
256,192,219416,1,0,0:0:0:0:s_034.ogg
358,192,219416,1,0,0:0:0:0:s_046.ogg
51,192,219491,1,0,0:0:0:0:s_058.ogg
256,192,219566,1,0,0:0:0:0:s_047.ogg
358,192,219566,1,0,0:0:0:0:s_035.ogg
460,192,219566,1,0,0:0:0:0:s_040.ogg
51,192,219641,1,0,0:0:0:0:s_071.ogg
153,192,219641,1,0,0:0:0:0:s_059.ogg
256,192,219716,1,0,0:0:0:0:s_032.ogg
358,192,219716,1,0,0:0:0:0:s_044.ogg
51,192,219791,1,0,0:0:0:0:s_056.ogg
256,192,219866,1,0,0:0:0:0:s_040.ogg
358,192,219866,1,0,0:0:0:0:s_037.ogg
460,192,219866,1,0,0:0:0:0:s_045.ogg
51,192,219941,1,0,0:0:0:0:s_069.ogg
153,192,219941,1,0,0:0:0:0:s_064.ogg
358,192,220016,1,0,0:0:0:0:s_047.ogg
460,192,220016,1,0,0:0:0:0:s_035.ogg
153,192,220091,1,0,0:0:0:0:s_059.ogg
51,192,220166,1,0,0:0:0:0:s_049.ogg
460,192,220166,1,0,0:0:0:0:s_037.ogg
256,192,220241,1,0,0:0:0:0:s_061.ogg
51,192,220316,1,0,0:0:0:0:s_038.ogg
153,192,220316,1,0,0:0:0:0:s_050.ogg
358,192,220391,1,0,0:0:0:0:s_062.ogg
51,192,220466,1,0,0:0:0:0:s_045.ogg
153,192,220466,1,0,0:0:0:0:s_040.ogg
256,192,220466,1,0,0:0:0:0:s_052.ogg
358,192,220541,1,0,0:0:0:0:s_076.ogg
460,192,220541,1,0,0:0:0:0:s_069.ogg
51,192,220616,1,0,0:0:0:0:s_039.ogg
153,192,220616,1,0,0:0:0:0:s_051.ogg
358,192,220691,1,0,0:0:0:0:s_063.ogg
51,192,220766,1,0,0:0:0:0:s_045.ogg
153,192,220766,1,0,0:0:0:0:s_052.ogg
256,192,220766,1,0,0:0:0:0:s_040.ogg
358,192,220841,1,0,0:0:0:0:s_076.ogg
460,192,220841,1,0,0:0:0:0:s_064.ogg
51,192,220916,1,0,0:0:0:0:s_049.ogg
153,192,220916,1,0,0:0:0:0:s_037.ogg
358,192,220991,1,0,0:0:0:0:s_073.ogg
153,192,221066,1,0,0:0:0:0:s_050.ogg
256,192,221066,1,0,0:0:0:0:s_038.ogg
358,192,221141,1,0,0:0:0:0:s_074.ogg
460,192,221141,1,0,0:0:0:0:s_062.ogg
51,192,221216,1,0,0:0:0:0:s_054.ogg
153,192,221216,1,0,0:0:0:0:s_042.ogg
256,192,221291,1,0,0:0:0:0:s_078.ogg
358,192,221291,1,0,0:0:0:0:s_066.ogg
51,192,221366,1,0,0:0:0:0:s_047.ogg
460,192,221366,1,0,0:0:0:0:s_035.ogg
153,192,221441,1,0,0:0:0:0:s_071.ogg
256,192,221441,1,0,0:0:0:0:s_059.ogg
358,192,221516,1,0,0:0:0:0:s_038.ogg
460,192,221516,1,0,0:0:0:0:s_050.ogg
51,192,221591,1,0,0:0:0:0:s_062.ogg
153,192,221591,1,0,0:0:0:0:s_074.ogg
256,192,221666,1,0,0:0:0:0:s_032.ogg
460,192,221666,1,0,0:0:0:0:s_044.ogg
51,192,221741,1,0,0:0:0:0:s_056.ogg
153,192,221741,1,0,0:0:0:0:s_068.ogg
256,192,221816,1,0,0:0:0:0:s_035.ogg
358,192,221816,1,0,0:0:0:0:s_047.ogg
51,192,221891,1,0,0:0:0:0:s_071.ogg
460,192,221891,1,0,0:0:0:0:s_059.ogg
153,192,221966,1,0,0:0:0:0:s_040.ogg
256,192,221966,1,0,0:0:0:0:s_028.ogg
460,192,222041,1,0,0:0:0:0:s_064.ogg
358,192,222041,1,0,0:0:0:0:s_052.ogg
51,192,222116,1,0,0:0:0:0:s_044.ogg
153,192,222116,1,0,0:0:0:0:s_032.ogg
358,192,222191,1,0,0:0:0:0:s_056.ogg
256,192,222191,1,0,0:0:0:0:s_068.ogg
460,192,222266,1,0,0:0:0:0:s_037.ogg
153,192,222266,1,0,0:0:0:0:s_025.ogg
358,192,222341,1,0,0:0:0:0:s_061.ogg
256,192,222341,1,0,0:0:0:0:s_049.ogg
51,192,222416,1,0,0:0:0:0:s_028.ogg
460,192,222416,1,0,0:0:0:0:s_040.ogg
153,192,222491,1,0,0:0:0:0:s_064.ogg
256,192,222491,1,0,0:0:0:0:s_052.ogg
460,192,222566,1,0,0:0:0:0:s_021.ogg
358,192,222566,1,0,0:0:0:0:s_033.ogg
153,192,222641,1,0,0:0:0:0:s_057.ogg
51,192,222641,1,0,0:0:0:0:s_045.ogg
358,192,222716,1,0,0:0:0:0:s_025.ogg
256,192,222716,1,0,0:0:0:0:s_037.ogg
51,192,222791,1,0,0:0:0:0:s_061.ogg
460,192,222791,1,0,0:0:0:0:s_049.ogg
153,192,222866,1,0,0:0:0:0:s_018.ogg
358,192,222866,1,0,0:0:0:0:s_030.ogg
460,192,222941,1,0,0:0:0:0:s_054.ogg
51,192,222941,1,0,0:0:0:0:s_042.ogg
256,192,223016,1,0,0:0:0:0:s_033.ogg
153,192,223016,1,0,0:0:0:0:s_021.ogg
358,192,223091,1,0,0:0:0:0:s_057.ogg
460,192,223091,1,0,0:0:0:0:s_045.ogg
153,192,223166,1,0,0:0:0:0:s_014.ogg
51,192,223166,1,0,0:0:0:0:s_026.ogg
358,192,223241,1,0,0:0:0:0:s_038.ogg
256,192,223241,1,0,0:0:0:0:s_050.ogg
51,192,223316,1,0,0:0:0:0:s_018.ogg
460,192,223316,1,0,0:0:0:0:s_030.ogg
153,192,223391,1,0,0:0:0:0:s_054.ogg
256,192,223391,1,0,0:0:0:0:s_042.ogg
51,192,223466,1,0,0:0:0:0:s_023.ogg
358,192,223466,1,0,0:0:0:0:s_011.ogg
256,192,223541,1,0,0:0:0:0:s_047.ogg
153,192,223541,1,0,0:0:0:0:s_035.ogg
460,192,223616,1,0,0:0:0:0:s_026.ogg
358,192,223616,1,0,0:0:0:0:s_014.ogg
153,192,223691,1,0,0:0:0:0:s_050.ogg
51,192,223691,1,0,0:0:0:0:s_038.ogg
256,192,223766,1,0,0:0:0:0:s_008.ogg
358,192,223766,1,0,0:0:0:0:s_020.ogg
51,192,223841,1,0,0:0:0:0:s_044.ogg
460,192,223841,1,0,0:0:0:0:s_032.ogg
153,192,223916,1,0,0:0:0:0:s_023.ogg
256,192,223916,1,0,0:0:0:0:s_011.ogg
460,192,223991,1,0,0:0:0:0:s_047.ogg
358,192,223991,1,0,0:0:0:0:s_035.ogg
153,192,224066,1,0,0:0:0:0:s_016.ogg
358,192,224141,1,0,0:0:0:0:s_040.ogg
460,192,224141,1,0,0:0:0:0:s_028.ogg
51,192,224216,1,0,0:0:0:0:s_020.ogg
256,192,224291,1,0,0:0:0:0:s_044.ogg
358,192,224291,1,0,0:0:0:0:s_032.ogg
460,192,224366,1,0,0:0:0:0:s_013.ogg
153,192,224441,1,0,0:0:0:0:s_025.ogg
256,192,224441,1,0,0:0:0:0:s_037.ogg
358,192,224516,1,0,0:0:0:0:s_016.ogg
51,192,224591,1,0,0:0:0:0:s_028.ogg
153,192,224591,1,0,0:0:0:0:s_040.ogg
256,192,224666,1,0,0:0:0:0:s_021.ogg
358,192,224666,1,0,0:0:0:0:s_009.ogg
460,192,224741,1,0,0:0:0:0:s_033.ogg
153,192,224816,1,0,0:0:0:0:s_025.ogg
256,192,224816,1,0,0:0:0:0:s_013.ogg
358,192,224891,1,0,0:0:0:0:s_037.ogg
51,192,224966,1,0,0:0:0:0:s_018.ogg
153,192,224966,1,0,0:0:0:0:s_006.ogg
256,192,225041,1,0,0:0:0:0:s_030.ogg
51,192,225116,1,0,0:0:0:0:s_021.ogg
460,192,225116,1,0,0:0:0:0:s_009.ogg
153,192,225191,1,0,0:0:0:0:s_033.ogg
51,192,225266,1,0,0:0:0:0:s_014.ogg
358,192,225266,1,0,0:0:0:0:s_026.ogg
460,192,225266,1,0,0:0:0:0:s_002.ogg
51,192,225866,1,0,0:0:0:0:s_054.ogg
153,192,225866,1,0,0:0:0:0:s_050.ogg
256,192,225866,1,0,0:0:0:0:s_042.ogg
460,192,225866,1,0,0:0:0:0:s_026.ogg
153,192,226016,1,0,0:0:0:0:m_054.ogg
256,192,226016,1,0,0:0:0:0:m_050.ogg
358,192,226016,1,0,0:0:0:0:m_042.ogg
460,192,226016,1,0,0:0:0:0:m_030.ogg
51,192,226466,1,0,0:0:0:0:s_056.ogg
153,192,226466,1,0,0:0:0:0:s_047.ogg
358,192,226466,1,0,0:0:0:0:s_044.ogg
460,192,226466,1,0,0:0:0:0:s_050.ogg
153,192,226616,1,0,0:0:0:0:m_047.ogg
256,192,226616,1,0,0:0:0:0:m_050.ogg
358,192,226616,1,0,0:0:0:0:m_044.ogg
460,192,226616,1,0,0:0:0:0:m_056.ogg
51,192,227066,1,0,0:0:0:0:s_049.ogg
256,192,227066,1,0,0:0:0:0:s_057.ogg
358,192,227066,1,0,0:0:0:0:s_045.ogg
460,192,227066,1,0,0:0:0:0:s_052.ogg
153,192,227216,1,0,0:0:0:0:m_057.ogg
256,192,227216,1,0,0:0:0:0:m_045.ogg
358,192,227216,1,0,0:0:0:0:m_052.ogg
460,192,227216,1,0,0:0:0:0:m_049.ogg
51,192,228266,1,0,0:0:0:0:s_069.ogg
153,192,228266,1,0,0:0:0:0:s_057.ogg
256,192,228266,1,0,0:0:0:0:s_061.ogg
358,192,228266,1,0,0:0:0:0:s_064.ogg
460,192,228266,1,0,0:0:0:0:s_052.ogg
51,192,228566,1,0,0:0:0:0:s_052.ogg
153,192,228566,1,0,0:0:0:0:s_081.ogg
256,192,228566,1,0,0:0:0:0:s_069.ogg
358,192,228566,1,0,0:0:0:0:s_073.ogg
460,192,228566,1,0,0:0:0:0:s_076.ogg
51,192,228866,1,0,0:0:0:0:s_045.ogg
153,192,228866,1,0,0:0:0:0:s_033.ogg
358,192,228866,1,0,0:0:0:0:s_021.ogg
460,192,228866,1,0,0:0:0:0:s_009.ogg
