osu file format v14

[General]
AudioFilename: virtual
AudioLeadIn: 0
PreviewTime: 0
Countdown: 0
SampleSet: Soft
StackLeniency: 0.7
Mode: 3
LetterboxInBreaks: 0
SpecialStyle: 0
WidescreenStoryboard: 1

[Editor]
DistanceSpacing: 0.8
BeatDivisor: 4
GridSize: 32
TimelineZoom: 1.800006

[Metadata]
Title:Piano Beatmap Set
TitleUnicode:Piano Beatmap Set
Artist:Collection
ArtistUnicode:Collection
Creator:CircusGalop
Version:Hungarian Dances - 10K HD
Source:BMS
Tags:
BeatmapID:823114
BeatmapSetID:332673

[Difficulty]
HPDrainRate:7
CircleSize:10
OverallDifficulty:5
ApproachRate:5
SliderMultiplier:1.4
SliderTickRate:1

[Events]
//Background and Video events
0,0,"CircusGalop.jpg",0,0
//Break Periods
//Storyboard Layer 0 (Background)
//Storyboard Layer 1 (Fail)
//Storyboard Layer 2 (Pass)
//Storyboard Layer 3 (Foreground)
//Storyboard Sound Samples
Sample,1800,0,"s_033.ogg",100
Sample,2200,0,"s_036.ogg",100
Sample,2600,0,"s_033.ogg",100
Sample,3000,0,"s_028.ogg",100
Sample,3400,0,"m_029.ogg",100
Sample,3800,0,"s_038.ogg",100
Sample,4200,0,"s_033.ogg",100
Sample,4600,0,"s_028.ogg",100
Sample,4800,0,"m_038.ogg",100
Sample,5000,0,"m_032.ogg",100
Sample,5400,0,"s_043.ogg",100
Sample,5500,0,"s_041.ogg",100
Sample,5600,0,"m_040.ogg",100
Sample,8000,0,"m_040.ogg",100
Sample,8200,0,"s_033.ogg",100
Sample,8600,0,"s_033.ogg",100
Sample,8600,0,"s_036.ogg",100
Sample,8700,0,"s_060.ogg",100
Sample,8800,0,"m_064.ogg",100
Sample,9000,0,"s_036.ogg",100
Sample,9400,0,"s_036.ogg",100
Sample,9400,0,"s_033.ogg",100
Sample,9600,0,"m_041.ogg",100
Sample,9600,0,"m_053.ogg",100
Sample,9600,0,"m_044.ogg",100
Sample,9800,0,"m_038.ogg",100
Sample,9800,0,"m_026.ogg",100
Sample,10200,0,"s_029.ogg",100
Sample,10200,0,"s_060.ogg",100
Sample,10200,0,"s_038.ogg",100
Sample,10300,0,"s_062.ogg",100
Sample,10400,0,"m_040.ogg",100
Sample,10400,0,"m_057.ogg",100
Sample,10400,0,"m_060.ogg",100
Sample,10600,0,"s_033.ogg",100
Sample,12200,0,"s_041.ogg",100
Sample,12600,0,"s_043.ogg",100
Sample,13000,0,"s_044.ogg",100
Sample,13400,0,"s_038.ogg",100
Sample,13400,0,"s_032.ogg",100
Sample,13600,0,"s_028.ogg",100
Sample,13600,0,"s_036.ogg",100
Sample,14000,0,"s_021.ogg",100
Sample,14400,0,"m_052.ogg",100
Sample,14600,0,"s_033.ogg",100
Sample,15000,0,"s_028.ogg",100
Sample,15000,0,"s_036.ogg",100
Sample,15200,0,"m_060.ogg",100
Sample,15400,0,"s_033.ogg",100
Sample,15800,0,"s_028.ogg",100
Sample,15800,0,"s_045.ogg",100
Sample,16000,0,"m_056.ogg",100
Sample,16200,0,"m_026.ogg",100
Sample,16200,0,"m_038.ogg",100
Sample,16600,0,"s_032.ogg",100
Sample,16600,0,"s_029.ogg",100
Sample,16600,0,"s_057.ogg",100
Sample,16700,0,"s_059.ogg",100
Sample,16800,0,"m_057.ogg",100
Sample,17000,0,"s_033.ogg",100
Sample,17400,0,"s_028.ogg",100
Sample,17600,0,"m_050.ogg",100
Sample,17800,0,"m_026.ogg",100
Sample,17800,0,"m_038.ogg",100
Sample,18200,0,"s_032.ogg",100
Sample,18200,0,"s_029.ogg",100
Sample,18200,0,"s_052.ogg",100
Sample,18300,0,"s_053.ogg",100
Sample,18400,0,"m_052.ogg",100
Sample,18600,0,"s_033.ogg",100
Sample,19000,0,"s_028.ogg",100
Sample,19400,0,"s_032.ogg",100
Sample,19800,0,"s_038.ogg",100
Sample,20200,0,"s_033.ogg",100
Sample,20600,0,"s_036.ogg",100
Sample,20800,0,"m_052.ogg",100
Sample,21000,0,"s_033.ogg",100
Sample,21100,0,"s_045.ogg",100
Sample,21200,0,"s_028.ogg",100
Sample,21200,0,"s_048.ogg",100
Sample,21300,0,"s_052.ogg",100
Sample,21400,0,"s_069.ogg",100
Sample,21500,0,"s_072.ogg",100
Sample,21600,0,"m_064.ogg",100
Sample,21600,0,"s_033.ogg",100
Sample,21800,0,"s_040.ogg",100
Sample,22000,0,"s_028.ogg",100
Sample,22200,0,"s_072.ogg",100
Sample,22200,0,"s_036.ogg",100
Sample,22400,0,"m_059.ogg",100
Sample,22400,0,"m_071.ogg",100
Sample,22400,0,"s_033.ogg",100
Sample,22400,0,"m_053.ogg",100
Sample,22600,0,"m_035.ogg",100
Sample,22600,0,"m_044.ogg",100
Sample,22800,0,"s_026.ogg",100
Sample,23000,0,"s_044.ogg",100
Sample,23000,0,"s_035.ogg",100
Sample,23000,0,"s_072.ogg",100
Sample,23100,0,"s_074.ogg",100
Sample,23200,0,"m_052.ogg",100
Sample,23200,0,"m_057.ogg",100
Sample,23200,0,"m_060.ogg",100
Sample,23200,0,"m_064.ogg",100
Sample,23400,0,"s_045.ogg",100
Sample,23800,0,"s_036.ogg",100
Sample,24000,0,"s_065.ogg",100
Sample,24200,0,"s_069.ogg",100
Sample,24400,0,"s_031.ogg",100
Sample,24600,0,"s_043.ogg",100
Sample,24600,0,"s_067.ogg",100
Sample,24800,0,"s_062.ogg",100
Sample,25000,0,"s_041.ogg",100
Sample,25000,0,"s_038.ogg",100
Sample,25000,0,"s_045.ogg",100
Sample,25200,0,"s_028.ogg",100
Sample,25400,0,"s_043.ogg",100
Sample,25400,0,"s_048.ogg",100
Sample,25400,0,"s_036.ogg",100
Sample,25600,0,"s_016.ogg",100
Sample,25800,0,"s_060.ogg",100
Sample,25800,0,"s_052.ogg",100
Sample,26000,0,"m_071.ogg",100
Sample,26200,0,"s_038.ogg",100
Sample,26200,0,"s_064.ogg",100
Sample,26400,0,"m_057.ogg",100
Sample,26600,0,"m_045.ogg",100
Sample,26800,0,"s_009.ogg",100
Sample,26800,0,"s_057.ogg",100
Sample,26850,0,"s_060.ogg",100
Sample,26900,0,"s_081.ogg",100
Sample,27200,0,"s_055.ogg",100
Sample,27200,0,"s_013.ogg",100
Sample,27400,0,"s_040.ogg",100
Sample,27600,0,"s_009.ogg",100
Sample,27600,0,"s_055.ogg",100
Sample,27800,0,"s_040.ogg",100
Sample,28000,0,"s_013.ogg",100
Sample,28000,0,"s_025.ogg",100
Sample,28200,0,"s_041.ogg",100
Sample,28400,0,"s_021.ogg",100
Sample,28600,0,"s_064.ogg",100
Sample,28600,0,"s_055.ogg",100
Sample,28800,0,"s_014.ogg",100
Sample,29000,0,"m_053.ogg",100
Sample,29000,0,"s_033.ogg",100
Sample,29200,0,"s_009.ogg",100
Sample,29400,0,"s_041.ogg",100
Sample,29400,0,"s_033.ogg",100
Sample,29500,0,"s_050.ogg",100
Sample,29600,0,"s_026.ogg",100
Sample,29600,0,"s_014.ogg",100
Sample,29700,0,"s_062.ogg",100
Sample,29800,0,"s_033.ogg",100
Sample,29800,0,"s_041.ogg",100
Sample,29900,0,"s_064.ogg",100
Sample,30000,0,"s_012.ogg",100
Sample,30000,0,"s_024.ogg",100
Sample,30200,0,"s_033.ogg",100
Sample,30400,0,"s_050.ogg",100
Sample,30400,0,"s_053.ogg",100
Sample,30600,0,"s_038.ogg",100
Sample,30800,0,"s_007.ogg",100
Sample,30800,0,"s_050.ogg",100
Sample,31000,0,"s_031.ogg",100
Sample,31200,0,"m_055.ogg",100
Sample,31200,0,"s_011.ogg",100
Sample,31400,0,"s_043.ogg",100
Sample,31600,0,"s_019.ogg",100
Sample,31800,0,"s_031.ogg",100
Sample,31800,0,"s_053.ogg",100
Sample,32000,0,"s_012.ogg",100
Sample,32200,0,"m_052.ogg",100
Sample,32200,0,"s_036.ogg",100
Sample,32400,0,"s_007.ogg",100
Sample,32600,0,"s_040.ogg",100
Sample,32600,0,"s_031.ogg",100
Sample,32700,0,"s_048.ogg",100
Sample,32800,0,"s_012.ogg",100
Sample,32800,0,"s_050.ogg",100
Sample,32900,0,"s_048.ogg",100
Sample,33000,0,"s_031.ogg",100
Sample,33000,0,"s_040.ogg",100
Sample,33100,0,"s_050.ogg",100
Sample,33200,0,"s_028.ogg",100
Sample,33200,0,"s_016.ogg",100
Sample,33400,0,"s_031.ogg",100
Sample,33600,0,"s_059.ogg",100
Sample,34000,0,"s_059.ogg",100
Sample,34400,0,"s_062.ogg",100
Sample,34600,0,"m_060.ogg",100
Sample,35000,0,"m_059.ogg",100
Sample,35400,0,"m_057.ogg",100
Sample,35800,0,"s_056.ogg",100
Sample,35900,0,"s_057.ogg",100
Sample,36000,0,"s_059.ogg",100
Sample,36100,0,"s_057.ogg",100
Sample,36200,0,"s_056.ogg",100
Sample,36200,0,"s_029.ogg",100
Sample,36300,0,"s_059.ogg",100
Sample,36400,0,"s_048.ogg",100
Sample,36600,0,"s_033.ogg",100
Sample,36800,0,"s_004.ogg",100
Sample,36800,0,"s_044.ogg",100
Sample,36800,0,"s_076.ogg",100
Sample,36800,0,"s_035.ogg",100
Sample,36800,0,"s_071.ogg",100
Sample,37500,0,"s_016.ogg",100
Sample,37500,0,"s_028.ogg",100
Sample,37600,0,"s_018.ogg",100
Sample,37600,0,"s_030.ogg",100
Sample,38000,0,"s_056.ogg",100
Sample,38000,0,"s_068.ogg",100
Sample,38400,0,"s_033.ogg",100
Sample,38400,0,"s_059.ogg",100
Sample,38400,0,"s_040.ogg",100
Sample,38450,0,"s_057.ogg",100
Sample,38600,0,"m_069.ogg",100
Sample,39000,0,"s_056.ogg",100
Sample,39100,0,"s_069.ogg",100
Sample,39200,0,"m_044.ogg",100
Sample,39200,0,"m_035.ogg",100
Sample,39200,0,"m_041.ogg",100
Sample,39300,0,"s_057.ogg",100
Sample,39400,0,"s_068.ogg",100
Sample,39466,0,"s_057.ogg",100
Sample,39533,0,"s_059.ogg",100
Sample,39600,0,"s_040.ogg",100
Sample,39600,0,"s_021.ogg",100
Sample,40000,0,"s_055.ogg",100
Sample,40000,0,"s_025.ogg",100
Sample,40200,0,"s_043.ogg",100
Sample,40400,0,"s_009.ogg",100
Sample,40400,0,"s_055.ogg",100
Sample,40600,0,"s_033.ogg",100
Sample,40800,0,"s_025.ogg",100
Sample,40800,0,"s_013.ogg",100
Sample,41000,0,"s_033.ogg",100
Sample,41200,0,"s_021.ogg",100
Sample,41400,0,"s_064.ogg",100
Sample,41400,0,"s_055.ogg",100
Sample,41600,0,"s_014.ogg",100
Sample,41800,0,"m_053.ogg",100
Sample,41800,0,"s_033.ogg",100
Sample,42000,0,"s_009.ogg",100
Sample,42200,0,"s_041.ogg",100
Sample,42200,0,"s_033.ogg",100
Sample,42300,0,"s_050.ogg",100
Sample,42400,0,"s_026.ogg",100
Sample,42400,0,"s_014.ogg",100
Sample,42500,0,"s_050.ogg",100
Sample,42600,0,"s_033.ogg",100
Sample,42600,0,"s_041.ogg",100
Sample,42700,0,"s_064.ogg",100
Sample,42800,0,"s_024.ogg",100
Sample,42800,0,"s_062.ogg",100
Sample,43000,0,"s_033.ogg",100
Sample,43200,0,"s_053.ogg",100
Sample,43200,0,"s_023.ogg",100
Sample,43400,0,"s_031.ogg",100
Sample,43600,0,"s_050.ogg",100
Sample,43600,0,"s_007.ogg",100
Sample,43800,0,"s_031.ogg",100
Sample,44000,0,"m_055.ogg",100
Sample,44000,0,"s_023.ogg",100
Sample,44200,0,"s_043.ogg",100
Sample,44400,0,"s_007.ogg",100
Sample,44600,0,"s_062.ogg",100
Sample,44600,0,"s_053.ogg",100
Sample,44800,0,"s_024.ogg",100
Sample,45000,0,"m_052.ogg",100
Sample,45000,0,"s_031.ogg",100
Sample,45200,0,"s_019.ogg",100
Sample,45400,0,"s_040.ogg",100
Sample,45400,0,"s_031.ogg",100
Sample,45500,0,"s_048.ogg",100
Sample,45600,0,"s_012.ogg",100
Sample,45600,0,"s_024.ogg",100
Sample,45700,0,"s_048.ogg",100
Sample,45800,0,"s_031.ogg",100
Sample,45800,0,"s_040.ogg",100
Sample,45900,0,"s_050.ogg",100
Sample,46000,0,"s_028.ogg",100
Sample,46000,0,"s_016.ogg",100
Sample,46200,0,"s_040.ogg",100
Sample,46400,0,"s_020.ogg",100
Sample,46800,0,"s_016.ogg",100
Sample,47200,0,"s_062.ogg",100
Sample,47400,0,"s_028.ogg",100
Sample,47800,0,"s_038.ogg",100
Sample,48200,0,"s_036.ogg",100
Sample,48600,0,"s_056.ogg",100
Sample,48700,0,"s_057.ogg",100
Sample,48800,0,"s_059.ogg",100
Sample,48900,0,"s_057.ogg",100
Sample,49000,0,"s_056.ogg",100
Sample,49000,0,"s_029.ogg",100
Sample,49100,0,"s_059.ogg",100
Sample,49200,0,"s_048.ogg",100
Sample,49400,0,"s_028.ogg",100
Sample,49600,0,"s_004.ogg",100
Sample,49600,0,"s_040.ogg",100
Sample,49600,0,"s_071.ogg",100
Sample,49600,0,"s_032.ogg",100
Sample,49600,0,"s_052.ogg",100
Sample,50300,0,"s_052.ogg",100
Sample,50300,0,"s_016.ogg",100
Sample,50400,0,"s_066.ogg",100
Sample,50400,0,"s_054.ogg",100
Sample,50800,0,"s_056.ogg",100
Sample,50800,0,"s_068.ogg",100
Sample,51200,0,"s_021.ogg",100
Sample,51200,0,"s_071.ogg",100
Sample,51200,0,"s_040.ogg",100
Sample,51250,0,"s_057.ogg",100
Sample,51400,0,"m_069.ogg",100
Sample,51800,0,"s_040.ogg",100
Sample,51900,0,"s_057.ogg",100
Sample,52000,0,"m_009.ogg",100
Sample,52000,0,"m_035.ogg",100
Sample,52000,0,"m_021.ogg",100
Sample,52100,0,"s_057.ogg",100
Sample,52200,0,"s_056.ogg",100
Sample,52266,0,"s_069.ogg",100
Sample,52333,0,"s_071.ogg",100
Sample,52400,0,"s_040.ogg",100
Sample,52400,0,"s_057.ogg",100
Sample,52800,0,"s_049.ogg",100
Sample,53000,0,"s_037.ogg",100
Sample,53000,0,"s_016.ogg",100
Sample,53000,0,"s_052.ogg",100
Sample,53100,0,"s_021.ogg",100
Sample,53200,0,"s_049.ogg",100
Sample,53400,0,"s_037.ogg",100
Sample,53400,0,"s_052.ogg",100
Sample,53400,0,"s_016.ogg",100
Sample,53500,0,"s_021.ogg",100
Sample,53600,0,"s_052.ogg",100
Sample,53800,0,"s_033.ogg",100
Sample,53800,0,"s_050.ogg",100
Sample,53800,0,"s_038.ogg",100
Sample,53900,0,"s_021.ogg",100
Sample,54000,0,"s_049.ogg",100
Sample,54200,0,"s_035.ogg",100
Sample,54200,0,"s_016.ogg",100
Sample,54200,0,"s_050.ogg",100
Sample,54300,0,"s_021.ogg",100
Sample,54400,0,"s_009.ogg",100
Sample,54600,0,"s_016.ogg",100
Sample,54600,0,"s_028.ogg",100
Sample,54700,0,"s_021.ogg",100
Sample,54800,0,"s_009.ogg",100
Sample,55000,0,"s_028.ogg",100
Sample,55000,0,"s_016.ogg",100
Sample,55100,0,"s_021.ogg",100
Sample,55200,0,"s_009.ogg",100
Sample,55400,0,"s_040.ogg",100
Sample,55400,0,"s_016.ogg",100
Sample,55400,0,"s_052.ogg",100
Sample,55500,0,"s_021.ogg",100
Sample,55600,0,"s_049.ogg",100
Sample,55800,0,"s_040.ogg",100
Sample,55800,0,"s_016.ogg",100
Sample,55800,0,"s_052.ogg",100
Sample,55900,0,"s_021.ogg",100
Sample,56000,0,"s_052.ogg",100
Sample,56200,0,"s_047.ogg",100
Sample,56200,0,"s_038.ogg",100
Sample,56300,0,"s_021.ogg",100
Sample,56400,0,"s_045.ogg",100
Sample,56600,0,"s_032.ogg",100
Sample,56600,0,"s_047.ogg",100
Sample,56700,0,"s_021.ogg",100
Sample,56800,0,"s_009.ogg",100
Sample,57000,0,"s_016.ogg",100
Sample,57000,0,"s_028.ogg",100
Sample,57100,0,"s_021.ogg",100
Sample,57200,0,"s_009.ogg",100
Sample,57400,0,"s_028.ogg",100
Sample,57400,0,"s_016.ogg",100
Sample,57500,0,"s_021.ogg",100
Sample,57600,0,"s_061.ogg",100
Sample,57800,0,"s_049.ogg",100
Sample,57800,0,"s_016.ogg",100
Sample,57800,0,"s_061.ogg",100
Sample,57900,0,"s_021.ogg",100
Sample,58000,0,"s_061.ogg",100
Sample,58200,0,"s_049.ogg",100
Sample,58200,0,"s_016.ogg",100
Sample,58200,0,"s_064.ogg",100
Sample,58300,0,"s_021.ogg",100
Sample,58400,0,"s_064.ogg",100
Sample,58600,0,"s_047.ogg",100
Sample,58600,0,"s_059.ogg",100
Sample,58600,0,"s_016.ogg",100
Sample,58700,0,"s_021.ogg",100
Sample,58800,0,"s_057.ogg",100
Sample,59000,0,"s_047.ogg",100
Sample,59000,0,"s_016.ogg",100
Sample,59000,0,"s_062.ogg",100
Sample,59100,0,"s_021.ogg",100
Sample,59200,0,"s_009.ogg",100
Sample,59400,0,"s_016.ogg",100
Sample,59400,0,"s_033.ogg",100
Sample,59400,0,"s_045.ogg",100
Sample,59400,0,"s_028.ogg",100
Sample,59500,0,"s_021.ogg",100
Sample,59600,0,"s_009.ogg",100
Sample,59800,0,"s_037.ogg",100
Sample,59800,0,"s_016.ogg",100
Sample,59800,0,"s_028.ogg",100
Sample,59800,0,"s_045.ogg",100
Sample,59900,0,"s_021.ogg",100
Sample,60000,0,"s_009.ogg",100
Sample,60200,0,"s_049.ogg",100
Sample,60200,0,"s_064.ogg",100
Sample,60200,0,"s_028.ogg",100
Sample,60300,0,"s_021.ogg",100
Sample,60400,0,"s_064.ogg",100
Sample,60600,0,"s_052.ogg",100
Sample,60600,0,"s_064.ogg",100
Sample,60600,0,"s_016.ogg",100
Sample,60700,0,"s_021.ogg",100
Sample,60800,0,"s_064.ogg",100
Sample,61000,0,"s_047.ogg",100
Sample,61000,0,"s_016.ogg",100
Sample,61000,0,"s_059.ogg",100
Sample,61100,0,"s_021.ogg",100
Sample,61200,0,"s_057.ogg",100
Sample,61400,0,"s_040.ogg",100
Sample,61400,0,"s_056.ogg",100
Sample,61400,0,"s_047.ogg",100
Sample,61500,0,"s_021.ogg",100
Sample,61600,0,"m_057.ogg",100
Sample,61800,0,"s_033.ogg",100
Sample,61800,0,"s_028.ogg",100
Sample,61800,0,"s_016.ogg",100
Sample,61900,0,"s_021.ogg",100
Sample,62000,0,"m_057.ogg",100
Sample,62200,0,"s_033.ogg",100
Sample,62200,0,"s_028.ogg",100
Sample,62200,0,"s_016.ogg",100
Sample,62300,0,"s_021.ogg",100
Sample,62400,0,"s_009.ogg",100
Sample,62600,0,"s_016.ogg",100
Sample,62600,0,"s_028.ogg",100
Sample,62700,0,"s_045.ogg",100
Sample,62800,0,"s_009.ogg",100
Sample,63000,0,"s_028.ogg",100
Sample,63000,0,"s_016.ogg",100
Sample,63100,0,"s_045.ogg",100
Sample,63200,0,"s_009.ogg",100
Sample,63400,0,"s_016.ogg",100
Sample,63400,0,"s_028.ogg",100
Sample,63500,0,"s_045.ogg",100
Sample,63600,0,"s_009.ogg",100
Sample,63800,0,"s_028.ogg",100
Sample,63800,0,"s_016.ogg",100
Sample,63900,0,"s_044.ogg",100
Sample,64000,0,"s_061.ogg",100
Sample,64200,0,"s_021.ogg",100
Sample,64200,0,"s_057.ogg",100
Sample,64400,0,"s_062.ogg",100
Sample,64400,0,"s_059.ogg",100
Sample,64600,0,"s_059.ogg",100
Sample,64600,0,"s_062.ogg",100
Sample,64800,0,"s_064.ogg",100
Sample,65000,0,"s_061.ogg",100
Sample,65000,0,"s_057.ogg",100
Sample,65200,0,"m_021.ogg",100
Sample,65600,0,"s_009.ogg",100
Sample,65800,0,"s_016.ogg",100
Sample,65800,0,"s_033.ogg",100
Sample,65900,0,"s_045.ogg",100
Sample,66000,0,"s_009.ogg",100
Sample,66200,0,"s_033.ogg",100
Sample,66200,0,"s_016.ogg",100
Sample,66300,0,"s_045.ogg",100
Sample,66400,0,"s_009.ogg",100
Sample,66600,0,"s_016.ogg",100
Sample,66600,0,"s_033.ogg",100
Sample,66700,0,"s_044.ogg",100
Sample,66800,0,"s_009.ogg",100
Sample,67000,0,"s_016.ogg",100
Sample,67000,0,"s_033.ogg",100
Sample,67100,0,"s_045.ogg",100
Sample,67200,0,"s_009.ogg",100
Sample,67400,0,"s_062.ogg",100
Sample,67400,0,"s_038.ogg",100
Sample,67600,0,"s_061.ogg",100
Sample,67600,0,"s_040.ogg",100
Sample,67800,0,"s_028.ogg",100
Sample,67800,0,"s_044.ogg",100
Sample,68000,0,"s_009.ogg",100
Sample,68200,0,"s_037.ogg",100
Sample,68200,0,"s_033.ogg",100
Sample,68400,0,"s_057.ogg",100
Sample,68800,0,"s_009.ogg",100
Sample,69000,0,"s_028.ogg",100
Sample,69000,0,"s_016.ogg",100
Sample,69100,0,"s_045.ogg",100
Sample,69200,0,"s_009.ogg",100
Sample,69400,0,"s_016.ogg",100
Sample,69400,0,"s_028.ogg",100
Sample,69500,0,"s_045.ogg",100
Sample,69600,0,"s_009.ogg",100
Sample,69800,0,"s_028.ogg",100
Sample,69800,0,"s_016.ogg",100
Sample,69900,0,"s_045.ogg",100
Sample,70000,0,"s_009.ogg",100
Sample,70200,0,"s_028.ogg",100
Sample,70200,0,"s_016.ogg",100
Sample,70300,0,"s_044.ogg",100
Sample,70400,0,"s_009.ogg",100
Sample,70600,0,"s_049.ogg",100
Sample,70600,0,"s_045.ogg",100
Sample,70800,0,"s_047.ogg",100
Sample,70800,0,"s_062.ogg",100
Sample,71000,0,"s_062.ogg",100
Sample,71000,0,"s_050.ogg",100
Sample,71200,0,"s_009.ogg",100
Sample,71400,0,"s_081.ogg",100
Sample,71400,0,"s_057.ogg",100
Sample,71600,0,"m_076.ogg",100
Sample,72000,0,"s_009.ogg",100
Sample,72200,0,"s_016.ogg",100
Sample,72200,0,"s_028.ogg",100
Sample,72300,0,"s_045.ogg",100
Sample,72400,0,"s_009.ogg",100
Sample,72600,0,"s_028.ogg",100
Sample,72600,0,"s_016.ogg",100
Sample,72700,0,"s_045.ogg",100
Sample,72800,0,"s_009.ogg",100
Sample,73000,0,"s_028.ogg",100
Sample,73000,0,"s_016.ogg",100
Sample,73100,0,"s_021.ogg",100
Sample,73200,0,"s_009.ogg",100
Sample,73400,0,"s_016.ogg",100
Sample,73400,0,"s_028.ogg",100
Sample,73500,0,"s_045.ogg",100
Sample,73600,0,"s_052.ogg",100
Sample,73800,0,"s_038.ogg",100
Sample,73800,0,"s_014.ogg",100
Sample,74000,0,"s_073.ogg",100
Sample,74000,0,"s_040.ogg",100
Sample,74200,0,"s_028.ogg",100
Sample,74200,0,"s_071.ogg",100
Sample,74400,0,"s_045.ogg",100
Sample,74600,0,"s_049.ogg",100
Sample,74600,0,"s_061.ogg",100
Sample,74800,0,"s_045.ogg",100
Sample,74800,0,"s_057.ogg",100
Sample,75400,0,"s_033.ogg",100
Sample,75800,0,"s_036.ogg",100
Sample,76200,0,"s_033.ogg",100
Sample,76600,0,"s_036.ogg",100
Sample,77000,0,"m_029.ogg",100
Sample,77400,0,"s_038.ogg",100
Sample,77800,0,"s_033.ogg",100
Sample,78200,0,"s_028.ogg",100
Sample,78400,0,"m_038.ogg",100
Sample,78600,0,"m_032.ogg",100
Sample,79000,0,"s_043.ogg",100
Sample,79100,0,"s_041.ogg",100
Sample,79200,0,"m_040.ogg",100
Sample,81600,0,"s_021.ogg",100
Sample,81800,0,"s_036.ogg",100
Sample,81900,0,"s_045.ogg",100
Sample,82000,0,"s_016.ogg",100
Sample,82000,0,"s_060.ogg",100
Sample,82100,0,"s_064.ogg",100
Sample,82200,0,"s_069.ogg",100
Sample,82300,0,"s_072.ogg",100
Sample,82400,0,"s_033.ogg",100
Sample,82400,0,"m_076.ogg",100
Sample,82600,0,"s_040.ogg",100
Sample,82800,0,"s_028.ogg",100
Sample,83000,0,"s_072.ogg",100
Sample,83000,0,"s_060.ogg",100
Sample,83200,0,"m_071.ogg",100
Sample,83200,0,"m_068.ogg",100
Sample,83200,0,"s_021.ogg",100
Sample,83200,0,"s_033.ogg",100
Sample,83400,0,"m_044.ogg",100
Sample,83400,0,"m_035.ogg",100
Sample,83600,0,"s_026.ogg",100
Sample,83800,0,"s_041.ogg",100
Sample,83800,0,"s_072.ogg",100
Sample,83800,0,"s_060.ogg",100
Sample,83900,0,"s_074.ogg",100
Sample,84000,0,"m_060.ogg",100
Sample,84000,0,"m_052.ogg",100
Sample,84000,0,"m_057.ogg",100
Sample,84000,0,"m_069.ogg",100
Sample,84200,0,"s_045.ogg",100
Sample,84600,0,"s_036.ogg",100
Sample,84800,0,"s_077.ogg",100
Sample,85000,0,"s_041.ogg",100
Sample,85200,0,"s_076.ogg",100
Sample,85400,0,"s_036.ogg",100
Sample,85400,0,"s_079.ogg",100
Sample,85600,0,"s_074.ogg",100
Sample,85800,0,"s_033.ogg",100
Sample,85800,0,"s_077.ogg",100
Sample,85800,0,"s_041.ogg",100
Sample,86000,0,"s_072.ogg",100
Sample,86200,0,"s_036.ogg",100
Sample,86200,0,"s_040.ogg",100
Sample,86200,0,"s_043.ogg",100
Sample,86400,0,"s_074.ogg",100
Sample,86600,0,"s_040.ogg",100
Sample,86600,0,"s_052.ogg",100
Sample,86800,0,"s_028.ogg",100
Sample,87000,0,"s_038.ogg",100
Sample,87000,0,"s_044.ogg",100
Sample,87200,0,"m_057.ogg",100
Sample,87400,0,"m_036.ogg",100
Sample,87600,0,"s_009.ogg",100
Sample,87600,0,"s_021.ogg",100
Sample,87650,0,"s_060.ogg",100
Sample,87700,0,"s_081.ogg",100
Sample,88000,0,"s_064.ogg",100
Sample,88000,0,"s_052.ogg",100
Sample,88200,0,"s_043.ogg",100
Sample,88400,0,"s_064.ogg",100
Sample,88400,0,"s_052.ogg",100
Sample,88600,0,"s_033.ogg",100
Sample,88800,0,"s_025.ogg",100
Sample,88800,0,"s_013.ogg",100
Sample,89000,0,"s_033.ogg",100
Sample,89200,0,"s_021.ogg",100
Sample,89400,0,"s_064.ogg",100
Sample,89400,0,"s_055.ogg",100
Sample,89600,0,"s_014.ogg",100
Sample,89800,0,"m_053.ogg",100
Sample,89800,0,"s_033.ogg",100
Sample,90000,0,"s_009.ogg",100
Sample,90200,0,"s_041.ogg",100
Sample,90200,0,"s_033.ogg",100
Sample,90300,0,"s_050.ogg",100
Sample,90400,0,"s_026.ogg",100
Sample,90400,0,"s_052.ogg",100
Sample,90500,0,"s_050.ogg",100
Sample,90600,0,"s_033.ogg",100
Sample,90600,0,"s_041.ogg",100
Sample,90700,0,"s_052.ogg",100
Sample,90800,0,"s_050.ogg",100
Sample,90800,0,"s_062.ogg",100
Sample,91000,0,"s_033.ogg",100
Sample,91200,0,"s_023.ogg",100
Sample,91200,0,"s_050.ogg",100
Sample,91400,0,"s_031.ogg",100
Sample,91600,0,"s_050.ogg",100
Sample,91600,0,"s_007.ogg",100
Sample,91800,0,"s_031.ogg",100
Sample,92000,0,"s_023.ogg",100
Sample,92000,0,"m_055.ogg",100
Sample,92200,0,"s_043.ogg",100
Sample,92400,0,"s_007.ogg",100
Sample,92600,0,"s_062.ogg",100
Sample,92600,0,"s_053.ogg",100
Sample,92800,0,"s_024.ogg",100
Sample,93000,0,"m_052.ogg",100
Sample,93000,0,"s_031.ogg",100
Sample,93200,0,"s_019.ogg",100
Sample,93400,0,"s_040.ogg",100
Sample,93400,0,"s_031.ogg",100
Sample,93500,0,"s_048.ogg",100
Sample,93600,0,"s_012.ogg",100
Sample,93600,0,"s_024.ogg",100
Sample,93700,0,"s_048.ogg",100
Sample,93800,0,"s_031.ogg",100
Sample,93800,0,"s_040.ogg",100
Sample,93900,0,"s_050.ogg",100
Sample,94000,0,"s_016.ogg",100
Sample,94000,0,"s_060.ogg",100
Sample,94200,0,"s_031.ogg",100
Sample,94400,0,"s_050.ogg",100
Sample,94800,0,"s_050.ogg",100
Sample,95400,0,"m_060.ogg",100
Sample,95800,0,"m_059.ogg",100
Sample,96200,0,"m_057.ogg",100
Sample,96600,0,"s_047.ogg",100
Sample,96700,0,"s_057.ogg",100
Sample,96800,0,"s_059.ogg",100
Sample,96900,0,"s_057.ogg",100
Sample,97000,0,"s_029.ogg",100
Sample,97000,0,"s_047.ogg",100
Sample,97100,0,"s_059.ogg",100
Sample,97200,0,"s_057.ogg",100
Sample,97400,0,"s_028.ogg",100
Sample,97600,0,"s_032.ogg",100
Sample,97600,0,"s_071.ogg",100
Sample,97600,0,"s_004.ogg",100
Sample,97600,0,"s_016.ogg",100
Sample,97600,0,"s_044.ogg",100
Sample,98300,0,"s_016.ogg",100
Sample,98300,0,"s_028.ogg",100
Sample,98400,0,"s_018.ogg",100
Sample,98400,0,"s_030.ogg",100
Sample,98800,0,"s_068.ogg",100
Sample,98800,0,"s_032.ogg",100
Sample,99200,0,"s_071.ogg",100
Sample,99200,0,"s_045.ogg",100
Sample,99200,0,"s_033.ogg",100
Sample,99250,0,"s_057.ogg",100
Sample,99400,0,"m_069.ogg",100
Sample,99800,0,"s_036.ogg",100
Sample,99900,0,"s_069.ogg",100
Sample,100000,0,"m_041.ogg",100
Sample,100000,0,"m_021.ogg",100
Sample,100000,0,"m_035.ogg",100
Sample,100100,0,"s_069.ogg",100
Sample,100200,0,"s_068.ogg",100
Sample,100266,0,"s_057.ogg",100
Sample,100333,0,"s_059.ogg",100
Sample,100400,0,"s_057.ogg",100
Sample,100400,0,"s_036.ogg",100
Sample,100800,0,"s_081.ogg",100
Sample,100800,0,"s_014.ogg",100
Sample,100800,0,"s_041.ogg",100
Sample,100800,0,"s_050.ogg",100
Sample,101200,0,"s_076.ogg",100
Sample,101200,0,"s_050.ogg",100
Sample,101200,0,"s_038.ogg",100
Sample,101200,0,"s_040.ogg",100
Sample,101600,0,"m_021.ogg",100
Sample,101600,0,"m_009.ogg",100
Sample,101600,0,"m_069.ogg",100
Sample,101600,0,"m_033.ogg",100
Sample,101600,0,"m_052.ogg",100

[TimingPoints]
0,400.000000000003,4,2,0,100,1,0

[HitObjects]
76,192,1600,5,0,0:0:0:0:s_021.ogg
384,192,1600,128,0,2100:0:0:0:0:m_040.ogg
128,192,1800,1,0,0:0:0:0:s_036.ogg
179,192,1800,1,0,0:0:0:0:s_028.ogg
25,192,2000,1,0,0:0:0:0:s_016.ogg
128,192,2200,1,0,0:0:0:0:s_033.ogg
179,192,2200,1,0,0:0:0:0:s_028.ogg
435,192,2200,1,0,0:0:0:0:s_045.ogg
76,192,2400,1,0,0:0:0:0:s_021.ogg
486,192,2400,128,0,2900:0:0:0:0:m_048.ogg
128,192,2600,1,0,0:0:0:0:s_036.ogg
179,192,2600,1,0,0:0:0:0:s_028.ogg
25,192,2800,1,0,0:0:0:0:s_016.ogg
128,192,3000,1,0,0:0:0:0:s_036.ogg
179,192,3000,1,0,0:0:0:0:s_033.ogg
435,192,3000,1,0,0:0:0:0:s_045.ogg
76,192,3200,1,0,0:0:0:0:s_021.ogg
384,192,3200,128,0,3700:0:0:0:0:m_044.ogg
179,192,3400,1,0,0:0:0:0:m_032.ogg
230,192,3400,1,0,0:0:0:0:m_038.ogg
25,192,3600,1,0,0:0:0:0:s_014.ogg
179,192,3800,1,0,0:0:0:0:s_032.ogg
230,192,3800,1,0,0:0:0:0:s_029.ogg
435,192,3800,1,0,0:0:0:0:s_045.ogg
486,192,3900,1,0,0:0:0:0:s_047.ogg
76,192,4000,1,0,0:0:0:0:s_021.ogg
435,192,4000,1,0,0:0:0:0:m_045.ogg
128,192,4200,1,0,0:0:0:0:s_036.ogg
179,192,4200,1,0,0:0:0:0:s_028.ogg
25,192,4400,1,0,0:0:0:0:s_016.ogg
128,192,4600,1,0,0:0:0:0:s_033.ogg
179,192,4600,1,0,0:0:0:0:s_036.ogg
76,192,4800,1,0,0:0:0:0:s_021.ogg
281,192,4800,128,0,5300:0:0:0:0:m_041.ogg
128,192,5000,1,0,0:0:0:0:m_029.ogg
230,192,5000,1,0,0:0:0:0:m_026.ogg
25,192,5200,1,0,0:0:0:0:s_014.ogg
128,192,5400,1,0,0:0:0:0:s_026.ogg
230,192,5400,1,0,0:0:0:0:s_029.ogg
332,192,5400,1,0,0:0:0:0:s_040.ogg
384,192,5500,1,0,0:0:0:0:s_045.ogg
76,192,5600,1,0,0:0:0:0:s_021.ogg
332,192,5600,1,0,0:0:0:0:m_036.ogg
179,192,5800,1,0,0:0:0:0:s_024.ogg
230,192,5800,1,0,0:0:0:0:s_028.ogg
25,192,6000,1,0,0:0:0:0:s_016.ogg
179,192,6200,1,0,0:0:0:0:s_024.ogg
230,192,6200,1,0,0:0:0:0:s_028.ogg
76,192,6400,1,0,0:0:0:0:s_020.ogg
435,192,6400,1,0,0:0:0:0:s_038.ogg
384,192,6500,1,0,0:0:0:0:s_036.ogg
128,192,6600,1,0,0:0:0:0:s_032.ogg
179,192,6600,1,0,0:0:0:0:s_028.ogg
384,192,6600,1,0,0:0:0:0:s_036.ogg
332,192,6700,1,0,0:0:0:0:s_035.ogg
25,192,6800,1,0,0:0:0:0:s_016.ogg
332,192,6800,1,0,0:0:0:0:m_035.ogg
128,192,7000,1,0,0:0:0:0:s_028.ogg
486,192,7100,1,0,0:0:0:0:s_040.ogg
76,192,7200,1,0,0:0:0:0:s_021.ogg
281,192,7200,1,0,0:0:0:0:m_033.ogg
179,192,7400,1,0,0:0:0:0:s_024.ogg
230,192,7400,1,0,0:0:0:0:s_028.ogg
25,192,7600,1,0,0:0:0:0:s_016.ogg
179,192,7800,1,0,0:0:0:0:s_024.ogg
230,192,7800,1,0,0:0:0:0:s_028.ogg
76,192,8000,1,0,0:0:0:0:m_052.ogg
332,192,8000,128,0,8500:0:0:0:0:s_021.ogg
128,192,8200,1,0,0:0:0:0:s_036.ogg
179,192,8200,1,0,0:0:0:0:s_028.ogg
25,192,8400,1,0,0:0:0:0:s_016.ogg
128,192,8600,1,0,0:0:0:0:s_057.ogg
179,192,8600,1,0,0:0:0:0:s_045.ogg
384,192,8600,1,0,0:0:0:0:s_028.ogg
435,192,8700,1,0,0:0:0:0:s_048.ogg
76,192,8800,1,0,0:0:0:0:s_021.ogg
486,192,8800,128,0,9300:0:0:0:0:m_052.ogg
128,192,9000,1,0,0:0:0:0:s_028.ogg
179,192,9000,1,0,0:0:0:0:s_033.ogg
25,192,9200,1,0,0:0:0:0:s_016.ogg
128,192,9400,1,0,0:0:0:0:s_060.ogg
179,192,9400,1,0,0:0:0:0:s_028.ogg
435,192,9400,1,0,0:0:0:0:s_048.ogg
76,192,9600,1,0,0:0:0:0:s_021.ogg
281,192,9600,1,0,0:0:0:0:m_047.ogg
332,192,9600,1,0,0:0:0:0:m_056.ogg
384,192,9600,1,0,0:0:0:0:m_059.ogg
179,192,9800,1,0,0:0:0:0:m_032.ogg
230,192,9800,1,0,0:0:0:0:m_029.ogg
25,192,10000,1,0,0:0:0:0:s_014.ogg
179,192,10200,1,0,0:0:0:0:s_048.ogg
230,192,10200,1,0,0:0:0:0:s_026.ogg
435,192,10200,1,0,0:0:0:0:s_032.ogg
486,192,10300,1,0,0:0:0:0:s_050.ogg
76,192,10400,1,0,0:0:0:0:s_021.ogg
281,192,10400,1,0,0:0:0:0:m_052.ogg
332,192,10400,1,0,0:0:0:0:m_045.ogg
435,192,10400,1,0,0:0:0:0:m_048.ogg
128,192,10600,1,0,0:0:0:0:s_036.ogg
179,192,10600,1,0,0:0:0:0:s_028.ogg
25,192,10800,1,0,0:0:0:0:s_009.ogg
128,192,11000,1,0,0:0:0:0:s_033.ogg
179,192,11000,1,0,0:0:0:0:s_036.ogg
76,192,11200,1,0,0:0:0:0:s_033.ogg
384,192,11200,1,0,0:0:0:0:s_053.ogg
435,192,11300,1,0,0:0:0:0:s_055.ogg
230,192,11400,1,0,0:0:0:0:s_036.ogg
486,192,11400,1,0,0:0:0:0:s_057.ogg
384,192,11500,1,0,0:0:0:0:s_053.ogg
25,192,11600,1,0,0:0:0:0:s_031.ogg
332,192,11600,1,0,0:0:0:0:s_052.ogg
384,192,11700,1,0,0:0:0:0:s_053.ogg
128,192,11800,1,0,0:0:0:0:s_040.ogg
179,192,11800,1,0,0:0:0:0:s_035.ogg
435,192,11800,1,0,0:0:0:0:s_055.ogg
332,192,11900,1,0,0:0:0:0:s_052.ogg
76,192,12000,1,0,0:0:0:0:s_029.ogg
281,192,12000,1,0,0:0:0:0:s_050.ogg
332,192,12100,1,0,0:0:0:0:s_052.ogg
179,192,12200,1,0,0:0:0:0:s_038.ogg
230,192,12200,1,0,0:0:0:0:s_033.ogg
384,192,12200,1,0,0:0:0:0:s_053.ogg
281,192,12300,1,0,0:0:0:0:s_050.ogg
25,192,12400,1,0,0:0:0:0:s_028.ogg
332,192,12400,1,0,0:0:0:0:s_048.ogg
384,192,12500,1,0,0:0:0:0:s_050.ogg
128,192,12600,1,0,0:0:0:0:s_040.ogg
179,192,12600,1,0,0:0:0:0:s_036.ogg
435,192,12600,1,0,0:0:0:0:s_052.ogg
332,192,12700,1,0,0:0:0:0:s_048.ogg
76,192,12800,1,0,0:0:0:0:s_016.ogg
486,192,12800,1,0,0:0:0:0:s_050.ogg
435,192,12900,1,0,0:0:0:0:s_048.ogg
179,192,13000,1,0,0:0:0:0:s_040.ogg
230,192,13000,1,0,0:0:0:0:s_035.ogg
435,192,13000,1,0,0:0:0:0:s_048.ogg
384,192,13100,1,0,0:0:0:0:s_047.ogg
25,192,13200,1,0,0:0:0:0:s_028.ogg
384,192,13200,1,0,0:0:0:0:m_047.ogg
128,192,13400,1,0,0:0:0:0:s_040.ogg
230,192,13400,1,0,0:0:0:0:s_035.ogg
486,192,13500,1,0,0:0:0:0:s_052.ogg
76,192,13600,1,0,0:0:0:0:s_021.ogg
128,192,13600,1,0,0:0:0:0:m_045.ogg
179,192,13600,1,0,0:0:0:0:s_033.ogg
281,192,13600,1,0,0:0:0:0:s_040.ogg
25,192,14000,1,0,0:0:0:0:s_009.ogg
332,192,14000,1,0,0:0:0:0:s_057.ogg
435,192,14000,1,0,0:0:0:0:s_048.ogg
486,192,14000,1,0,0:0:0:0:s_052.ogg
76,192,14400,1,0,0:0:0:0:s_021.ogg
384,192,14400,128,0,14900:0:0:0:0:m_040.ogg
128,192,14600,1,0,0:0:0:0:s_036.ogg
179,192,14600,1,0,0:0:0:0:s_028.ogg
25,192,14800,1,0,0:0:0:0:s_016.ogg
128,192,15000,1,0,0:0:0:0:s_033.ogg
179,192,15000,1,0,0:0:0:0:s_045.ogg
435,192,15000,1,0,0:0:0:0:s_057.ogg
76,192,15200,1,0,0:0:0:0:s_021.ogg
486,192,15200,128,0,15700:0:0:0:0:m_048.ogg
128,192,15400,1,0,0:0:0:0:s_036.ogg
179,192,15400,1,0,0:0:0:0:s_028.ogg
25,192,15600,1,0,0:0:0:0:s_016.ogg
128,192,15800,1,0,0:0:0:0:s_036.ogg
179,192,15800,1,0,0:0:0:0:s_033.ogg
435,192,15800,1,0,0:0:0:0:s_057.ogg
76,192,16000,1,0,0:0:0:0:s_021.ogg
384,192,16000,128,0,16500:0:0:0:0:m_044.ogg
179,192,16200,1,0,0:0:0:0:m_032.ogg
230,192,16200,1,0,0:0:0:0:m_029.ogg
25,192,16400,1,0,0:0:0:0:s_014.ogg
179,192,16600,1,0,0:0:0:0:s_038.ogg
230,192,16600,1,0,0:0:0:0:s_026.ogg
435,192,16600,1,0,0:0:0:0:s_045.ogg
486,192,16700,1,0,0:0:0:0:s_047.ogg
76,192,16800,1,0,0:0:0:0:s_021.ogg
435,192,16800,1,0,0:0:0:0:m_045.ogg
128,192,17000,1,0,0:0:0:0:s_036.ogg
179,192,17000,1,0,0:0:0:0:s_028.ogg
25,192,17200,1,0,0:0:0:0:s_016.ogg
128,192,17400,1,0,0:0:0:0:s_033.ogg
179,192,17400,1,0,0:0:0:0:s_036.ogg
76,192,17600,1,0,0:0:0:0:s_021.ogg
281,192,17600,128,0,18100:0:0:0:0:m_053.ogg
179,192,17800,1,0,0:0:0:0:m_032.ogg
230,192,17800,1,0,0:0:0:0:m_029.ogg
25,192,18000,1,0,0:0:0:0:s_014.ogg
179,192,18200,1,0,0:0:0:0:s_038.ogg
230,192,18200,1,0,0:0:0:0:s_026.ogg
332,192,18200,1,0,0:0:0:0:s_055.ogg
384,192,18300,1,0,0:0:0:0:s_057.ogg
76,192,18400,1,0,0:0:0:0:s_021.ogg
332,192,18400,1,0,0:0:0:0:m_048.ogg
128,192,18600,1,0,0:0:0:0:s_036.ogg
179,192,18600,1,0,0:0:0:0:s_028.ogg
25,192,18800,1,0,0:0:0:0:s_016.ogg
128,192,19000,1,0,0:0:0:0:s_033.ogg
179,192,19000,1,0,0:0:0:0:s_036.ogg
76,192,19200,1,0,0:0:0:0:s_020.ogg
435,192,19200,1,0,0:0:0:0:s_050.ogg
384,192,19300,1,0,0:0:0:0:s_048.ogg
179,192,19400,1,0,0:0:0:0:s_028.ogg
230,192,19400,1,0,0:0:0:0:s_040.ogg
384,192,19400,1,0,0:0:0:0:s_048.ogg
332,192,19500,1,0,0:0:0:0:s_047.ogg
25,192,19600,1,0,0:0:0:0:s_016.ogg
332,192,19600,1,0,0:0:0:0:m_047.ogg
128,192,19800,1,0,0:0:0:0:s_032.ogg
230,192,19800,1,0,0:0:0:0:s_028.ogg
486,192,19900,1,0,0:0:0:0:s_052.ogg
76,192,20000,1,0,0:0:0:0:s_021.ogg
281,192,20000,1,0,0:0:0:0:m_045.ogg
128,192,20200,1,0,0:0:0:0:s_036.ogg
179,192,20200,1,0,0:0:0:0:s_028.ogg
25,192,20400,1,0,0:0:0:0:s_016.ogg
128,192,20600,1,0,0:0:0:0:s_028.ogg
179,192,20600,1,0,0:0:0:0:s_033.ogg
76,192,20800,1,0,0:0:0:0:s_021.ogg
332,192,20800,1,0,0:0:0:0:m_040.ogg
128,192,21000,1,0,0:0:0:0:s_028.ogg
179,192,21000,1,0,0:0:0:0:s_036.ogg
384,192,21100,1,0,0:0:0:0:s_057.ogg
25,192,21200,1,0,0:0:0:0:s_016.ogg
281,192,21200,1,0,0:0:0:0:s_060.ogg
332,192,21300,1,0,0:0:0:0:s_064.ogg
128,192,21400,1,0,0:0:0:0:s_040.ogg
230,192,21400,1,0,0:0:0:0:s_036.ogg
384,192,21400,1,0,0:0:0:0:s_057.ogg
435,192,21500,1,0,0:0:0:0:s_060.ogg
76,192,21600,1,0,0:0:0:0:s_021.ogg
486,192,21600,1,0,0:0:0:0:m_076.ogg
179,192,21800,1,0,0:0:0:0:s_048.ogg
230,192,21800,1,0,0:0:0:0:s_036.ogg
25,192,22000,1,0,0:0:0:0:s_016.ogg
128,192,22200,1,0,0:0:0:0:s_040.ogg
230,192,22200,1,0,0:0:0:0:s_060.ogg
435,192,22200,1,0,0:0:0:0:s_045.ogg
76,192,22400,1,0,0:0:0:0:s_021.ogg
281,192,22400,1,0,0:0:0:0:m_056.ogg
332,192,22400,1,0,0:0:0:0:m_065.ogg
384,192,22400,1,0,0:0:0:0:m_068.ogg
128,192,22600,1,0,0:0:0:0:m_038.ogg
179,192,22600,1,0,0:0:0:0:m_041.ogg
25,192,22800,1,0,0:0:0:0:s_014.ogg
128,192,23000,1,0,0:0:0:0:s_038.ogg
179,192,23000,1,0,0:0:0:0:s_041.ogg
435,192,23000,1,0,0:0:0:0:s_060.ogg
486,192,23100,1,0,0:0:0:0:s_062.ogg
76,192,23200,1,0,0:0:0:0:m_069.ogg
281,192,23200,1,0,0:0:0:0:s_021.ogg
332,192,23200,1,0,0:0:0:0:s_033.ogg
435,192,23200,1,0,0:0:0:0:m_072.ogg
179,192,23400,1,0,0:0:0:0:s_036.ogg
230,192,23400,1,0,0:0:0:0:s_040.ogg
25,192,23600,1,0,0:0:0:0:s_021.ogg
179,192,23800,1,0,0:0:0:0:s_040.ogg
230,192,23800,1,0,0:0:0:0:s_045.ogg
76,192,24000,1,0,0:0:0:0:s_033.ogg
384,192,24000,1,0,0:0:0:0:s_077.ogg
435,192,24100,1,0,0:0:0:0:s_079.ogg
128,192,24200,1,0,0:0:0:0:s_041.ogg
179,192,24200,1,0,0:0:0:0:s_036.ogg
486,192,24200,1,0,0:0:0:0:s_081.ogg
384,192,24300,1,0,0:0:0:0:s_077.ogg
25,192,24400,1,0,0:0:0:0:s_064.ogg
332,192,24400,1,0,0:0:0:0:s_076.ogg
384,192,24500,1,0,0:0:0:0:s_077.ogg
128,192,24600,1,0,0:0:0:0:s_036.ogg
230,192,24600,1,0,0:0:0:0:s_040.ogg
435,192,24600,1,0,0:0:0:0:s_079.ogg
332,192,24700,1,0,0:0:0:0:s_076.ogg
76,192,24800,1,0,0:0:0:0:s_029.ogg
281,192,24800,1,0,0:0:0:0:s_074.ogg
332,192,24900,1,0,0:0:0:0:s_076.ogg
179,192,25000,1,0,0:0:0:0:s_033.ogg
230,192,25000,1,0,0:0:0:0:s_065.ogg
384,192,25000,1,0,0:0:0:0:s_077.ogg
281,192,25100,1,0,0:0:0:0:s_074.ogg
25,192,25200,1,0,0:0:0:0:s_060.ogg
332,192,25200,1,0,0:0:0:0:s_072.ogg
384,192,25300,1,0,0:0:0:0:s_074.ogg
128,192,25400,1,0,0:0:0:0:s_040.ogg
230,192,25400,1,0,0:0:0:0:s_064.ogg
435,192,25400,1,0,0:0:0:0:s_076.ogg
332,192,25500,1,0,0:0:0:0:s_072.ogg
76,192,25600,1,0,0:0:0:0:s_062.ogg
486,192,25600,1,0,0:0:0:0:s_074.ogg
435,192,25700,1,0,0:0:0:0:s_072.ogg
179,192,25800,1,0,0:0:0:0:s_040.ogg
230,192,25800,1,0,0:0:0:0:s_044.ogg
435,192,25800,1,0,0:0:0:0:s_072.ogg
384,192,25900,1,0,0:0:0:0:s_071.ogg
25,192,26000,1,0,0:0:0:0:s_028.ogg
384,192,26000,1,0,0:0:0:0:s_059.ogg
128,192,26200,1,0,0:0:0:0:s_044.ogg
230,192,26200,1,0,0:0:0:0:s_040.ogg
486,192,26300,1,0,0:0:0:0:s_076.ogg
76,192,26400,1,0,0:0:0:0:s_021.ogg
281,192,26400,1,0,0:0:0:0:m_069.ogg
128,192,26600,1,0,0:0:0:0:m_040.ogg
179,192,26600,1,0,0:0:0:0:m_036.ogg
25,192,26800,1,0,0:0:0:0:s_021.ogg
332,192,26800,1,0,0:0:0:0:s_072.ogg
384,192,26850,1,0,0:0:0:0:s_076.ogg
435,192,26900,1,0,0:0:0:0:s_064.ogg
486,192,26950,1,0,0:0:0:0:s_069.ogg
76,192,27200,1,0,0:0:0:0:s_025.ogg
332,192,27200,1,0,0:0:0:0:s_064.ogg
435,192,27200,1,0,0:0:0:0:s_052.ogg
128,192,27400,1,0,0:0:0:0:s_043.ogg
179,192,27400,1,0,0:0:0:0:s_033.ogg
25,192,27600,1,0,0:0:0:0:s_021.ogg
332,192,27600,1,0,0:0:0:0:s_064.ogg
435,192,27600,1,0,0:0:0:0:s_052.ogg
128,192,27800,1,0,0:0:0:0:s_033.ogg
179,192,27800,1,0,0:0:0:0:s_043.ogg
76,192,28000,1,0,0:0:0:0:m_065.ogg
486,192,28000,128,0,28500:0:0:0:0:m_053.ogg
384,192,28000,128,0,28500:0:0:0:0:m_057.ogg
179,192,28200,1,0,0:0:0:0:s_045.ogg
230,192,28200,1,0,0:0:0:0:s_033.ogg
25,192,28400,1,0,0:0:0:0:s_009.ogg
128,192,28600,1,0,0:0:0:0:s_040.ogg
179,192,28600,1,0,0:0:0:0:s_033.ogg
332,192,28600,1,0,0:0:0:0:s_043.ogg
435,192,28600,1,0,0:0:0:0:s_052.ogg
76,192,28800,1,0,0:0:0:0:s_026.ogg
128,192,29000,1,0,0:0:0:0:s_038.ogg
230,192,29000,1,0,0:0:0:0:s_041.ogg
281,192,29000,1,0,0:0:0:0:m_062.ogg
384,192,29000,1,0,0:0:0:0:m_050.ogg
25,192,29200,1,0,0:0:0:0:s_021.ogg
128,192,29400,1,0,0:0:0:0:s_038.ogg
230,192,29400,1,0,0:0:0:0:s_049.ogg
332,192,29400,1,0,0:0:0:0:s_061.ogg
384,192,29500,1,0,0:0:0:0:s_062.ogg
76,192,29600,1,0,0:0:0:0:s_052.ogg
435,192,29600,1,0,0:0:0:0:s_064.ogg
384,192,29700,1,0,0:0:0:0:s_050.ogg
128,192,29800,1,0,0:0:0:0:s_038.ogg
230,192,29800,1,0,0:0:0:0:s_049.ogg
332,192,29800,1,0,0:0:0:0:s_061.ogg
435,192,29900,1,0,0:0:0:0:s_052.ogg
25,192,30000,1,0,0:0:0:0:s_050.ogg
384,192,30000,1,0,0:0:0:0:s_062.ogg
128,192,30200,1,0,0:0:0:0:s_038.ogg
230,192,30200,1,0,0:0:0:0:s_041.ogg
76,192,30400,1,0,0:0:0:0:s_062.ogg
179,192,30400,1,0,0:0:0:0:s_011.ogg
332,192,30400,1,0,0:0:0:0:s_023.ogg
384,192,30600,1,0,0:0:0:0:s_041.ogg
435,192,30600,1,0,0:0:0:0:s_031.ogg
76,192,30800,1,0,0:0:0:0:s_062.ogg
179,192,30800,1,0,0:0:0:0:s_019.ogg
281,192,30800,1,0,0:0:0:0:s_053.ogg
384,192,31000,1,0,0:0:0:0:s_041.ogg
435,192,31000,1,0,0:0:0:0:s_038.ogg
332,192,31200,1,0,0:0:0:0:s_023.ogg
230,192,31200,128,0,31700:0:0:0:0:m_052.ogg
128,192,31200,128,0,31700:0:0:0:0:m_064.ogg
435,192,31400,1,0,0:0:0:0:s_031.ogg
486,192,31400,1,0,0:0:0:0:s_040.ogg
281,192,31600,1,0,0:0:0:0:s_007.ogg
76,192,31800,1,0,0:0:0:0:s_038.ogg
179,192,31800,1,0,0:0:0:0:s_050.ogg
384,192,31800,1,0,0:0:0:0:s_041.ogg
435,192,31800,1,0,0:0:0:0:s_062.ogg
332,192,32000,1,0,0:0:0:0:s_024.ogg
25,192,32200,1,0,0:0:0:0:m_060.ogg
128,192,32200,1,0,0:0:0:0:m_048.ogg
384,192,32200,1,0,0:0:0:0:s_040.ogg
486,192,32200,1,0,0:0:0:0:s_031.ogg
281,192,32400,1,0,0:0:0:0:s_019.ogg
76,192,32600,1,0,0:0:0:0:s_059.ogg
384,192,32600,1,0,0:0:0:0:s_036.ogg
486,192,32600,1,0,0:0:0:0:s_047.ogg
128,192,32700,1,0,0:0:0:0:s_060.ogg
179,192,32800,1,0,0:0:0:0:s_062.ogg
332,192,32800,1,0,0:0:0:0:s_024.ogg
128,192,32900,1,0,0:0:0:0:s_060.ogg
76,192,33000,1,0,0:0:0:0:s_059.ogg
384,192,33000,1,0,0:0:0:0:s_036.ogg
486,192,33000,1,0,0:0:0:0:s_047.ogg
179,192,33100,1,0,0:0:0:0:s_062.ogg
128,192,33200,1,0,0:0:0:0:s_060.ogg
281,192,33200,1,0,0:0:0:0:s_048.ogg
384,192,33400,1,0,0:0:0:0:s_036.ogg
486,192,33400,1,0,0:0:0:0:s_040.ogg
76,192,33600,1,0,0:0:0:0:s_050.ogg
435,192,33600,1,0,0:0:0:0:s_020.ogg
128,192,33800,1,0,0:0:0:0:s_028.ogg
179,192,33800,1,0,0:0:0:0:s_038.ogg
25,192,34000,1,0,0:0:0:0:s_050.ogg
435,192,34000,1,0,0:0:0:0:s_016.ogg
128,192,34200,1,0,0:0:0:0:s_028.ogg
179,192,34200,1,0,0:0:0:0:s_038.ogg
76,192,34400,1,0,0:0:0:0:s_020.ogg
486,192,34400,1,0,0:0:0:0:s_053.ogg
179,192,34600,1,0,0:0:0:0:s_028.ogg
230,192,34600,1,0,0:0:0:0:s_040.ogg
435,192,34600,1,0,0:0:0:0:m_052.ogg
25,192,34800,1,0,0:0:0:0:s_016.ogg
128,192,35000,1,0,0:0:0:0:m_050.ogg
179,192,35000,1,0,0:0:0:0:s_038.ogg
384,192,35000,1,0,0:0:0:0:s_028.ogg
76,192,35200,1,0,0:0:0:0:s_017.ogg
128,192,35400,1,0,0:0:0:0:m_048.ogg
230,192,35400,1,0,0:0:0:0:s_029.ogg
281,192,35400,1,0,0:0:0:0:s_036.ogg
25,192,35600,1,0,0:0:0:0:s_012.ogg
179,192,35800,1,0,0:0:0:0:s_029.ogg
230,192,35800,1,0,0:0:0:0:s_047.ogg
332,192,35800,1,0,0:0:0:0:s_035.ogg
384,192,35900,1,0,0:0:0:0:s_048.ogg
76,192,36000,1,0,0:0:0:0:s_017.ogg
435,192,36000,1,0,0:0:0:0:s_050.ogg
384,192,36100,1,0,0:0:0:0:s_048.ogg
128,192,36200,1,0,0:0:0:0:s_047.ogg
230,192,36200,1,0,0:0:0:0:s_038.ogg
332,192,36200,1,0,0:0:0:0:s_032.ogg
435,192,36300,1,0,0:0:0:0:s_050.ogg
25,192,36400,1,0,0:0:0:0:s_012.ogg
384,192,36400,1,0,0:0:0:0:s_057.ogg
128,192,36600,1,0,0:0:0:0:s_036.ogg
179,192,36600,1,0,0:0:0:0:s_028.ogg
25,192,36800,1,0,0:0:0:0:s_040.ogg
76,192,36800,1,0,0:0:0:0:s_068.ogg
179,192,36800,1,0,0:0:0:0:s_032.ogg
230,192,36800,1,0,0:0:0:0:s_052.ogg
332,192,36800,1,0,0:0:0:0:s_016.ogg
384,192,36850,1,0,0:0:0:0:s_056.ogg
435,192,36900,1,0,0:0:0:0:s_059.ogg
486,192,36950,1,0,0:0:0:0:s_064.ogg
25,192,37500,1,0,0:0:0:0:s_064.ogg
128,192,37500,1,0,0:0:0:0:s_040.ogg
281,192,37500,1,0,0:0:0:0:s_052.ogg
76,192,37600,1,0,0:0:0:0:s_066.ogg
179,192,37600,1,0,0:0:0:0:s_042.ogg
332,192,37600,1,0,0:0:0:0:s_054.ogg
128,192,38000,1,0,0:0:0:0:s_044.ogg
230,192,38000,1,0,0:0:0:0:s_020.ogg
384,192,38000,1,0,0:0:0:0:s_032.ogg
25,192,38400,1,0,0:0:0:0:s_021.ogg
76,192,38400,1,0,0:0:0:0:s_036.ogg
179,192,38400,1,0,0:0:0:0:s_009.ogg
230,192,38400,1,0,0:0:0:0:s_045.ogg
486,192,38400,1,0,0:0:0:0:s_071.ogg
435,192,38450,1,0,0:0:0:0:s_069.ogg
25,192,38600,1,0,0:0:0:0:m_040.ogg
76,192,38600,1,0,0:0:0:0:m_057.ogg
179,192,38600,1,0,0:0:0:0:m_033.ogg
230,192,38600,1,0,0:0:0:0:m_036.ogg
435,192,38600,1,0,0:0:0:0:m_045.ogg
76,192,39000,1,0,0:0:0:0:s_036.ogg
128,192,39000,1,0,0:0:0:0:s_068.ogg
332,192,39000,1,0,0:0:0:0:s_040.ogg
384,192,39100,1,0,0:0:0:0:s_057.ogg
25,192,39200,1,0,0:0:0:0:m_038.ogg
76,192,39200,1,0,0:0:0:0:m_021.ogg
128,192,39200,1,0,0:0:0:0:s_071.ogg
179,192,39200,1,0,0:0:0:0:m_009.ogg
435,192,39200,1,0,0:0:0:0:s_059.ogg
384,192,39300,1,0,0:0:0:0:s_069.ogg
332,192,39400,1,0,0:0:0:0:s_056.ogg
384,192,39466,1,0,0:0:0:0:s_069.ogg
435,192,39533,1,0,0:0:0:0:s_071.ogg
128,192,39600,1,0,0:0:0:0:s_045.ogg
179,192,39600,1,0,0:0:0:0:s_057.ogg
230,192,39600,1,0,0:0:0:0:s_069.ogg
384,192,39600,1,0,0:0:0:0:s_036.ogg
76,192,40000,1,0,0:0:0:0:s_013.ogg
332,192,40000,1,0,0:0:0:0:s_064.ogg
435,192,40000,1,0,0:0:0:0:s_052.ogg
128,192,40200,1,0,0:0:0:0:s_040.ogg
179,192,40200,1,0,0:0:0:0:s_033.ogg
25,192,40400,1,0,0:0:0:0:s_021.ogg
332,192,40400,1,0,0:0:0:0:s_064.ogg
435,192,40400,1,0,0:0:0:0:s_052.ogg
128,192,40600,1,0,0:0:0:0:s_040.ogg
179,192,40600,1,0,0:0:0:0:s_043.ogg
76,192,40800,1,0,0:0:0:0:m_057.ogg
486,192,40800,128,0,41300:0:0:0:0:m_053.ogg
384,192,40800,128,0,41300:0:0:0:0:m_065.ogg
179,192,41000,1,0,0:0:0:0:s_041.ogg
230,192,41000,1,0,0:0:0:0:s_045.ogg
25,192,41200,1,0,0:0:0:0:s_009.ogg
128,192,41400,1,0,0:0:0:0:s_040.ogg
179,192,41400,1,0,0:0:0:0:s_033.ogg
332,192,41400,1,0,0:0:0:0:s_043.ogg
435,192,41400,1,0,0:0:0:0:s_052.ogg
76,192,41600,1,0,0:0:0:0:s_026.ogg
128,192,41800,1,0,0:0:0:0:s_038.ogg
230,192,41800,1,0,0:0:0:0:s_041.ogg
281,192,41800,1,0,0:0:0:0:m_062.ogg
384,192,41800,1,0,0:0:0:0:m_050.ogg
25,192,42000,1,0,0:0:0:0:s_021.ogg
128,192,42200,1,0,0:0:0:0:s_038.ogg
230,192,42200,1,0,0:0:0:0:s_049.ogg
332,192,42200,1,0,0:0:0:0:s_061.ogg
384,192,42300,1,0,0:0:0:0:s_062.ogg
76,192,42400,1,0,0:0:0:0:s_052.ogg
435,192,42400,1,0,0:0:0:0:s_064.ogg
384,192,42500,1,0,0:0:0:0:s_062.ogg
128,192,42600,1,0,0:0:0:0:s_038.ogg
230,192,42600,1,0,0:0:0:0:s_049.ogg
332,192,42600,1,0,0:0:0:0:s_061.ogg
435,192,42700,1,0,0:0:0:0:s_052.ogg
25,192,42800,1,0,0:0:0:0:s_050.ogg
384,192,42800,1,0,0:0:0:0:s_012.ogg
128,192,43000,1,0,0:0:0:0:s_038.ogg
230,192,43000,1,0,0:0:0:0:s_041.ogg
76,192,43200,1,0,0:0:0:0:s_062.ogg
179,192,43200,1,0,0:0:0:0:s_011.ogg
332,192,43200,1,0,0:0:0:0:s_050.ogg
384,192,43400,1,0,0:0:0:0:s_038.ogg
435,192,43400,1,0,0:0:0:0:s_041.ogg
76,192,43600,1,0,0:0:0:0:s_062.ogg
179,192,43600,1,0,0:0:0:0:s_019.ogg
281,192,43600,1,0,0:0:0:0:s_053.ogg
384,192,43800,1,0,0:0:0:0:s_038.ogg
435,192,43800,1,0,0:0:0:0:s_041.ogg
332,192,44000,1,0,0:0:0:0:s_011.ogg
230,192,44000,128,0,44500:0:0:0:0:m_052.ogg
128,192,44000,128,0,44500:0:0:0:0:m_064.ogg
435,192,44200,1,0,0:0:0:0:s_031.ogg
486,192,44200,1,0,0:0:0:0:s_040.ogg
281,192,44400,1,0,0:0:0:0:s_019.ogg
76,192,44600,1,0,0:0:0:0:s_038.ogg
179,192,44600,1,0,0:0:0:0:s_050.ogg
384,192,44600,1,0,0:0:0:0:s_041.ogg
435,192,44600,1,0,0:0:0:0:s_031.ogg
332,192,44800,1,0,0:0:0:0:s_012.ogg
25,192,45000,1,0,0:0:0:0:m_060.ogg
128,192,45000,1,0,0:0:0:0:m_048.ogg
384,192,45000,1,0,0:0:0:0:s_036.ogg
486,192,45000,1,0,0:0:0:0:s_040.ogg
281,192,45200,1,0,0:0:0:0:s_007.ogg
76,192,45400,1,0,0:0:0:0:s_059.ogg
384,192,45400,1,0,0:0:0:0:s_036.ogg
486,192,45400,1,0,0:0:0:0:s_047.ogg
128,192,45500,1,0,0:0:0:0:s_060.ogg
179,192,45600,1,0,0:0:0:0:s_062.ogg
332,192,45600,1,0,0:0:0:0:s_050.ogg
128,192,45700,1,0,0:0:0:0:s_060.ogg
76,192,45800,1,0,0:0:0:0:s_059.ogg
384,192,45800,1,0,0:0:0:0:s_036.ogg
486,192,45800,1,0,0:0:0:0:s_047.ogg
179,192,45900,1,0,0:0:0:0:s_062.ogg
128,192,46000,1,0,0:0:0:0:s_060.ogg
281,192,46000,1,0,0:0:0:0:s_048.ogg
384,192,46200,1,0,0:0:0:0:s_031.ogg
486,192,46200,1,0,0:0:0:0:s_036.ogg
76,192,46400,1,0,0:0:0:0:s_050.ogg
435,192,46400,1,0,0:0:0:0:s_059.ogg
128,192,46600,1,0,0:0:0:0:s_028.ogg
179,192,46600,1,0,0:0:0:0:s_038.ogg
25,192,46800,1,0,0:0:0:0:s_050.ogg
435,192,46800,1,0,0:0:0:0:s_059.ogg
128,192,47000,1,0,0:0:0:0:s_038.ogg
179,192,47000,1,0,0:0:0:0:s_028.ogg
76,192,47200,1,0,0:0:0:0:s_053.ogg
486,192,47200,1,0,0:0:0:0:s_020.ogg
179,192,47400,1,0,0:0:0:0:s_040.ogg
230,192,47400,1,0,0:0:0:0:m_060.ogg
435,192,47400,1,0,0:0:0:0:m_052.ogg
25,192,47600,1,0,0:0:0:0:s_016.ogg
128,192,47800,1,0,0:0:0:0:s_028.ogg
179,192,47800,1,0,0:0:0:0:m_050.ogg
384,192,47800,1,0,0:0:0:0:m_059.ogg
76,192,48000,1,0,0:0:0:0:s_017.ogg
128,192,48200,1,0,0:0:0:0:s_029.ogg
230,192,48200,1,0,0:0:0:0:m_048.ogg
281,192,48200,1,0,0:0:0:0:m_057.ogg
25,192,48400,1,0,0:0:0:0:s_012.ogg
179,192,48600,1,0,0:0:0:0:s_029.ogg
230,192,48600,1,0,0:0:0:0:s_047.ogg
332,192,48600,1,0,0:0:0:0:s_035.ogg
384,192,48700,1,0,0:0:0:0:s_048.ogg
76,192,48800,1,0,0:0:0:0:s_017.ogg
435,192,48800,1,0,0:0:0:0:s_050.ogg
384,192,48900,1,0,0:0:0:0:s_048.ogg
128,192,49000,1,0,0:0:0:0:s_038.ogg
230,192,49000,1,0,0:0:0:0:s_047.ogg
332,192,49000,1,0,0:0:0:0:s_032.ogg
435,192,49100,1,0,0:0:0:0:s_050.ogg
25,192,49200,1,0,0:0:0:0:s_012.ogg
384,192,49200,1,0,0:0:0:0:s_057.ogg
128,192,49400,1,0,0:0:0:0:s_033.ogg
179,192,49400,1,0,0:0:0:0:s_036.ogg
25,192,49600,1,0,0:0:0:0:s_035.ogg
76,192,49600,1,0,0:0:0:0:s_076.ogg
179,192,49600,1,0,0:0:0:0:s_068.ogg
230,192,49600,1,0,0:0:0:0:s_044.ogg
332,192,49600,1,0,0:0:0:0:s_016.ogg
384,192,49650,1,0,0:0:0:0:s_056.ogg
435,192,49700,1,0,0:0:0:0:s_059.ogg
486,192,49750,1,0,0:0:0:0:s_064.ogg
25,192,50300,1,0,0:0:0:0:s_040.ogg
281,192,50300,1,0,0:0:0:0:s_064.ogg
384,192,50300,1,0,0:0:0:0:s_028.ogg
76,192,50400,1,0,0:0:0:0:s_042.ogg
332,192,50400,1,0,0:0:0:0:s_030.ogg
435,192,50400,1,0,0:0:0:0:s_018.ogg
128,192,50800,1,0,0:0:0:0:s_032.ogg
384,192,50800,1,0,0:0:0:0:s_044.ogg
486,192,50800,1,0,0:0:0:0:s_020.ogg
230,192,51200,1,0,0:0:0:0:s_059.ogg
281,192,51200,1,0,0:0:0:0:s_036.ogg
332,192,51200,1,0,0:0:0:0:s_009.ogg
435,192,51200,1,0,0:0:0:0:s_045.ogg
486,192,51200,1,0,0:0:0:0:s_033.ogg
179,192,51250,1,0,0:0:0:0:s_069.ogg
179,192,51400,1,0,0:0:0:0:m_045.ogg
281,192,51400,1,0,0:0:0:0:m_040.ogg
332,192,51400,1,0,0:0:0:0:m_057.ogg
435,192,51400,1,0,0:0:0:0:m_033.ogg
486,192,51400,1,0,0:0:0:0:m_036.ogg
76,192,51800,1,0,0:0:0:0:s_068.ogg
332,192,51800,1,0,0:0:0:0:s_036.ogg
384,192,51800,1,0,0:0:0:0:s_056.ogg
128,192,51900,1,0,0:0:0:0:s_069.ogg
179,192,52000,1,0,0:0:0:0:s_071.ogg
281,192,52000,1,0,0:0:0:0:m_041.ogg
332,192,52000,1,0,0:0:0:0:s_059.ogg
384,192,52000,1,0,0:0:0:0:m_044.ogg
435,192,52000,1,0,0:0:0:0:m_038.ogg
128,192,52100,1,0,0:0:0:0:s_069.ogg
76,192,52200,1,0,0:0:0:0:s_068.ogg
128,192,52266,1,0,0:0:0:0:s_057.ogg
179,192,52333,1,0,0:0:0:0:s_059.ogg
128,192,52400,1,0,0:0:0:0:s_036.ogg
384,192,52400,1,0,0:0:0:0:s_021.ogg
435,192,52400,1,0,0:0:0:0:s_069.ogg
486,192,52400,1,0,0:0:0:0:s_045.ogg
435,192,52800,1,0,0:0:0:0:s_057.ogg
486,192,52800,1,0,0:0:0:0:s_009.ogg
128,192,53000,1,0,0:0:0:0:s_049.ogg
230,192,53000,1,0,0:0:0:0:s_040.ogg
384,192,53000,1,0,0:0:0:0:s_028.ogg
486,192,53000,1,0,0:0:0:0:s_033.ogg
128,192,53200,1,0,0:0:0:0:s_052.ogg
230,192,53200,1,0,0:0:0:0:s_040.ogg
384,192,53200,1,0,0:0:0:0:s_009.ogg
486,192,53200,1,0,0:0:0:0:s_037.ogg
128,192,53400,1,0,0:0:0:0:s_049.ogg
230,192,53400,1,0,0:0:0:0:s_040.ogg
384,192,53400,1,0,0:0:0:0:s_033.ogg
486,192,53400,1,0,0:0:0:0:s_028.ogg
128,192,53600,1,0,0:0:0:0:s_049.ogg
230,192,53600,1,0,0:0:0:0:s_040.ogg
384,192,53600,1,0,0:0:0:0:s_009.ogg
486,192,53600,1,0,0:0:0:0:s_037.ogg
76,192,53800,1,0,0:0:0:0:s_028.ogg
179,192,53800,1,0,0:0:0:0:s_016.ogg
332,192,53800,1,0,0:0:0:0:s_047.ogg
435,192,53800,1,0,0:0:0:0:s_035.ogg
25,192,54000,1,0,0:0:0:0:s_037.ogg
128,192,54000,1,0,0:0:0:0:s_009.ogg
281,192,54000,1,0,0:0:0:0:s_033.ogg
384,192,54000,1,0,0:0:0:0:s_045.ogg
76,192,54200,1,0,0:0:0:0:s_047.ogg
179,192,54200,1,0,0:0:0:0:s_038.ogg
332,192,54200,1,0,0:0:0:0:s_033.ogg
435,192,54200,1,0,0:0:0:0:s_028.ogg
384,192,54400,1,0,0:0:0:0:m_049.ogg
486,192,54400,1,0,0:0:0:0:m_052.ogg
25,192,54600,1,0,0:0:0:0:s_033.ogg
76,192,54650,1,0,0:0:0:0:s_037.ogg
128,192,54700,1,0,0:0:0:0:s_040.ogg
179,192,54750,1,0,0:0:0:0:s_045.ogg
384,192,54800,1,0,0:0:0:0:m_052.ogg
486,192,54800,1,0,0:0:0:0:m_049.ogg
25,192,55000,1,0,0:0:0:0:s_033.ogg
76,192,55050,1,0,0:0:0:0:s_037.ogg
128,192,55100,1,0,0:0:0:0:s_040.ogg
179,192,55150,1,0,0:0:0:0:s_045.ogg
435,192,55200,1,0,0:0:0:0:s_057.ogg
486,192,55200,1,0,0:0:0:0:s_049.ogg
128,192,55400,1,0,0:0:0:0:s_049.ogg
230,192,55400,1,0,0:0:0:0:s_037.ogg
384,192,55400,1,0,0:0:0:0:s_028.ogg
486,192,55400,1,0,0:0:0:0:s_033.ogg
128,192,55600,1,0,0:0:0:0:s_052.ogg
230,192,55600,1,0,0:0:0:0:s_040.ogg
384,192,55600,1,0,0:0:0:0:s_009.ogg
486,192,55600,1,0,0:0:0:0:s_037.ogg
128,192,55800,1,0,0:0:0:0:s_049.ogg
230,192,55800,1,0,0:0:0:0:s_037.ogg
384,192,55800,1,0,0:0:0:0:s_033.ogg
486,192,55800,1,0,0:0:0:0:s_028.ogg
128,192,56000,1,0,0:0:0:0:s_049.ogg
230,192,56000,1,0,0:0:0:0:s_037.ogg
384,192,56000,1,0,0:0:0:0:s_009.ogg
486,192,56000,1,0,0:0:0:0:s_040.ogg
76,192,56200,1,0,0:0:0:0:s_050.ogg
179,192,56200,1,0,0:0:0:0:s_028.ogg
332,192,56200,1,0,0:0:0:0:s_035.ogg
435,192,56200,1,0,0:0:0:0:s_016.ogg
25,192,56400,1,0,0:0:0:0:s_049.ogg
128,192,56400,1,0,0:0:0:0:s_037.ogg
281,192,56400,1,0,0:0:0:0:s_009.ogg
384,192,56400,1,0,0:0:0:0:s_033.ogg
25,192,56600,1,0,0:0:0:0:s_044.ogg
76,192,56600,1,0,0:0:0:0:s_028.ogg
281,192,56600,1,0,0:0:0:0:s_035.ogg
332,192,56600,1,0,0:0:0:0:s_016.ogg
281,192,56800,1,0,0:0:0:0:m_045.ogg
25,192,57000,1,0,0:0:0:0:s_033.ogg
76,192,57050,1,0,0:0:0:0:s_037.ogg
128,192,57100,1,0,0:0:0:0:s_040.ogg
281,192,57200,1,0,0:0:0:0:m_045.ogg
25,192,57400,1,0,0:0:0:0:s_033.ogg
76,192,57450,1,0,0:0:0:0:s_037.ogg
128,192,57500,1,0,0:0:0:0:s_040.ogg
179,192,57600,1,0,0:0:0:0:s_009.ogg
230,192,57600,1,0,0:0:0:0:s_069.ogg
128,192,57800,1,0,0:0:0:0:s_028.ogg
230,192,57800,1,0,0:0:0:0:s_040.ogg
384,192,57800,1,0,0:0:0:0:s_064.ogg
486,192,57800,1,0,0:0:0:0:s_052.ogg
128,192,58000,1,0,0:0:0:0:s_009.ogg
230,192,58000,1,0,0:0:0:0:s_049.ogg
384,192,58000,1,0,0:0:0:0:s_064.ogg
486,192,58000,1,0,0:0:0:0:s_052.ogg
128,192,58200,1,0,0:0:0:0:s_040.ogg
230,192,58200,1,0,0:0:0:0:s_028.ogg
384,192,58200,1,0,0:0:0:0:s_061.ogg
486,192,58200,1,0,0:0:0:0:s_052.ogg
128,192,58400,1,0,0:0:0:0:s_009.ogg
230,192,58400,1,0,0:0:0:0:s_049.ogg
384,192,58400,1,0,0:0:0:0:s_061.ogg
486,192,58400,1,0,0:0:0:0:s_052.ogg
76,192,58600,1,0,0:0:0:0:s_062.ogg
179,192,58600,1,0,0:0:0:0:s_050.ogg
332,192,58600,1,0,0:0:0:0:s_040.ogg
435,192,58600,1,0,0:0:0:0:s_028.ogg
25,192,58800,1,0,0:0:0:0:s_061.ogg
128,192,58800,1,0,0:0:0:0:s_009.ogg
281,192,58800,1,0,0:0:0:0:s_045.ogg
384,192,58800,1,0,0:0:0:0:s_049.ogg
76,192,59000,1,0,0:0:0:0:s_059.ogg
179,192,59000,1,0,0:0:0:0:s_050.ogg
332,192,59000,1,0,0:0:0:0:s_040.ogg
435,192,59000,1,0,0:0:0:0:s_028.ogg
128,192,59200,1,0,0:0:0:0:m_057.ogg
179,192,59200,1,0,0:0:0:0:m_061.ogg
230,192,59200,1,0,0:0:0:0:m_064.ogg
281,192,59400,1,0,0:0:0:0:s_037.ogg
332,192,59450,1,0,0:0:0:0:s_049.ogg
384,192,59500,1,0,0:0:0:0:s_052.ogg
435,192,59550,1,0,0:0:0:0:s_057.ogg
128,192,59600,1,0,0:0:0:0:m_064.ogg
179,192,59600,1,0,0:0:0:0:m_057.ogg
230,192,59600,1,0,0:0:0:0:m_061.ogg
281,192,59800,1,0,0:0:0:0:s_033.ogg
332,192,59850,1,0,0:0:0:0:s_049.ogg
384,192,59900,1,0,0:0:0:0:s_052.ogg
435,192,59950,1,0,0:0:0:0:s_057.ogg
179,192,60000,1,0,0:0:0:0:s_069.ogg
230,192,60000,1,0,0:0:0:0:s_061.ogg
128,192,60200,1,0,0:0:0:0:s_040.ogg
230,192,60200,1,0,0:0:0:0:s_016.ogg
384,192,60200,1,0,0:0:0:0:s_061.ogg
486,192,60200,1,0,0:0:0:0:s_052.ogg
128,192,60400,1,0,0:0:0:0:s_052.ogg
230,192,60400,1,0,0:0:0:0:s_009.ogg
384,192,60400,1,0,0:0:0:0:s_049.ogg
486,192,60400,1,0,0:0:0:0:s_061.ogg
128,192,60600,1,0,0:0:0:0:s_061.ogg
230,192,60600,1,0,0:0:0:0:s_049.ogg
384,192,60600,1,0,0:0:0:0:s_040.ogg
486,192,60600,1,0,0:0:0:0:s_028.ogg
128,192,60800,1,0,0:0:0:0:s_061.ogg
230,192,60800,1,0,0:0:0:0:s_049.ogg
384,192,60800,1,0,0:0:0:0:s_009.ogg
486,192,60800,1,0,0:0:0:0:s_052.ogg
76,192,61000,1,0,0:0:0:0:s_062.ogg
179,192,61000,1,0,0:0:0:0:s_050.ogg
332,192,61000,1,0,0:0:0:0:s_028.ogg
435,192,61000,1,0,0:0:0:0:s_040.ogg
25,192,61200,1,0,0:0:0:0:s_061.ogg
128,192,61200,1,0,0:0:0:0:s_049.ogg
281,192,61200,1,0,0:0:0:0:s_009.ogg
384,192,61200,1,0,0:0:0:0:s_045.ogg
25,192,61400,1,0,0:0:0:0:s_028.ogg
76,192,61400,1,0,0:0:0:0:s_016.ogg
281,192,61400,1,0,0:0:0:0:s_059.ogg
332,192,61400,1,0,0:0:0:0:s_044.ogg
25,192,61600,1,0,0:0:0:0:s_009.ogg
281,192,61800,1,0,0:0:0:0:s_037.ogg
332,192,61850,1,0,0:0:0:0:s_040.ogg
384,192,61900,1,0,0:0:0:0:s_045.ogg
435,192,61950,1,0,0:0:0:0:s_049.ogg
25,192,62000,1,0,0:0:0:0:s_009.ogg
281,192,62200,1,0,0:0:0:0:s_037.ogg
332,192,62250,1,0,0:0:0:0:s_040.ogg
384,192,62300,1,0,0:0:0:0:s_045.ogg
435,192,62350,1,0,0:0:0:0:s_049.ogg
179,192,62400,1,0,0:0:0:0:m_049.ogg
332,192,62600,1,0,0:0:0:0:s_033.ogg
384,192,62633,1,0,0:0:0:0:s_037.ogg
435,192,62666,1,0,0:0:0:0:s_040.ogg
486,192,62700,1,0,0:0:0:0:s_021.ogg
230,192,62800,1,0,0:0:0:0:m_050.ogg
332,192,63000,1,0,0:0:0:0:s_033.ogg
384,192,63033,1,0,0:0:0:0:s_038.ogg
435,192,63066,1,0,0:0:0:0:s_042.ogg
486,192,63100,1,0,0:0:0:0:s_021.ogg
179,192,63200,1,0,0:0:0:0:m_049.ogg
332,192,63400,1,0,0:0:0:0:s_033.ogg
384,192,63433,1,0,0:0:0:0:s_037.ogg
435,192,63466,1,0,0:0:0:0:s_040.ogg
486,192,63500,1,0,0:0:0:0:s_021.ogg
128,192,63600,1,0,0:0:0:0:m_047.ogg
332,192,63800,1,0,0:0:0:0:s_033.ogg
384,192,63833,1,0,0:0:0:0:s_038.ogg
435,192,63866,1,0,0:0:0:0:s_040.ogg
486,192,63900,1,0,0:0:0:0:s_021.ogg
25,192,64000,1,0,0:0:0:0:s_045.ogg
76,192,64000,1,0,0:0:0:0:s_057.ogg
281,192,64000,1,0,0:0:0:0:s_049.ogg
332,192,64000,1,0,0:0:0:0:s_009.ogg
25,192,64200,1,0,0:0:0:0:s_045.ogg
76,192,64200,1,0,0:0:0:0:s_061.ogg
281,192,64200,1,0,0:0:0:0:s_033.ogg
332,192,64200,1,0,0:0:0:0:s_049.ogg
179,192,64400,1,0,0:0:0:0:s_047.ogg
230,192,64400,1,0,0:0:0:0:s_042.ogg
435,192,64400,1,0,0:0:0:0:s_050.ogg
486,192,64400,1,0,0:0:0:0:s_018.ogg
179,192,64600,1,0,0:0:0:0:s_050.ogg
230,192,64600,1,0,0:0:0:0:s_038.ogg
435,192,64600,1,0,0:0:0:0:s_047.ogg
486,192,64600,1,0,0:0:0:0:s_014.ogg
25,192,64800,1,0,0:0:0:0:s_061.ogg
128,192,64800,1,0,0:0:0:0:s_049.ogg
281,192,64800,1,0,0:0:0:0:s_009.ogg
384,192,64800,1,0,0:0:0:0:s_052.ogg
128,192,65000,1,0,0:0:0:0:s_069.ogg
230,192,65000,1,0,0:0:0:0:s_049.ogg
384,192,65000,1,0,0:0:0:0:s_045.ogg
486,192,65000,1,0,0:0:0:0:s_033.ogg
25,192,65200,1,0,0:0:0:0:m_064.ogg
128,192,65200,1,0,0:0:0:0:m_052.ogg
281,192,65200,1,0,0:0:0:0:m_061.ogg
384,192,65200,1,0,0:0:0:0:m_049.ogg
76,192,65600,1,0,0:0:0:0:m_049.ogg
332,192,65800,1,0,0:0:0:0:s_028.ogg
384,192,65833,1,0,0:0:0:0:s_037.ogg
435,192,65866,1,0,0:0:0:0:s_040.ogg
486,192,65900,1,0,0:0:0:0:s_021.ogg
128,192,66000,1,0,0:0:0:0:m_050.ogg
332,192,66200,1,0,0:0:0:0:s_028.ogg
384,192,66233,1,0,0:0:0:0:s_038.ogg
435,192,66266,1,0,0:0:0:0:s_042.ogg
486,192,66300,1,0,0:0:0:0:s_021.ogg
128,192,66400,1,0,0:0:0:0:m_050.ogg
179,192,66400,1,0,0:0:0:0:m_052.ogg
230,192,66400,1,0,0:0:0:0:m_047.ogg
332,192,66600,1,0,0:0:0:0:s_028.ogg
384,192,66633,1,0,0:0:0:0:s_038.ogg
435,192,66666,1,0,0:0:0:0:s_040.ogg
486,192,66700,1,0,0:0:0:0:s_021.ogg
179,192,66800,1,0,0:0:0:0:m_052.ogg
230,192,66800,1,0,0:0:0:0:m_049.ogg
332,192,67000,1,0,0:0:0:0:s_028.ogg
384,192,67033,1,0,0:0:0:0:s_037.ogg
435,192,67066,1,0,0:0:0:0:s_040.ogg
486,192,67100,1,0,0:0:0:0:s_021.ogg
25,192,67200,1,0,0:0:0:0:s_052.ogg
76,192,67200,1,0,0:0:0:0:s_064.ogg
281,192,67200,1,0,0:0:0:0:s_061.ogg
332,192,67200,1,0,0:0:0:0:s_049.ogg
128,192,67400,1,0,0:0:0:0:s_014.ogg
230,192,67400,1,0,0:0:0:0:s_050.ogg
384,192,67400,1,0,0:0:0:0:s_059.ogg
486,192,67400,1,0,0:0:0:0:s_047.ogg
76,192,67600,1,0,0:0:0:0:s_016.ogg
179,192,67600,1,0,0:0:0:0:s_045.ogg
332,192,67600,1,0,0:0:0:0:s_057.ogg
435,192,67600,1,0,0:0:0:0:s_049.ogg
25,192,67800,1,0,0:0:0:0:s_004.ogg
128,192,67800,1,0,0:0:0:0:s_059.ogg
281,192,67800,1,0,0:0:0:0:s_056.ogg
384,192,67800,1,0,0:0:0:0:s_047.ogg
76,192,68000,1,0,0:0:0:0:s_045.ogg
332,192,68000,1,0,0:0:0:0:s_057.ogg
128,192,68200,1,0,0:0:0:0:s_061.ogg
384,192,68200,1,0,0:0:0:0:s_049.ogg
179,192,68250,1,0,0:0:0:0:s_064.ogg
435,192,68250,1,0,0:0:0:0:s_052.ogg
230,192,68300,1,0,0:0:0:0:s_057.ogg
486,192,68300,1,0,0:0:0:0:s_069.ogg
25,192,68400,1,0,0:0:0:0:s_045.ogg
281,192,68400,1,0,0:0:0:0:m_021.ogg
332,192,68800,1,0,0:0:0:0:m_057.ogg
384,192,68800,1,0,0:0:0:0:m_061.ogg
435,192,68800,1,0,0:0:0:0:m_052.ogg
76,192,69000,1,0,0:0:0:0:s_033.ogg
128,192,69033,1,0,0:0:0:0:s_037.ogg
179,192,69066,1,0,0:0:0:0:s_040.ogg
230,192,69100,1,0,0:0:0:0:s_021.ogg
384,192,69200,1,0,0:0:0:0:m_054.ogg
435,192,69200,1,0,0:0:0:0:m_062.ogg
486,192,69200,1,0,0:0:0:0:m_057.ogg
76,192,69400,1,0,0:0:0:0:s_033.ogg
128,192,69433,1,0,0:0:0:0:s_038.ogg
179,192,69466,1,0,0:0:0:0:s_042.ogg
230,192,69500,1,0,0:0:0:0:s_021.ogg
332,192,69600,1,0,0:0:0:0:m_057.ogg
384,192,69600,1,0,0:0:0:0:m_052.ogg
435,192,69600,1,0,0:0:0:0:m_061.ogg
76,192,69800,1,0,0:0:0:0:s_033.ogg
128,192,69833,1,0,0:0:0:0:s_037.ogg
179,192,69866,1,0,0:0:0:0:s_040.ogg
230,192,69900,1,0,0:0:0:0:s_021.ogg
281,192,70000,1,0,0:0:0:0:m_050.ogg
332,192,70000,1,0,0:0:0:0:m_059.ogg
384,192,70000,1,0,0:0:0:0:m_052.ogg
486,192,70000,1,0,0:0:0:0:m_056.ogg
76,192,70200,1,0,0:0:0:0:s_033.ogg
128,192,70233,1,0,0:0:0:0:s_038.ogg
179,192,70266,1,0,0:0:0:0:s_040.ogg
230,192,70300,1,0,0:0:0:0:s_021.ogg
25,192,70400,1,0,0:0:0:0:s_061.ogg
76,192,70400,1,0,0:0:0:0:s_049.ogg
281,192,70400,1,0,0:0:0:0:s_045.ogg
332,192,70400,1,0,0:0:0:0:s_073.ogg
25,192,70600,1,0,0:0:0:0:s_061.ogg
76,192,70600,1,0,0:0:0:0:s_033.ogg
281,192,70600,1,0,0:0:0:0:s_021.ogg
332,192,70600,1,0,0:0:0:0:s_073.ogg
179,192,70800,1,0,0:0:0:0:s_042.ogg
230,192,70800,1,0,0:0:0:0:s_050.ogg
435,192,70800,1,0,0:0:0:0:s_018.ogg
486,192,70800,1,0,0:0:0:0:s_074.ogg
179,192,71000,1,0,0:0:0:0:s_038.ogg
230,192,71000,1,0,0:0:0:0:s_047.ogg
435,192,71000,1,0,0:0:0:0:s_014.ogg
486,192,71000,1,0,0:0:0:0:s_074.ogg
25,192,71200,1,0,0:0:0:0:s_064.ogg
128,192,71200,1,0,0:0:0:0:s_049.ogg
281,192,71200,1,0,0:0:0:0:s_052.ogg
384,192,71200,1,0,0:0:0:0:s_076.ogg
128,192,71400,1,0,0:0:0:0:s_045.ogg
230,192,71400,1,0,0:0:0:0:s_049.ogg
384,192,71400,1,0,0:0:0:0:s_069.ogg
486,192,71400,1,0,0:0:0:0:s_033.ogg
25,192,71600,1,0,0:0:0:0:m_021.ogg
128,192,71600,1,0,0:0:0:0:m_049.ogg
281,192,71600,1,0,0:0:0:0:m_052.ogg
384,192,71600,1,0,0:0:0:0:m_064.ogg
281,192,72000,1,0,0:0:0:0:m_061.ogg
332,192,72000,1,0,0:0:0:0:m_057.ogg
384,192,72000,1,0,0:0:0:0:m_049.ogg
76,192,72200,1,0,0:0:0:0:s_033.ogg
128,192,72233,1,0,0:0:0:0:s_037.ogg
179,192,72266,1,0,0:0:0:0:s_040.ogg
230,192,72300,1,0,0:0:0:0:s_021.ogg
332,192,72400,1,0,0:0:0:0:m_054.ogg
384,192,72400,1,0,0:0:0:0:m_062.ogg
435,192,72400,1,0,0:0:0:0:m_057.ogg
76,192,72600,1,0,0:0:0:0:s_033.ogg
128,192,72633,1,0,0:0:0:0:s_038.ogg
179,192,72666,1,0,0:0:0:0:s_042.ogg
230,192,72700,1,0,0:0:0:0:s_021.ogg
281,192,72800,1,0,0:0:0:0:m_056.ogg
332,192,72800,1,0,0:0:0:0:m_059.ogg
435,192,72800,1,0,0:0:0:0:m_064.ogg
486,192,72800,1,0,0:0:0:0:m_062.ogg
25,192,73000,1,0,0:0:0:0:s_033.ogg
76,192,73033,1,0,0:0:0:0:s_035.ogg
128,192,73066,1,0,0:0:0:0:s_038.ogg
179,192,73100,1,0,0:0:0:0:s_040.ogg
230,192,73133,1,0,0:0:0:0:s_044.ogg
384,192,73200,1,0,0:0:0:0:m_057.ogg
435,192,73200,1,0,0:0:0:0:m_061.ogg
486,192,73200,1,0,0:0:0:0:m_064.ogg
76,192,73400,1,0,0:0:0:0:s_033.ogg
128,192,73433,1,0,0:0:0:0:s_037.ogg
179,192,73466,1,0,0:0:0:0:s_040.ogg
230,192,73500,1,0,0:0:0:0:s_021.ogg
25,192,73600,1,0,0:0:0:0:s_064.ogg
76,192,73600,1,0,0:0:0:0:s_049.ogg
281,192,73600,1,0,0:0:0:0:s_009.ogg
332,192,73600,1,0,0:0:0:0:s_076.ogg
128,192,73800,1,0,0:0:0:0:s_062.ogg
230,192,73800,1,0,0:0:0:0:s_047.ogg
384,192,73800,1,0,0:0:0:0:s_074.ogg
486,192,73800,1,0,0:0:0:0:s_050.ogg
76,192,74000,1,0,0:0:0:0:s_061.ogg
179,192,74000,1,0,0:0:0:0:s_049.ogg
332,192,74000,1,0,0:0:0:0:s_016.ogg
435,192,74000,1,0,0:0:0:0:s_045.ogg
25,192,74200,1,0,0:0:0:0:s_059.ogg
128,192,74200,1,0,0:0:0:0:s_047.ogg
281,192,74200,1,0,0:0:0:0:s_004.ogg
384,192,74200,1,0,0:0:0:0:s_044.ogg
76,192,74400,1,0,0:0:0:0:s_057.ogg
332,192,74400,1,0,0:0:0:0:s_009.ogg
128,192,74600,1,0,0:0:0:0:s_037.ogg
384,192,74600,1,0,0:0:0:0:s_033.ogg
179,192,74650,1,0,0:0:0:0:s_064.ogg
435,192,74650,1,0,0:0:0:0:s_052.ogg
230,192,74700,1,0,0:0:0:0:s_057.ogg
486,192,74700,1,0,0:0:0:0:s_069.ogg
25,192,74800,1,0,0:0:0:0:m_021.ogg
281,192,74800,1,0,0:0:0:0:m_033.ogg
76,192,75200,1,0,0:0:0:0:s_021.ogg
384,192,75200,128,0,75700:0:0:0:0:m_040.ogg
128,192,75400,1,0,0:0:0:0:s_036.ogg
179,192,75400,1,0,0:0:0:0:s_028.ogg
25,192,75600,1,0,0:0:0:0:s_016.ogg
128,192,75800,1,0,0:0:0:0:s_033.ogg
179,192,75800,1,0,0:0:0:0:s_028.ogg
435,192,75800,1,0,0:0:0:0:s_045.ogg
76,192,76000,1,0,0:0:0:0:s_021.ogg
486,192,76000,128,0,76500:0:0:0:0:m_048.ogg
128,192,76200,1,0,0:0:0:0:s_036.ogg
179,192,76200,1,0,0:0:0:0:s_028.ogg
25,192,76400,1,0,0:0:0:0:s_016.ogg
128,192,76600,1,0,0:0:0:0:s_033.ogg
179,192,76600,1,0,0:0:0:0:s_028.ogg
435,192,76600,1,0,0:0:0:0:s_045.ogg
76,192,76800,1,0,0:0:0:0:s_021.ogg
384,192,76800,128,0,77300:0:0:0:0:m_044.ogg
179,192,77000,1,0,0:0:0:0:m_032.ogg
230,192,77000,1,0,0:0:0:0:m_038.ogg
25,192,77200,1,0,0:0:0:0:s_014.ogg
179,192,77400,1,0,0:0:0:0:s_032.ogg
230,192,77400,1,0,0:0:0:0:s_029.ogg
435,192,77400,1,0,0:0:0:0:s_045.ogg
486,192,77500,1,0,0:0:0:0:s_047.ogg
76,192,77600,1,0,0:0:0:0:s_021.ogg
435,192,77600,1,0,0:0:0:0:m_045.ogg
128,192,77800,1,0,0:0:0:0:s_036.ogg
179,192,77800,1,0,0:0:0:0:s_028.ogg
25,192,78000,1,0,0:0:0:0:s_016.ogg
128,192,78200,1,0,0:0:0:0:s_033.ogg
179,192,78200,1,0,0:0:0:0:s_036.ogg
76,192,78400,1,0,0:0:0:0:s_021.ogg
281,192,78400,128,0,78900:0:0:0:0:m_041.ogg
128,192,78600,1,0,0:0:0:0:m_029.ogg
230,192,78600,1,0,0:0:0:0:m_026.ogg
25,192,78800,1,0,0:0:0:0:s_014.ogg
128,192,79000,1,0,0:0:0:0:s_029.ogg
230,192,79000,1,0,0:0:0:0:s_026.ogg
332,192,79000,1,0,0:0:0:0:s_040.ogg
384,192,79100,1,0,0:0:0:0:s_045.ogg
76,192,79200,1,0,0:0:0:0:s_021.ogg
332,192,79200,1,0,0:0:0:0:m_036.ogg
179,192,79400,1,0,0:0:0:0:s_024.ogg
230,192,79400,1,0,0:0:0:0:s_028.ogg
25,192,79600,1,0,0:0:0:0:s_016.ogg
179,192,79800,1,0,0:0:0:0:s_024.ogg
230,192,79800,1,0,0:0:0:0:s_028.ogg
76,192,80000,1,0,0:0:0:0:s_020.ogg
435,192,80000,1,0,0:0:0:0:s_038.ogg
384,192,80100,1,0,0:0:0:0:s_036.ogg
128,192,80200,1,0,0:0:0:0:s_028.ogg
179,192,80200,1,0,0:0:0:0:s_032.ogg
384,192,80200,1,0,0:0:0:0:s_036.ogg
332,192,80300,1,0,0:0:0:0:s_035.ogg
25,192,80400,1,0,0:0:0:0:s_016.ogg
332,192,80400,1,0,0:0:0:0:m_035.ogg
128,192,80600,1,0,0:0:0:0:s_028.ogg
486,192,80700,1,0,0:0:0:0:s_040.ogg
76,192,80800,1,0,0:0:0:0:s_021.ogg
281,192,80800,1,0,0:0:0:0:m_033.ogg
179,192,81000,1,0,0:0:0:0:s_024.ogg
230,192,81000,1,0,0:0:0:0:s_028.ogg
25,192,81200,1,0,0:0:0:0:s_016.ogg
179,192,81400,1,0,0:0:0:0:s_024.ogg
230,192,81400,1,0,0:0:0:0:s_028.ogg
76,192,81600,1,0,0:0:0:0:m_040.ogg
281,192,81600,1,0,0:0:0:0:m_052.ogg
128,192,81800,1,0,0:0:0:0:s_028.ogg
179,192,81800,1,0,0:0:0:0:s_033.ogg
384,192,81900,1,0,0:0:0:0:s_057.ogg
25,192,82000,1,0,0:0:0:0:s_048.ogg
281,192,82000,1,0,0:0:0:0:s_028.ogg
332,192,82100,1,0,0:0:0:0:s_052.ogg
128,192,82200,1,0,0:0:0:0:s_057.ogg
230,192,82200,1,0,0:0:0:0:s_040.ogg
384,192,82200,1,0,0:0:0:0:s_036.ogg
435,192,82300,1,0,0:0:0:0:s_060.ogg
76,192,82400,1,0,0:0:0:0:m_064.ogg
486,192,82400,1,0,0:0:0:0:s_021.ogg
179,192,82600,1,0,0:0:0:0:s_048.ogg
230,192,82600,1,0,0:0:0:0:s_036.ogg
25,192,82800,1,0,0:0:0:0:s_016.ogg
128,192,83000,1,0,0:0:0:0:s_036.ogg
230,192,83000,1,0,0:0:0:0:s_045.ogg
435,192,83000,1,0,0:0:0:0:s_040.ogg
76,192,83200,1,0,0:0:0:0:m_065.ogg
281,192,83200,1,0,0:0:0:0:m_053.ogg
332,192,83200,1,0,0:0:0:0:m_059.ogg
384,192,83200,1,0,0:0:0:0:m_056.ogg
128,192,83400,1,0,0:0:0:0:m_041.ogg
179,192,83400,1,0,0:0:0:0:m_038.ogg
25,192,83600,1,0,0:0:0:0:s_014.ogg
128,192,83800,1,0,0:0:0:0:s_038.ogg
179,192,83800,1,0,0:0:0:0:s_044.ogg
435,192,83800,1,0,0:0:0:0:s_035.ogg
486,192,83900,1,0,0:0:0:0:s_062.ogg
76,192,84000,1,0,0:0:0:0:m_064.ogg
281,192,84000,1,0,0:0:0:0:s_021.ogg
332,192,84000,1,0,0:0:0:0:s_033.ogg
435,192,84000,1,0,0:0:0:0:m_072.ogg
179,192,84200,1,0,0:0:0:0:s_036.ogg
230,192,84200,1,0,0:0:0:0:s_040.ogg
25,192,84400,1,0,0:0:0:0:s_021.ogg
179,192,84600,1,0,0:0:0:0:s_040.ogg
230,192,84600,1,0,0:0:0:0:s_045.ogg
76,192,84800,1,0,0:0:0:0:s_033.ogg
384,192,84800,1,0,0:0:0:0:s_065.ogg
435,192,84900,1,0,0:0:0:0:s_079.ogg
128,192,85000,1,0,0:0:0:0:s_036.ogg
179,192,85000,1,0,0:0:0:0:s_069.ogg
486,192,85000,1,0,0:0:0:0:s_081.ogg
384,192,85100,1,0,0:0:0:0:s_077.ogg
25,192,85200,1,0,0:0:0:0:s_031.ogg
332,192,85200,1,0,0:0:0:0:s_064.ogg
384,192,85300,1,0,0:0:0:0:s_077.ogg
128,192,85400,1,0,0:0:0:0:s_040.ogg
230,192,85400,1,0,0:0:0:0:s_067.ogg
435,192,85400,1,0,0:0:0:0:s_043.ogg
332,192,85500,1,0,0:0:0:0:s_076.ogg
76,192,85600,1,0,0:0:0:0:s_029.ogg
281,192,85600,1,0,0:0:0:0:s_062.ogg
332,192,85700,1,0,0:0:0:0:s_076.ogg
179,192,85800,1,0,0:0:0:0:s_065.ogg
230,192,85800,1,0,0:0:0:0:s_038.ogg
384,192,85800,1,0,0:0:0:0:s_045.ogg
281,192,85900,1,0,0:0:0:0:s_074.ogg
25,192,86000,1,0,0:0:0:0:s_028.ogg
332,192,86000,1,0,0:0:0:0:s_060.ogg
384,192,86100,1,0,0:0:0:0:s_074.ogg
128,192,86200,1,0,0:0:0:0:s_048.ogg
230,192,86200,1,0,0:0:0:0:s_064.ogg
435,192,86200,1,0,0:0:0:0:s_076.ogg
332,192,86300,1,0,0:0:0:0:s_072.ogg
76,192,86400,1,0,0:0:0:0:s_016.ogg
486,192,86400,1,0,0:0:0:0:s_062.ogg
435,192,86500,1,0,0:0:0:0:s_072.ogg
179,192,86600,1,0,0:0:0:0:s_044.ogg
230,192,86600,1,0,0:0:0:0:s_060.ogg
435,192,86600,1,0,0:0:0:0:s_072.ogg
384,192,86700,1,0,0:0:0:0:s_071.ogg
25,192,86800,1,0,0:0:0:0:m_071.ogg
384,192,86800,1,0,0:0:0:0:s_059.ogg
128,192,87000,1,0,0:0:0:0:s_064.ogg
230,192,87000,1,0,0:0:0:0:s_040.ogg
486,192,87100,1,0,0:0:0:0:s_076.ogg
76,192,87200,1,0,0:0:0:0:s_021.ogg
281,192,87200,1,0,0:0:0:0:m_069.ogg
128,192,87400,1,0,0:0:0:0:m_040.ogg
179,192,87400,1,0,0:0:0:0:m_045.ogg
25,192,87600,1,0,0:0:0:0:s_057.ogg
332,192,87600,1,0,0:0:0:0:s_072.ogg
384,192,87650,1,0,0:0:0:0:s_076.ogg
435,192,87700,1,0,0:0:0:0:s_064.ogg
486,192,87750,1,0,0:0:0:0:s_069.ogg
76,192,88000,1,0,0:0:0:0:s_013.ogg
332,192,88000,1,0,0:0:0:0:s_025.ogg
435,192,88000,1,0,0:0:0:0:s_055.ogg
128,192,88200,1,0,0:0:0:0:s_040.ogg
179,192,88200,1,0,0:0:0:0:s_033.ogg
25,192,88400,1,0,0:0:0:0:s_009.ogg
332,192,88400,1,0,0:0:0:0:s_021.ogg
435,192,88400,1,0,0:0:0:0:s_055.ogg
128,192,88600,1,0,0:0:0:0:s_040.ogg
179,192,88600,1,0,0:0:0:0:s_043.ogg
76,192,88800,1,0,0:0:0:0:m_057.ogg
486,192,88800,128,0,89300:0:0:0:0:m_053.ogg
384,192,88800,128,0,89300:0:0:0:0:m_065.ogg
179,192,89000,1,0,0:0:0:0:s_041.ogg
230,192,89000,1,0,0:0:0:0:s_045.ogg
25,192,89200,1,0,0:0:0:0:s_009.ogg
128,192,89400,1,0,0:0:0:0:s_040.ogg
179,192,89400,1,0,0:0:0:0:s_033.ogg
332,192,89400,1,0,0:0:0:0:s_043.ogg
435,192,89400,1,0,0:0:0:0:s_052.ogg
76,192,89600,1,0,0:0:0:0:s_026.ogg
128,192,89800,1,0,0:0:0:0:s_038.ogg
230,192,89800,1,0,0:0:0:0:s_041.ogg
281,192,89800,1,0,0:0:0:0:m_062.ogg
384,192,89800,1,0,0:0:0:0:m_050.ogg
25,192,90000,1,0,0:0:0:0:s_021.ogg
128,192,90200,1,0,0:0:0:0:s_038.ogg
230,192,90200,1,0,0:0:0:0:s_049.ogg
332,192,90200,1,0,0:0:0:0:s_061.ogg
384,192,90300,1,0,0:0:0:0:s_062.ogg
76,192,90400,1,0,0:0:0:0:s_014.ogg
435,192,90400,1,0,0:0:0:0:s_064.ogg
384,192,90500,1,0,0:0:0:0:s_062.ogg
128,192,90600,1,0,0:0:0:0:s_038.ogg
230,192,90600,1,0,0:0:0:0:s_049.ogg
332,192,90600,1,0,0:0:0:0:s_061.ogg
435,192,90700,1,0,0:0:0:0:s_064.ogg
25,192,90800,1,0,0:0:0:0:s_024.ogg
384,192,90800,1,0,0:0:0:0:s_012.ogg
128,192,91000,1,0,0:0:0:0:s_038.ogg
230,192,91000,1,0,0:0:0:0:s_041.ogg
76,192,91200,1,0,0:0:0:0:s_062.ogg
179,192,91200,1,0,0:0:0:0:s_011.ogg
332,192,91200,1,0,0:0:0:0:s_053.ogg
384,192,91400,1,0,0:0:0:0:s_038.ogg
435,192,91400,1,0,0:0:0:0:s_041.ogg
76,192,91600,1,0,0:0:0:0:s_062.ogg
179,192,91600,1,0,0:0:0:0:s_019.ogg
281,192,91600,1,0,0:0:0:0:s_053.ogg
384,192,91800,1,0,0:0:0:0:s_038.ogg
435,192,91800,1,0,0:0:0:0:s_041.ogg
332,192,92000,1,0,0:0:0:0:s_011.ogg
230,192,92000,128,0,92500:0:0:0:0:m_052.ogg
128,192,92000,128,0,92500:0:0:0:0:m_064.ogg
435,192,92200,1,0,0:0:0:0:s_040.ogg
486,192,92200,1,0,0:0:0:0:s_031.ogg
281,192,92400,1,0,0:0:0:0:s_019.ogg
76,192,92600,1,0,0:0:0:0:s_038.ogg
179,192,92600,1,0,0:0:0:0:s_050.ogg
384,192,92600,1,0,0:0:0:0:s_041.ogg
435,192,92600,1,0,0:0:0:0:s_031.ogg
332,192,92800,1,0,0:0:0:0:s_012.ogg
25,192,93000,1,0,0:0:0:0:m_060.ogg
128,192,93000,1,0,0:0:0:0:m_048.ogg
384,192,93000,1,0,0:0:0:0:s_036.ogg
486,192,93000,1,0,0:0:0:0:s_040.ogg
281,192,93200,1,0,0:0:0:0:s_007.ogg
76,192,93400,1,0,0:0:0:0:s_059.ogg
384,192,93400,1,0,0:0:0:0:s_036.ogg
486,192,93400,1,0,0:0:0:0:s_047.ogg
128,192,93500,1,0,0:0:0:0:s_060.ogg
179,192,93600,1,0,0:0:0:0:s_062.ogg
332,192,93600,1,0,0:0:0:0:s_050.ogg
128,192,93700,1,0,0:0:0:0:s_060.ogg
76,192,93800,1,0,0:0:0:0:s_059.ogg
384,192,93800,1,0,0:0:0:0:s_036.ogg
486,192,93800,1,0,0:0:0:0:s_047.ogg
179,192,93900,1,0,0:0:0:0:s_062.ogg
128,192,94000,1,0,0:0:0:0:s_028.ogg
281,192,94000,1,0,0:0:0:0:s_048.ogg
384,192,94200,1,0,0:0:0:0:s_036.ogg
486,192,94200,1,0,0:0:0:0:s_040.ogg
76,192,94400,1,0,0:0:0:0:s_020.ogg
435,192,94400,1,0,0:0:0:0:s_059.ogg
128,192,94600,1,0,0:0:0:0:s_028.ogg
179,192,94600,1,0,0:0:0:0:s_038.ogg
25,192,94800,1,0,0:0:0:0:s_016.ogg
435,192,94800,1,0,0:0:0:0:s_059.ogg
128,192,95000,1,0,0:0:0:0:s_028.ogg
179,192,95000,1,0,0:0:0:0:s_038.ogg
76,192,95200,1,0,0:0:0:0:s_020.ogg
281,192,95200,1,0,0:0:0:0:s_062.ogg
486,192,95200,1,0,0:0:0:0:s_053.ogg
179,192,95400,1,0,0:0:0:0:s_040.ogg
230,192,95400,1,0,0:0:0:0:s_028.ogg
435,192,95400,1,0,0:0:0:0:m_052.ogg
25,192,95600,1,0,0:0:0:0:s_016.ogg
128,192,95800,1,0,0:0:0:0:s_038.ogg
179,192,95800,1,0,0:0:0:0:s_028.ogg
384,192,95800,1,0,0:0:0:0:m_050.ogg
76,192,96000,1,0,0:0:0:0:s_017.ogg
128,192,96200,1,0,0:0:0:0:s_029.ogg
230,192,96200,1,0,0:0:0:0:s_036.ogg
281,192,96200,1,0,0:0:0:0:m_048.ogg
25,192,96400,1,0,0:0:0:0:s_012.ogg
179,192,96600,1,0,0:0:0:0:s_029.ogg
230,192,96600,1,0,0:0:0:0:s_056.ogg
332,192,96600,1,0,0:0:0:0:s_035.ogg
384,192,96700,1,0,0:0:0:0:s_048.ogg
76,192,96800,1,0,0:0:0:0:s_017.ogg
435,192,96800,1,0,0:0:0:0:s_050.ogg
384,192,96900,1,0,0:0:0:0:s_048.ogg
128,192,97000,1,0,0:0:0:0:s_038.ogg
230,192,97000,1,0,0:0:0:0:s_056.ogg
332,192,97000,1,0,0:0:0:0:s_032.ogg
435,192,97100,1,0,0:0:0:0:s_050.ogg
25,192,97200,1,0,0:0:0:0:s_012.ogg
384,192,97200,1,0,0:0:0:0:s_048.ogg
128,192,97400,1,0,0:0:0:0:s_036.ogg
179,192,97400,1,0,0:0:0:0:s_033.ogg
25,192,97600,1,0,0:0:0:0:s_068.ogg
76,192,97600,1,0,0:0:0:0:s_040.ogg
179,192,97600,1,0,0:0:0:0:s_052.ogg
230,192,97600,1,0,0:0:0:0:s_035.ogg
332,192,97600,1,0,0:0:0:0:s_076.ogg
384,192,97650,1,0,0:0:0:0:s_056.ogg
435,192,97700,1,0,0:0:0:0:s_059.ogg
486,192,97750,1,0,0:0:0:0:s_064.ogg
25,192,98300,1,0,0:0:0:0:s_064.ogg
128,192,98300,1,0,0:0:0:0:s_040.ogg
281,192,98300,1,0,0:0:0:0:s_052.ogg
76,192,98400,1,0,0:0:0:0:s_066.ogg
179,192,98400,1,0,0:0:0:0:s_042.ogg
332,192,98400,1,0,0:0:0:0:s_054.ogg
128,192,98800,1,0,0:0:0:0:s_044.ogg
230,192,98800,1,0,0:0:0:0:s_020.ogg
384,192,98800,1,0,0:0:0:0:s_056.ogg
25,192,99200,1,0,0:0:0:0:s_059.ogg
76,192,99200,1,0,0:0:0:0:s_040.ogg
179,192,99200,1,0,0:0:0:0:s_021.ogg
230,192,99200,1,0,0:0:0:0:s_036.ogg
486,192,99200,1,0,0:0:0:0:s_009.ogg
435,192,99250,1,0,0:0:0:0:s_069.ogg
25,192,99400,1,0,0:0:0:0:m_040.ogg
76,192,99400,1,0,0:0:0:0:m_057.ogg
179,192,99400,1,0,0:0:0:0:m_033.ogg
230,192,99400,1,0,0:0:0:0:m_036.ogg
435,192,99400,1,0,0:0:0:0:m_045.ogg
76,192,99800,1,0,0:0:0:0:s_056.ogg
128,192,99800,1,0,0:0:0:0:s_068.ogg
332,192,99800,1,0,0:0:0:0:s_040.ogg
384,192,99900,1,0,0:0:0:0:s_057.ogg
25,192,100000,1,0,0:0:0:0:m_044.ogg
76,192,100000,1,0,0:0:0:0:s_071.ogg
128,192,100000,1,0,0:0:0:0:m_009.ogg
179,192,100000,1,0,0:0:0:0:m_038.ogg
435,192,100000,1,0,0:0:0:0:s_059.ogg
384,192,100100,1,0,0:0:0:0:s_057.ogg
332,192,100200,1,0,0:0:0:0:s_056.ogg
384,192,100266,1,0,0:0:0:0:s_069.ogg
435,192,100333,1,0,0:0:0:0:s_071.ogg
128,192,100400,1,0,0:0:0:0:s_045.ogg
179,192,100400,1,0,0:0:0:0:s_069.ogg
230,192,100400,1,0,0:0:0:0:s_040.ogg
384,192,100400,1,0,0:0:0:0:s_021.ogg
128,192,100800,1,0,0:0:0:0:s_045.ogg
179,192,100800,1,0,0:0:0:0:s_026.ogg
230,192,100800,1,0,0:0:0:0:s_035.ogg
332,192,100800,1,0,0:0:0:0:s_069.ogg
384,192,100850,1,0,0:0:0:0:s_053.ogg
435,192,100900,1,0,0:0:0:0:s_057.ogg
486,192,100950,1,0,0:0:0:0:s_059.ogg
25,192,101200,1,0,0:0:0:0:s_016.ogg
76,192,101200,1,0,0:0:0:0:s_044.ogg
128,192,101200,1,0,0:0:0:0:s_028.ogg
179,192,101200,1,0,0:0:0:0:s_035.ogg
281,192,101200,1,0,0:0:0:0:s_064.ogg
332,192,101250,1,0,0:0:0:0:s_052.ogg
384,192,101300,1,0,0:0:0:0:s_056.ogg
435,192,101350,1,0,0:0:0:0:s_059.ogg
76,192,101600,1,0,0:0:0:0:m_060.ogg
128,192,101600,1,0,0:0:0:0:m_048.ogg
179,192,101600,1,0,0:0:0:0:m_045.ogg
230,192,101600,1,0,0:0:0:0:m_057.ogg
281,192,101600,1,0,0:0:0:0:m_040.ogg
332,192,101600,1,0,0:0:0:0:m_036.ogg
384,192,101600,1,0,0:0:0:0:m_064.ogg
