osu file format v14

[General]
AudioFilename: virtual
AudioLeadIn: 0
PreviewTime: 0
Countdown: 0
SampleSet: Soft
StackLeniency: 0.7
Mode: 3
LetterboxInBreaks: 0
SpecialStyle: 0
WidescreenStoryboard: 1

[Editor]
DistanceSpacing: 0.8
BeatDivisor: 4
GridSize: 16
TimelineZoom: 2.200006

[Metadata]
Title:Piano Beatmap Set
TitleUnicode:Piano Beatmap Set
Artist:Collection
ArtistUnicode:Collection
Creator:CircusGalop
Version:Grandes Etudes No.6 - 4K Full
Source:BMS
Tags:
BeatmapID:1356904
BeatmapSetID:332673

[Difficulty]
HPDrainRate:9
CircleSize:4
OverallDifficulty:5
ApproachRate:5
SliderMultiplier:1.4
SliderTickRate:1

[Events]
//Background and Video events
0,0,"CircusGalop.jpg",0,0
//Break Periods
//Storyboard Layer 0 (Background)
//Storyboard Layer 1 (Fail)
//Storyboard Layer 2 (Pass)
//Storyboard Layer 3 (Foreground)
//Storyboard Sound Samples
Sample,2000,0,"s_043.ogg",100
Sample,2020,0,"s_048.ogg",100
Sample,2040,0,"s_051.ogg",100
Sample,2060,0,"s_060.ogg",100
Sample,2960,0,"s_050.ogg",100
Sample,2980,0,"s_055.ogg",100
Sample,3000,0,"s_059.ogg",100
Sample,3020,0,"s_067.ogg",100
Sample,3920,0,"s_043.ogg",100
Sample,3940,0,"s_048.ogg",100
Sample,3960,0,"s_051.ogg",100
Sample,3980,0,"s_060.ogg",100
Sample,4800,0,"m_050.ogg",100
Sample,4800,0,"s_031.ogg",100
Sample,4830,0,"s_038.ogg",100
Sample,4860,0,"s_043.ogg",100
Sample,4890,0,"s_047.ogg",100
Sample,5840,0,"s_043.ogg",100
Sample,5860,0,"s_048.ogg",100
Sample,5880,0,"s_051.ogg",100
Sample,5900,0,"s_060.ogg",100
Sample,6800,0,"s_050.ogg",100
Sample,6820,0,"s_055.ogg",100
Sample,6840,0,"s_059.ogg",100
Sample,6860,0,"s_067.ogg",100
Sample,7760,0,"s_043.ogg",100
Sample,7780,0,"s_048.ogg",100
Sample,7800,0,"s_051.ogg",100
Sample,7820,0,"s_060.ogg",100
Sample,8640,0,"s_031.ogg",100
Sample,8640,0,"m_059.ogg",100
Sample,8670,0,"s_038.ogg",100
Sample,8700,0,"s_043.ogg",100
Sample,8730,0,"s_047.ogg",100
Sample,9680,0,"s_055.ogg",100
Sample,9700,0,"s_060.ogg",100
Sample,9720,0,"s_064.ogg",100
Sample,9740,0,"s_072.ogg",100
Sample,10640,0,"s_048.ogg",100
Sample,10660,0,"s_056.ogg",100
Sample,10680,0,"s_060.ogg",100
Sample,10700,0,"s_068.ogg",100
Sample,11600,0,"s_053.ogg",100
Sample,11620,0,"s_058.ogg",100
Sample,11640,0,"s_062.ogg",100
Sample,11660,0,"s_070.ogg",100
Sample,12560,0,"s_046.ogg",100
Sample,12580,0,"s_055.ogg",100
Sample,12600,0,"s_058.ogg",100
Sample,12620,0,"s_067.ogg",100
Sample,13520,0,"s_050.ogg",100
Sample,13540,0,"s_056.ogg",100
Sample,13560,0,"s_062.ogg",100
Sample,13580,0,"s_068.ogg",100
Sample,14480,0,"s_055.ogg",100
Sample,14500,0,"s_060.ogg",100
Sample,14520,0,"s_067.ogg",100
Sample,16320,0,"m_036.ogg",100
Sample,16800,0,"s_048.ogg",100
Sample,17360,0,"s_060.ogg",100
Sample,17380,0,"s_064.ogg",100
Sample,17400,0,"s_072.ogg",100
Sample,17760,0,"s_040.ogg",100
Sample,18320,0,"s_056.ogg",100
Sample,18340,0,"s_060.ogg",100
Sample,18360,0,"s_068.ogg",100
Sample,18720,0,"s_041.ogg",100
Sample,19280,0,"s_058.ogg",100
Sample,19300,0,"s_062.ogg",100
Sample,19320,0,"s_070.ogg",100
Sample,19680,0,"s_038.ogg",100
Sample,20240,0,"s_055.ogg",100
Sample,20260,0,"s_058.ogg",100
Sample,20280,0,"s_067.ogg",100
Sample,21200,0,"s_056.ogg",100
Sample,21220,0,"s_068.ogg",100
Sample,22160,0,"s_055.ogg",100
Sample,22180,0,"s_067.ogg",100
Sample,24000,0,"m_039.ogg",100
Sample,24480,0,"s_048.ogg",100
Sample,32680,0,"s_043.ogg",100
Sample,32720,0,"s_048.ogg",100
Sample,34600,0,"s_041.ogg",100
Sample,34640,0,"s_046.ogg",100
Sample,36480,0,"s_068.ogg",100
Sample,37480,0,"s_043.ogg",100
Sample,39840,0,"s_043.ogg",100
Sample,54840,0,"m_031.ogg",100
Sample,55720,0,"m_032.ogg",100
Sample,56600,0,"m_029.ogg",100
Sample,57480,0,"m_031.ogg",100
Sample,58360,0,"m_029.ogg",100
Sample,59240,0,"m_039.ogg",100
Sample,59680,0,"m_036.ogg",100
Sample,60120,0,"s_031.ogg",100
Sample,61000,0,"s_041.ogg",100
Sample,61440,0,"s_031.ogg",100
Sample,61880,0,"s_029.ogg",100
Sample,62320,0,"s_027.ogg",100
Sample,63200,0,"s_027.ogg",100
Sample,64080,0,"m_015.ogg",100
Sample,64410,0,"s_033.ogg",100
Sample,64410,0,"s_039.ogg",100
Sample,64520,0,"s_039.ogg",100
Sample,64520,0,"s_033.ogg",100
Sample,64740,0,"s_024.ogg",100
Sample,64960,0,"s_011.ogg",100
Sample,65400,0,"m_023.ogg",100
Sample,65400,0,"m_019.ogg",100
Sample,65840,0,"m_015.ogg",100
Sample,66170,0,"s_033.ogg",100
Sample,66170,0,"s_030.ogg",100
Sample,66280,0,"s_030.ogg",100
Sample,66280,0,"s_033.ogg",100
Sample,66500,0,"s_012.ogg",100
Sample,66720,0,"s_014.ogg",100
Sample,67160,0,"s_020.ogg",100
Sample,67160,0,"s_032.ogg",100
Sample,67600,0,"m_015.ogg",100
Sample,67930,0,"s_039.ogg",100
Sample,67930,0,"s_030.ogg",100
Sample,68040,0,"s_030.ogg",100
Sample,68040,0,"s_039.ogg",100
Sample,68260,0,"s_024.ogg",100
Sample,68480,0,"s_011.ogg",100
Sample,68920,0,"m_023.ogg",100
Sample,68920,0,"m_019.ogg",100
Sample,69360,0,"m_015.ogg",100
Sample,69690,0,"s_033.ogg",100
Sample,69690,0,"s_030.ogg",100
Sample,69800,0,"s_030.ogg",100
Sample,69800,0,"s_033.ogg",100
Sample,70020,0,"s_012.ogg",100
Sample,70240,0,"s_014.ogg",100
Sample,70680,0,"s_020.ogg",100
Sample,70900,0,"s_019.ogg",100
Sample,71120,0,"m_024.ogg",100
Sample,71120,0,"m_031.ogg",100
Sample,71120,0,"m_040.ogg",100
Sample,71450,0,"s_043.ogg",100
Sample,71450,0,"s_040.ogg",100
Sample,71560,0,"s_040.ogg",100
Sample,71560,0,"s_043.ogg",100
Sample,71780,0,"s_016.ogg",100
Sample,72000,0,"s_017.ogg",100
Sample,72440,0,"s_020.ogg",100
Sample,72660,0,"s_021.ogg",100
Sample,72880,0,"m_029.ogg",100
Sample,72880,0,"m_022.ogg",100
Sample,72880,0,"m_038.ogg",100
Sample,73210,0,"s_046.ogg",100
Sample,73210,0,"s_038.ogg",100
Sample,73320,0,"s_038.ogg",100
Sample,73320,0,"s_046.ogg",100
Sample,73540,0,"s_014.ogg",100
Sample,73760,0,"s_015.ogg",100
Sample,74200,0,"s_033.ogg",100
Sample,74420,0,"s_019.ogg",100
Sample,74640,0,"s_020.ogg",100
Sample,74640,0,"s_035.ogg",100
Sample,74640,0,"s_029.ogg",100
Sample,74970,0,"s_041.ogg",100
Sample,75080,0,"m_044.ogg",100
Sample,75520,0,"s_027.ogg",100
Sample,75520,0,"s_019.ogg",100
Sample,76400,0,"m_036.ogg",100
Sample,76400,0,"m_032.ogg",100
Sample,76840,0,"m_019.ogg",100
Sample,77280,0,"m_024.ogg",100
Sample,77280,0,"m_029.ogg",100
Sample,77280,0,"m_035.ogg",100
Sample,77280,0,"s_031.ogg",100
Sample,77720,0,"s_024.ogg",100
Sample,78380,0,"s_043.ogg",100
Sample,78600,0,"s_041.ogg",100
Sample,78820,0,"s_039.ogg",100
Sample,79040,0,"s_056.ogg",100
Sample,79260,0,"s_038.ogg",100
Sample,79480,0,"s_036.ogg",100
Sample,79700,0,"s_035.ogg",100
Sample,80140,0,"s_043.ogg",100
Sample,80360,0,"s_041.ogg",100
Sample,80580,0,"s_039.ogg",100
Sample,80800,0,"s_036.ogg",100
Sample,80800,0,"s_044.ogg",100
Sample,81240,0,"s_031.ogg",100
Sample,81240,0,"s_035.ogg",100
Sample,81900,0,"s_051.ogg",100
Sample,82120,0,"s_041.ogg",100
Sample,82340,0,"s_039.ogg",100
Sample,82560,0,"s_031.ogg",100
Sample,82780,0,"s_046.ogg",100
Sample,83000,0,"s_036.ogg",100
Sample,83220,0,"s_035.ogg",100
Sample,83660,0,"s_051.ogg",100
Sample,83880,0,"s_041.ogg",100
Sample,84100,0,"s_039.ogg",100
Sample,84320,0,"s_044.ogg",100
Sample,84320,0,"s_036.ogg",100
Sample,84760,0,"s_035.ogg",100
Sample,84760,0,"s_031.ogg",100
Sample,85200,0,"s_036.ogg",100
Sample,85420,0,"s_049.ogg",100
Sample,85640,0,"s_048.ogg",100
Sample,85860,0,"s_046.ogg",100
Sample,86080,0,"s_044.ogg",100
Sample,86300,0,"s_034.ogg",100
Sample,86520,0,"s_041.ogg",100
Sample,86740,0,"s_029.ogg",100
Sample,86960,0,"s_046.ogg",100
Sample,87180,0,"s_039.ogg",100
Sample,87400,0,"s_038.ogg",100
Sample,87620,0,"s_035.ogg",100
Sample,87840,0,"s_034.ogg",100
Sample,88060,0,"s_032.ogg",100
Sample,88280,0,"s_031.ogg",100
Sample,88500,0,"s_027.ogg",100
Sample,88720,0,"s_044.ogg",100
Sample,88720,0,"s_038.ogg",100
Sample,89600,0,"s_043.ogg",100
Sample,96080,0,"m_024.ogg",100
Sample,97040,0,"m_011.ogg",100
Sample,98000,0,"m_024.ogg",100
Sample,98960,0,"m_011.ogg",100
Sample,99920,0,"m_016.ogg",100
Sample,100880,0,"m_029.ogg",100
Sample,101840,0,"m_014.ogg",100
Sample,102800,0,"m_015.ogg",100
Sample,103760,0,"m_029.ogg",100
Sample,104720,0,"m_019.ogg",100
Sample,105680,0,"m_017.ogg",100
Sample,105920,0,"s_060.ogg",100
Sample,106160,0,"s_031.ogg",100
Sample,106160,0,"s_047.ogg",100
Sample,106640,0,"m_012.ogg",100
Sample,106880,0,"s_051.ogg",100
Sample,107120,0,"s_048.ogg",100
Sample,107600,0,"m_079.ogg",100
Sample,107600,0,"m_075.ogg",100
Sample,108320,0,"s_074.ogg",100
Sample,108320,0,"s_077.ogg",100
Sample,108440,0,"s_072.ogg",100
Sample,108440,0,"s_063.ogg",100
Sample,108560,0,"s_062.ogg",100
Sample,108560,0,"s_074.ogg",100
Sample,108680,0,"s_068.ogg",100
Sample,108680,0,"s_060.ogg",100
Sample,108800,0,"s_059.ogg",100
Sample,108800,0,"s_067.ogg",100
Sample,108920,0,"s_056.ogg",100
Sample,108920,0,"s_065.ogg",100
Sample,109040,0,"s_063.ogg",100
Sample,109040,0,"s_067.ogg",100
Sample,109160,0,"s_065.ogg",100
Sample,109160,0,"s_053.ogg",100
Sample,109280,0,"s_060.ogg",100
Sample,109280,0,"s_063.ogg",100
Sample,109400,0,"s_062.ogg",100
Sample,109400,0,"s_050.ogg",100
Sample,109520,0,"m_051.ogg",100
Sample,109520,0,"m_063.ogg",100
Sample,110240,0,"s_065.ogg",100
Sample,110240,0,"s_053.ogg",100
Sample,110360,0,"s_063.ogg",100
Sample,110360,0,"s_067.ogg",100
Sample,110480,0,"s_053.ogg",100
Sample,110480,0,"s_065.ogg",100
Sample,110600,0,"s_063.ogg",100
Sample,110600,0,"s_051.ogg",100
Sample,110720,0,"s_050.ogg",100
Sample,110720,0,"s_062.ogg",100
Sample,110840,0,"s_056.ogg",100
Sample,110840,0,"s_060.ogg",100
Sample,110960,0,"m_047.ogg",100
Sample,110960,0,"m_055.ogg",100
Sample,111440,0,"m_079.ogg",100
Sample,111440,0,"m_075.ogg",100
Sample,112160,0,"s_074.ogg",100
Sample,112160,0,"s_077.ogg",100
Sample,112280,0,"s_072.ogg",100
Sample,112280,0,"s_063.ogg",100
Sample,112400,0,"s_074.ogg",100
Sample,112400,0,"s_062.ogg",100
Sample,112520,0,"s_060.ogg",100
Sample,112520,0,"s_068.ogg",100
Sample,112640,0,"s_059.ogg",100
Sample,112640,0,"s_067.ogg",100
Sample,112760,0,"s_065.ogg",100
Sample,112760,0,"s_056.ogg",100
Sample,112880,0,"s_067.ogg",100
Sample,112880,0,"s_063.ogg",100
Sample,113000,0,"s_053.ogg",100
Sample,113000,0,"s_065.ogg",100
Sample,113120,0,"s_060.ogg",100
Sample,113120,0,"s_063.ogg",100
Sample,113240,0,"s_059.ogg",100
Sample,113360,0,"m_060.ogg",100
Sample,113360,0,"m_051.ogg",100
Sample,114080,0,"s_062.ogg",100
Sample,114080,0,"s_065.ogg",100
Sample,114200,0,"s_063.ogg",100
Sample,114200,0,"s_067.ogg",100
Sample,114320,0,"s_053.ogg",100
Sample,114440,0,"s_063.ogg",100
Sample,114560,0,"s_062.ogg",100
Sample,114680,0,"s_060.ogg",100
Sample,114800,0,"m_059.ogg",100
Sample,115280,0,"m_055.ogg",100
Sample,115280,0,"m_052.ogg",100
Sample,116000,0,"s_062.ogg",100
Sample,116000,0,"s_065.ogg",100
Sample,116120,0,"s_055.ogg",100
Sample,116240,0,"m_065.ogg",100
Sample,116240,0,"m_056.ogg",100
Sample,116360,0,"m_067.ogg",100
Sample,116360,0,"m_058.ogg",100
Sample,116480,0,"m_060.ogg",100
Sample,116480,0,"m_068.ogg",100
Sample,116600,0,"m_070.ogg",100
Sample,116600,0,"m_062.ogg",100
Sample,116720,0,"m_072.ogg",100
Sample,116720,0,"m_064.ogg",100
Sample,116840,0,"m_065.ogg",100
Sample,116840,0,"m_074.ogg",100
Sample,116960,0,"s_067.ogg",100
Sample,116960,0,"s_079.ogg",100
Sample,117080,0,"s_080.ogg",100
Sample,117080,0,"s_077.ogg",100
Sample,117200,0,"m_062.ogg",100
Sample,117200,0,"m_053.ogg",100
Sample,117920,0,"s_060.ogg",100
Sample,117920,0,"s_063.ogg",100
Sample,118040,0,"s_062.ogg",100
Sample,118160,0,"m_055.ogg",100
Sample,118160,0,"m_063.ogg",100
Sample,118280,0,"m_056.ogg",100
Sample,118280,0,"m_065.ogg",100
Sample,118400,0,"m_067.ogg",100
Sample,118400,0,"m_058.ogg",100
Sample,118520,0,"m_060.ogg",100
Sample,118520,0,"m_068.ogg",100
Sample,118640,0,"m_062.ogg",100
Sample,118640,0,"m_070.ogg",100
Sample,118760,0,"m_063.ogg",100
Sample,118760,0,"m_072.ogg",100
Sample,118880,0,"s_074.ogg",100
Sample,118880,0,"s_077.ogg",100
Sample,119000,0,"s_079.ogg",100
Sample,119000,0,"s_075.ogg",100
Sample,119120,0,"s_017.ogg",100
Sample,119120,0,"s_029.ogg",100
Sample,119120,0,"s_023.ogg",100
Sample,119120,0,"s_026.ogg",100
Sample,119240,0,"s_020.ogg",100
Sample,119360,0,"s_035.ogg",100
Sample,119480,0,"s_038.ogg",100
Sample,119600,0,"s_029.ogg",100
Sample,119600,0,"s_041.ogg",100
Sample,119600,0,"s_038.ogg",100
Sample,119600,0,"s_035.ogg",100
Sample,119720,0,"s_030.ogg",100
Sample,119840,0,"s_043.ogg",100
Sample,119960,0,"s_032.ogg",100
Sample,120080,0,"s_021.ogg",100
Sample,120080,0,"s_012.ogg",100
Sample,120080,0,"s_024.ogg",100
Sample,120080,0,"s_018.ogg",100
Sample,120200,0,"s_015.ogg",100
Sample,120320,0,"s_018.ogg",100
Sample,120440,0,"s_033.ogg",100
Sample,120560,0,"s_030.ogg",100
Sample,120560,0,"s_036.ogg",100
Sample,120560,0,"s_024.ogg",100
Sample,120560,0,"s_033.ogg",100
Sample,120680,0,"s_025.ogg",100
Sample,120800,0,"s_026.ogg",100
Sample,120920,0,"s_027.ogg",100
Sample,121040,0,"s_038.ogg",100
Sample,121040,0,"s_036.ogg",100
Sample,121040,0,"s_029.ogg",100
Sample,121160,0,"s_030.ogg",100
Sample,121280,0,"s_031.ogg",100
Sample,121400,0,"s_032.ogg",100
Sample,121520,0,"s_043.ogg",100
Sample,121520,0,"s_031.ogg",100
Sample,121760,0,"s_035.ogg",100
Sample,121760,0,"s_041.ogg",100
Sample,122000,0,"m_048.ogg",100
Sample,122000,0,"m_024.ogg",100
Sample,122000,0,"m_029.ogg",100
Sample,122000,0,"m_032.ogg",100
Sample,122480,0,"s_039.ogg",100
Sample,123560,0,"s_024.ogg",100
Sample,125060,0,"s_024.ogg",100
Sample,125060,0,"s_035.ogg",100
Sample,125960,0,"s_024.ogg",100
Sample,128360,0,"s_024.ogg",100
Sample,128360,0,"s_034.ogg",100
Sample,130760,0,"s_022.ogg",100
Sample,130760,0,"s_032.ogg",100
Sample,133160,0,"s_038.ogg",100
Sample,133460,0,"s_041.ogg",100
Sample,133460,0,"s_044.ogg",100
Sample,134360,0,"s_027.ogg",100
Sample,134660,0,"s_039.ogg",100
Sample,134960,0,"s_029.ogg",100
Sample,135260,0,"s_041.ogg",100
Sample,135260,0,"s_044.ogg",100
Sample,135560,0,"s_031.ogg",100
Sample,135860,0,"s_043.ogg",100
Sample,135860,0,"s_047.ogg",100
Sample,136160,0,"s_043.ogg",100
Sample,136160,0,"s_036.ogg",100
Sample,136160,0,"s_048.ogg",100
Sample,136460,0,"s_024.ogg",100
Sample,136460,0,"s_017.ogg",100
Sample,136760,0,"s_024.ogg",100
Sample,136760,0,"s_012.ogg",100
Sample,137360,0,"s_043.ogg",100
Sample,137540,0,"s_027.ogg",100
Sample,137720,0,"s_031.ogg",100
Sample,137810,0,"s_043.ogg",100
Sample,137900,0,"s_031.ogg",100
Sample,137990,0,"s_043.ogg",100
Sample,138080,0,"s_031.ogg",100
Sample,138170,0,"s_043.ogg",100
Sample,138260,0,"s_031.ogg",100
Sample,138350,0,"s_050.ogg",100
Sample,138350,0,"s_038.ogg",100
Sample,138440,0,"s_021.ogg",100
Sample,138530,0,"s_043.ogg",100
Sample,138620,0,"s_031.ogg",100
Sample,138710,0,"s_043.ogg",100
Sample,138830,0,"s_043.ogg",100
Sample,139010,0,"s_031.ogg",100
Sample,139190,0,"s_031.ogg",100
Sample,139280,0,"s_043.ogg",100
Sample,139370,0,"s_031.ogg",100
Sample,139460,0,"s_043.ogg",100
Sample,139550,0,"s_031.ogg",100
Sample,139640,0,"s_043.ogg",100
Sample,139730,0,"s_030.ogg",100
Sample,139820,0,"s_048.ogg",100
Sample,139820,0,"s_038.ogg",100
Sample,139910,0,"s_031.ogg",100
Sample,140000,0,"s_043.ogg",100
Sample,140000,0,"s_047.ogg",100
Sample,140090,0,"s_035.ogg",100
Sample,140300,0,"s_048.ogg",100
Sample,140300,0,"s_055.ogg",100
Sample,140480,0,"s_027.ogg",100
Sample,140660,0,"s_038.ogg",100
Sample,140750,0,"s_053.ogg",100
Sample,140840,0,"s_024.ogg",100
Sample,140930,0,"s_043.ogg",100
Sample,141020,0,"s_035.ogg",100
Sample,141110,0,"s_043.ogg",100
Sample,141200,0,"s_019.ogg",100
Sample,141380,0,"s_033.ogg",100
Sample,141470,0,"s_043.ogg",100
Sample,141560,0,"s_023.ogg",100
Sample,141650,0,"s_043.ogg",100
Sample,141770,0,"s_055.ogg",100
Sample,141770,0,"s_048.ogg",100
Sample,141950,0,"s_039.ogg",100
Sample,142130,0,"s_038.ogg",100
Sample,142220,0,"s_055.ogg",100
Sample,142310,0,"s_024.ogg",100
Sample,142400,0,"s_043.ogg",100
Sample,142490,0,"s_035.ogg",100
Sample,142580,0,"s_043.ogg",100
Sample,142670,0,"s_020.ogg",100
Sample,142760,0,"s_060.ogg",100
Sample,142850,0,"s_019.ogg",100
Sample,142940,0,"s_059.ogg",100
Sample,143030,0,"s_038.ogg",100
Sample,143030,0,"s_035.ogg",100
Sample,143120,0,"s_055.ogg",100
Sample,143240,0,"s_048.ogg",100
Sample,143240,0,"s_052.ogg",100
Sample,143420,0,"s_038.ogg",100
Sample,143510,0,"s_043.ogg",100
Sample,143510,0,"s_048.ogg",100
Sample,143600,0,"s_028.ogg",100
Sample,143690,0,"s_048.ogg",100
Sample,143780,0,"s_024.ogg",100
Sample,143870,0,"s_055.ogg",100
Sample,143960,0,"m_041.ogg",100
Sample,144050,0,"m_056.ogg",100
Sample,144140,0,"s_040.ogg",100
Sample,144230,0,"m_055.ogg",100
Sample,144320,0,"m_041.ogg",100
Sample,144410,0,"s_056.ogg",100
Sample,144500,0,"s_048.ogg",100
Sample,144590,0,"s_056.ogg",100
Sample,144710,0,"s_041.ogg",100
Sample,144710,0,"s_050.ogg",100
Sample,144890,0,"s_036.ogg",100
Sample,144980,0,"s_046.ogg",100
Sample,144980,0,"s_053.ogg",100
Sample,145070,0,"s_038.ogg",100
Sample,145160,0,"s_046.ogg",100
Sample,145250,0,"s_022.ogg",100
Sample,145340,0,"s_041.ogg",100
Sample,145430,0,"m_039.ogg",100
Sample,145520,0,"s_063.ogg",100
Sample,145610,0,"s_046.ogg",100
Sample,145700,0,"m_056.ogg",100
Sample,145790,0,"m_043.ogg",100
Sample,145880,0,"s_070.ogg",100
Sample,145970,0,"s_039.ogg",100
Sample,146060,0,"s_067.ogg",100
Sample,146180,0,"m_041.ogg",100
Sample,146180,0,"m_029.ogg",100
Sample,146360,0,"s_050.ogg",100
Sample,146450,0,"s_053.ogg",100
Sample,146450,0,"s_062.ogg",100
Sample,146540,0,"s_050.ogg",100
Sample,146630,0,"s_059.ogg",100
Sample,146630,0,"m_055.ogg",100
Sample,146720,0,"s_050.ogg",100
Sample,146810,0,"s_062.ogg",100
Sample,146810,0,"s_068.ogg",100
Sample,146900,0,"m_039.ogg",100
Sample,146990,0,"m_060.ogg",100
Sample,147080,0,"s_047.ogg",100
Sample,147170,0,"s_053.ogg",100
Sample,147170,0,"s_065.ogg",100
Sample,147260,0,"m_048.ogg",100
Sample,147350,0,"m_063.ogg",100
Sample,147350,0,"m_060.ogg",100
Sample,147440,0,"s_040.ogg",100
Sample,147530,0,"s_052.ogg",100
Sample,147530,0,"s_064.ogg",100
Sample,147620,0,"m_041.ogg",100
Sample,147710,0,"m_053.ogg",100
Sample,147710,0,"m_065.ogg",100
Sample,147800,0,"s_036.ogg",100
Sample,147800,0,"s_030.ogg",100
Sample,147890,0,"s_063.ogg",100
Sample,147890,0,"s_068.ogg",100
Sample,147980,0,"m_039.ogg",100
Sample,147980,0,"s_043.ogg",100
Sample,148070,0,"m_060.ogg",100
Sample,148070,0,"s_067.ogg",100
Sample,148160,0,"s_043.ogg",100
Sample,148160,0,"s_031.ogg",100
Sample,148250,0,"s_067.ogg",100
Sample,148250,0,"s_062.ogg",100
Sample,148430,0,"m_036.ogg",100
Sample,148430,0,"m_031.ogg",100
Sample,148430,0,"m_024.ogg",100
Sample,148790,0,"s_048.ogg",100
Sample,148790,0,"s_043.ogg",100
Sample,158750,0,"s_035.ogg",100
Sample,161950,0,"l_048.ogg",100
Sample,161950,0,"l_072.ogg",100
Sample,163870,0,"l_048.ogg",100
Sample,163870,0,"l_053.ogg",100
Sample,163870,0,"m_074.ogg",100
Sample,165790,0,"l_048.ogg",100
Sample,165790,0,"l_051.ogg",100
Sample,165790,0,"l_067.ogg",100
Sample,166830,0,"s_071.ogg",100
Sample,167710,0,"l_048.ogg",100
Sample,167710,0,"l_050.ogg",100
Sample,167710,0,"l_065.ogg",100
Sample,169630,0,"l_048.ogg",100
Sample,169630,0,"l_063.ogg",100
Sample,171550,0,"l_053.ogg",100
Sample,171550,0,"l_048.ogg",100
Sample,171550,0,"l_062.ogg",100
Sample,173470,0,"l_051.ogg",100
Sample,173470,0,"l_048.ogg",100
Sample,173470,0,"l_063.ogg",100
Sample,174510,0,"s_071.ogg",100
Sample,175390,0,"l_048.ogg",100
Sample,175390,0,"l_050.ogg",100
Sample,175390,0,"l_065.ogg",100
Sample,177310,0,"l_048.ogg",100
Sample,177310,0,"l_058.ogg",100
Sample,180670,0,"m_068.ogg",100
Sample,181150,0,"l_065.ogg",100
Sample,181150,0,"l_058.ogg",100
Sample,184510,0,"m_067.ogg",100
Sample,184990,0,"m_062.ogg",100
Sample,184990,0,"l_068.ogg",100
Sample,192790,0,"m_012.ogg",100
Sample,193150,0,"m_015.ogg",100
Sample,193630,0,"m_014.ogg",100
Sample,194110,0,"m_024.ogg",100
Sample,194830,0,"m_059.ogg",100
Sample,194830,0,"m_055.ogg",100
Sample,195310,0,"m_065.ogg",100
Sample,195310,0,"m_062.ogg",100
Sample,195790,0,"m_062.ogg",100
Sample,195790,0,"m_065.ogg",100
Sample,196270,0,"s_062.ogg",100
Sample,196270,0,"s_065.ogg",100
Sample,196990,0,"m_015.ogg",100
Sample,197470,0,"m_014.ogg",100
Sample,197950,0,"m_012.ogg",100
Sample,198430,0,"l_019.ogg",100
Sample,200590,0,"m_024.ogg",100
Sample,200950,0,"m_027.ogg",100
Sample,201430,0,"m_026.ogg",100
Sample,201910,0,"m_024.ogg",100
Sample,202630,0,"m_059.ogg",100
Sample,202630,0,"m_055.ogg",100
Sample,203110,0,"m_065.ogg",100
Sample,203110,0,"m_062.ogg",100
Sample,203590,0,"m_062.ogg",100
Sample,203590,0,"m_065.ogg",100
Sample,204070,0,"s_062.ogg",100
Sample,204070,0,"s_065.ogg",100
Sample,204790,0,"m_027.ogg",100
Sample,205270,0,"m_014.ogg",100
Sample,205750,0,"m_024.ogg",100
Sample,206230,0,"s_031.ogg",100
Sample,208750,0,"m_028.ogg",100
Sample,208750,0,"m_034.ogg",100
Sample,209230,0,"m_028.ogg",100
Sample,209230,0,"m_036.ogg",100
Sample,209710,0,"m_034.ogg",100
Sample,209710,0,"m_028.ogg",100
Sample,210190,0,"s_017.ogg",100
Sample,210430,0,"s_052.ogg",100
Sample,210430,0,"s_043.ogg",100
Sample,210670,0,"s_044.ogg",100
Sample,210670,0,"s_036.ogg",100
Sample,210910,0,"s_046.ogg",100
Sample,210910,0,"s_064.ogg",100
Sample,211150,0,"s_053.ogg",100
Sample,211150,0,"s_068.ogg",100
Sample,211390,0,"s_070.ogg",100
Sample,211390,0,"s_058.ogg",100
Sample,211630,0,"s_060.ogg",100
Sample,211630,0,"s_077.ogg",100
Sample,211630,0,"s_080.ogg",100
Sample,212590,0,"m_026.ogg",100
Sample,212590,0,"m_032.ogg",100
Sample,213070,0,"m_026.ogg",100
Sample,213070,0,"m_034.ogg",100
Sample,213550,0,"m_032.ogg",100
Sample,213550,0,"m_026.ogg",100
Sample,214030,0,"s_031.ogg",100
Sample,214270,0,"s_041.ogg",100
Sample,214270,0,"s_032.ogg",100
Sample,214510,0,"s_034.ogg",100
Sample,214510,0,"s_043.ogg",100
Sample,214750,0,"s_053.ogg",100
Sample,214750,0,"s_047.ogg",100
Sample,214990,0,"s_046.ogg",100
Sample,214990,0,"s_055.ogg",100
Sample,215230,0,"s_065.ogg",100
Sample,215230,0,"s_059.ogg",100
Sample,215470,0,"s_058.ogg",100
Sample,215470,0,"s_063.ogg",100
Sample,215470,0,"s_067.ogg",100
Sample,215950,0,"m_032.ogg",100
Sample,216190,0,"s_041.ogg",100
Sample,216190,0,"s_047.ogg",100
Sample,216430,0,"s_041.ogg",100
Sample,216430,0,"s_047.ogg",100
Sample,217150,0,"s_039.ogg",100
Sample,217150,0,"s_036.ogg",100
Sample,217390,0,"s_036.ogg",100
Sample,217390,0,"s_039.ogg",100
Sample,218110,0,"s_037.ogg",100
Sample,218110,0,"s_034.ogg",100
Sample,218350,0,"s_034.ogg",100
Sample,218350,0,"s_037.ogg",100
Sample,219070,0,"s_035.ogg",100
Sample,219070,0,"s_032.ogg",100
Sample,219310,0,"s_032.ogg",100
Sample,219310,0,"s_035.ogg",100
Sample,220030,0,"s_036.ogg",100
Sample,220030,0,"s_032.ogg",100
Sample,220270,0,"s_032.ogg",100
Sample,220270,0,"s_036.ogg",100
Sample,220990,0,"s_042.ogg",100
Sample,220990,0,"s_036.ogg",100
Sample,221230,0,"s_036.ogg",100
Sample,221230,0,"s_042.ogg",100
Sample,222190,0,"m_031.ogg",100
Sample,222190,0,"m_043.ogg",100
Sample,222190,0,"m_038.ogg",100
Sample,222190,0,"m_036.ogg",100
Sample,222190,0,"m_050.ogg",100
Sample,222670,0,"m_031.ogg",100
Sample,223150,0,"m_038.ogg",100
Sample,223150,0,"m_031.ogg",100
Sample,223150,0,"m_043.ogg",100
Sample,223150,0,"m_059.ogg",100
Sample,223150,0,"m_035.ogg",100
Sample,223630,0,"m_019.ogg",100
Sample,225550,0,"m_019.ogg",100
Sample,227470,0,"m_017.ogg",100
Sample,229630,0,"m_044.ogg",100
Sample,229630,0,"m_041.ogg",100
Sample,229630,0,"s_035.ogg",100
Sample,230110,0,"s_038.ogg",100
Sample,230110,0,"s_044.ogg",100
Sample,230110,0,"s_047.ogg",100
Sample,230590,0,"m_047.ogg",100
Sample,230590,0,"m_041.ogg",100
Sample,230590,0,"m_050.ogg",100
Sample,231070,0,"s_043.ogg",100
Sample,231070,0,"s_038.ogg",100
Sample,231070,0,"s_067.ogg",100
Sample,231310,0,"m_019.ogg",100
Sample,233230,0,"m_019.ogg",100
Sample,235150,0,"m_017.ogg",100
Sample,237310,0,"m_044.ogg",100
Sample,237310,0,"m_041.ogg",100
Sample,237310,0,"s_035.ogg",100
Sample,237790,0,"s_038.ogg",100
Sample,237790,0,"s_044.ogg",100
Sample,237790,0,"s_047.ogg",100
Sample,238270,0,"m_041.ogg",100
Sample,238270,0,"m_050.ogg",100
Sample,238270,0,"m_047.ogg",100
Sample,238750,0,"s_038.ogg",100
Sample,238750,0,"s_043.ogg",100
Sample,238750,0,"s_035.ogg",100
Sample,238990,0,"l_012.ogg",100
Sample,239070,0,"l_016.ogg",100
Sample,239150,0,"m_019.ogg",100
Sample,239230,0,"m_024.ogg",100
Sample,239310,0,"m_028.ogg",100
Sample,239390,0,"m_031.ogg",100
Sample,239470,0,"m_036.ogg",100
Sample,239550,0,"m_040.ogg",100
Sample,239630,0,"m_043.ogg",100
Sample,239710,0,"m_048.ogg",100
Sample,239790,0,"m_052.ogg",100
Sample,239870,0,"s_055.ogg",100
Sample,239950,0,"s_060.ogg",100
Sample,240030,0,"s_055.ogg",100
Sample,240110,0,"s_052.ogg",100
Sample,240190,0,"s_048.ogg",100
Sample,240270,0,"s_043.ogg",100
Sample,240350,0,"s_040.ogg",100
Sample,240430,0,"s_036.ogg",100
Sample,240510,0,"s_031.ogg",100
Sample,240590,0,"s_028.ogg",100
Sample,240670,0,"s_024.ogg",100
Sample,240750,0,"s_019.ogg",100
Sample,240830,0,"s_016.ogg",100
Sample,240910,0,"l_012.ogg",100
Sample,240990,0,"l_016.ogg",100
Sample,241070,0,"m_019.ogg",100
Sample,241150,0,"m_024.ogg",100
Sample,241230,0,"m_028.ogg",100
Sample,241310,0,"m_031.ogg",100
Sample,241390,0,"m_036.ogg",100
Sample,241470,0,"m_040.ogg",100
Sample,241550,0,"m_043.ogg",100
Sample,241630,0,"m_048.ogg",100
Sample,241690,0,"m_052.ogg",100
Sample,241750,0,"s_055.ogg",100
Sample,241810,0,"s_060.ogg",100
Sample,241870,0,"s_064.ogg",100
Sample,241930,0,"s_060.ogg",100
Sample,241990,0,"s_055.ogg",100
Sample,242050,0,"s_052.ogg",100
Sample,242110,0,"s_048.ogg",100
Sample,242190,0,"s_043.ogg",100
Sample,242270,0,"s_040.ogg",100
Sample,242350,0,"s_036.ogg",100
Sample,242430,0,"s_031.ogg",100
Sample,242510,0,"s_028.ogg",100
Sample,242590,0,"s_024.ogg",100
Sample,242670,0,"s_019.ogg",100
Sample,242750,0,"s_016.ogg",100
Sample,242830,0,"l_012.ogg",100
Sample,242910,0,"l_016.ogg",100
Sample,242990,0,"l_019.ogg",100
Sample,243070,0,"l_024.ogg",100
Sample,243150,0,"l_028.ogg",100
Sample,243230,0,"l_031.ogg",100
Sample,243310,0,"m_036.ogg",100
Sample,243390,0,"m_040.ogg",100
Sample,243470,0,"m_043.ogg",100
Sample,243550,0,"m_048.ogg",100
Sample,243630,0,"m_052.ogg",100
Sample,243710,0,"m_055.ogg",100
Sample,243790,0,"m_060.ogg",100
Sample,243890,0,"m_064.ogg",100
Sample,243990,0,"m_068.ogg",100
Sample,244090,0,"m_067.ogg",100
Sample,244190,0,"s_064.ogg",100
Sample,244290,0,"s_060.ogg",100
Sample,244370,0,"s_055.ogg",100
Sample,244450,0,"s_052.ogg",100
Sample,244530,0,"s_048.ogg",100
Sample,244610,0,"s_043.ogg",100
Sample,244690,0,"s_040.ogg",100
Sample,244770,0,"s_036.ogg",100
Sample,244850,0,"s_031.ogg",100
Sample,244930,0,"s_028.ogg",100
Sample,245010,0,"s_024.ogg",100
Sample,245090,0,"s_019.ogg",100
Sample,245170,0,"s_016.ogg",100
Sample,246210,0,"m_012.ogg",100
Sample,246270,0,"m_013.ogg",100
Sample,246330,0,"m_014.ogg",100
Sample,246390,0,"m_015.ogg",100
Sample,246450,0,"m_016.ogg",100
Sample,246510,0,"m_017.ogg",100
Sample,246570,0,"s_018.ogg",100
Sample,246630,0,"s_019.ogg",100
Sample,246690,0,"m_020.ogg",100
Sample,246750,0,"m_019.ogg",100
Sample,246810,0,"m_018.ogg",100
Sample,246870,0,"s_017.ogg",100
Sample,246930,0,"s_016.ogg",100
Sample,246990,0,"s_015.ogg",100
Sample,247050,0,"s_014.ogg",100
Sample,247110,0,"s_013.ogg",100
Sample,247170,0,"m_012.ogg",100
Sample,247650,0,"m_036.ogg",100
Sample,247650,0,"m_031.ogg",100
Sample,247650,0,"m_024.ogg",100
Sample,247650,0,"m_028.ogg",100
Sample,248130,0,"m_048.ogg",100
Sample,248130,0,"m_043.ogg",100
Sample,248130,0,"m_036.ogg",100
Sample,248130,0,"m_040.ogg",100

[TimingPoints]
0,480.000000000001,4,2,0,100,1,0
40320,440.000000000001,4,2,0,100,1,0
40320,-109.090909090909,4,2,0,100,0,0
92240,480.000000000001,4,2,0,100,1,0
122960,600.000000000001,4,2,0,100,1,0
122960,-80.090909090909,4,2,0,100,0,0
137360,360.000000000001,4,2,0,100,1,0
137360,-133.333333333333,4,2,0,100,0,0
138710,480.000000000001,4,2,0,100,1,0
138830,360.000000000001,4,2,0,100,1,0
138830,-133.333333333333,4,2,0,100,0,0
140180,480.000000000001,4,2,0,100,1,0
140300,360.000000000001,4,2,0,100,1,0
140300,-133.333333333333,4,2,0,100,0,0
141650,480.000000000001,4,2,0,100,1,0
141770,360.000000000001,4,2,0,100,1,0
141770,-133.333333333333,4,2,0,100,0,0
143120,480.000000000001,4,2,0,100,1,0
143240,360.000000000001,4,2,0,100,1,0
143240,-133.333333333333,4,2,0,100,0,0
144590,480.000000000001,4,2,0,100,1,0
144710,360.000000000001,4,2,0,100,1,0
144710,-133.333333333333,4,2,0,100,0,0
146060,480.000000000001,4,2,0,100,1,0
146180,360.000000000001,4,2,0,100,1,0
146180,-133.333333333333,4,2,0,100,0,0
148250,480.000000000001,4,2,0,100,1,0
148430,360.000000000001,4,2,0,100,1,0
148430,-133.333333333333,4,2,0,100,0,0
149150,400.000000000001,4,2,0,100,1,0
149150,-120,4,2,0,100,0,0
161950,480.000000000001,4,2,0,100,1,0
200470,480.000000000001,4,2,0,100,1,0
208270,480.000000000001,4,2,0,100,1,0
243790,400.000000000001,4,2,0,100,1,0
243790,-120,4,2,0,100,0,0
244290,480.000000000001,4,2,0,100,1,0

[HitObjects]
64,192,1920,5,0,0:0:0:0:s_024.ogg
192,192,1940,1,0,0:0:0:0:s_031.ogg
320,192,1960,1,0,0:0:0:0:s_036.ogg
448,192,1980,1,0,0:0:0:0:s_039.ogg
192,192,2340,1,0,0:0:0:0:s_048.ogg
320,192,2400,1,0,0:0:0:0:s_048.ogg
448,192,2520,1,0,0:0:0:0:s_051.ogg
320,192,2640,1,0,0:0:0:0:s_050.ogg
192,192,2760,1,0,0:0:0:0:s_048.ogg
64,192,2880,1,0,0:0:0:0:s_031.ogg
192,192,2900,1,0,0:0:0:0:s_038.ogg
320,192,2920,1,0,0:0:0:0:s_043.ogg
448,192,2940,1,0,0:0:0:0:s_047.ogg
64,192,3300,1,0,0:0:0:0:s_043.ogg
192,192,3360,1,0,0:0:0:0:s_043.ogg
320,192,3480,1,0,0:0:0:0:s_047.ogg
192,192,3600,1,0,0:0:0:0:s_045.ogg
64,192,3720,1,0,0:0:0:0:s_043.ogg
64,192,3840,1,0,0:0:0:0:s_024.ogg
192,192,3860,1,0,0:0:0:0:s_031.ogg
320,192,3880,1,0,0:0:0:0:s_036.ogg
448,192,3900,1,0,0:0:0:0:s_039.ogg
192,192,4260,1,0,0:0:0:0:s_048.ogg
320,192,4320,1,0,0:0:0:0:s_048.ogg
448,192,4440,1,0,0:0:0:0:s_051.ogg
320,192,4560,1,0,0:0:0:0:s_050.ogg
192,192,4680,1,0,0:0:0:0:s_048.ogg
448,192,4800,128,0,5280:0:0:0:0:m_059.ogg
320,192,4800,128,0,5280:0:0:0:0:m_055.ogg
64,192,4800,128,0,5280:0:0:0:0:m_067.ogg
192,192,5280,1,0,0:0:0:0:s_043.ogg
64,192,5760,1,0,0:0:0:0:s_024.ogg
192,192,5780,1,0,0:0:0:0:s_031.ogg
320,192,5800,1,0,0:0:0:0:s_036.ogg
448,192,5820,1,0,0:0:0:0:s_039.ogg
192,192,6180,1,0,0:0:0:0:s_048.ogg
320,192,6240,1,0,0:0:0:0:s_048.ogg
448,192,6360,1,0,0:0:0:0:s_051.ogg
320,192,6480,1,0,0:0:0:0:s_050.ogg
192,192,6600,1,0,0:0:0:0:s_048.ogg
64,192,6720,1,0,0:0:0:0:s_031.ogg
192,192,6740,1,0,0:0:0:0:s_038.ogg
320,192,6760,1,0,0:0:0:0:s_043.ogg
448,192,6780,1,0,0:0:0:0:s_047.ogg
64,192,7140,1,0,0:0:0:0:s_043.ogg
192,192,7200,1,0,0:0:0:0:s_043.ogg
320,192,7320,1,0,0:0:0:0:s_047.ogg
192,192,7440,1,0,0:0:0:0:s_045.ogg
64,192,7560,1,0,0:0:0:0:s_043.ogg
64,192,7680,1,0,0:0:0:0:s_024.ogg
192,192,7700,1,0,0:0:0:0:s_031.ogg
320,192,7720,1,0,0:0:0:0:s_036.ogg
448,192,7740,1,0,0:0:0:0:s_039.ogg
192,192,8100,1,0,0:0:0:0:s_048.ogg
320,192,8160,1,0,0:0:0:0:s_048.ogg
448,192,8280,1,0,0:0:0:0:s_051.ogg
320,192,8400,1,0,0:0:0:0:s_050.ogg
192,192,8520,1,0,0:0:0:0:s_048.ogg
448,192,8640,128,0,9120:0:0:0:0:m_055.ogg
320,192,8640,128,0,9120:0:0:0:0:m_050.ogg
64,192,8640,128,0,9120:0:0:0:0:m_067.ogg
192,192,9120,1,0,0:0:0:0:s_043.ogg
64,192,9600,1,0,0:0:0:0:s_024.ogg
192,192,9620,1,0,0:0:0:0:s_031.ogg
320,192,9640,1,0,0:0:0:0:s_036.ogg
448,192,9660,1,0,0:0:0:0:s_040.ogg
192,192,10020,1,0,0:0:0:0:s_060.ogg
320,192,10080,1,0,0:0:0:0:s_060.ogg
448,192,10200,1,0,0:0:0:0:s_061.ogg
320,192,10320,1,0,0:0:0:0:s_060.ogg
192,192,10440,1,0,0:0:0:0:s_058.ogg
64,192,10560,1,0,0:0:0:0:s_029.ogg
192,192,10580,1,0,0:0:0:0:s_036.ogg
320,192,10600,1,0,0:0:0:0:s_041.ogg
448,192,10620,1,0,0:0:0:0:s_044.ogg
64,192,10980,1,0,0:0:0:0:s_053.ogg
192,192,11040,1,0,0:0:0:0:s_053.ogg
320,192,11160,1,0,0:0:0:0:s_056.ogg
192,192,11280,1,0,0:0:0:0:s_055.ogg
64,192,11400,1,0,0:0:0:0:s_053.ogg
64,192,11520,1,0,0:0:0:0:s_022.ogg
192,192,11540,1,0,0:0:0:0:s_029.ogg
320,192,11560,1,0,0:0:0:0:s_034.ogg
448,192,11580,1,0,0:0:0:0:s_038.ogg
192,192,11940,1,0,0:0:0:0:s_058.ogg
320,192,12000,1,0,0:0:0:0:s_058.ogg
448,192,12120,1,0,0:0:0:0:s_060.ogg
320,192,12240,1,0,0:0:0:0:s_058.ogg
192,192,12360,1,0,0:0:0:0:s_056.ogg
64,192,12480,1,0,0:0:0:0:s_027.ogg
192,192,12500,1,0,0:0:0:0:s_034.ogg
320,192,12520,1,0,0:0:0:0:s_039.ogg
448,192,12540,1,0,0:0:0:0:s_043.ogg
64,192,12900,1,0,0:0:0:0:s_051.ogg
192,192,12960,1,0,0:0:0:0:s_051.ogg
320,192,13080,1,0,0:0:0:0:s_055.ogg
192,192,13200,1,0,0:0:0:0:s_053.ogg
64,192,13320,1,0,0:0:0:0:s_051.ogg
64,192,13440,1,0,0:0:0:0:s_029.ogg
192,192,13460,1,0,0:0:0:0:s_032.ogg
320,192,13480,1,0,0:0:0:0:s_038.ogg
448,192,13500,1,0,0:0:0:0:s_044.ogg
64,192,13860,1,0,0:0:0:0:s_050.ogg
192,192,13920,1,0,0:0:0:0:s_050.ogg
320,192,14040,1,0,0:0:0:0:s_053.ogg
192,192,14160,1,0,0:0:0:0:s_051.ogg
64,192,14280,1,0,0:0:0:0:s_050.ogg
64,192,14400,1,0,0:0:0:0:s_027.ogg
192,192,14420,1,0,0:0:0:0:s_039.ogg
320,192,14440,1,0,0:0:0:0:s_043.ogg
448,192,14460,1,0,0:0:0:0:s_048.ogg
192,192,14820,1,0,0:0:0:0:s_048.ogg
320,192,14880,1,0,0:0:0:0:s_048.ogg
448,192,15000,1,0,0:0:0:0:s_051.ogg
320,192,15120,1,0,0:0:0:0:s_050.ogg
192,192,15240,1,0,0:0:0:0:s_048.ogg
64,192,15360,1,0,0:0:0:0:m_032.ogg
320,192,15360,1,0,0:0:0:0:m_044.ogg
64,192,15720,1,0,0:0:0:0:s_036.ogg
192,192,15720,1,0,0:0:0:0:s_042.ogg
448,192,15720,1,0,0:0:0:0:s_054.ogg
192,192,15840,1,0,0:0:0:0:m_043.ogg
320,192,15840,1,0,0:0:0:0:m_031.ogg
448,192,15960,1,0,0:0:0:0:s_055.ogg
320,192,16080,1,0,0:0:0:0:s_053.ogg
64,192,16200,1,0,0:0:0:0:s_041.ogg
192,192,16200,1,0,0:0:0:0:s_050.ogg
448,192,16200,1,0,0:0:0:0:s_035.ogg
320,192,16320,128,0,16680:0:0:0:0:m_048.ogg
192,192,16320,128,0,16680:0:0:0:0:m_039.ogg
64,192,16320,128,0,16680:0:0:0:0:m_043.ogg
192,192,16800,1,0,0:0:0:0:s_043.ogg
320,192,16800,1,0,0:0:0:0:s_051.ogg
448,192,16800,1,0,0:0:0:0:s_060.ogg
64,192,17280,1,0,0:0:0:0:s_024.ogg
192,192,17300,1,0,0:0:0:0:s_031.ogg
320,192,17320,1,0,0:0:0:0:s_040.ogg
448,192,17340,1,0,0:0:0:0:s_055.ogg
192,192,17700,1,0,0:0:0:0:s_060.ogg
64,192,17760,1,0,0:0:0:0:s_048.ogg
320,192,17760,1,0,0:0:0:0:s_060.ogg
448,192,17760,1,0,0:0:0:0:s_043.ogg
448,192,17880,1,0,0:0:0:0:s_061.ogg
320,192,18000,1,0,0:0:0:0:s_060.ogg
192,192,18120,1,0,0:0:0:0:s_058.ogg
64,192,18240,1,0,0:0:0:0:s_029.ogg
192,192,18260,1,0,0:0:0:0:s_036.ogg
320,192,18280,1,0,0:0:0:0:s_044.ogg
448,192,18300,1,0,0:0:0:0:s_048.ogg
64,192,18660,1,0,0:0:0:0:s_053.ogg
192,192,18720,1,0,0:0:0:0:s_053.ogg
320,192,18720,1,0,0:0:0:0:s_048.ogg
448,192,18720,1,0,0:0:0:0:s_044.ogg
320,192,18840,1,0,0:0:0:0:s_056.ogg
192,192,18960,1,0,0:0:0:0:s_055.ogg
64,192,19080,1,0,0:0:0:0:s_053.ogg
64,192,19200,1,0,0:0:0:0:s_022.ogg
192,192,19220,1,0,0:0:0:0:s_029.ogg
320,192,19240,1,0,0:0:0:0:s_038.ogg
448,192,19260,1,0,0:0:0:0:s_053.ogg
192,192,19620,1,0,0:0:0:0:s_058.ogg
64,192,19680,1,0,0:0:0:0:s_041.ogg
320,192,19680,1,0,0:0:0:0:s_058.ogg
448,192,19680,1,0,0:0:0:0:s_046.ogg
448,192,19800,1,0,0:0:0:0:s_060.ogg
320,192,19920,1,0,0:0:0:0:s_058.ogg
192,192,20040,1,0,0:0:0:0:s_056.ogg
64,192,20160,1,0,0:0:0:0:s_027.ogg
192,192,20180,1,0,0:0:0:0:s_034.ogg
320,192,20200,1,0,0:0:0:0:s_043.ogg
448,192,20220,1,0,0:0:0:0:s_046.ogg
64,192,20580,1,0,0:0:0:0:s_051.ogg
192,192,20640,1,0,0:0:0:0:s_051.ogg
320,192,20640,1,0,0:0:0:0:s_046.ogg
448,192,20640,1,0,0:0:0:0:s_043.ogg
320,192,20760,1,0,0:0:0:0:s_055.ogg
192,192,20880,1,0,0:0:0:0:s_053.ogg
64,192,21000,1,0,0:0:0:0:s_051.ogg
64,192,21120,1,0,0:0:0:0:s_029.ogg
192,192,21140,1,0,0:0:0:0:s_037.ogg
320,192,21160,1,0,0:0:0:0:s_044.ogg
448,192,21180,1,0,0:0:0:0:s_049.ogg
64,192,21540,1,0,0:0:0:0:s_049.ogg
192,192,21600,1,0,0:0:0:0:s_044.ogg
320,192,21600,1,0,0:0:0:0:s_049.ogg
448,192,21600,1,0,0:0:0:0:s_041.ogg
320,192,21720,1,0,0:0:0:0:s_053.ogg
192,192,21840,1,0,0:0:0:0:s_051.ogg
64,192,21960,1,0,0:0:0:0:s_049.ogg
64,192,22080,1,0,0:0:0:0:s_027.ogg
192,192,22100,1,0,0:0:0:0:s_039.ogg
320,192,22120,1,0,0:0:0:0:s_043.ogg
448,192,22140,1,0,0:0:0:0:s_048.ogg
192,192,22500,1,0,0:0:0:0:s_048.ogg
64,192,22560,1,0,0:0:0:0:s_048.ogg
320,192,22560,1,0,0:0:0:0:s_039.ogg
448,192,22560,1,0,0:0:0:0:s_043.ogg
448,192,22680,1,0,0:0:0:0:s_051.ogg
320,192,22800,1,0,0:0:0:0:s_050.ogg
192,192,22920,1,0,0:0:0:0:s_048.ogg
64,192,23040,1,0,0:0:0:0:m_044.ogg
320,192,23040,1,0,0:0:0:0:m_032.ogg
64,192,23400,1,0,0:0:0:0:s_036.ogg
192,192,23400,1,0,0:0:0:0:s_042.ogg
448,192,23400,1,0,0:0:0:0:s_054.ogg
192,192,23520,1,0,0:0:0:0:m_043.ogg
320,192,23520,1,0,0:0:0:0:m_031.ogg
448,192,23640,1,0,0:0:0:0:s_055.ogg
320,192,23760,1,0,0:0:0:0:s_053.ogg
64,192,23880,1,0,0:0:0:0:s_041.ogg
192,192,23880,1,0,0:0:0:0:s_050.ogg
448,192,23880,1,0,0:0:0:0:s_035.ogg
320,192,24000,128,0,24360:0:0:0:0:m_043.ogg
192,192,24000,128,0,24360:0:0:0:0:m_036.ogg
64,192,24000,128,0,24360:0:0:0:0:m_048.ogg
192,192,24480,1,0,0:0:0:0:s_051.ogg
320,192,24480,1,0,0:0:0:0:s_043.ogg
448,192,24480,1,0,0:0:0:0:s_060.ogg
64,192,24960,1,0,0:0:0:0:s_051.ogg
320,192,24960,1,0,0:0:0:0:s_036.ogg
192,192,25000,1,0,0:0:0:0:s_060.ogg
448,192,25040,1,0,0:0:0:0:s_067.ogg
320,192,25120,1,0,0:0:0:0:s_063.ogg
192,192,25280,1,0,0:0:0:0:s_060.ogg
448,192,25320,1,0,0:0:0:0:s_036.ogg
64,192,25440,1,0,0:0:0:0:s_055.ogg
448,192,25440,1,0,0:0:0:0:s_036.ogg
192,192,25560,1,0,0:0:0:0:s_039.ogg
320,192,25600,1,0,0:0:0:0:s_051.ogg
64,192,25680,1,0,0:0:0:0:s_038.ogg
192,192,25760,1,0,0:0:0:0:s_048.ogg
448,192,25800,1,0,0:0:0:0:s_036.ogg
64,192,25920,1,0,0:0:0:0:s_047.ogg
320,192,25920,1,0,0:0:0:0:s_043.ogg
192,192,25960,1,0,0:0:0:0:s_055.ogg
448,192,26000,1,0,0:0:0:0:s_062.ogg
320,192,26080,1,0,0:0:0:0:s_059.ogg
192,192,26240,1,0,0:0:0:0:s_055.ogg
448,192,26280,1,0,0:0:0:0:s_031.ogg
64,192,26400,1,0,0:0:0:0:s_050.ogg
448,192,26400,1,0,0:0:0:0:s_031.ogg
192,192,26520,1,0,0:0:0:0:s_034.ogg
320,192,26560,1,0,0:0:0:0:s_047.ogg
64,192,26640,1,0,0:0:0:0:s_032.ogg
192,192,26720,1,0,0:0:0:0:s_043.ogg
448,192,26760,1,0,0:0:0:0:s_031.ogg
64,192,26880,1,0,0:0:0:0:s_051.ogg
320,192,26880,1,0,0:0:0:0:s_036.ogg
192,192,26920,1,0,0:0:0:0:s_060.ogg
448,192,26960,1,0,0:0:0:0:s_067.ogg
320,192,27040,1,0,0:0:0:0:s_063.ogg
192,192,27200,1,0,0:0:0:0:s_060.ogg
448,192,27240,1,0,0:0:0:0:s_036.ogg
64,192,27360,1,0,0:0:0:0:s_055.ogg
448,192,27360,1,0,0:0:0:0:s_036.ogg
192,192,27480,1,0,0:0:0:0:s_039.ogg
320,192,27520,1,0,0:0:0:0:s_051.ogg
64,192,27600,1,0,0:0:0:0:s_038.ogg
192,192,27680,1,0,0:0:0:0:s_048.ogg
448,192,27720,1,0,0:0:0:0:s_036.ogg
320,192,27840,1,0,0:0:0:0:m_043.ogg
64,192,28000,1,0,0:0:0:0:s_055.ogg
192,192,28000,1,0,0:0:0:0:s_047.ogg
192,192,28160,1,0,0:0:0:0:s_059.ogg
320,192,28160,1,0,0:0:0:0:s_050.ogg
64,192,28320,1,0,0:0:0:0:s_031.ogg
320,192,28320,1,0,0:0:0:0:s_067.ogg
448,192,28320,1,0,0:0:0:0:s_055.ogg
64,192,28800,1,0,0:0:0:0:s_051.ogg
320,192,28800,1,0,0:0:0:0:s_036.ogg
192,192,28840,1,0,0:0:0:0:s_060.ogg
448,192,28880,1,0,0:0:0:0:s_067.ogg
320,192,28960,1,0,0:0:0:0:s_063.ogg
192,192,29120,1,0,0:0:0:0:s_060.ogg
448,192,29160,1,0,0:0:0:0:s_036.ogg
64,192,29280,1,0,0:0:0:0:s_055.ogg
448,192,29280,1,0,0:0:0:0:s_036.ogg
192,192,29400,1,0,0:0:0:0:s_039.ogg
320,192,29440,1,0,0:0:0:0:s_051.ogg
64,192,29520,1,0,0:0:0:0:s_038.ogg
192,192,29600,1,0,0:0:0:0:s_048.ogg
448,192,29640,1,0,0:0:0:0:s_036.ogg
64,192,29760,1,0,0:0:0:0:s_047.ogg
320,192,29760,1,0,0:0:0:0:s_043.ogg
192,192,29800,1,0,0:0:0:0:s_055.ogg
448,192,29840,1,0,0:0:0:0:s_062.ogg
320,192,29920,1,0,0:0:0:0:s_059.ogg
192,192,30080,1,0,0:0:0:0:s_055.ogg
448,192,30120,1,0,0:0:0:0:s_031.ogg
64,192,30240,1,0,0:0:0:0:s_050.ogg
448,192,30240,1,0,0:0:0:0:s_031.ogg
192,192,30360,1,0,0:0:0:0:s_034.ogg
320,192,30400,1,0,0:0:0:0:s_047.ogg
64,192,30480,1,0,0:0:0:0:s_032.ogg
192,192,30560,1,0,0:0:0:0:s_043.ogg
448,192,30600,1,0,0:0:0:0:s_031.ogg
64,192,30720,1,0,0:0:0:0:s_051.ogg
320,192,30720,1,0,0:0:0:0:s_036.ogg
192,192,30760,1,0,0:0:0:0:s_060.ogg
448,192,30800,1,0,0:0:0:0:s_067.ogg
320,192,30880,1,0,0:0:0:0:s_063.ogg
192,192,31040,1,0,0:0:0:0:s_060.ogg
448,192,31080,1,0,0:0:0:0:s_036.ogg
64,192,31200,1,0,0:0:0:0:s_055.ogg
448,192,31200,1,0,0:0:0:0:s_036.ogg
192,192,31320,1,0,0:0:0:0:s_039.ogg
320,192,31360,1,0,0:0:0:0:s_051.ogg
64,192,31440,1,0,0:0:0:0:s_038.ogg
192,192,31520,1,0,0:0:0:0:s_048.ogg
448,192,31560,1,0,0:0:0:0:s_036.ogg
320,192,31680,1,0,0:0:0:0:m_043.ogg
64,192,31840,1,0,0:0:0:0:s_055.ogg
192,192,31840,1,0,0:0:0:0:s_047.ogg
192,192,32000,1,0,0:0:0:0:s_059.ogg
320,192,32000,1,0,0:0:0:0:s_050.ogg
64,192,32160,1,0,0:0:0:0:s_031.ogg
320,192,32160,1,0,0:0:0:0:s_067.ogg
448,192,32160,1,0,0:0:0:0:s_055.ogg
64,192,32640,1,0,0:0:0:0:s_060.ogg
320,192,32640,1,0,0:0:0:0:s_036.ogg
192,192,32680,1,0,0:0:0:0:s_064.ogg
448,192,32720,1,0,0:0:0:0:s_072.ogg
320,192,32800,1,0,0:0:0:0:s_067.ogg
192,192,32960,1,0,0:0:0:0:s_064.ogg
448,192,33000,1,0,0:0:0:0:s_048.ogg
64,192,33120,1,0,0:0:0:0:s_060.ogg
448,192,33120,1,0,0:0:0:0:s_048.ogg
192,192,33240,1,0,0:0:0:0:s_049.ogg
320,192,33280,1,0,0:0:0:0:s_055.ogg
64,192,33360,1,0,0:0:0:0:s_048.ogg
192,192,33440,1,0,0:0:0:0:s_052.ogg
448,192,33480,1,0,0:0:0:0:s_046.ogg
320,192,33600,1,0,0:0:0:0:s_029.ogg
448,192,33640,1,0,0:0:0:0:s_044.ogg
64,192,33760,1,0,0:0:0:0:s_053.ogg
192,192,33760,1,0,0:0:0:0:s_048.ogg
64,192,33920,1,0,0:0:0:0:s_056.ogg
320,192,33920,1,0,0:0:0:0:s_053.ogg
448,192,33960,1,0,0:0:0:0:s_041.ogg
192,192,34080,1,0,0:0:0:0:s_060.ogg
320,192,34080,1,0,0:0:0:0:s_056.ogg
448,192,34080,1,0,0:0:0:0:s_041.ogg
64,192,34200,1,0,0:0:0:0:s_044.ogg
320,192,34240,1,0,0:0:0:0:s_065.ogg
448,192,34240,1,0,0:0:0:0:s_060.ogg
192,192,34320,1,0,0:0:0:0:s_043.ogg
64,192,34400,1,0,0:0:0:0:s_068.ogg
320,192,34400,1,0,0:0:0:0:s_065.ogg
448,192,34440,1,0,0:0:0:0:s_041.ogg
64,192,34560,1,0,0:0:0:0:s_058.ogg
320,192,34560,1,0,0:0:0:0:s_034.ogg
192,192,34600,1,0,0:0:0:0:s_062.ogg
448,192,34640,1,0,0:0:0:0:s_070.ogg
320,192,34720,1,0,0:0:0:0:s_065.ogg
192,192,34880,1,0,0:0:0:0:s_062.ogg
448,192,34920,1,0,0:0:0:0:s_046.ogg
64,192,35040,1,0,0:0:0:0:s_058.ogg
448,192,35040,1,0,0:0:0:0:s_046.ogg
192,192,35160,1,0,0:0:0:0:s_048.ogg
320,192,35200,1,0,0:0:0:0:s_053.ogg
64,192,35280,1,0,0:0:0:0:s_046.ogg
192,192,35360,1,0,0:0:0:0:s_050.ogg
448,192,35400,1,0,0:0:0:0:s_044.ogg
320,192,35520,1,0,0:0:0:0:s_027.ogg
448,192,35560,1,0,0:0:0:0:s_043.ogg
64,192,35680,1,0,0:0:0:0:s_051.ogg
192,192,35680,1,0,0:0:0:0:s_046.ogg
64,192,35840,1,0,0:0:0:0:s_055.ogg
320,192,35840,1,0,0:0:0:0:s_051.ogg
448,192,35880,1,0,0:0:0:0:s_039.ogg
192,192,36000,1,0,0:0:0:0:s_058.ogg
320,192,36000,1,0,0:0:0:0:s_055.ogg
448,192,36000,1,0,0:0:0:0:s_039.ogg
64,192,36120,1,0,0:0:0:0:s_043.ogg
320,192,36160,1,0,0:0:0:0:s_063.ogg
448,192,36160,1,0,0:0:0:0:s_058.ogg
192,192,36240,1,0,0:0:0:0:s_041.ogg
64,192,36320,1,0,0:0:0:0:s_067.ogg
320,192,36320,1,0,0:0:0:0:s_063.ogg
448,192,36360,1,0,0:0:0:0:s_039.ogg
64,192,36480,1,0,0:0:0:0:s_029.ogg
448,192,36480,1,0,0:0:0:0:s_062.ogg
192,192,36520,1,0,0:0:0:0:s_035.ogg
320,192,36560,1,0,0:0:0:0:s_044.ogg
64,192,36640,1,0,0:0:0:0:s_065.ogg
448,192,36640,1,0,0:0:0:0:s_059.ogg
320,192,36800,1,0,0:0:0:0:s_062.ogg
448,192,36800,1,0,0:0:0:0:s_056.ogg
64,192,36840,1,0,0:0:0:0:s_038.ogg
64,192,36960,1,0,0:0:0:0:s_038.ogg
192,192,36960,1,0,0:0:0:0:s_059.ogg
320,192,36960,1,0,0:0:0:0:s_053.ogg
448,192,37080,1,0,0:0:0:0:s_041.ogg
192,192,37120,1,0,0:0:0:0:s_056.ogg
320,192,37120,1,0,0:0:0:0:s_050.ogg
64,192,37200,1,0,0:0:0:0:s_039.ogg
448,192,37280,1,0,0:0:0:0:s_053.ogg
192,192,37320,1,0,0:0:0:0:s_038.ogg
64,192,37440,1,0,0:0:0:0:s_055.ogg
320,192,37440,1,0,0:0:0:0:s_027.ogg
192,192,37480,1,0,0:0:0:0:s_060.ogg
448,192,37520,1,0,0:0:0:0:s_067.ogg
320,192,37600,1,0,0:0:0:0:s_063.ogg
192,192,37760,1,0,0:0:0:0:s_060.ogg
448,192,37800,1,0,0:0:0:0:s_036.ogg
64,192,37920,1,0,0:0:0:0:s_055.ogg
448,192,37920,1,0,0:0:0:0:s_036.ogg
192,192,38040,1,0,0:0:0:0:s_039.ogg
320,192,38080,1,0,0:0:0:0:s_051.ogg
64,192,38160,1,0,0:0:0:0:s_038.ogg
192,192,38240,1,0,0:0:0:0:s_048.ogg
448,192,38280,1,0,0:0:0:0:s_036.ogg
320,192,38400,1,0,0:0:0:0:m_032.ogg
64,192,38560,1,0,0:0:0:0:s_050.ogg
320,192,38560,1,0,0:0:0:0:s_042.ogg
192,192,38720,1,0,0:0:0:0:s_048.ogg
448,192,38720,1,0,0:0:0:0:s_054.ogg
320,192,38760,1,0,0:0:0:0:s_038.ogg
64,192,38880,1,0,0:0:0:0:m_031.ogg
448,192,39000,1,0,0:0:0:0:s_043.ogg
192,192,39040,1,0,0:0:0:0:s_047.ogg
320,192,39040,1,0,0:0:0:0:s_055.ogg
64,192,39120,1,0,0:0:0:0:s_041.ogg
320,192,39200,1,0,0:0:0:0:s_059.ogg
448,192,39200,1,0,0:0:0:0:s_050.ogg
192,192,39240,1,0,0:0:0:0:s_038.ogg
448,192,39360,1,0,0:0:0:0:m_036.ogg
64,192,39520,1,0,0:0:0:0:s_051.ogg
320,192,39520,1,0,0:0:0:0:s_060.ogg
192,192,39680,1,0,0:0:0:0:s_063.ogg
448,192,39680,1,0,0:0:0:0:s_055.ogg
64,192,39840,1,0,0:0:0:0:s_051.ogg
320,192,39840,1,0,0:0:0:0:s_060.ogg
448,192,39840,1,0,0:0:0:0:s_072.ogg
320,192,40320,1,0,0:0:0:0:s_024.ogg
64,192,40320,128,0,40760:0:0:0:0:m_020.ogg
192,192,40430,1,0,0:0:0:0:s_023.ogg
320,192,40540,1,0,0:0:0:0:s_024.ogg
192,192,40650,1,0,0:0:0:0:s_023.ogg
448,192,40760,1,0,0:0:0:0:s_025.ogg
320,192,40796,1,0,0:0:0:0:s_024.ogg
64,192,40870,1,0,0:0:0:0:s_026.ogg
192,192,40980,1,0,0:0:0:0:s_027.ogg
320,192,41090,1,0,0:0:0:0:s_029.ogg
64,192,41200,128,0,41640:0:0:0:0:m_019.ogg
192,192,41227,128,0,41640:0:0:0:0:m_023.ogg
448,192,41255,1,0,0:0:0:0:s_031.ogg
320,192,41310,1,0,0:0:0:0:s_030.ogg
448,192,41420,1,0,0:0:0:0:s_031.ogg
320,192,41530,1,0,0:0:0:0:s_030.ogg
448,192,41640,1,0,0:0:0:0:s_032.ogg
320,192,41676,1,0,0:0:0:0:s_031.ogg
192,192,41750,1,0,0:0:0:0:s_029.ogg
64,192,41860,1,0,0:0:0:0:s_027.ogg
448,192,41970,1,0,0:0:0:0:s_026.ogg
320,192,42080,1,0,0:0:0:0:s_024.ogg
64,192,42080,128,0,42520:0:0:0:0:m_020.ogg
192,192,42190,1,0,0:0:0:0:s_023.ogg
320,192,42300,1,0,0:0:0:0:s_024.ogg
192,192,42410,1,0,0:0:0:0:s_023.ogg
448,192,42520,1,0,0:0:0:0:s_025.ogg
320,192,42556,1,0,0:0:0:0:s_024.ogg
64,192,42630,1,0,0:0:0:0:s_026.ogg
192,192,42740,1,0,0:0:0:0:s_027.ogg
320,192,42850,1,0,0:0:0:0:s_029.ogg
64,192,42960,128,0,43400:0:0:0:0:m_019.ogg
192,192,42987,128,0,43400:0:0:0:0:m_023.ogg
448,192,43015,1,0,0:0:0:0:s_031.ogg
320,192,43070,1,0,0:0:0:0:s_030.ogg
448,192,43180,1,0,0:0:0:0:s_031.ogg
320,192,43290,1,0,0:0:0:0:s_030.ogg
448,192,43400,1,0,0:0:0:0:s_032.ogg
320,192,43436,1,0,0:0:0:0:s_031.ogg
320,192,43840,1,0,0:0:0:0:s_036.ogg
64,192,43840,128,0,44280:0:0:0:0:m_032.ogg
192,192,43950,1,0,0:0:0:0:s_035.ogg
320,192,44060,1,0,0:0:0:0:s_036.ogg
192,192,44170,1,0,0:0:0:0:s_035.ogg
448,192,44280,1,0,0:0:0:0:s_037.ogg
320,192,44316,1,0,0:0:0:0:s_036.ogg
64,192,44390,1,0,0:0:0:0:s_038.ogg
192,192,44500,1,0,0:0:0:0:s_039.ogg
320,192,44610,1,0,0:0:0:0:s_041.ogg
64,192,44720,128,0,45160:0:0:0:0:m_031.ogg
192,192,44747,128,0,45160:0:0:0:0:m_035.ogg
448,192,44775,1,0,0:0:0:0:s_043.ogg
320,192,44830,1,0,0:0:0:0:s_042.ogg
448,192,44940,1,0,0:0:0:0:s_043.ogg
320,192,45050,1,0,0:0:0:0:s_042.ogg
448,192,45160,1,0,0:0:0:0:s_044.ogg
320,192,45196,1,0,0:0:0:0:s_043.ogg
192,192,45270,1,0,0:0:0:0:s_041.ogg
64,192,45380,1,0,0:0:0:0:s_039.ogg
448,192,45490,1,0,0:0:0:0:s_038.ogg
320,192,45600,1,0,0:0:0:0:s_036.ogg
64,192,45600,128,0,46040:0:0:0:0:m_032.ogg
192,192,45710,1,0,0:0:0:0:s_035.ogg
320,192,45820,1,0,0:0:0:0:s_036.ogg
192,192,45930,1,0,0:0:0:0:s_035.ogg
448,192,46040,1,0,0:0:0:0:s_037.ogg
320,192,46076,1,0,0:0:0:0:s_036.ogg
64,192,46150,1,0,0:0:0:0:s_038.ogg
192,192,46260,1,0,0:0:0:0:s_039.ogg
320,192,46370,1,0,0:0:0:0:s_041.ogg
64,192,46480,128,0,46920:0:0:0:0:m_031.ogg
192,192,46507,128,0,46920:0:0:0:0:m_035.ogg
448,192,46535,1,0,0:0:0:0:s_043.ogg
320,192,46590,1,0,0:0:0:0:s_042.ogg
448,192,46700,1,0,0:0:0:0:s_043.ogg
320,192,46810,1,0,0:0:0:0:s_042.ogg
448,192,46920,1,0,0:0:0:0:s_044.ogg
320,192,46956,1,0,0:0:0:0:s_043.ogg
320,192,47360,1,0,0:0:0:0:s_048.ogg
448,192,47360,128,0,47800:0:0:0:0:m_040.ogg
64,192,47360,128,0,47800:0:0:0:0:m_043.ogg
192,192,47470,1,0,0:0:0:0:s_047.ogg
320,192,47580,1,0,0:0:0:0:s_048.ogg
192,192,47690,1,0,0:0:0:0:s_047.ogg
320,192,47800,1,0,0:0:0:0:s_049.ogg
192,192,47836,1,0,0:0:0:0:s_048.ogg
64,192,47910,1,0,0:0:0:0:s_046.ogg
448,192,48020,1,0,0:0:0:0:s_044.ogg
320,192,48130,1,0,0:0:0:0:s_043.ogg
448,192,48240,1,0,0:0:0:0:s_041.ogg
192,192,48240,128,0,48680:0:0:0:0:m_032.ogg
64,192,48240,128,0,48680:0:0:0:0:m_036.ogg
320,192,48350,1,0,0:0:0:0:s_040.ogg
448,192,48460,1,0,0:0:0:0:s_041.ogg
320,192,48570,1,0,0:0:0:0:s_040.ogg
448,192,48680,1,0,0:0:0:0:s_042.ogg
320,192,48716,1,0,0:0:0:0:s_041.ogg
192,192,48790,1,0,0:0:0:0:s_043.ogg
448,192,48900,1,0,0:0:0:0:s_044.ogg
192,192,49010,1,0,0:0:0:0:s_041.ogg
320,192,49120,1,0,0:0:0:0:s_046.ogg
448,192,49120,128,0,49560:0:0:0:0:m_041.ogg
64,192,49120,128,0,49560:0:0:0:0:m_038.ogg
192,192,49230,1,0,0:0:0:0:s_045.ogg
320,192,49340,1,0,0:0:0:0:s_046.ogg
192,192,49450,1,0,0:0:0:0:s_045.ogg
320,192,49560,1,0,0:0:0:0:s_047.ogg
192,192,49596,1,0,0:0:0:0:s_046.ogg
64,192,49670,1,0,0:0:0:0:s_044.ogg
448,192,49780,1,0,0:0:0:0:s_043.ogg
320,192,49890,1,0,0:0:0:0:s_041.ogg
448,192,50000,1,0,0:0:0:0:s_039.ogg
192,192,50000,128,0,50440:0:0:0:0:m_031.ogg
64,192,50000,128,0,50440:0:0:0:0:m_034.ogg
320,192,50110,1,0,0:0:0:0:s_038.ogg
448,192,50220,1,0,0:0:0:0:s_039.ogg
320,192,50330,1,0,0:0:0:0:s_038.ogg
448,192,50440,1,0,0:0:0:0:s_040.ogg
320,192,50476,1,0,0:0:0:0:s_039.ogg
192,192,50550,1,0,0:0:0:0:s_041.ogg
448,192,50660,1,0,0:0:0:0:s_043.ogg
192,192,50770,1,0,0:0:0:0:s_039.ogg
320,192,50880,1,0,0:0:0:0:s_044.ogg
448,192,50880,128,0,51320:0:0:0:0:m_029.ogg
64,192,50880,128,0,51320:0:0:0:0:m_035.ogg
192,192,50990,1,0,0:0:0:0:s_043.ogg
320,192,51100,1,0,0:0:0:0:s_044.ogg
192,192,51210,1,0,0:0:0:0:s_043.ogg
320,192,51320,1,0,0:0:0:0:s_046.ogg
192,192,51356,1,0,0:0:0:0:s_044.ogg
64,192,51430,1,0,0:0:0:0:s_041.ogg
320,192,51540,1,0,0:0:0:0:s_039.ogg
64,192,51650,1,0,0:0:0:0:s_038.ogg
192,192,51760,1,0,0:0:0:0:s_043.ogg
448,192,51760,128,0,52200:0:0:0:0:m_027.ogg
320,192,51760,128,0,52200:0:0:0:0:m_036.ogg
64,192,51870,1,0,0:0:0:0:s_042.ogg
192,192,51980,1,0,0:0:0:0:s_043.ogg
64,192,52090,1,0,0:0:0:0:s_042.ogg
192,192,52200,1,0,0:0:0:0:s_044.ogg
64,192,52236,1,0,0:0:0:0:s_043.ogg
448,192,52310,1,0,0:0:0:0:s_039.ogg
320,192,52420,1,0,0:0:0:0:s_038.ogg
192,192,52530,1,0,0:0:0:0:s_036.ogg
448,192,52640,1,0,0:0:0:0:m_029.ogg
320,192,52640,128,0,52970:0:0:0:0:s_037.ogg
64,192,52640,128,0,52970:0:0:0:0:m_032.ogg
192,192,52750,1,0,0:0:0:0:s_036.ogg
448,192,52860,1,0,0:0:0:0:s_037.ogg
192,192,52970,1,0,0:0:0:0:s_036.ogg
64,192,53080,1,0,0:0:0:0:s_035.ogg
320,192,53080,1,0,0:0:0:0:s_039.ogg
448,192,53080,1,0,0:0:0:0:s_031.ogg
192,192,53116,1,0,0:0:0:0:s_038.ogg
320,192,53190,1,0,0:0:0:0:s_044.ogg
192,192,53300,1,0,0:0:0:0:s_043.ogg
64,192,53410,1,0,0:0:0:0:s_035.ogg
448,192,53520,1,0,0:0:0:0:s_036.ogg
320,192,53630,1,0,0:0:0:0:s_035.ogg
64,192,53740,1,0,0:0:0:0:s_029.ogg
192,192,53740,1,0,0:0:0:0:s_032.ogg
448,192,53740,1,0,0:0:0:0:s_036.ogg
320,192,53850,1,0,0:0:0:0:s_035.ogg
64,192,53960,1,0,0:0:0:0:s_031.ogg
192,192,53960,1,0,0:0:0:0:s_027.ogg
448,192,53960,1,0,0:0:0:0:s_036.ogg
448,192,54400,1,0,0:0:0:0:s_024.ogg
320,192,54510,1,0,0:0:0:0:s_023.ogg
448,192,54620,1,0,0:0:0:0:s_024.ogg
320,192,54730,1,0,0:0:0:0:s_023.ogg
192,192,54840,1,0,0:0:0:0:s_025.ogg
64,192,54867,1,0,0:0:0:0:m_034.ogg
448,192,54876,1,0,0:0:0:0:s_024.ogg
320,192,54895,1,0,0:0:0:0:m_040.ogg
192,192,54950,1,0,0:0:0:0:s_022.ogg
64,192,55060,1,0,0:0:0:0:s_020.ogg
448,192,55170,1,0,0:0:0:0:s_019.ogg
320,192,55280,1,0,0:0:0:0:s_017.ogg
192,192,55390,1,0,0:0:0:0:s_016.ogg
320,192,55500,1,0,0:0:0:0:s_017.ogg
192,192,55610,1,0,0:0:0:0:s_016.ogg
64,192,55720,1,0,0:0:0:0:s_018.ogg
448,192,55747,1,0,0:0:0:0:m_036.ogg
320,192,55756,1,0,0:0:0:0:s_017.ogg
192,192,55775,1,0,0:0:0:0:m_044.ogg
64,192,55830,1,0,0:0:0:0:s_019.ogg
320,192,55940,1,0,0:0:0:0:s_020.ogg
192,192,56050,1,0,0:0:0:0:s_017.ogg
448,192,56160,1,0,0:0:0:0:s_022.ogg
320,192,56270,1,0,0:0:0:0:s_021.ogg
448,192,56380,1,0,0:0:0:0:s_022.ogg
320,192,56490,1,0,0:0:0:0:s_021.ogg
192,192,56600,1,0,0:0:0:0:s_023.ogg
64,192,56627,1,0,0:0:0:0:m_032.ogg
448,192,56636,1,0,0:0:0:0:s_022.ogg
320,192,56655,1,0,0:0:0:0:m_038.ogg
192,192,56710,1,0,0:0:0:0:s_020.ogg
64,192,56820,1,0,0:0:0:0:s_019.ogg
448,192,56930,1,0,0:0:0:0:s_017.ogg
320,192,57040,1,0,0:0:0:0:s_015.ogg
192,192,57150,1,0,0:0:0:0:s_014.ogg
320,192,57260,1,0,0:0:0:0:s_015.ogg
192,192,57370,1,0,0:0:0:0:s_014.ogg
64,192,57480,1,0,0:0:0:0:s_016.ogg
448,192,57507,1,0,0:0:0:0:m_034.ogg
320,192,57516,1,0,0:0:0:0:s_015.ogg
192,192,57535,1,0,0:0:0:0:m_043.ogg
64,192,57590,1,0,0:0:0:0:s_017.ogg
320,192,57700,1,0,0:0:0:0:s_019.ogg
192,192,57810,1,0,0:0:0:0:s_015.ogg
448,192,57920,1,0,0:0:0:0:s_020.ogg
320,192,58030,1,0,0:0:0:0:s_019.ogg
448,192,58140,1,0,0:0:0:0:s_020.ogg
320,192,58250,1,0,0:0:0:0:s_019.ogg
192,192,58360,1,0,0:0:0:0:s_022.ogg
64,192,58387,1,0,0:0:0:0:m_035.ogg
448,192,58396,1,0,0:0:0:0:s_020.ogg
320,192,58415,1,0,0:0:0:0:m_038.ogg
192,192,58470,1,0,0:0:0:0:s_017.ogg
64,192,58580,1,0,0:0:0:0:s_015.ogg
448,192,58690,1,0,0:0:0:0:s_014.ogg
320,192,58800,1,0,0:0:0:0:s_019.ogg
192,192,58910,1,0,0:0:0:0:s_018.ogg
320,192,59020,1,0,0:0:0:0:s_019.ogg
192,192,59130,1,0,0:0:0:0:s_018.ogg
64,192,59240,1,0,0:0:0:0:s_020.ogg
320,192,59240,1,0,0:0:0:0:m_036.ogg
448,192,59240,1,0,0:0:0:0:m_031.ogg
192,192,59276,1,0,0:0:0:0:s_019.ogg
64,192,59350,1,0,0:0:0:0:s_015.ogg
448,192,59460,1,0,0:0:0:0:s_014.ogg
320,192,59570,1,0,0:0:0:0:s_012.ogg
64,192,59680,1,0,0:0:0:0:s_041.ogg
192,192,59680,1,0,0:0:0:0:m_032.ogg
448,192,59680,1,0,0:0:0:0:s_014.ogg
320,192,59790,1,0,0:0:0:0:s_013.ogg
64,192,59900,1,0,0:0:0:0:s_042.ogg
448,192,59900,1,0,0:0:0:0:s_014.ogg
320,192,60010,1,0,0:0:0:0:s_013.ogg
64,192,60120,1,0,0:0:0:0:s_035.ogg
192,192,60120,1,0,0:0:0:0:s_043.ogg
448,192,60120,1,0,0:0:0:0:s_015.ogg
320,192,60230,1,0,0:0:0:0:s_014.ogg
448,192,60340,1,0,0:0:0:0:s_020.ogg
320,192,60450,1,0,0:0:0:0:s_019.ogg
192,192,60560,1,0,0:0:0:0:s_012.ogg
64,192,60670,1,0,0:0:0:0:s_011.ogg
192,192,60780,1,0,0:0:0:0:s_012.ogg
64,192,60890,1,0,0:0:0:0:s_011.ogg
192,192,61000,1,0,0:0:0:0:s_013.ogg
320,192,61000,1,0,0:0:0:0:s_032.ogg
448,192,61000,1,0,0:0:0:0:s_036.ogg
64,192,61036,1,0,0:0:0:0:s_012.ogg
192,192,61110,1,0,0:0:0:0:s_011.ogg
64,192,61220,1,0,0:0:0:0:s_012.ogg
192,192,61330,1,0,0:0:0:0:s_011.ogg
64,192,61440,1,0,0:0:0:0:s_012.ogg
320,192,61440,1,0,0:0:0:0:s_039.ogg
448,192,61440,1,0,0:0:0:0:s_036.ogg
192,192,61550,1,0,0:0:0:0:s_011.ogg
64,192,61660,1,0,0:0:0:0:s_012.ogg
192,192,61770,1,0,0:0:0:0:s_011.ogg
64,192,61880,1,0,0:0:0:0:s_013.ogg
320,192,61880,1,0,0:0:0:0:s_032.ogg
448,192,61880,1,0,0:0:0:0:s_036.ogg
192,192,61916,1,0,0:0:0:0:s_012.ogg
64,192,61990,1,0,0:0:0:0:s_011.ogg
192,192,62100,1,0,0:0:0:0:s_012.ogg
64,192,62210,1,0,0:0:0:0:s_011.ogg
192,192,62320,1,0,0:0:0:0:s_012.ogg
320,192,62320,1,0,0:0:0:0:s_036.ogg
448,192,62320,1,0,0:0:0:0:s_031.ogg
64,192,62430,1,0,0:0:0:0:s_011.ogg
192,192,62540,1,0,0:0:0:0:s_012.ogg
64,192,62650,1,0,0:0:0:0:s_011.ogg
192,192,62760,1,0,0:0:0:0:s_013.ogg
320,192,62760,1,0,0:0:0:0:s_029.ogg
448,192,62760,1,0,0:0:0:0:s_032.ogg
64,192,62796,1,0,0:0:0:0:s_012.ogg
192,192,62870,1,0,0:0:0:0:s_011.ogg
64,192,62980,1,0,0:0:0:0:s_012.ogg
192,192,63090,1,0,0:0:0:0:s_011.ogg
64,192,63200,1,0,0:0:0:0:s_012.ogg
320,192,63200,1,0,0:0:0:0:s_036.ogg
448,192,63200,1,0,0:0:0:0:s_031.ogg
64,192,64080,1,0,0:0:0:0:s_036.ogg
320,192,64080,1,0,0:0:0:0:s_048.ogg
448,192,64080,1,0,0:0:0:0:m_027.ogg
192,192,64190,1,0,0:0:0:0:s_045.ogg
448,192,64190,1,0,0:0:0:0:s_042.ogg
64,192,64410,1,0,0:0:0:0:s_048.ogg
192,192,64410,1,0,0:0:0:0:s_030.ogg
320,192,64410,1,0,0:0:0:0:s_036.ogg
64,192,64520,1,0,0:0:0:0:s_036.ogg
192,192,64520,1,0,0:0:0:0:s_030.ogg
320,192,64520,1,0,0:0:0:0:s_048.ogg
192,192,64630,1,0,0:0:0:0:s_039.ogg
448,192,64630,1,0,0:0:0:0:s_051.ogg
64,192,64740,1,0,0:0:0:0:s_038.ogg
320,192,64740,1,0,0:0:0:0:s_050.ogg
448,192,64740,1,0,0:0:0:0:s_012.ogg
64,192,64850,1,0,0:0:0:0:s_036.ogg
192,192,64850,1,0,0:0:0:0:s_048.ogg
192,192,64960,1,0,0:0:0:0:s_055.ogg
320,192,64960,1,0,0:0:0:0:s_023.ogg
448,192,64960,1,0,0:0:0:0:s_043.ogg
64,192,65070,1,0,0:0:0:0:s_050.ogg
448,192,65070,1,0,0:0:0:0:s_047.ogg
64,192,65180,1,0,0:0:0:0:s_026.ogg
320,192,65180,1,0,0:0:0:0:s_014.ogg
192,192,65290,1,0,0:0:0:0:s_055.ogg
448,192,65290,1,0,0:0:0:0:s_043.ogg
64,192,65400,1,0,0:0:0:0:m_031.ogg
192,192,65400,1,0,0:0:0:0:s_055.ogg
448,192,65400,1,0,0:0:0:0:s_043.ogg
320,192,65510,1,0,0:0:0:0:s_046.ogg
448,192,65510,1,0,0:0:0:0:s_058.ogg
192,192,65620,1,0,0:0:0:0:s_044.ogg
320,192,65620,1,0,0:0:0:0:s_056.ogg
64,192,65730,1,0,0:0:0:0:s_043.ogg
192,192,65730,1,0,0:0:0:0:s_055.ogg
64,192,65840,1,0,0:0:0:0:s_036.ogg
320,192,65840,1,0,0:0:0:0:s_048.ogg
448,192,65840,1,0,0:0:0:0:m_027.ogg
192,192,65950,1,0,0:0:0:0:s_045.ogg
448,192,65950,1,0,0:0:0:0:s_042.ogg
64,192,66170,1,0,0:0:0:0:s_048.ogg
192,192,66170,1,0,0:0:0:0:s_039.ogg
320,192,66170,1,0,0:0:0:0:s_036.ogg
64,192,66280,1,0,0:0:0:0:s_036.ogg
192,192,66280,1,0,0:0:0:0:s_039.ogg
320,192,66280,1,0,0:0:0:0:s_048.ogg
192,192,66390,1,0,0:0:0:0:s_039.ogg
448,192,66390,1,0,0:0:0:0:s_051.ogg
64,192,66500,1,0,0:0:0:0:s_050.ogg
320,192,66500,1,0,0:0:0:0:s_038.ogg
448,192,66500,1,0,0:0:0:0:s_024.ogg
64,192,66610,1,0,0:0:0:0:s_036.ogg
192,192,66610,1,0,0:0:0:0:s_048.ogg
192,192,66720,1,0,0:0:0:0:s_047.ogg
320,192,66720,1,0,0:0:0:0:s_026.ogg
448,192,66720,1,0,0:0:0:0:s_035.ogg
320,192,66830,1,0,0:0:0:0:s_038.ogg
64,192,66940,1,0,0:0:0:0:s_030.ogg
448,192,66940,1,0,0:0:0:0:s_018.ogg
192,192,67050,1,0,0:0:0:0:s_042.ogg
64,192,67160,1,0,0:0:0:0:s_038.ogg
320,192,67160,1,0,0:0:0:0:s_044.ogg
448,192,67160,1,0,0:0:0:0:s_035.ogg
64,192,67380,1,0,0:0:0:0:s_019.ogg
192,192,67380,1,0,0:0:0:0:s_043.ogg
320,192,67380,1,0,0:0:0:0:s_031.ogg
64,192,67600,1,0,0:0:0:0:s_048.ogg
320,192,67600,1,0,0:0:0:0:s_060.ogg
448,192,67600,1,0,0:0:0:0:m_027.ogg
192,192,67710,1,0,0:0:0:0:s_057.ogg
448,192,67710,1,0,0:0:0:0:s_054.ogg
64,192,67930,1,0,0:0:0:0:s_060.ogg
192,192,67930,1,0,0:0:0:0:s_033.ogg
320,192,67930,1,0,0:0:0:0:s_048.ogg
64,192,68040,1,0,0:0:0:0:s_048.ogg
192,192,68040,1,0,0:0:0:0:s_033.ogg
320,192,68040,1,0,0:0:0:0:s_060.ogg
192,192,68150,1,0,0:0:0:0:s_051.ogg
448,192,68150,1,0,0:0:0:0:s_063.ogg
64,192,68260,1,0,0:0:0:0:s_050.ogg
320,192,68260,1,0,0:0:0:0:s_062.ogg
448,192,68260,1,0,0:0:0:0:s_012.ogg
64,192,68370,1,0,0:0:0:0:s_048.ogg
192,192,68370,1,0,0:0:0:0:s_060.ogg
192,192,68480,1,0,0:0:0:0:s_067.ogg
320,192,68480,1,0,0:0:0:0:s_023.ogg
448,192,68480,1,0,0:0:0:0:s_055.ogg
64,192,68590,1,0,0:0:0:0:s_062.ogg
448,192,68590,1,0,0:0:0:0:s_059.ogg
64,192,68700,1,0,0:0:0:0:s_014.ogg
320,192,68700,1,0,0:0:0:0:s_026.ogg
192,192,68810,1,0,0:0:0:0:s_067.ogg
448,192,68810,1,0,0:0:0:0:s_055.ogg
64,192,68920,1,0,0:0:0:0:m_031.ogg
192,192,68920,1,0,0:0:0:0:s_055.ogg
448,192,68920,1,0,0:0:0:0:s_067.ogg
320,192,69030,1,0,0:0:0:0:s_070.ogg
448,192,69030,1,0,0:0:0:0:s_058.ogg
192,192,69140,1,0,0:0:0:0:s_056.ogg
320,192,69140,1,0,0:0:0:0:s_068.ogg
64,192,69250,1,0,0:0:0:0:s_055.ogg
192,192,69250,1,0,0:0:0:0:s_067.ogg
64,192,69360,1,0,0:0:0:0:s_048.ogg
320,192,69360,1,0,0:0:0:0:s_060.ogg
448,192,69360,1,0,0:0:0:0:m_027.ogg
192,192,69470,1,0,0:0:0:0:s_057.ogg
448,192,69470,1,0,0:0:0:0:s_054.ogg
64,192,69690,1,0,0:0:0:0:s_060.ogg
192,192,69690,1,0,0:0:0:0:s_039.ogg
320,192,69690,1,0,0:0:0:0:s_048.ogg
64,192,69800,1,0,0:0:0:0:s_048.ogg
192,192,69800,1,0,0:0:0:0:s_039.ogg
320,192,69800,1,0,0:0:0:0:s_060.ogg
192,192,69910,1,0,0:0:0:0:s_051.ogg
448,192,69910,1,0,0:0:0:0:s_063.ogg
64,192,70020,1,0,0:0:0:0:s_050.ogg
320,192,70020,1,0,0:0:0:0:s_062.ogg
448,192,70020,1,0,0:0:0:0:s_024.ogg
64,192,70130,1,0,0:0:0:0:s_048.ogg
192,192,70130,1,0,0:0:0:0:s_060.ogg
192,192,70240,1,0,0:0:0:0:s_059.ogg
320,192,70240,1,0,0:0:0:0:s_047.ogg
448,192,70240,1,0,0:0:0:0:s_026.ogg
64,192,70350,1,0,0:0:0:0:s_050.ogg
320,192,70350,1,0,0:0:0:0:s_062.ogg
64,192,70460,1,0,0:0:0:0:s_030.ogg
448,192,70460,1,0,0:0:0:0:s_018.ogg
192,192,70570,1,0,0:0:0:0:s_054.ogg
320,192,70570,1,0,0:0:0:0:s_066.ogg
64,192,70680,1,0,0:0:0:0:s_068.ogg
320,192,70680,1,0,0:0:0:0:s_032.ogg
448,192,70680,1,0,0:0:0:0:s_056.ogg
64,192,70900,1,0,0:0:0:0:s_031.ogg
192,192,70900,1,0,0:0:0:0:s_055.ogg
320,192,70900,1,0,0:0:0:0:s_067.ogg
64,192,71120,1,0,0:0:0:0:s_058.ogg
320,192,71120,1,0,0:0:0:0:s_060.ogg
448,192,71120,1,0,0:0:0:0:s_072.ogg
192,192,71230,1,0,0:0:0:0:s_067.ogg
448,192,71230,1,0,0:0:0:0:s_064.ogg
64,192,71450,1,0,0:0:0:0:s_072.ogg
320,192,71450,1,0,0:0:0:0:s_048.ogg
448,192,71450,1,0,0:0:0:0:s_060.ogg
64,192,71560,1,0,0:0:0:0:s_060.ogg
320,192,71560,1,0,0:0:0:0:s_048.ogg
448,192,71560,1,0,0:0:0:0:s_072.ogg
192,192,71670,1,0,0:0:0:0:s_061.ogg
448,192,71670,1,0,0:0:0:0:s_073.ogg
64,192,71780,1,0,0:0:0:0:s_060.ogg
192,192,71780,1,0,0:0:0:0:s_031.ogg
320,192,71780,1,0,0:0:0:0:s_072.ogg
64,192,71890,1,0,0:0:0:0:s_058.ogg
320,192,71890,1,0,0:0:0:0:s_070.ogg
64,192,72000,1,0,0:0:0:0:s_032.ogg
192,192,72000,1,0,0:0:0:0:s_068.ogg
448,192,72000,1,0,0:0:0:0:s_056.ogg
320,192,72110,1,0,0:0:0:0:s_065.ogg
448,192,72110,1,0,0:0:0:0:s_060.ogg
64,192,72220,1,0,0:0:0:0:s_034.ogg
192,192,72220,1,0,0:0:0:0:s_019.ogg
64,192,72330,1,0,0:0:0:0:s_052.ogg
320,192,72330,1,0,0:0:0:0:s_064.ogg
64,192,72440,1,0,0:0:0:0:s_035.ogg
192,192,72440,1,0,0:0:0:0:s_053.ogg
448,192,72440,1,0,0:0:0:0:s_065.ogg
320,192,72550,1,0,0:0:0:0:s_056.ogg
448,192,72550,1,0,0:0:0:0:s_068.ogg
64,192,72660,1,0,0:0:0:0:s_054.ogg
192,192,72660,1,0,0:0:0:0:s_066.ogg
448,192,72660,1,0,0:0:0:0:s_036.ogg
64,192,72770,1,0,0:0:0:0:s_053.ogg
320,192,72770,1,0,0:0:0:0:s_065.ogg
64,192,72880,1,0,0:0:0:0:s_056.ogg
192,192,72880,1,0,0:0:0:0:s_070.ogg
448,192,72880,1,0,0:0:0:0:s_058.ogg
192,192,72990,1,0,0:0:0:0:s_065.ogg
320,192,72990,1,0,0:0:0:0:s_062.ogg
64,192,73210,1,0,0:0:0:0:s_070.ogg
192,192,73210,1,0,0:0:0:0:s_041.ogg
448,192,73210,1,0,0:0:0:0:s_058.ogg
64,192,73320,1,0,0:0:0:0:s_058.ogg
192,192,73320,1,0,0:0:0:0:s_041.ogg
448,192,73320,1,0,0:0:0:0:s_070.ogg
320,192,73430,1,0,0:0:0:0:s_071.ogg
448,192,73430,1,0,0:0:0:0:s_059.ogg
64,192,73540,1,0,0:0:0:0:s_029.ogg
192,192,73540,1,0,0:0:0:0:s_058.ogg
448,192,73540,1,0,0:0:0:0:s_070.ogg
64,192,73650,1,0,0:0:0:0:s_056.ogg
320,192,73650,1,0,0:0:0:0:s_068.ogg
64,192,73760,1,0,0:0:0:0:s_055.ogg
192,192,73760,1,0,0:0:0:0:s_067.ogg
448,192,73760,1,0,0:0:0:0:s_031.ogg
320,192,73870,1,0,0:0:0:0:s_063.ogg
448,192,73870,1,0,0:0:0:0:s_058.ogg
64,192,73980,1,0,0:0:0:0:s_017.ogg
192,192,73980,1,0,0:0:0:0:s_032.ogg
64,192,74090,1,0,0:0:0:0:s_062.ogg
320,192,74090,1,0,0:0:0:0:s_050.ogg
64,192,74200,1,0,0:0:0:0:s_018.ogg
192,192,74200,1,0,0:0:0:0:s_051.ogg
448,192,74200,1,0,0:0:0:0:s_063.ogg
320,192,74310,1,0,0:0:0:0:s_066.ogg
448,192,74310,1,0,0:0:0:0:s_054.ogg
64,192,74420,1,0,0:0:0:0:s_034.ogg
192,192,74420,1,0,0:0:0:0:s_052.ogg
448,192,74420,1,0,0:0:0:0:s_064.ogg
64,192,74530,1,0,0:0:0:0:s_051.ogg
320,192,74530,1,0,0:0:0:0:s_063.ogg
192,192,74640,1,0,0:0:0:0:s_056.ogg
320,192,74640,1,0,0:0:0:0:s_026.ogg
448,192,74640,1,0,0:0:0:0:s_068.ogg
64,192,74750,1,0,0:0:0:0:s_062.ogg
448,192,74750,1,0,0:0:0:0:s_059.ogg
192,192,74970,1,0,0:0:0:0:s_050.ogg
320,192,74970,1,0,0:0:0:0:s_047.ogg
448,192,74970,1,0,0:0:0:0:s_044.ogg
192,192,75080,1,0,0:0:0:0:s_050.ogg
320,192,75080,1,0,0:0:0:0:m_047.ogg
448,192,75080,1,0,0:0:0:0:s_041.ogg
64,192,75190,1,0,0:0:0:0:s_053.ogg
448,192,75190,1,0,0:0:0:0:s_038.ogg
64,192,75300,1,0,0:0:0:0:s_039.ogg
320,192,75300,1,0,0:0:0:0:s_051.ogg
192,192,75410,1,0,0:0:0:0:s_050.ogg
448,192,75410,1,0,0:0:0:0:s_041.ogg
64,192,75520,1,0,0:0:0:0:s_067.ogg
192,192,75520,1,0,0:0:0:0:s_055.ogg
320,192,75520,1,0,0:0:0:0:s_036.ogg
64,192,75630,1,0,0:0:0:0:s_063.ogg
448,192,75630,1,0,0:0:0:0:s_060.ogg
64,192,75850,1,0,0:0:0:0:s_048.ogg
192,192,75850,1,0,0:0:0:0:s_043.ogg
320,192,75850,1,0,0:0:0:0:s_039.ogg
64,192,75960,1,0,0:0:0:0:m_043.ogg
192,192,75960,1,0,0:0:0:0:s_048.ogg
320,192,75960,1,0,0:0:0:0:s_039.ogg
64,192,76070,1,0,0:0:0:0:s_036.ogg
448,192,76070,1,0,0:0:0:0:s_051.ogg
192,192,76180,1,0,0:0:0:0:s_038.ogg
320,192,76180,1,0,0:0:0:0:s_050.ogg
192,192,76290,1,0,0:0:0:0:s_048.ogg
448,192,76290,1,0,0:0:0:0:s_039.ogg
64,192,76400,1,0,0:0:0:0:s_053.ogg
320,192,76400,1,0,0:0:0:0:s_041.ogg
448,192,76400,1,0,0:0:0:0:m_026.ogg
192,192,76510,1,0,0:0:0:0:s_056.ogg
448,192,76510,1,0,0:0:0:0:s_044.ogg
64,192,76620,1,0,0:0:0:0:s_055.ogg
320,192,76620,1,0,0:0:0:0:s_043.ogg
192,192,76730,1,0,0:0:0:0:s_042.ogg
448,192,76730,1,0,0:0:0:0:s_054.ogg
64,192,76840,1,0,0:0:0:0:s_055.ogg
320,192,76840,1,0,0:0:0:0:s_043.ogg
448,192,76840,1,0,0:0:0:0:m_035.ogg
64,192,76950,1,0,0:0:0:0:s_050.ogg
192,192,76950,1,0,0:0:0:0:s_038.ogg
320,192,77060,1,0,0:0:0:0:s_041.ogg
448,192,77060,1,0,0:0:0:0:s_053.ogg
64,192,77170,1,0,0:0:0:0:s_051.ogg
192,192,77170,1,0,0:0:0:0:s_039.ogg
192,192,77280,1,0,0:0:0:0:s_043.ogg
320,192,77280,1,0,0:0:0:0:m_050.ogg
448,192,77280,1,0,0:0:0:0:m_038.ogg
64,192,77390,1,0,0:0:0:0:s_034.ogg
320,192,77390,1,0,0:0:0:0:s_046.ogg
192,192,77500,1,0,0:0:0:0:s_044.ogg
448,192,77500,1,0,0:0:0:0:s_032.ogg
64,192,77610,1,0,0:0:0:0:s_043.ogg
320,192,77610,1,0,0:0:0:0:s_031.ogg
192,192,77720,1,0,0:0:0:0:s_027.ogg
320,192,77720,1,0,0:0:0:0:s_048.ogg
448,192,77720,1,0,0:0:0:0:s_036.ogg
64,192,78160,1,0,0:0:0:0:s_036.ogg
448,192,78160,1,0,0:0:0:0:s_060.ogg
192,192,78187,1,0,0:0:0:0:s_039.ogg
320,192,78215,1,0,0:0:0:0:s_048.ogg
448,192,78270,1,0,0:0:0:0:s_072.ogg
64,192,78380,1,0,0:0:0:0:s_051.ogg
192,192,78380,1,0,0:0:0:0:s_071.ogg
320,192,78380,1,0,0:0:0:0:s_059.ogg
192,192,78490,1,0,0:0:0:0:s_058.ogg
448,192,78490,1,0,0:0:0:0:s_070.ogg
64,192,78600,1,0,0:0:0:0:s_057.ogg
320,192,78600,1,0,0:0:0:0:s_050.ogg
448,192,78600,1,0,0:0:0:0:s_069.ogg
192,192,78710,1,0,0:0:0:0:s_056.ogg
320,192,78710,1,0,0:0:0:0:s_068.ogg
64,192,78820,1,0,0:0:0:0:s_048.ogg
192,192,78820,1,0,0:0:0:0:s_055.ogg
448,192,78820,1,0,0:0:0:0:s_067.ogg
64,192,78930,1,0,0:0:0:0:s_054.ogg
320,192,78930,1,0,0:0:0:0:s_066.ogg
64,192,79040,1,0,0:0:0:0:s_031.ogg
448,192,79040,1,0,0:0:0:0:s_068.ogg
192,192,79067,1,0,0:0:0:0:s_035.ogg
320,192,79095,1,0,0:0:0:0:s_043.ogg
64,192,79150,1,0,0:0:0:0:s_067.ogg
448,192,79150,1,0,0:0:0:0:s_055.ogg
192,192,79260,1,0,0:0:0:0:s_066.ogg
320,192,79260,1,0,0:0:0:0:s_054.ogg
448,192,79260,1,0,0:0:0:0:s_046.ogg
64,192,79370,1,0,0:0:0:0:s_068.ogg
448,192,79370,1,0,0:0:0:0:s_056.ogg
64,192,79480,1,0,0:0:0:0:s_067.ogg
192,192,79480,1,0,0:0:0:0:s_055.ogg
320,192,79480,1,0,0:0:0:0:s_044.ogg
448,192,79590,1,0,0:0:0:0:s_062.ogg
64,192,79700,1,0,0:0:0:0:s_043.ogg
192,192,79700,1,0,0:0:0:0:s_059.ogg
320,192,79700,1,0,0:0:0:0:s_050.ogg
320,192,79810,1,0,0:0:0:0:s_055.ogg
64,192,79920,1,0,0:0:0:0:s_036.ogg
448,192,79920,1,0,0:0:0:0:s_060.ogg
192,192,79947,1,0,0:0:0:0:s_039.ogg
320,192,79975,1,0,0:0:0:0:s_048.ogg
448,192,80030,1,0,0:0:0:0:s_072.ogg
64,192,80140,1,0,0:0:0:0:s_051.ogg
192,192,80140,1,0,0:0:0:0:s_059.ogg
320,192,80140,1,0,0:0:0:0:s_071.ogg
192,192,80250,1,0,0:0:0:0:s_058.ogg
448,192,80250,1,0,0:0:0:0:s_070.ogg
64,192,80360,1,0,0:0:0:0:s_069.ogg
320,192,80360,1,0,0:0:0:0:s_050.ogg
448,192,80360,1,0,0:0:0:0:s_057.ogg
192,192,80470,1,0,0:0:0:0:s_056.ogg
320,192,80470,1,0,0:0:0:0:s_068.ogg
64,192,80580,1,0,0:0:0:0:s_067.ogg
192,192,80580,1,0,0:0:0:0:s_055.ogg
448,192,80580,1,0,0:0:0:0:s_048.ogg
64,192,80690,1,0,0:0:0:0:s_054.ogg
320,192,80690,1,0,0:0:0:0:s_066.ogg
64,192,80800,1,0,0:0:0:0:s_039.ogg
320,192,80800,1,0,0:0:0:0:s_068.ogg
448,192,80800,1,0,0:0:0:0:s_056.ogg
192,192,80910,1,0,0:0:0:0:s_067.ogg
448,192,80910,1,0,0:0:0:0:s_055.ogg
64,192,81020,1,0,0:0:0:0:s_066.ogg
320,192,81020,1,0,0:0:0:0:s_054.ogg
192,192,81130,1,0,0:0:0:0:s_068.ogg
448,192,81130,1,0,0:0:0:0:s_056.ogg
64,192,81240,1,0,0:0:0:0:s_067.ogg
192,192,81240,1,0,0:0:0:0:s_043.ogg
320,192,81240,1,0,0:0:0:0:s_055.ogg
64,192,81460,1,0,0:0:0:0:s_055.ogg
64,192,81680,1,0,0:0:0:0:s_036.ogg
448,192,81680,1,0,0:0:0:0:s_060.ogg
192,192,81707,1,0,0:0:0:0:s_039.ogg
320,192,81735,1,0,0:0:0:0:s_048.ogg
448,192,81790,1,0,0:0:0:0:s_072.ogg
64,192,81900,1,0,0:0:0:0:s_043.ogg
192,192,81900,1,0,0:0:0:0:s_059.ogg
320,192,81900,1,0,0:0:0:0:s_071.ogg
192,192,82010,1,0,0:0:0:0:s_058.ogg
448,192,82010,1,0,0:0:0:0:s_070.ogg
64,192,82120,1,0,0:0:0:0:s_069.ogg
320,192,82120,1,0,0:0:0:0:s_050.ogg
448,192,82120,1,0,0:0:0:0:s_057.ogg
192,192,82230,1,0,0:0:0:0:s_056.ogg
320,192,82230,1,0,0:0:0:0:s_068.ogg
64,192,82340,1,0,0:0:0:0:s_055.ogg
192,192,82340,1,0,0:0:0:0:s_067.ogg
448,192,82340,1,0,0:0:0:0:s_048.ogg
64,192,82450,1,0,0:0:0:0:s_054.ogg
320,192,82450,1,0,0:0:0:0:s_066.ogg
64,192,82560,1,0,0:0:0:0:s_056.ogg
448,192,82560,1,0,0:0:0:0:s_068.ogg
192,192,82587,1,0,0:0:0:0:s_035.ogg
320,192,82615,1,0,0:0:0:0:s_043.ogg
64,192,82670,1,0,0:0:0:0:s_067.ogg
448,192,82670,1,0,0:0:0:0:s_055.ogg
192,192,82780,1,0,0:0:0:0:s_066.ogg
320,192,82780,1,0,0:0:0:0:s_054.ogg
448,192,82780,1,0,0:0:0:0:s_038.ogg
64,192,82890,1,0,0:0:0:0:s_056.ogg
448,192,82890,1,0,0:0:0:0:s_068.ogg
64,192,83000,1,0,0:0:0:0:s_067.ogg
192,192,83000,1,0,0:0:0:0:s_044.ogg
320,192,83000,1,0,0:0:0:0:s_055.ogg
448,192,83110,1,0,0:0:0:0:s_062.ogg
64,192,83220,1,0,0:0:0:0:s_043.ogg
192,192,83220,1,0,0:0:0:0:s_059.ogg
320,192,83220,1,0,0:0:0:0:s_050.ogg
320,192,83330,1,0,0:0:0:0:s_055.ogg
64,192,83440,1,0,0:0:0:0:s_060.ogg
448,192,83440,1,0,0:0:0:0:s_036.ogg
192,192,83467,1,0,0:0:0:0:s_039.ogg
320,192,83495,1,0,0:0:0:0:s_048.ogg
448,192,83550,1,0,0:0:0:0:s_072.ogg
64,192,83660,1,0,0:0:0:0:s_043.ogg
192,192,83660,1,0,0:0:0:0:s_059.ogg
320,192,83660,1,0,0:0:0:0:s_071.ogg
192,192,83770,1,0,0:0:0:0:s_058.ogg
448,192,83770,1,0,0:0:0:0:s_070.ogg
64,192,83880,1,0,0:0:0:0:s_069.ogg
320,192,83880,1,0,0:0:0:0:s_057.ogg
448,192,83880,1,0,0:0:0:0:s_050.ogg
192,192,83990,1,0,0:0:0:0:s_056.ogg
320,192,83990,1,0,0:0:0:0:s_068.ogg
64,192,84100,1,0,0:0:0:0:s_055.ogg
192,192,84100,1,0,0:0:0:0:s_067.ogg
448,192,84100,1,0,0:0:0:0:s_048.ogg
64,192,84210,1,0,0:0:0:0:s_066.ogg
320,192,84210,1,0,0:0:0:0:s_054.ogg
64,192,84320,1,0,0:0:0:0:s_056.ogg
320,192,84320,1,0,0:0:0:0:s_039.ogg
448,192,84320,1,0,0:0:0:0:s_068.ogg
192,192,84430,1,0,0:0:0:0:s_067.ogg
448,192,84430,1,0,0:0:0:0:s_055.ogg
64,192,84540,1,0,0:0:0:0:s_066.ogg
320,192,84540,1,0,0:0:0:0:s_054.ogg
192,192,84650,1,0,0:0:0:0:s_056.ogg
448,192,84650,1,0,0:0:0:0:s_068.ogg
64,192,84760,1,0,0:0:0:0:s_067.ogg
192,192,84760,1,0,0:0:0:0:s_043.ogg
320,192,84760,1,0,0:0:0:0:s_055.ogg
64,192,84980,1,0,0:0:0:0:s_055.ogg
64,192,85200,1,0,0:0:0:0:s_048.ogg
192,192,85200,1,0,0:0:0:0:s_040.ogg
320,192,85200,1,0,0:0:0:0:s_060.ogg
448,192,85310,1,0,0:0:0:0:s_072.ogg
192,192,85420,1,0,0:0:0:0:s_059.ogg
320,192,85420,1,0,0:0:0:0:s_041.ogg
448,192,85420,1,0,0:0:0:0:s_071.ogg
64,192,85530,1,0,0:0:0:0:s_058.ogg
320,192,85530,1,0,0:0:0:0:s_070.ogg
64,192,85640,1,0,0:0:0:0:s_040.ogg
192,192,85640,1,0,0:0:0:0:s_069.ogg
448,192,85640,1,0,0:0:0:0:s_057.ogg
64,192,85750,1,0,0:0:0:0:s_056.ogg
320,192,85750,1,0,0:0:0:0:s_068.ogg
192,192,85860,1,0,0:0:0:0:s_055.ogg
320,192,85860,1,0,0:0:0:0:s_037.ogg
448,192,85860,1,0,0:0:0:0:s_067.ogg
64,192,85970,1,0,0:0:0:0:s_053.ogg
320,192,85970,1,0,0:0:0:0:s_065.ogg
64,192,86080,1,0,0:0:0:0:s_064.ogg
192,192,86080,1,0,0:0:0:0:s_052.ogg
448,192,86080,1,0,0:0:0:0:s_036.ogg
448,192,86190,1,0,0:0:0:0:s_067.ogg
64,192,86300,1,0,0:0:0:0:s_052.ogg
192,192,86300,1,0,0:0:0:0:s_060.ogg
320,192,86300,1,0,0:0:0:0:s_043.ogg
192,192,86410,1,0,0:0:0:0:s_064.ogg
64,192,86520,1,0,0:0:0:0:s_065.ogg
320,192,86520,1,0,0:0:0:0:s_032.ogg
448,192,86520,1,0,0:0:0:0:s_053.ogg
320,192,86630,1,0,0:0:0:0:s_060.ogg
64,192,86740,1,0,0:0:0:0:s_048.ogg
192,192,86740,1,0,0:0:0:0:s_056.ogg
448,192,86740,1,0,0:0:0:0:s_044.ogg
64,192,86850,1,0,0:0:0:0:s_053.ogg
64,192,86960,1,0,0:0:0:0:s_034.ogg
192,192,86960,1,0,0:0:0:0:s_038.ogg
320,192,86960,1,0,0:0:0:0:s_058.ogg
448,192,87070,1,0,0:0:0:0:s_070.ogg
192,192,87180,1,0,0:0:0:0:s_057.ogg
320,192,87180,1,0,0:0:0:0:s_047.ogg
448,192,87180,1,0,0:0:0:0:s_069.ogg
64,192,87290,1,0,0:0:0:0:s_056.ogg
320,192,87290,1,0,0:0:0:0:s_068.ogg
64,192,87400,1,0,0:0:0:0:s_067.ogg
192,192,87400,1,0,0:0:0:0:s_055.ogg
448,192,87400,1,0,0:0:0:0:s_046.ogg
64,192,87510,1,0,0:0:0:0:s_054.ogg
320,192,87510,1,0,0:0:0:0:s_066.ogg
192,192,87620,1,0,0:0:0:0:s_053.ogg
320,192,87620,1,0,0:0:0:0:s_044.ogg
448,192,87620,1,0,0:0:0:0:s_065.ogg
64,192,87730,1,0,0:0:0:0:s_051.ogg
320,192,87730,1,0,0:0:0:0:s_063.ogg
64,192,87840,1,0,0:0:0:0:s_062.ogg
192,192,87840,1,0,0:0:0:0:s_050.ogg
448,192,87840,1,0,0:0:0:0:s_043.ogg
448,192,87950,1,0,0:0:0:0:s_065.ogg
64,192,88060,1,0,0:0:0:0:s_058.ogg
192,192,88060,1,0,0:0:0:0:s_050.ogg
320,192,88060,1,0,0:0:0:0:s_041.ogg
192,192,88170,1,0,0:0:0:0:s_062.ogg
64,192,88280,1,0,0:0:0:0:s_063.ogg
320,192,88280,1,0,0:0:0:0:s_051.ogg
448,192,88280,1,0,0:0:0:0:s_039.ogg
320,192,88390,1,0,0:0:0:0:s_058.ogg
64,192,88500,1,0,0:0:0:0:s_055.ogg
192,192,88500,1,0,0:0:0:0:s_046.ogg
448,192,88500,1,0,0:0:0:0:s_043.ogg
64,192,88610,1,0,0:0:0:0:s_051.ogg
64,192,88720,1,0,0:0:0:0:s_035.ogg
192,192,88720,1,0,0:0:0:0:s_056.ogg
320,192,88720,1,0,0:0:0:0:s_029.ogg
448,192,88775,1,0,0:0:0:0:s_072.ogg
192,192,88940,1,0,0:0:0:0:s_067.ogg
448,192,88940,1,0,0:0:0:0:s_055.ogg
64,192,89050,1,0,0:0:0:0:s_054.ogg
320,192,89050,1,0,0:0:0:0:s_066.ogg
192,192,89160,1,0,0:0:0:0:s_053.ogg
64,192,89270,1,0,0:0:0:0:s_052.ogg
320,192,89270,1,0,0:0:0:0:s_064.ogg
192,192,89380,1,0,0:0:0:0:s_051.ogg
448,192,89380,1,0,0:0:0:0:s_063.ogg
64,192,89490,1,0,0:0:0:0:s_050.ogg
320,192,89490,1,0,0:0:0:0:s_062.ogg
64,192,89600,1,0,0:0:0:0:s_036.ogg
192,192,89600,1,0,0:0:0:0:s_055.ogg
320,192,89600,1,0,0:0:0:0:s_027.ogg
448,192,89655,1,0,0:0:0:0:s_070.ogg
192,192,89820,1,0,0:0:0:0:s_054.ogg
448,192,89820,1,0,0:0:0:0:s_066.ogg
64,192,89930,1,0,0:0:0:0:s_053.ogg
320,192,89930,1,0,0:0:0:0:s_065.ogg
192,192,90040,1,0,0:0:0:0:s_051.ogg
64,192,90150,1,0,0:0:0:0:s_062.ogg
320,192,90150,1,0,0:0:0:0:s_050.ogg
192,192,90260,1,0,0:0:0:0:s_049.ogg
448,192,90260,1,0,0:0:0:0:s_061.ogg
64,192,90370,1,0,0:0:0:0:s_048.ogg
320,192,90370,1,0,0:0:0:0:s_060.ogg
64,192,90480,1,0,0:0:0:0:s_044.ogg
192,192,90480,1,0,0:0:0:0:s_036.ogg
320,192,90590,1,0,0:0:0:0:s_055.ogg
448,192,90590,1,0,0:0:0:0:s_043.ogg
192,192,90700,1,0,0:0:0:0:s_042.ogg
448,192,90700,1,0,0:0:0:0:s_054.ogg
64,192,90810,1,0,0:0:0:0:s_041.ogg
320,192,90810,1,0,0:0:0:0:s_053.ogg
64,192,90920,1,0,0:0:0:0:s_043.ogg
192,192,90920,1,0,0:0:0:0:s_035.ogg
320,192,91030,1,0,0:0:0:0:s_051.ogg
448,192,91030,1,0,0:0:0:0:s_039.ogg
192,192,91140,1,0,0:0:0:0:s_050.ogg
448,192,91140,1,0,0:0:0:0:s_038.ogg
64,192,91250,1,0,0:0:0:0:s_049.ogg
320,192,91250,1,0,0:0:0:0:s_037.ogg
192,192,91360,1,0,0:0:0:0:s_036.ogg
320,192,91470,1,0,0:0:0:0:s_044.ogg
448,192,91470,1,0,0:0:0:0:s_032.ogg
192,192,91580,1,0,0:0:0:0:s_043.ogg
320,192,91580,1,0,0:0:0:0:s_031.ogg
64,192,91690,1,0,0:0:0:0:s_042.ogg
192,192,91690,1,0,0:0:0:0:s_030.ogg
64,192,91800,1,0,0:0:0:0:s_029.ogg
448,192,91800,1,0,0:0:0:0:s_041.ogg
320,192,91910,1,0,0:0:0:0:s_039.ogg
448,192,91910,1,0,0:0:0:0:s_027.ogg
192,192,92020,1,0,0:0:0:0:s_038.ogg
320,192,92020,1,0,0:0:0:0:s_026.ogg
64,192,92130,1,0,0:0:0:0:s_037.ogg
192,192,92130,1,0,0:0:0:0:s_025.ogg
448,192,92240,1,0,0:0:0:0:m_024.ogg
64,192,92240,128,0,92840:0:0:0:0:m_036.ogg
192,192,92480,1,0,0:0:0:0:s_060.ogg
320,192,92480,1,0,0:0:0:0:s_068.ogg
192,192,92600,1,0,0:0:0:0:s_063.ogg
448,192,92600,1,0,0:0:0:0:s_056.ogg
320,192,92720,1,0,0:0:0:0:s_048.ogg
448,192,92720,1,0,0:0:0:0:s_055.ogg
192,192,92840,1,0,0:0:0:0:s_043.ogg
320,192,92840,1,0,0:0:0:0:s_051.ogg
192,192,92960,1,0,0:0:0:0:s_027.ogg
448,192,92960,1,0,0:0:0:0:s_039.ogg
64,192,93040,1,0,0:0:0:0:s_026.ogg
320,192,93040,1,0,0:0:0:0:s_038.ogg
192,192,93120,1,0,0:0:0:0:s_036.ogg
448,192,93120,1,0,0:0:0:0:s_024.ogg
320,192,93200,1,0,0:0:0:0:m_023.ogg
64,192,93200,128,0,93800:0:0:0:0:m_035.ogg
320,192,93440,1,0,0:0:0:0:s_059.ogg
448,192,93440,1,0,0:0:0:0:s_066.ogg
192,192,93560,1,0,0:0:0:0:s_062.ogg
320,192,93560,1,0,0:0:0:0:s_054.ogg
192,192,93680,1,0,0:0:0:0:s_047.ogg
448,192,93680,1,0,0:0:0:0:s_055.ogg
320,192,93800,1,0,0:0:0:0:s_043.ogg
448,192,93800,1,0,0:0:0:0:s_050.ogg
64,192,93920,1,0,0:0:0:0:s_031.ogg
320,192,93920,1,0,0:0:0:0:s_019.ogg
192,192,94000,1,0,0:0:0:0:s_033.ogg
448,192,94000,1,0,0:0:0:0:s_021.ogg
64,192,94080,1,0,0:0:0:0:s_035.ogg
320,192,94080,1,0,0:0:0:0:s_023.ogg
192,192,94160,1,0,0:0:0:0:m_036.ogg
448,192,94160,128,0,94760:0:0:0:0:m_024.ogg
192,192,94400,1,0,0:0:0:0:s_060.ogg
320,192,94400,1,0,0:0:0:0:s_068.ogg
64,192,94520,1,0,0:0:0:0:s_056.ogg
192,192,94520,1,0,0:0:0:0:s_063.ogg
64,192,94640,1,0,0:0:0:0:s_048.ogg
320,192,94640,1,0,0:0:0:0:s_055.ogg
192,192,94760,1,0,0:0:0:0:s_051.ogg
320,192,94760,1,0,0:0:0:0:s_043.ogg
192,192,94880,1,0,0:0:0:0:s_027.ogg
448,192,94880,1,0,0:0:0:0:s_039.ogg
64,192,94960,1,0,0:0:0:0:s_026.ogg
320,192,94960,1,0,0:0:0:0:s_038.ogg
192,192,95040,1,0,0:0:0:0:s_036.ogg
448,192,95040,1,0,0:0:0:0:s_024.ogg
320,192,95120,1,0,0:0:0:0:m_023.ogg
64,192,95120,128,0,95720:0:0:0:0:m_035.ogg
320,192,95360,1,0,0:0:0:0:s_059.ogg
448,192,95360,1,0,0:0:0:0:s_066.ogg
192,192,95480,1,0,0:0:0:0:s_054.ogg
320,192,95480,1,0,0:0:0:0:s_062.ogg
192,192,95600,1,0,0:0:0:0:s_047.ogg
448,192,95600,1,0,0:0:0:0:s_055.ogg
320,192,95720,1,0,0:0:0:0:s_043.ogg
448,192,95720,1,0,0:0:0:0:s_050.ogg
64,192,95900,1,0,0:0:0:0:s_031.ogg
320,192,95900,1,0,0:0:0:0:s_019.ogg
192,192,95960,1,0,0:0:0:0:s_033.ogg
448,192,95960,1,0,0:0:0:0:s_021.ogg
64,192,96020,1,0,0:0:0:0:s_023.ogg
320,192,96020,1,0,0:0:0:0:s_035.ogg
192,192,96080,1,0,0:0:0:0:m_012.ogg
448,192,96080,128,0,96680:0:0:0:0:m_036.ogg
192,192,96320,1,0,0:0:0:0:s_060.ogg
320,192,96320,1,0,0:0:0:0:s_068.ogg
64,192,96440,1,0,0:0:0:0:s_063.ogg
192,192,96440,1,0,0:0:0:0:s_056.ogg
64,192,96560,1,0,0:0:0:0:s_055.ogg
320,192,96560,1,0,0:0:0:0:s_048.ogg
192,192,96680,1,0,0:0:0:0:s_043.ogg
320,192,96680,1,0,0:0:0:0:s_051.ogg
192,192,96800,1,0,0:0:0:0:s_039.ogg
448,192,96800,1,0,0:0:0:0:s_027.ogg
64,192,96880,1,0,0:0:0:0:s_038.ogg
320,192,96880,1,0,0:0:0:0:s_026.ogg
192,192,96960,1,0,0:0:0:0:s_036.ogg
448,192,96960,1,0,0:0:0:0:s_024.ogg
320,192,97040,1,0,0:0:0:0:m_023.ogg
64,192,97040,128,0,97640:0:0:0:0:m_035.ogg
192,192,97280,1,0,0:0:0:0:s_059.ogg
320,192,97280,1,0,0:0:0:0:s_066.ogg
192,192,97400,1,0,0:0:0:0:s_054.ogg
448,192,97400,1,0,0:0:0:0:s_062.ogg
320,192,97520,1,0,0:0:0:0:s_047.ogg
448,192,97520,1,0,0:0:0:0:s_055.ogg
192,192,97640,1,0,0:0:0:0:s_050.ogg
320,192,97640,1,0,0:0:0:0:s_043.ogg
64,192,97760,1,0,0:0:0:0:s_019.ogg
320,192,97760,1,0,0:0:0:0:s_031.ogg
192,192,97840,1,0,0:0:0:0:s_021.ogg
448,192,97840,1,0,0:0:0:0:s_033.ogg
64,192,97920,1,0,0:0:0:0:s_023.ogg
320,192,97920,1,0,0:0:0:0:s_035.ogg
192,192,98000,1,0,0:0:0:0:m_012.ogg
448,192,98000,128,0,98600:0:0:0:0:m_036.ogg
192,192,98240,1,0,0:0:0:0:s_060.ogg
320,192,98240,1,0,0:0:0:0:s_068.ogg
64,192,98360,1,0,0:0:0:0:s_056.ogg
192,192,98360,1,0,0:0:0:0:s_063.ogg
64,192,98480,1,0,0:0:0:0:s_055.ogg
320,192,98480,1,0,0:0:0:0:s_048.ogg
192,192,98600,1,0,0:0:0:0:s_043.ogg
320,192,98600,1,0,0:0:0:0:s_051.ogg
192,192,98720,1,0,0:0:0:0:s_027.ogg
448,192,98720,1,0,0:0:0:0:s_039.ogg
64,192,98800,1,0,0:0:0:0:s_026.ogg
320,192,98800,1,0,0:0:0:0:s_038.ogg
192,192,98880,1,0,0:0:0:0:s_024.ogg
448,192,98880,1,0,0:0:0:0:s_036.ogg
320,192,98960,1,0,0:0:0:0:m_035.ogg
64,192,98960,128,0,99560:0:0:0:0:m_023.ogg
320,192,99200,1,0,0:0:0:0:s_059.ogg
448,192,99200,1,0,0:0:0:0:s_066.ogg
192,192,99320,1,0,0:0:0:0:s_054.ogg
320,192,99320,1,0,0:0:0:0:s_062.ogg
192,192,99440,1,0,0:0:0:0:s_055.ogg
448,192,99440,1,0,0:0:0:0:s_047.ogg
320,192,99560,1,0,0:0:0:0:s_043.ogg
448,192,99560,1,0,0:0:0:0:s_050.ogg
64,192,99740,1,0,0:0:0:0:s_036.ogg
320,192,99740,1,0,0:0:0:0:s_024.ogg
192,192,99800,1,0,0:0:0:0:s_038.ogg
448,192,99800,1,0,0:0:0:0:s_026.ogg
64,192,99860,1,0,0:0:0:0:s_027.ogg
320,192,99860,1,0,0:0:0:0:s_039.ogg
192,192,99920,1,0,0:0:0:0:m_028.ogg
448,192,99920,128,0,100520:0:0:0:0:m_040.ogg
64,192,100160,1,0,0:0:0:0:s_067.ogg
192,192,100160,1,0,0:0:0:0:s_073.ogg
64,192,100280,1,0,0:0:0:0:s_061.ogg
320,192,100280,1,0,0:0:0:0:s_070.ogg
192,192,100400,1,0,0:0:0:0:s_055.ogg
320,192,100400,1,0,0:0:0:0:s_060.ogg
64,192,100520,1,0,0:0:0:0:s_048.ogg
192,192,100520,1,0,0:0:0:0:s_058.ogg
64,192,100640,1,0,0:0:0:0:s_024.ogg
320,192,100640,1,0,0:0:0:0:s_036.ogg
192,192,100720,1,0,0:0:0:0:s_026.ogg
448,192,100720,1,0,0:0:0:0:s_038.ogg
64,192,100800,1,0,0:0:0:0:s_028.ogg
320,192,100800,1,0,0:0:0:0:s_040.ogg
192,192,100880,1,0,0:0:0:0:m_017.ogg
448,192,100880,128,0,101480:0:0:0:0:m_041.ogg
192,192,101120,1,0,0:0:0:0:s_060.ogg
320,192,101120,1,0,0:0:0:0:s_067.ogg
64,192,101240,1,0,0:0:0:0:s_055.ogg
192,192,101240,1,0,0:0:0:0:s_065.ogg
64,192,101360,1,0,0:0:0:0:s_048.ogg
320,192,101360,1,0,0:0:0:0:s_056.ogg
192,192,101480,1,0,0:0:0:0:s_053.ogg
320,192,101480,1,0,0:0:0:0:s_044.ogg
192,192,101600,1,0,0:0:0:0:s_031.ogg
448,192,101600,1,0,0:0:0:0:s_043.ogg
64,192,101680,1,0,0:0:0:0:s_029.ogg
320,192,101680,1,0,0:0:0:0:s_041.ogg
192,192,101760,1,0,0:0:0:0:s_039.ogg
448,192,101760,1,0,0:0:0:0:s_027.ogg
320,192,101840,1,0,0:0:0:0:m_026.ogg
64,192,101840,128,0,102440:0:0:0:0:m_038.ogg
320,192,102080,1,0,0:0:0:0:s_065.ogg
448,192,102080,1,0,0:0:0:0:s_071.ogg
192,192,102200,1,0,0:0:0:0:s_059.ogg
320,192,102200,1,0,0:0:0:0:s_068.ogg
192,192,102320,1,0,0:0:0:0:s_058.ogg
448,192,102320,1,0,0:0:0:0:s_053.ogg
320,192,102440,1,0,0:0:0:0:s_056.ogg
448,192,102440,1,0,0:0:0:0:s_046.ogg
64,192,102560,1,0,0:0:0:0:s_034.ogg
320,192,102560,1,0,0:0:0:0:s_022.ogg
192,192,102640,1,0,0:0:0:0:s_036.ogg
448,192,102640,1,0,0:0:0:0:s_024.ogg
64,192,102720,1,0,0:0:0:0:s_026.ogg
320,192,102720,1,0,0:0:0:0:s_038.ogg
192,192,102800,1,0,0:0:0:0:m_027.ogg
448,192,102800,128,0,103400:0:0:0:0:m_039.ogg
64,192,103040,1,0,0:0:0:0:s_066.ogg
192,192,103040,1,0,0:0:0:0:s_058.ogg
64,192,103160,1,0,0:0:0:0:s_054.ogg
320,192,103160,1,0,0:0:0:0:s_063.ogg
192,192,103280,1,0,0:0:0:0:s_046.ogg
320,192,103280,1,0,0:0:0:0:s_055.ogg
64,192,103400,1,0,0:0:0:0:s_043.ogg
192,192,103400,1,0,0:0:0:0:s_051.ogg
64,192,103520,1,0,0:0:0:0:s_038.ogg
320,192,103520,1,0,0:0:0:0:s_026.ogg
192,192,103600,1,0,0:0:0:0:s_039.ogg
448,192,103600,1,0,0:0:0:0:s_027.ogg
64,192,103680,1,0,0:0:0:0:s_028.ogg
320,192,103680,1,0,0:0:0:0:s_040.ogg
192,192,103760,1,0,0:0:0:0:m_017.ogg
448,192,103760,128,0,104360:0:0:0:0:m_041.ogg
64,192,104000,1,0,0:0:0:0:s_074.ogg
192,192,104000,1,0,0:0:0:0:s_065.ogg
64,192,104120,1,0,0:0:0:0:s_062.ogg
320,192,104120,1,0,0:0:0:0:s_068.ogg
192,192,104240,1,0,0:0:0:0:s_053.ogg
320,192,104240,1,0,0:0:0:0:s_061.ogg
64,192,104360,1,0,0:0:0:0:s_049.ogg
192,192,104360,1,0,0:0:0:0:s_056.ogg
64,192,104480,1,0,0:0:0:0:s_037.ogg
320,192,104480,1,0,0:0:0:0:s_025.ogg
192,192,104560,1,0,0:0:0:0:s_039.ogg
448,192,104560,1,0,0:0:0:0:s_027.ogg
64,192,104640,1,0,0:0:0:0:s_029.ogg
320,192,104640,1,0,0:0:0:0:s_041.ogg
192,192,104720,1,0,0:0:0:0:m_031.ogg
448,192,104720,128,0,105320:0:0:0:0:m_043.ogg
192,192,104960,1,0,0:0:0:0:s_071.ogg
320,192,104960,1,0,0:0:0:0:s_062.ogg
64,192,105080,1,0,0:0:0:0:s_059.ogg
192,192,105080,1,0,0:0:0:0:s_065.ogg
64,192,105200,1,0,0:0:0:0:s_051.ogg
320,192,105200,1,0,0:0:0:0:s_060.ogg
192,192,105320,1,0,0:0:0:0:s_055.ogg
320,192,105320,1,0,0:0:0:0:s_048.ogg
192,192,105440,1,0,0:0:0:0:s_044.ogg
448,192,105440,1,0,0:0:0:0:s_032.ogg
64,192,105520,1,0,0:0:0:0:s_043.ogg
320,192,105520,1,0,0:0:0:0:s_031.ogg
192,192,105600,1,0,0:0:0:0:s_042.ogg
448,192,105600,1,0,0:0:0:0:s_030.ogg
64,192,105680,1,0,0:0:0:0:m_041.ogg
320,192,105680,1,0,0:0:0:0:m_029.ogg
64,192,105920,1,0,0:0:0:0:s_026.ogg
320,192,105920,1,0,0:0:0:0:s_068.ogg
192,192,106000,1,0,0:0:0:0:s_027.ogg
320,192,106040,1,0,0:0:0:0:s_062.ogg
448,192,106040,1,0,0:0:0:0:s_056.ogg
64,192,106080,1,0,0:0:0:0:s_029.ogg
192,192,106160,1,0,0:0:0:0:s_019.ogg
448,192,106160,1,0,0:0:0:0:s_055.ogg
64,192,106280,1,0,0:0:0:0:s_050.ogg
320,192,106280,1,0,0:0:0:0:s_043.ogg
192,192,106400,1,0,0:0:0:0:s_029.ogg
448,192,106400,1,0,0:0:0:0:s_041.ogg
64,192,106480,1,0,0:0:0:0:s_027.ogg
320,192,106480,1,0,0:0:0:0:s_039.ogg
192,192,106560,1,0,0:0:0:0:s_026.ogg
448,192,106560,1,0,0:0:0:0:s_038.ogg
64,192,106640,1,0,0:0:0:0:m_036.ogg
320,192,106640,1,0,0:0:0:0:m_024.ogg
192,192,106880,1,0,0:0:0:0:s_067.ogg
320,192,106880,1,0,0:0:0:0:s_043.ogg
448,192,106880,1,0,0:0:0:0:s_075.ogg
64,192,107000,1,0,0:0:0:0:s_063.ogg
64,192,107120,1,0,0:0:0:0:s_072.ogg
192,192,107120,1,0,0:0:0:0:s_039.ogg
320,192,107120,1,0,0:0:0:0:s_067.ogg
448,192,107240,1,0,0:0:0:0:s_060.ogg
64,192,107600,1,0,0:0:0:0:s_015.ogg
192,192,107600,1,0,0:0:0:0:s_012.ogg
448,192,107600,1,0,0:0:0:0:m_067.ogg
192,192,107720,1,0,0:0:0:0:s_014.ogg
320,192,107720,1,0,0:0:0:0:s_017.ogg
320,192,107840,1,0,0:0:0:0:s_015.ogg
448,192,107840,1,0,0:0:0:0:s_019.ogg
64,192,107960,1,0,0:0:0:0:s_020.ogg
448,192,107960,1,0,0:0:0:0:s_017.ogg
64,192,108080,1,0,0:0:0:0:s_023.ogg
192,192,108080,1,0,0:0:0:0:s_019.ogg
192,192,108200,1,0,0:0:0:0:s_024.ogg
320,192,108200,1,0,0:0:0:0:s_020.ogg
64,192,108320,1,0,0:0:0:0:s_065.ogg
320,192,108320,1,0,0:0:0:0:s_026.ogg
448,192,108320,1,0,0:0:0:0:s_023.ogg
64,192,108440,1,0,0:0:0:0:s_024.ogg
192,192,108440,1,0,0:0:0:0:s_075.ogg
448,192,108440,1,0,0:0:0:0:s_027.ogg
64,192,108560,1,0,0:0:0:0:s_029.ogg
192,192,108560,1,0,0:0:0:0:s_026.ogg
320,192,108560,1,0,0:0:0:0:s_071.ogg
192,192,108680,1,0,0:0:0:0:s_072.ogg
320,192,108680,1,0,0:0:0:0:s_031.ogg
448,192,108680,1,0,0:0:0:0:s_027.ogg
64,192,108800,1,0,0:0:0:0:s_071.ogg
320,192,108800,1,0,0:0:0:0:s_029.ogg
448,192,108800,1,0,0:0:0:0:s_032.ogg
64,192,108920,1,0,0:0:0:0:s_035.ogg
192,192,108920,1,0,0:0:0:0:s_068.ogg
448,192,108920,1,0,0:0:0:0:s_031.ogg
64,192,109040,1,0,0:0:0:0:s_032.ogg
192,192,109040,1,0,0:0:0:0:s_036.ogg
320,192,109040,1,0,0:0:0:0:s_055.ogg
192,192,109160,1,0,0:0:0:0:s_062.ogg
320,192,109160,1,0,0:0:0:0:s_038.ogg
448,192,109160,1,0,0:0:0:0:s_035.ogg
64,192,109280,1,0,0:0:0:0:s_051.ogg
320,192,109280,1,0,0:0:0:0:s_039.ogg
448,192,109280,1,0,0:0:0:0:s_036.ogg
64,192,109400,1,0,0:0:0:0:s_041.ogg
192,192,109400,1,0,0:0:0:0:s_059.ogg
448,192,109400,1,0,0:0:0:0:s_038.ogg
64,192,109520,1,0,0:0:0:0:m_060.ogg
320,192,109520,1,0,0:0:0:0:s_036.ogg
448,192,109520,1,0,0:0:0:0:s_039.ogg
64,192,109640,1,0,0:0:0:0:s_041.ogg
192,192,109640,1,0,0:0:0:0:s_038.ogg
320,192,109760,1,0,0:0:0:0:s_043.ogg
192,192,109760,1,0,0:0:0:0:s_039.ogg
448,192,109880,1,0,0:0:0:0:s_044.ogg
320,192,109880,1,0,0:0:0:0:s_041.ogg
448,192,110000,1,0,0:0:0:0:s_041.ogg
320,192,110000,1,0,0:0:0:0:s_044.ogg
320,192,110120,1,0,0:0:0:0:s_039.ogg
192,192,110120,1,0,0:0:0:0:s_043.ogg
64,192,110240,1,0,0:0:0:0:s_041.ogg
192,192,110240,1,0,0:0:0:0:s_062.ogg
448,192,110240,1,0,0:0:0:0:s_038.ogg
192,192,110360,1,0,0:0:0:0:s_055.ogg
64,192,110360,1,0,0:0:0:0:s_036.ogg
320,192,110360,1,0,0:0:0:0:s_039.ogg
64,192,110480,1,0,0:0:0:0:s_041.ogg
192,192,110480,1,0,0:0:0:0:s_062.ogg
448,192,110480,1,0,0:0:0:0:s_038.ogg
64,192,110600,1,0,0:0:0:0:s_060.ogg
320,192,110600,1,0,0:0:0:0:s_039.ogg
448,192,110600,1,0,0:0:0:0:s_036.ogg
448,192,110720,1,0,0:0:0:0:s_035.ogg
192,192,110720,1,0,0:0:0:0:s_059.ogg
320,192,110720,1,0,0:0:0:0:s_038.ogg
192,192,110840,1,0,0:0:0:0:s_036.ogg
320,192,110840,1,0,0:0:0:0:s_032.ogg
64,192,110840,1,0,0:0:0:0:s_048.ogg
64,192,110960,1,0,0:0:0:0:m_035.ogg
192,192,110960,1,0,0:0:0:0:m_059.ogg
448,192,110960,1,0,0:0:0:0:m_031.ogg
64,192,111440,1,0,0:0:0:0:s_024.ogg
192,192,111440,1,0,0:0:0:0:s_012.ogg
448,192,111440,1,0,0:0:0:0:m_067.ogg
192,192,111560,1,0,0:0:0:0:s_014.ogg
320,192,111560,1,0,0:0:0:0:s_026.ogg
320,192,111680,1,0,0:0:0:0:s_015.ogg
448,192,111680,1,0,0:0:0:0:s_027.ogg
64,192,111800,1,0,0:0:0:0:s_029.ogg
448,192,111800,1,0,0:0:0:0:s_017.ogg
64,192,111920,1,0,0:0:0:0:s_031.ogg
192,192,111920,1,0,0:0:0:0:s_019.ogg
192,192,112040,1,0,0:0:0:0:s_032.ogg
320,192,112040,1,0,0:0:0:0:s_020.ogg
64,192,112160,1,0,0:0:0:0:s_065.ogg
320,192,112160,1,0,0:0:0:0:s_023.ogg
448,192,112160,1,0,0:0:0:0:s_035.ogg
64,192,112280,1,0,0:0:0:0:s_024.ogg
192,192,112280,1,0,0:0:0:0:s_075.ogg
448,192,112280,1,0,0:0:0:0:s_036.ogg
64,192,112400,1,0,0:0:0:0:s_038.ogg
192,192,112400,1,0,0:0:0:0:s_026.ogg
320,192,112400,1,0,0:0:0:0:s_071.ogg
192,192,112520,1,0,0:0:0:0:s_072.ogg
320,192,112520,1,0,0:0:0:0:s_027.ogg
448,192,112520,1,0,0:0:0:0:s_039.ogg
64,192,112640,1,0,0:0:0:0:s_071.ogg
320,192,112640,1,0,0:0:0:0:s_029.ogg
448,192,112640,1,0,0:0:0:0:s_041.ogg
64,192,112760,1,0,0:0:0:0:s_031.ogg
192,192,112760,1,0,0:0:0:0:s_068.ogg
448,192,112760,1,0,0:0:0:0:s_043.ogg
64,192,112880,1,0,0:0:0:0:s_044.ogg
192,192,112880,1,0,0:0:0:0:s_032.ogg
320,192,112880,1,0,0:0:0:0:s_055.ogg
448,192,113000,1,0,0:0:0:0:s_062.ogg
192,192,113000,1,0,0:0:0:0:s_047.ogg
320,192,113000,1,0,0:0:0:0:s_035.ogg
64,192,113120,1,0,0:0:0:0:s_051.ogg
320,192,113120,1,0,0:0:0:0:s_036.ogg
448,192,113120,1,0,0:0:0:0:s_048.ogg
64,192,113240,1,0,0:0:0:0:s_050.ogg
192,192,113240,1,0,0:0:0:0:s_062.ogg
448,192,113240,1,0,0:0:0:0:s_038.ogg
64,192,113360,1,0,0:0:0:0:m_063.ogg
320,192,113360,1,0,0:0:0:0:s_048.ogg
448,192,113360,1,0,0:0:0:0:s_036.ogg
192,192,113480,1,0,0:0:0:0:s_047.ogg
320,192,113480,1,0,0:0:0:0:s_035.ogg
64,192,113600,1,0,0:0:0:0:s_032.ogg
192,192,113600,1,0,0:0:0:0:s_044.ogg
64,192,113720,1,0,0:0:0:0:s_031.ogg
448,192,113720,1,0,0:0:0:0:s_043.ogg
320,192,113840,1,0,0:0:0:0:s_032.ogg
448,192,113840,1,0,0:0:0:0:s_044.ogg
192,192,113960,1,0,0:0:0:0:s_031.ogg
320,192,113960,1,0,0:0:0:0:s_043.ogg
64,192,114080,1,0,0:0:0:0:s_053.ogg
192,192,114080,1,0,0:0:0:0:s_041.ogg
448,192,114080,1,0,0:0:0:0:s_029.ogg
64,192,114200,1,0,0:0:0:0:s_039.ogg
192,192,114200,1,0,0:0:0:0:s_027.ogg
320,192,114200,1,0,0:0:0:0:s_055.ogg
64,192,114320,1,0,0:0:0:0:s_038.ogg
192,192,114320,1,0,0:0:0:0:s_065.ogg
448,192,114320,1,0,0:0:0:0:s_026.ogg
64,192,114440,1,0,0:0:0:0:s_051.ogg
320,192,114440,1,0,0:0:0:0:s_024.ogg
448,192,114440,1,0,0:0:0:0:s_036.ogg
192,192,114560,1,0,0:0:0:0:s_050.ogg
320,192,114560,1,0,0:0:0:0:s_035.ogg
448,192,114560,1,0,0:0:0:0:s_023.ogg
64,192,114680,1,0,0:0:0:0:s_044.ogg
192,192,114680,1,0,0:0:0:0:s_048.ogg
320,192,114680,1,0,0:0:0:0:s_032.ogg
64,192,114800,1,0,0:0:0:0:m_047.ogg
192,192,114800,1,0,0:0:0:0:m_031.ogg
448,192,114800,1,0,0:0:0:0:m_043.ogg
64,192,115280,1,0,0:0:0:0:m_064.ogg
320,192,115280,1,0,0:0:0:0:s_049.ogg
192,192,115280,1,0,0:0:0:0:s_037.ogg
64,192,115400,1,0,0:0:0:0:s_036.ogg
448,192,115400,1,0,0:0:0:0:s_048.ogg
320,192,115520,1,0,0:0:0:0:s_046.ogg
448,192,115520,1,0,0:0:0:0:s_034.ogg
192,192,115640,1,0,0:0:0:0:s_031.ogg
320,192,115640,1,0,0:0:0:0:s_043.ogg
192,192,115760,1,0,0:0:0:0:s_060.ogg
64,192,115760,1,0,0:0:0:0:s_040.ogg
448,192,115760,1,0,0:0:0:0:s_028.ogg
64,192,115880,1,0,0:0:0:0:s_037.ogg
448,192,115880,1,0,0:0:0:0:s_025.ogg
64,192,116000,1,0,0:0:0:0:s_053.ogg
192,192,116000,1,0,0:0:0:0:s_036.ogg
320,192,116000,1,0,0:0:0:0:s_024.ogg
192,192,116120,1,0,0:0:0:0:s_034.ogg
320,192,116120,1,0,0:0:0:0:s_067.ogg
448,192,116120,1,0,0:0:0:0:s_064.ogg
64,192,116240,1,0,0:0:0:0:m_032.ogg
320,192,116240,1,0,0:0:0:0:s_068.ogg
448,192,116240,1,0,0:0:0:0:s_029.ogg
64,192,116360,1,0,0:0:0:0:s_070.ogg
192,192,116360,1,0,0:0:0:0:s_028.ogg
448,192,116360,1,0,0:0:0:0:m_031.ogg
64,192,116480,1,0,0:0:0:0:m_029.ogg
192,192,116480,1,0,0:0:0:0:s_026.ogg
320,192,116480,1,0,0:0:0:0:s_072.ogg
192,192,116600,1,0,0:0:0:0:s_024.ogg
320,192,116600,1,0,0:0:0:0:s_074.ogg
448,192,116600,1,0,0:0:0:0:m_028.ogg
64,192,116720,1,0,0:0:0:0:m_026.ogg
320,192,116720,1,0,0:0:0:0:s_076.ogg
448,192,116720,1,0,0:0:0:0:s_022.ogg
64,192,116840,1,0,0:0:0:0:s_077.ogg
192,192,116840,1,0,0:0:0:0:s_020.ogg
448,192,116840,1,0,0:0:0:0:m_024.ogg
64,192,116960,1,0,0:0:0:0:s_076.ogg
192,192,116960,1,0,0:0:0:0:s_022.ogg
320,192,116960,1,0,0:0:0:0:s_019.ogg
192,192,117080,1,0,0:0:0:0:s_020.ogg
320,192,117080,1,0,0:0:0:0:s_068.ogg
448,192,117080,1,0,0:0:0:0:s_017.ogg
64,192,117200,1,0,0:0:0:0:s_035.ogg
320,192,117200,1,0,0:0:0:0:m_050.ogg
192,192,117200,1,0,0:0:0:0:s_047.ogg
64,192,117320,1,0,0:0:0:0:s_046.ogg
448,192,117320,1,0,0:0:0:0:s_034.ogg
320,192,117440,1,0,0:0:0:0:s_032.ogg
448,192,117440,1,0,0:0:0:0:s_044.ogg
192,192,117560,1,0,0:0:0:0:s_041.ogg
320,192,117560,1,0,0:0:0:0:s_029.ogg
192,192,117680,1,0,0:0:0:0:s_058.ogg
64,192,117680,1,0,0:0:0:0:s_038.ogg
448,192,117680,1,0,0:0:0:0:s_026.ogg
64,192,117800,1,0,0:0:0:0:s_035.ogg
448,192,117800,1,0,0:0:0:0:s_023.ogg
64,192,117920,1,0,0:0:0:0:s_051.ogg
192,192,117920,1,0,0:0:0:0:s_034.ogg
320,192,117920,1,0,0:0:0:0:s_022.ogg
192,192,118040,1,0,0:0:0:0:s_053.ogg
320,192,118040,1,0,0:0:0:0:s_032.ogg
448,192,118040,1,0,0:0:0:0:s_065.ogg
64,192,118160,1,0,0:0:0:0:s_027.ogg
320,192,118160,1,0,0:0:0:0:m_031.ogg
448,192,118160,1,0,0:0:0:0:s_067.ogg
64,192,118280,1,0,0:0:0:0:m_029.ogg
192,192,118280,1,0,0:0:0:0:s_068.ogg
448,192,118280,1,0,0:0:0:0:s_026.ogg
64,192,118400,1,0,0:0:0:0:s_070.ogg
192,192,118400,1,0,0:0:0:0:s_024.ogg
320,192,118400,1,0,0:0:0:0:m_027.ogg
192,192,118520,1,0,0:0:0:0:m_026.ogg
320,192,118520,1,0,0:0:0:0:s_022.ogg
448,192,118520,1,0,0:0:0:0:s_072.ogg
64,192,118640,1,0,0:0:0:0:s_020.ogg
320,192,118640,1,0,0:0:0:0:m_024.ogg
448,192,118640,1,0,0:0:0:0:s_074.ogg
64,192,118760,1,0,0:0:0:0:m_022.ogg
192,192,118760,1,0,0:0:0:0:s_075.ogg
448,192,118760,1,0,0:0:0:0:s_019.ogg
64,192,118880,1,0,0:0:0:0:s_065.ogg
192,192,118880,1,0,0:0:0:0:s_020.ogg
320,192,118880,1,0,0:0:0:0:s_017.ogg
192,192,119000,1,0,0:0:0:0:s_015.ogg
320,192,119000,1,0,0:0:0:0:s_019.ogg
448,192,119000,1,0,0:0:0:0:s_067.ogg
64,192,119120,1,0,0:0:0:0:s_080.ogg
192,192,119120,1,0,0:0:0:0:s_068.ogg
320,192,119120,1,0,0:0:0:0:s_074.ogg
448,192,119120,1,0,0:0:0:0:s_071.ogg
64,192,119240,1,0,0:0:0:0:s_032.ogg
320,192,119240,1,0,0:0:0:0:s_065.ogg
448,192,119240,1,0,0:0:0:0:s_077.ogg
192,192,119360,1,0,0:0:0:0:s_074.ogg
320,192,119360,1,0,0:0:0:0:s_062.ogg
448,192,119360,1,0,0:0:0:0:s_023.ogg
64,192,119480,1,0,0:0:0:0:s_071.ogg
192,192,119480,1,0,0:0:0:0:s_059.ogg
320,192,119480,1,0,0:0:0:0:s_026.ogg
64,192,119600,1,0,0:0:0:0:s_059.ogg
192,192,119600,1,0,0:0:0:0:s_056.ogg
320,192,119600,1,0,0:0:0:0:s_062.ogg
448,192,119600,1,0,0:0:0:0:s_068.ogg
64,192,119720,1,0,0:0:0:0:s_054.ogg
320,192,119720,1,0,0:0:0:0:s_066.ogg
448,192,119720,1,0,0:0:0:0:s_042.ogg
64,192,119840,1,0,0:0:0:0:s_031.ogg
192,192,119840,1,0,0:0:0:0:s_067.ogg
448,192,119840,1,0,0:0:0:0:s_055.ogg
64,192,119960,1,0,0:0:0:0:s_065.ogg
320,192,119960,1,0,0:0:0:0:s_053.ogg
448,192,119960,1,0,0:0:0:0:s_044.ogg
64,192,120080,1,0,0:0:0:0:s_075.ogg
192,192,120080,1,0,0:0:0:0:s_063.ogg
320,192,120080,1,0,0:0:0:0:s_069.ogg
448,192,120080,1,0,0:0:0:0:s_066.ogg
192,192,120200,1,0,0:0:0:0:s_027.ogg
320,192,120200,1,0,0:0:0:0:s_072.ogg
448,192,120200,1,0,0:0:0:0:s_060.ogg
64,192,120320,1,0,0:0:0:0:s_030.ogg
192,192,120320,1,0,0:0:0:0:s_069.ogg
320,192,120320,1,0,0:0:0:0:s_057.ogg
64,192,120440,1,0,0:0:0:0:s_054.ogg
192,192,120440,1,0,0:0:0:0:s_066.ogg
448,192,120440,1,0,0:0:0:0:s_021.ogg
64,192,120560,1,0,0:0:0:0:s_063.ogg
192,192,120560,1,0,0:0:0:0:s_051.ogg
320,192,120560,1,0,0:0:0:0:s_054.ogg
448,192,120560,1,0,0:0:0:0:s_057.ogg
64,192,120680,1,0,0:0:0:0:s_049.ogg
192,192,120680,1,0,0:0:0:0:s_037.ogg
320,192,120680,1,0,0:0:0:0:s_061.ogg
192,192,120800,1,0,0:0:0:0:s_062.ogg
320,192,120800,1,0,0:0:0:0:s_038.ogg
448,192,120800,1,0,0:0:0:0:s_050.ogg
64,192,120920,1,0,0:0:0:0:s_048.ogg
192,192,120920,1,0,0:0:0:0:s_039.ogg
320,192,120920,1,0,0:0:0:0:s_060.ogg
64,192,121040,1,0,0:0:0:0:s_056.ogg
192,192,121040,1,0,0:0:0:0:s_050.ogg
320,192,121040,1,0,0:0:0:0:s_048.ogg
448,192,121040,1,0,0:0:0:0:s_044.ogg
192,192,121160,1,0,0:0:0:0:s_054.ogg
320,192,121160,1,0,0:0:0:0:s_042.ogg
64,192,121280,1,0,0:0:0:0:s_055.ogg
448,192,121280,1,0,0:0:0:0:s_043.ogg
192,192,121400,1,0,0:0:0:0:s_053.ogg
320,192,121400,1,0,0:0:0:0:s_041.ogg
64,192,121520,1,0,0:0:0:0:s_035.ogg
320,192,121520,1,0,0:0:0:0:s_040.ogg
448,192,121520,1,0,0:0:0:0:s_052.ogg
64,192,121640,1,0,0:0:0:0:s_050.ogg
192,192,121640,1,0,0:0:0:0:s_038.ogg
64,192,121760,1,0,0:0:0:0:s_031.ogg
320,192,121760,1,0,0:0:0:0:s_039.ogg
448,192,121760,1,0,0:0:0:0:s_051.ogg
64,192,121880,1,0,0:0:0:0:s_050.ogg
192,192,121880,1,0,0:0:0:0:s_038.ogg
192,192,122000,1,0,0:0:0:0:m_041.ogg
320,192,122000,1,0,0:0:0:0:m_044.ogg
448,192,122000,1,0,0:0:0:0:m_036.ogg
64,192,122480,1,0,0:0:0:0:s_031.ogg
192,192,122480,1,0,0:0:0:0:s_027.ogg
320,192,122480,1,0,0:0:0:0:s_043.ogg
64,192,122960,1,0,0:0:0:0:s_043.ogg
320,192,122960,1,0,0:0:0:0:s_067.ogg
192,192,123060,1,0,0:0:0:0:s_044.ogg
448,192,123060,1,0,0:0:0:0:s_068.ogg
64,192,123160,1,0,0:0:0:0:s_043.ogg
320,192,123160,1,0,0:0:0:0:s_067.ogg
64,192,123260,1,0,0:0:0:0:m_039.ogg
192,192,123260,128,0,123760:0:0:0:0:m_063.ogg
64,192,123560,1,0,0:0:0:0:s_055.ogg
320,192,123560,1,0,0:0:0:0:s_051.ogg
448,192,123560,1,0,0:0:0:0:s_031.ogg
64,192,123860,1,0,0:0:0:0:s_036.ogg
320,192,123860,1,0,0:0:0:0:s_060.ogg
192,192,123960,1,0,0:0:0:0:s_038.ogg
448,192,123960,1,0,0:0:0:0:s_062.ogg
64,192,124060,1,0,0:0:0:0:s_036.ogg
320,192,124060,1,0,0:0:0:0:s_060.ogg
192,192,124160,1,0,0:0:0:0:s_038.ogg
320,192,124160,1,0,0:0:0:0:s_062.ogg
64,192,124260,1,0,0:0:0:0:s_039.ogg
448,192,124260,1,0,0:0:0:0:s_063.ogg
192,192,124360,1,0,0:0:0:0:s_038.ogg
320,192,124360,1,0,0:0:0:0:s_062.ogg
64,192,124460,1,0,0:0:0:0:s_035.ogg
320,192,124460,1,0,0:0:0:0:s_059.ogg
192,192,124560,1,0,0:0:0:0:s_036.ogg
448,192,124560,1,0,0:0:0:0:s_060.ogg
64,192,124660,1,0,0:0:0:0:s_059.ogg
320,192,124660,1,0,0:0:0:0:s_035.ogg
64,192,124760,1,0,0:0:0:0:s_031.ogg
192,192,124760,1,0,0:0:0:0:s_055.ogg
320,192,124860,1,0,0:0:0:0:s_032.ogg
448,192,124860,1,0,0:0:0:0:s_056.ogg
64,192,124960,1,0,0:0:0:0:s_031.ogg
192,192,124960,1,0,0:0:0:0:s_055.ogg
64,192,125060,1,0,0:0:0:0:s_043.ogg
320,192,125060,1,0,0:0:0:0:s_050.ogg
448,192,125060,1,0,0:0:0:0:s_041.ogg
64,192,125360,1,0,0:0:0:0:s_043.ogg
320,192,125360,1,0,0:0:0:0:s_067.ogg
192,192,125460,1,0,0:0:0:0:s_044.ogg
448,192,125460,1,0,0:0:0:0:s_068.ogg
64,192,125560,1,0,0:0:0:0:s_043.ogg
320,192,125560,1,0,0:0:0:0:s_067.ogg
64,192,125660,1,0,0:0:0:0:m_039.ogg
192,192,125660,128,0,126160:0:0:0:0:m_063.ogg
64,192,125960,1,0,0:0:0:0:s_055.ogg
320,192,125960,1,0,0:0:0:0:s_051.ogg
448,192,125960,1,0,0:0:0:0:s_031.ogg
64,192,126260,1,0,0:0:0:0:s_039.ogg
320,192,126260,1,0,0:0:0:0:s_043.ogg
448,192,126260,1,0,0:0:0:0:s_036.ogg
192,192,126360,1,0,0:0:0:0:s_041.ogg
448,192,126360,1,0,0:0:0:0:s_038.ogg
64,192,126460,1,0,0:0:0:0:s_039.ogg
320,192,126460,1,0,0:0:0:0:s_036.ogg
64,192,126560,1,0,0:0:0:0:s_038.ogg
192,192,126560,1,0,0:0:0:0:s_043.ogg
448,192,126560,1,0,0:0:0:0:s_035.ogg
320,192,126660,1,0,0:0:0:0:s_039.ogg
448,192,126660,1,0,0:0:0:0:s_036.ogg
64,192,126760,1,0,0:0:0:0:s_038.ogg
192,192,126760,1,0,0:0:0:0:s_034.ogg
64,192,126860,1,0,0:0:0:0:s_042.ogg
320,192,126860,1,0,0:0:0:0:s_048.ogg
448,192,126860,1,0,0:0:0:0:s_033.ogg
192,192,126960,1,0,0:0:0:0:s_034.ogg
448,192,126960,1,0,0:0:0:0:s_050.ogg
64,192,127060,1,0,0:0:0:0:s_032.ogg
320,192,127060,1,0,0:0:0:0:s_048.ogg
64,192,127160,1,0,0:0:0:0:s_043.ogg
192,192,127160,1,0,0:0:0:0:s_047.ogg
448,192,127160,1,0,0:0:0:0:s_031.ogg
320,192,127260,1,0,0:0:0:0:s_032.ogg
448,192,127260,1,0,0:0:0:0:s_048.ogg
64,192,127360,1,0,0:0:0:0:s_031.ogg
192,192,127360,1,0,0:0:0:0:s_047.ogg
448,192,127460,1,0,0:0:0:0:s_019.ogg
64,192,127760,1,0,0:0:0:0:s_043.ogg
320,192,127760,1,0,0:0:0:0:s_067.ogg
192,192,127860,1,0,0:0:0:0:s_044.ogg
448,192,127860,1,0,0:0:0:0:s_068.ogg
64,192,127960,1,0,0:0:0:0:s_043.ogg
320,192,127960,1,0,0:0:0:0:s_067.ogg
64,192,128060,1,0,0:0:0:0:m_040.ogg
192,192,128060,128,0,128560:0:0:0:0:m_064.ogg
64,192,128360,1,0,0:0:0:0:s_055.ogg
320,192,128360,1,0,0:0:0:0:s_052.ogg
448,192,128360,1,0,0:0:0:0:s_037.ogg
64,192,128660,1,0,0:0:0:0:s_060.ogg
320,192,128660,1,0,0:0:0:0:s_036.ogg
192,192,128760,1,0,0:0:0:0:s_061.ogg
448,192,128760,1,0,0:0:0:0:s_037.ogg
64,192,128860,1,0,0:0:0:0:s_060.ogg
320,192,128860,1,0,0:0:0:0:s_036.ogg
192,192,128960,1,0,0:0:0:0:s_041.ogg
320,192,128960,1,0,0:0:0:0:s_065.ogg
64,192,129060,1,0,0:0:0:0:s_043.ogg
448,192,129060,1,0,0:0:0:0:s_067.ogg
192,192,129160,1,0,0:0:0:0:s_041.ogg
320,192,129160,1,0,0:0:0:0:s_065.ogg
64,192,129260,1,0,0:0:0:0:s_040.ogg
320,192,129260,1,0,0:0:0:0:s_048.ogg
192,192,129360,1,0,0:0:0:0:s_049.ogg
448,192,129360,1,0,0:0:0:0:s_043.ogg
320,192,129460,1,0,0:0:0:0:s_048.ogg
64,192,129560,1,0,0:0:0:0:s_044.ogg
192,192,129560,1,0,0:0:0:0:s_036.ogg
320,192,129660,1,0,0:0:0:0:s_041.ogg
448,192,129660,1,0,0:0:0:0:s_046.ogg
192,192,129760,1,0,0:0:0:0:s_044.ogg
64,192,129860,1,0,0:0:0:0:s_032.ogg
192,192,129897,1,0,0:0:0:0:s_036.ogg
320,192,129935,1,0,0:0:0:0:s_041.ogg
64,192,130160,1,0,0:0:0:0:s_065.ogg
320,192,130160,1,0,0:0:0:0:s_041.ogg
192,192,130260,1,0,0:0:0:0:s_067.ogg
448,192,130260,1,0,0:0:0:0:s_043.ogg
64,192,130360,1,0,0:0:0:0:s_065.ogg
320,192,130360,1,0,0:0:0:0:s_041.ogg
64,192,130460,1,0,0:0:0:0:m_038.ogg
192,192,130460,128,0,130960:0:0:0:0:m_062.ogg
64,192,130760,1,0,0:0:0:0:s_053.ogg
320,192,130760,1,0,0:0:0:0:s_050.ogg
448,192,130760,1,0,0:0:0:0:s_035.ogg
64,192,131060,1,0,0:0:0:0:s_058.ogg
320,192,131060,1,0,0:0:0:0:s_034.ogg
192,192,131160,1,0,0:0:0:0:s_060.ogg
448,192,131160,1,0,0:0:0:0:s_036.ogg
64,192,131260,1,0,0:0:0:0:s_058.ogg
320,192,131260,1,0,0:0:0:0:s_034.ogg
192,192,131360,1,0,0:0:0:0:s_039.ogg
320,192,131360,1,0,0:0:0:0:s_063.ogg
64,192,131460,1,0,0:0:0:0:s_041.ogg
448,192,131460,1,0,0:0:0:0:s_065.ogg
192,192,131560,1,0,0:0:0:0:s_039.ogg
320,192,131560,1,0,0:0:0:0:s_063.ogg
64,192,131660,1,0,0:0:0:0:s_038.ogg
320,192,131660,1,0,0:0:0:0:s_046.ogg
192,192,131760,1,0,0:0:0:0:s_041.ogg
448,192,131760,1,0,0:0:0:0:s_048.ogg
320,192,131860,1,0,0:0:0:0:s_046.ogg
64,192,131960,1,0,0:0:0:0:s_043.ogg
192,192,131960,1,0,0:0:0:0:s_034.ogg
320,192,132060,1,0,0:0:0:0:s_039.ogg
448,192,132060,1,0,0:0:0:0:s_044.ogg
192,192,132160,1,0,0:0:0:0:s_043.ogg
64,192,132260,1,0,0:0:0:0:s_031.ogg
192,192,132297,1,0,0:0:0:0:s_034.ogg
320,192,132335,1,0,0:0:0:0:s_039.ogg
64,192,132560,1,0,0:0:0:0:s_041.ogg
320,192,132560,1,0,0:0:0:0:s_065.ogg
192,192,132660,1,0,0:0:0:0:s_043.ogg
448,192,132660,1,0,0:0:0:0:s_067.ogg
64,192,132760,1,0,0:0:0:0:s_041.ogg
320,192,132760,1,0,0:0:0:0:s_065.ogg
448,192,132860,1,0,0:0:0:0:m_044.ogg
320,192,132860,128,0,133360:0:0:0:0:m_068.ogg
64,192,133160,1,0,0:0:0:0:s_059.ogg
192,192,133160,1,0,0:0:0:0:s_056.ogg
448,192,133160,1,0,0:0:0:0:s_029.ogg
64,192,133460,1,0,0:0:0:0:s_047.ogg
320,192,133460,1,0,0:0:0:0:s_050.ogg
192,192,133510,1,0,0:0:0:0:s_043.ogg
448,192,133510,1,0,0:0:0:0:s_051.ogg
64,192,133560,1,0,0:0:0:0:s_041.ogg
320,192,133560,1,0,0:0:0:0:s_050.ogg
64,192,133760,1,0,0:0:0:0:s_063.ogg
320,192,133760,1,0,0:0:0:0:s_039.ogg
192,192,133860,1,0,0:0:0:0:s_065.ogg
448,192,133860,1,0,0:0:0:0:s_041.ogg
64,192,133960,1,0,0:0:0:0:s_063.ogg
320,192,133960,1,0,0:0:0:0:s_039.ogg
448,192,134060,1,0,0:0:0:0:m_067.ogg
320,192,134060,128,0,134560:0:0:0:0:m_043.ogg
64,192,134360,1,0,0:0:0:0:s_060.ogg
192,192,134360,1,0,0:0:0:0:s_055.ogg
448,192,134360,1,0,0:0:0:0:s_036.ogg
64,192,134660,1,0,0:0:0:0:s_043.ogg
320,192,134660,1,0,0:0:0:0:s_048.ogg
192,192,134710,1,0,0:0:0:0:s_041.ogg
448,192,134710,1,0,0:0:0:0:s_049.ogg
64,192,134760,1,0,0:0:0:0:s_039.ogg
320,192,134760,1,0,0:0:0:0:s_048.ogg
64,192,134960,1,0,0:0:0:0:s_050.ogg
192,192,134960,1,0,0:0:0:0:s_044.ogg
320,192,135010,1,0,0:0:0:0:s_048.ogg
448,192,135010,1,0,0:0:0:0:s_051.ogg
64,192,135060,1,0,0:0:0:0:s_044.ogg
192,192,135060,1,0,0:0:0:0:s_050.ogg
320,192,135260,1,0,0:0:0:0:s_056.ogg
448,192,135260,1,0,0:0:0:0:s_048.ogg
64,192,135310,1,0,0:0:0:0:s_050.ogg
192,192,135310,1,0,0:0:0:0:s_058.ogg
320,192,135360,1,0,0:0:0:0:s_048.ogg
448,192,135360,1,0,0:0:0:0:s_056.ogg
64,192,135560,1,0,0:0:0:0:s_055.ogg
320,192,135560,1,0,0:0:0:0:s_047.ogg
192,192,135610,1,0,0:0:0:0:s_056.ogg
448,192,135610,1,0,0:0:0:0:s_050.ogg
64,192,135660,1,0,0:0:0:0:s_047.ogg
320,192,135660,1,0,0:0:0:0:s_055.ogg
192,192,135860,1,0,0:0:0:0:s_062.ogg
448,192,135860,1,0,0:0:0:0:s_053.ogg
64,192,135910,1,0,0:0:0:0:s_055.ogg
320,192,135910,1,0,0:0:0:0:s_063.ogg
192,192,135960,1,0,0:0:0:0:s_053.ogg
448,192,135960,1,0,0:0:0:0:s_062.ogg
192,192,136160,1,0,0:0:0:0:s_060.ogg
320,192,136160,1,0,0:0:0:0:s_051.ogg
64,192,136210,1,0,0:0:0:0:s_055.ogg
448,192,136210,1,0,0:0:0:0:s_062.ogg
192,192,136260,1,0,0:0:0:0:s_051.ogg
320,192,136260,1,0,0:0:0:0:s_060.ogg
64,192,136460,1,0,0:0:0:0:s_068.ogg
448,192,136460,1,0,0:0:0:0:s_060.ogg
192,192,136510,1,0,0:0:0:0:s_065.ogg
320,192,136510,1,0,0:0:0:0:s_070.ogg
64,192,136560,1,0,0:0:0:0:s_060.ogg
448,192,136560,1,0,0:0:0:0:s_068.ogg
192,192,136760,1,0,0:0:0:0:s_063.ogg
320,192,136760,1,0,0:0:0:0:s_067.ogg
448,192,136760,1,0,0:0:0:0:s_075.ogg
64,192,137360,1,0,0:0:0:0:s_024.ogg
192,192,137360,1,0,0:0:0:0:s_031.ogg
320,192,137360,1,0,0:0:0:0:s_039.ogg
448,192,137360,1,0,0:0:0:0:s_036.ogg
192,192,137540,1,0,0:0:0:0:s_031.ogg
448,192,137630,1,0,0:0:0:0:s_043.ogg
64,192,137720,1,0,0:0:0:0:s_026.ogg
320,192,137810,1,0,0:0:0:0:s_041.ogg
192,192,137900,1,0,0:0:0:0:s_024.ogg
448,192,137990,1,0,0:0:0:0:s_039.ogg
64,192,138080,1,0,0:0:0:0:s_023.ogg
320,192,138170,1,0,0:0:0:0:s_038.ogg
64,192,138260,1,0,0:0:0:0:s_019.ogg
448,192,138350,1,0,0:0:0:0:s_043.ogg
192,192,138440,1,0,0:0:0:0:s_031.ogg
320,192,138530,1,0,0:0:0:0:s_036.ogg
192,192,138620,1,0,0:0:0:0:s_023.ogg
448,192,138710,1,0,0:0:0:0:s_038.ogg
64,192,138830,1,0,0:0:0:0:s_024.ogg
192,192,138830,1,0,0:0:0:0:s_031.ogg
320,192,138830,1,0,0:0:0:0:s_039.ogg
448,192,138830,1,0,0:0:0:0:s_036.ogg
192,192,139010,1,0,0:0:0:0:s_027.ogg
448,192,139100,1,0,0:0:0:0:s_043.ogg
64,192,139190,1,0,0:0:0:0:s_026.ogg
320,192,139280,1,0,0:0:0:0:s_041.ogg
192,192,139370,1,0,0:0:0:0:s_024.ogg
448,192,139460,1,0,0:0:0:0:s_039.ogg
64,192,139550,1,0,0:0:0:0:s_023.ogg
320,192,139640,1,0,0:0:0:0:s_038.ogg
192,192,139730,1,0,0:0:0:0:s_020.ogg
448,192,139820,1,0,0:0:0:0:s_042.ogg
64,192,139910,1,0,0:0:0:0:s_019.ogg
320,192,140000,1,0,0:0:0:0:s_038.ogg
64,192,140090,1,0,0:0:0:0:s_031.ogg
320,192,140180,1,0,0:0:0:0:s_043.ogg
64,192,140300,1,0,0:0:0:0:s_024.ogg
192,192,140300,1,0,0:0:0:0:s_036.ogg
320,192,140300,1,0,0:0:0:0:s_051.ogg
448,192,140300,1,0,0:0:0:0:s_043.ogg
320,192,140480,1,0,0:0:0:0:s_039.ogg
192,192,140570,1,0,0:0:0:0:s_043.ogg
448,192,140570,1,0,0:0:0:0:s_055.ogg
64,192,140660,1,0,0:0:0:0:s_026.ogg
192,192,140750,1,0,0:0:0:0:s_043.ogg
448,192,140750,1,0,0:0:0:0:s_055.ogg
320,192,140840,1,0,0:0:0:0:s_036.ogg
192,192,140930,1,0,0:0:0:0:s_055.ogg
448,192,140930,1,0,0:0:0:0:s_051.ogg
64,192,141020,1,0,0:0:0:0:s_023.ogg
192,192,141110,1,0,0:0:0:0:s_050.ogg
448,192,141110,1,0,0:0:0:0:s_055.ogg
64,192,141200,1,0,0:0:0:0:s_031.ogg
192,192,141290,1,0,0:0:0:0:s_062.ogg
448,192,141290,1,0,0:0:0:0:s_050.ogg
320,192,141380,1,0,0:0:0:0:s_021.ogg
192,192,141470,1,0,0:0:0:0:s_048.ogg
448,192,141470,1,0,0:0:0:0:s_055.ogg
320,192,141560,1,0,0:0:0:0:s_035.ogg
192,192,141650,1,0,0:0:0:0:s_055.ogg
448,192,141650,1,0,0:0:0:0:s_050.ogg
64,192,141770,1,0,0:0:0:0:s_024.ogg
192,192,141770,1,0,0:0:0:0:s_036.ogg
320,192,141770,1,0,0:0:0:0:s_051.ogg
448,192,141770,1,0,0:0:0:0:s_043.ogg
320,192,141950,1,0,0:0:0:0:s_027.ogg
192,192,142040,1,0,0:0:0:0:s_043.ogg
448,192,142040,1,0,0:0:0:0:s_055.ogg
64,192,142130,1,0,0:0:0:0:s_026.ogg
192,192,142220,1,0,0:0:0:0:s_053.ogg
448,192,142220,1,0,0:0:0:0:s_043.ogg
320,192,142310,1,0,0:0:0:0:s_036.ogg
192,192,142400,1,0,0:0:0:0:s_051.ogg
448,192,142400,1,0,0:0:0:0:s_055.ogg
64,192,142490,1,0,0:0:0:0:s_023.ogg
192,192,142580,1,0,0:0:0:0:s_055.ogg
448,192,142580,1,0,0:0:0:0:s_050.ogg
320,192,142670,1,0,0:0:0:0:s_032.ogg
192,192,142760,1,0,0:0:0:0:s_048.ogg
448,192,142760,1,0,0:0:0:0:s_054.ogg
64,192,142850,1,0,0:0:0:0:s_031.ogg
192,192,142940,1,0,0:0:0:0:s_047.ogg
448,192,142940,1,0,0:0:0:0:s_055.ogg
320,192,143030,1,0,0:0:0:0:s_043.ogg
192,192,143120,1,0,0:0:0:0:s_050.ogg
448,192,143120,1,0,0:0:0:0:s_047.ogg
64,192,143240,1,0,0:0:0:0:s_024.ogg
192,192,143240,1,0,0:0:0:0:s_036.ogg
320,192,143240,1,0,0:0:0:0:s_043.ogg
448,192,143240,1,0,0:0:0:0:s_055.ogg
64,192,143420,1,0,0:0:0:0:s_026.ogg
192,192,143510,1,0,0:0:0:0:s_053.ogg
320,192,143510,1,0,0:0:0:0:s_055.ogg
64,192,143600,1,0,0:0:0:0:s_040.ogg
320,192,143690,1,0,0:0:0:0:s_055.ogg
448,192,143690,1,0,0:0:0:0:s_043.ogg
64,192,143780,1,0,0:0:0:0:s_036.ogg
192,192,143870,1,0,0:0:0:0:s_043.ogg
320,192,143870,1,0,0:0:0:0:s_052.ogg
64,192,143960,1,0,0:0:0:0:m_029.ogg
320,192,144050,1,0,0:0:0:0:m_053.ogg
448,192,144050,1,0,0:0:0:0:m_065.ogg
192,192,144140,1,0,0:0:0:0:s_049.ogg
320,192,144230,1,0,0:0:0:0:m_067.ogg
448,192,144230,1,0,0:0:0:0:m_058.ogg
192,192,144320,1,0,0:0:0:0:s_048.ogg
320,192,144410,1,0,0:0:0:0:s_060.ogg
448,192,144410,1,0,0:0:0:0:s_068.ogg
64,192,144500,1,0,0:0:0:0:s_044.ogg
192,192,144590,1,0,0:0:0:0:s_065.ogg
320,192,144590,1,0,0:0:0:0:s_053.ogg
64,192,144710,1,0,0:0:0:0:s_022.ogg
192,192,144710,1,0,0:0:0:0:s_034.ogg
320,192,144710,1,0,0:0:0:0:s_053.ogg
448,192,144710,1,0,0:0:0:0:s_046.ogg
64,192,144890,1,0,0:0:0:0:s_024.ogg
192,192,144980,1,0,0:0:0:0:s_051.ogg
320,192,144980,1,0,0:0:0:0:s_041.ogg
64,192,145070,1,0,0:0:0:0:s_026.ogg
320,192,145160,1,0,0:0:0:0:s_053.ogg
448,192,145160,1,0,0:0:0:0:s_041.ogg
64,192,145250,1,0,0:0:0:0:s_034.ogg
192,192,145340,1,0,0:0:0:0:s_053.ogg
320,192,145340,1,0,0:0:0:0:s_050.ogg
64,192,145430,1,0,0:0:0:0:m_027.ogg
320,192,145520,1,0,0:0:0:0:m_055.ogg
448,192,145520,1,0,0:0:0:0:m_067.ogg
192,192,145610,1,0,0:0:0:0:s_041.ogg
320,192,145700,1,0,0:0:0:0:s_063.ogg
448,192,145700,1,0,0:0:0:0:m_068.ogg
192,192,145790,1,0,0:0:0:0:s_046.ogg
320,192,145880,1,0,0:0:0:0:s_058.ogg
448,192,145880,1,0,0:0:0:0:s_063.ogg
64,192,145970,1,0,0:0:0:0:s_046.ogg
192,192,146060,1,0,0:0:0:0:s_063.ogg
320,192,146060,1,0,0:0:0:0:s_055.ogg
64,192,146180,1,0,0:0:0:0:m_059.ogg
192,192,146180,1,0,0:0:0:0:m_062.ogg
320,192,146180,1,0,0:0:0:0:m_056.ogg
448,192,146180,1,0,0:0:0:0:m_068.ogg
64,192,146360,1,0,0:0:0:0:s_047.ogg
192,192,146360,1,0,0:0:0:0:s_044.ogg
320,192,146450,1,0,0:0:0:0:s_059.ogg
448,192,146450,1,0,0:0:0:0:s_065.ogg
64,192,146540,1,0,0:0:0:0:m_043.ogg
192,192,146540,1,0,0:0:0:0:s_047.ogg
320,192,146630,1,0,0:0:0:0:s_062.ogg
448,192,146630,1,0,0:0:0:0:m_067.ogg
64,192,146720,1,0,0:0:0:0:s_047.ogg
192,192,146720,1,0,0:0:0:0:s_041.ogg
320,192,146810,1,0,0:0:0:0:s_056.ogg
448,192,146810,1,0,0:0:0:0:s_059.ogg
64,192,146900,1,0,0:0:0:0:m_051.ogg
192,192,146900,1,0,0:0:0:0:m_048.ogg
320,192,146990,1,0,0:0:0:0:m_067.ogg
448,192,146990,1,0,0:0:0:0:m_055.ogg
64,192,147080,1,0,0:0:0:0:s_038.ogg
192,192,147080,1,0,0:0:0:0:s_044.ogg
320,192,147170,1,0,0:0:0:0:s_056.ogg
448,192,147170,1,0,0:0:0:0:s_059.ogg
64,192,147260,1,0,0:0:0:0:s_043.ogg
192,192,147260,1,0,0:0:0:0:m_036.ogg
320,192,147350,1,0,0:0:0:0:s_055.ogg
448,192,147350,1,0,0:0:0:0:m_051.ogg
64,192,147440,1,0,0:0:0:0:s_034.ogg
192,192,147440,1,0,0:0:0:0:s_043.ogg
320,192,147530,1,0,0:0:0:0:s_061.ogg
448,192,147530,1,0,0:0:0:0:s_055.ogg
64,192,147620,1,0,0:0:0:0:m_044.ogg
192,192,147620,1,0,0:0:0:0:m_032.ogg
320,192,147710,1,0,0:0:0:0:m_056.ogg
448,192,147710,1,0,0:0:0:0:m_061.ogg
64,192,147800,1,0,0:0:0:0:s_042.ogg
192,192,147800,1,0,0:0:0:0:s_039.ogg
320,192,147890,1,0,0:0:0:0:s_072.ogg
448,192,147890,1,0,0:0:0:0:s_060.ogg
64,192,147980,1,0,0:0:0:0:s_031.ogg
192,192,147980,1,0,0:0:0:0:m_036.ogg
320,192,148070,1,0,0:0:0:0:m_072.ogg
448,192,148070,1,0,0:0:0:0:m_063.ogg
64,192,148160,1,0,0:0:0:0:s_035.ogg
192,192,148160,1,0,0:0:0:0:s_038.ogg
320,192,148250,1,0,0:0:0:0:s_071.ogg
448,192,148250,1,0,0:0:0:0:s_059.ogg
64,192,148430,1,0,0:0:0:0:m_072.ogg
192,192,148430,1,0,0:0:0:0:m_060.ogg
320,192,148430,1,0,0:0:0:0:m_063.ogg
448,192,148430,1,0,0:0:0:0:m_067.ogg
64,192,148790,1,0,0:0:0:0:s_060.ogg
192,192,148790,1,0,0:0:0:0:s_055.ogg
320,192,148790,1,0,0:0:0:0:s_051.ogg
448,192,148790,1,0,0:0:0:0:s_039.ogg
64,192,149150,1,0,0:0:0:0:s_036.ogg
320,192,149150,1,0,0:0:0:0:s_055.ogg
448,192,149183,1,0,0:0:0:0:s_063.ogg
192,192,149250,1,0,0:0:0:0:s_043.ogg
320,192,149250,1,0,0:0:0:0:s_060.ogg
64,192,149350,1,0,0:0:0:0:s_031.ogg
448,192,149350,1,0,0:0:0:0:s_055.ogg
192,192,149450,1,0,0:0:0:0:s_043.ogg
448,192,149450,1,0,0:0:0:0:s_051.ogg
64,192,149550,1,0,0:0:0:0:s_039.ogg
320,192,149550,1,0,0:0:0:0:s_048.ogg
192,192,149650,1,0,0:0:0:0:s_043.ogg
448,192,149650,1,0,0:0:0:0:s_055.ogg
64,192,149750,1,0,0:0:0:0:s_036.ogg
320,192,149750,1,0,0:0:0:0:s_051.ogg
192,192,149850,1,0,0:0:0:0:s_043.ogg
448,192,149850,1,0,0:0:0:0:s_048.ogg
64,192,149950,1,0,0:0:0:0:s_035.ogg
320,192,149950,1,0,0:0:0:0:s_055.ogg
448,192,149983,1,0,0:0:0:0:s_062.ogg
192,192,150050,1,0,0:0:0:0:s_043.ogg
320,192,150050,1,0,0:0:0:0:s_059.ogg
64,192,150150,1,0,0:0:0:0:s_031.ogg
448,192,150150,1,0,0:0:0:0:s_055.ogg
192,192,150250,1,0,0:0:0:0:s_043.ogg
448,192,150250,1,0,0:0:0:0:s_065.ogg
64,192,150350,1,0,0:0:0:0:s_035.ogg
320,192,150350,1,0,0:0:0:0:s_062.ogg
192,192,150450,1,0,0:0:0:0:s_043.ogg
448,192,150450,1,0,0:0:0:0:s_055.ogg
64,192,150550,1,0,0:0:0:0:s_038.ogg
320,192,150550,1,0,0:0:0:0:s_059.ogg
192,192,150650,1,0,0:0:0:0:s_043.ogg
448,192,150650,1,0,0:0:0:0:s_055.ogg
64,192,150750,1,0,0:0:0:0:s_036.ogg
320,192,150750,1,0,0:0:0:0:s_055.ogg
448,192,150783,1,0,0:0:0:0:s_063.ogg
192,192,150850,1,0,0:0:0:0:s_043.ogg
320,192,150850,1,0,0:0:0:0:s_060.ogg
64,192,150950,1,0,0:0:0:0:s_031.ogg
448,192,150950,1,0,0:0:0:0:s_055.ogg
192,192,151050,1,0,0:0:0:0:s_043.ogg
448,192,151050,1,0,0:0:0:0:s_051.ogg
64,192,151150,1,0,0:0:0:0:s_039.ogg
320,192,151150,1,0,0:0:0:0:s_048.ogg
192,192,151250,1,0,0:0:0:0:s_043.ogg
448,192,151250,1,0,0:0:0:0:s_055.ogg
64,192,151350,1,0,0:0:0:0:s_036.ogg
320,192,151350,1,0,0:0:0:0:s_051.ogg
192,192,151450,1,0,0:0:0:0:s_043.ogg
448,192,151450,1,0,0:0:0:0:s_048.ogg
64,192,151550,1,0,0:0:0:0:s_035.ogg
320,192,151550,1,0,0:0:0:0:s_055.ogg
448,192,151583,1,0,0:0:0:0:s_062.ogg
192,192,151650,1,0,0:0:0:0:s_043.ogg
320,192,151650,1,0,0:0:0:0:s_059.ogg
64,192,151750,1,0,0:0:0:0:s_031.ogg
448,192,151750,1,0,0:0:0:0:s_055.ogg
192,192,151850,1,0,0:0:0:0:s_043.ogg
448,192,151850,1,0,0:0:0:0:s_055.ogg
64,192,151950,1,0,0:0:0:0:s_035.ogg
320,192,151950,1,0,0:0:0:0:s_050.ogg
64,192,152050,1,0,0:0:0:0:s_038.ogg
320,192,152050,1,0,0:0:0:0:s_047.ogg
192,192,152150,1,0,0:0:0:0:s_043.ogg
64,192,152350,1,0,0:0:0:0:s_036.ogg
320,192,152350,1,0,0:0:0:0:s_063.ogg
448,192,152375,1,0,0:0:0:0:s_067.ogg
192,192,152400,1,0,0:0:0:0:s_075.ogg
64,192,152450,1,0,0:0:0:0:s_043.ogg
320,192,152450,1,0,0:0:0:0:s_072.ogg
64,192,152550,1,0,0:0:0:0:s_031.ogg
448,192,152550,1,0,0:0:0:0:s_067.ogg
192,192,152650,1,0,0:0:0:0:s_043.ogg
448,192,152650,1,0,0:0:0:0:s_063.ogg
64,192,152750,1,0,0:0:0:0:s_039.ogg
320,192,152750,1,0,0:0:0:0:s_060.ogg
192,192,152850,1,0,0:0:0:0:s_043.ogg
448,192,152850,1,0,0:0:0:0:s_067.ogg
64,192,152950,1,0,0:0:0:0:s_036.ogg
320,192,152950,1,0,0:0:0:0:s_063.ogg
192,192,153050,1,0,0:0:0:0:s_043.ogg
448,192,153050,1,0,0:0:0:0:s_060.ogg
64,192,153150,1,0,0:0:0:0:s_035.ogg
320,192,153150,1,0,0:0:0:0:s_062.ogg
448,192,153175,1,0,0:0:0:0:s_067.ogg
192,192,153200,1,0,0:0:0:0:s_074.ogg
64,192,153250,1,0,0:0:0:0:s_043.ogg
320,192,153250,1,0,0:0:0:0:s_071.ogg
64,192,153350,1,0,0:0:0:0:s_031.ogg
448,192,153350,1,0,0:0:0:0:s_067.ogg
192,192,153450,1,0,0:0:0:0:s_043.ogg
448,192,153450,1,0,0:0:0:0:s_077.ogg
64,192,153550,1,0,0:0:0:0:s_035.ogg
320,192,153550,1,0,0:0:0:0:s_074.ogg
192,192,153650,1,0,0:0:0:0:s_043.ogg
448,192,153650,1,0,0:0:0:0:s_067.ogg
64,192,153750,1,0,0:0:0:0:s_038.ogg
320,192,153750,1,0,0:0:0:0:s_071.ogg
192,192,153850,1,0,0:0:0:0:s_043.ogg
448,192,153850,1,0,0:0:0:0:s_067.ogg
64,192,153950,1,0,0:0:0:0:s_036.ogg
320,192,153950,1,0,0:0:0:0:s_063.ogg
448,192,153975,1,0,0:0:0:0:s_067.ogg
192,192,154000,1,0,0:0:0:0:s_075.ogg
64,192,154050,1,0,0:0:0:0:s_043.ogg
320,192,154050,1,0,0:0:0:0:s_072.ogg
64,192,154150,1,0,0:0:0:0:s_031.ogg
448,192,154150,1,0,0:0:0:0:s_067.ogg
192,192,154250,1,0,0:0:0:0:s_043.ogg
448,192,154250,1,0,0:0:0:0:s_063.ogg
64,192,154350,1,0,0:0:0:0:s_039.ogg
320,192,154350,1,0,0:0:0:0:s_060.ogg
192,192,154450,1,0,0:0:0:0:s_043.ogg
448,192,154450,1,0,0:0:0:0:s_067.ogg
64,192,154550,1,0,0:0:0:0:s_036.ogg
320,192,154550,1,0,0:0:0:0:s_063.ogg
192,192,154650,1,0,0:0:0:0:s_043.ogg
448,192,154650,1,0,0:0:0:0:s_060.ogg
64,192,154750,1,0,0:0:0:0:s_035.ogg
320,192,154750,1,0,0:0:0:0:s_062.ogg
448,192,154775,1,0,0:0:0:0:s_067.ogg
192,192,154800,1,0,0:0:0:0:s_074.ogg
64,192,154850,1,0,0:0:0:0:s_043.ogg
320,192,154850,1,0,0:0:0:0:s_071.ogg
64,192,154950,1,0,0:0:0:0:s_031.ogg
448,192,154950,1,0,0:0:0:0:s_067.ogg
192,192,155050,1,0,0:0:0:0:s_043.ogg
448,192,155050,1,0,0:0:0:0:s_062.ogg
64,192,155150,1,0,0:0:0:0:s_038.ogg
320,192,155150,1,0,0:0:0:0:s_059.ogg
192,192,155250,1,0,0:0:0:0:s_047.ogg
320,192,155250,1,0,0:0:0:0:s_050.ogg
64,192,155350,1,0,0:0:0:0:s_043.ogg
448,192,155350,1,0,0:0:0:0:s_055.ogg
64,192,155550,1,0,0:0:0:0:s_040.ogg
320,192,155550,1,0,0:0:0:0:s_055.ogg
448,192,155583,1,0,0:0:0:0:s_067.ogg
192,192,155650,1,0,0:0:0:0:s_048.ogg
320,192,155650,1,0,0:0:0:0:s_064.ogg
64,192,155750,1,0,0:0:0:0:s_036.ogg
448,192,155750,1,0,0:0:0:0:s_060.ogg
192,192,155850,1,0,0:0:0:0:s_048.ogg
320,192,155850,1,0,0:0:0:0:s_055.ogg
448,192,155950,1,0,0:0:0:0:s_052.ogg
320,192,156050,1,0,0:0:0:0:s_048.ogg
192,192,156150,1,0,0:0:0:0:s_046.ogg
64,192,156250,1,0,0:0:0:0:s_043.ogg
192,192,156350,1,0,0:0:0:0:s_044.ogg
320,192,156350,1,0,0:0:0:0:s_029.ogg
448,192,156350,1,0,0:0:0:0:s_036.ogg
64,192,156450,1,0,0:0:0:0:s_041.ogg
448,192,156550,1,0,0:0:0:0:s_065.ogg
320,192,156650,1,0,0:0:0:0:s_060.ogg
192,192,156750,1,0,0:0:0:0:s_056.ogg
448,192,156850,1,0,0:0:0:0:s_053.ogg
320,192,156950,1,0,0:0:0:0:s_044.ogg
192,192,157050,1,0,0:0:0:0:s_041.ogg
64,192,157150,1,0,0:0:0:0:s_038.ogg
320,192,157150,1,0,0:0:0:0:s_058.ogg
448,192,157183,1,0,0:0:0:0:s_065.ogg
192,192,157250,1,0,0:0:0:0:s_046.ogg
320,192,157250,1,0,0:0:0:0:s_062.ogg
64,192,157350,1,0,0:0:0:0:s_034.ogg
448,192,157350,1,0,0:0:0:0:s_058.ogg
192,192,157450,1,0,0:0:0:0:s_046.ogg
320,192,157450,1,0,0:0:0:0:s_056.ogg
448,192,157550,1,0,0:0:0:0:s_053.ogg
320,192,157650,1,0,0:0:0:0:s_050.ogg
192,192,157750,1,0,0:0:0:0:s_044.ogg
64,192,157850,1,0,0:0:0:0:s_041.ogg
192,192,157950,1,0,0:0:0:0:s_043.ogg
320,192,157950,1,0,0:0:0:0:s_034.ogg
448,192,157950,1,0,0:0:0:0:s_027.ogg
64,192,158050,1,0,0:0:0:0:s_039.ogg
448,192,158150,1,0,0:0:0:0:s_063.ogg
320,192,158250,1,0,0:0:0:0:s_058.ogg
192,192,158350,1,0,0:0:0:0:s_055.ogg
448,192,158450,1,0,0:0:0:0:s_051.ogg
320,192,158550,1,0,0:0:0:0:s_043.ogg
192,192,158650,1,0,0:0:0:0:s_039.ogg
64,192,158750,1,0,0:0:0:0:s_044.ogg
320,192,158750,1,0,0:0:0:0:s_041.ogg
448,192,158750,1,0,0:0:0:0:s_062.ogg
192,192,158850,1,0,0:0:0:0:s_060.ogg
448,192,158850,1,0,0:0:0:0:s_068.ogg
64,192,158950,1,0,0:0:0:0:s_059.ogg
192,192,159050,1,0,0:0:0:0:s_065.ogg
448,192,159050,1,0,0:0:0:0:s_056.ogg
320,192,159150,1,0,0:0:0:0:s_055.ogg
192,192,159250,1,0,0:0:0:0:s_053.ogg
448,192,159250,1,0,0:0:0:0:s_062.ogg
64,192,159350,1,0,0:0:0:0:s_051.ogg
192,192,159450,1,0,0:0:0:0:s_050.ogg
448,192,159450,1,0,0:0:0:0:s_059.ogg
64,192,159550,1,0,0:0:0:0:s_043.ogg
320,192,159550,1,0,0:0:0:0:s_048.ogg
448,192,159550,1,0,0:0:0:0:s_039.ogg
192,192,159650,1,0,0:0:0:0:s_046.ogg
320,192,159650,1,0,0:0:0:0:s_055.ogg
64,192,159750,1,0,0:0:0:0:s_044.ogg
192,192,159850,1,0,0:0:0:0:s_043.ogg
448,192,159850,1,0,0:0:0:0:s_051.ogg
320,192,159950,1,0,0:0:0:0:s_041.ogg
192,192,160050,1,0,0:0:0:0:s_048.ogg
448,192,160050,1,0,0:0:0:0:s_039.ogg
64,192,160150,1,0,0:0:0:0:s_038.ogg
192,192,160250,1,0,0:0:0:0:s_036.ogg
448,192,160250,1,0,0:0:0:0:s_043.ogg
320,192,160350,1,0,0:0:0:0:s_044.ogg
64,192,160450,1,0,0:0:0:0:s_029.ogg
192,192,160550,1,0,0:0:0:0:s_050.ogg
448,192,160550,1,0,0:0:0:0:s_060.ogg
192,192,160650,1,0,0:0:0:0:s_053.ogg
320,192,160650,1,0,0:0:0:0:s_056.ogg
320,192,160750,1,0,0:0:0:0:s_047.ogg
64,192,160850,1,0,0:0:0:0:s_031.ogg
192,192,160950,1,0,0:0:0:0:s_050.ogg
448,192,160950,1,0,0:0:0:0:s_062.ogg
192,192,161050,1,0,0:0:0:0:s_053.ogg
320,192,161050,1,0,0:0:0:0:s_059.ogg
64,192,161150,1,0,0:0:0:0:s_051.ogg
448,192,161150,1,0,0:0:0:0:s_060.ogg
192,192,161250,1,0,0:0:0:0:s_048.ogg
448,192,161250,1,0,0:0:0:0:s_043.ogg
320,192,161350,1,0,0:0:0:0:s_039.ogg
192,192,161450,1,0,0:0:0:0:s_036.ogg
64,192,161550,1,0,0:0:0:0:s_024.ogg
64,192,161950,1,0,0:0:0:0:s_055.ogg
448,192,161950,128,0,163550:0:0:0:0:l_060.ogg
320,192,161950,128,0,163310:0:0:0:0:l_063.ogg
192,192,162030,1,0,0:0:0:0:s_056.ogg
64,192,162110,1,0,0:0:0:0:s_055.ogg
192,192,162190,1,0,0:0:0:0:s_056.ogg
64,192,162270,1,0,0:0:0:0:s_055.ogg
192,192,162350,1,0,0:0:0:0:s_056.ogg
64,192,162430,1,0,0:0:0:0:s_055.ogg
192,192,162510,1,0,0:0:0:0:s_056.ogg
64,192,162590,1,0,0:0:0:0:s_055.ogg
192,192,162670,1,0,0:0:0:0:s_056.ogg
64,192,162750,1,0,0:0:0:0:s_055.ogg
192,192,162830,1,0,0:0:0:0:s_056.ogg
64,192,162910,1,0,0:0:0:0:s_055.ogg
192,192,162990,1,0,0:0:0:0:s_056.ogg
64,192,163070,1,0,0:0:0:0:s_055.ogg
192,192,163150,1,0,0:0:0:0:s_056.ogg
64,192,163230,1,0,0:0:0:0:s_055.ogg
192,192,163310,1,0,0:0:0:0:s_056.ogg
64,192,163390,1,0,0:0:0:0:s_055.ogg
320,192,163390,128,0,163790:0:0:0:0:m_067.ogg
192,192,163470,1,0,0:0:0:0:s_056.ogg
64,192,163550,1,0,0:0:0:0:s_055.ogg
192,192,163630,1,0,0:0:0:0:s_056.ogg
448,192,163630,128,0,163790:0:0:0:0:s_075.ogg
64,192,163710,1,0,0:0:0:0:s_055.ogg
192,192,163790,1,0,0:0:0:0:s_056.ogg
64,192,163870,1,0,0:0:0:0:s_055.ogg
320,192,163870,128,0,164030:0:0:0:0:l_062.ogg
448,192,163870,128,0,164270:0:0:0:0:m_067.ogg
192,192,163950,1,0,0:0:0:0:s_056.ogg
64,192,164030,1,0,0:0:0:0:s_055.ogg
192,192,164110,1,0,0:0:0:0:s_056.ogg
320,192,164110,128,0,164510:0:0:0:0:m_072.ogg
64,192,164190,1,0,0:0:0:0:s_055.ogg
192,192,164270,1,0,0:0:0:0:s_056.ogg
64,192,164350,1,0,0:0:0:0:s_055.ogg
448,192,164350,128,0,164990:0:0:0:0:m_071.ogg
192,192,164430,1,0,0:0:0:0:s_056.ogg
64,192,164510,1,0,0:0:0:0:s_055.ogg
192,192,164590,1,0,0:0:0:0:s_056.ogg
320,192,164590,128,0,164750:0:0:0:0:s_069.ogg
64,192,164670,1,0,0:0:0:0:s_055.ogg
192,192,164750,1,0,0:0:0:0:s_056.ogg
64,192,164830,1,0,0:0:0:0:s_055.ogg
320,192,164830,128,0,165470:0:0:0:0:m_067.ogg
192,192,164910,1,0,0:0:0:0:s_056.ogg
64,192,164990,1,0,0:0:0:0:s_055.ogg
192,192,165070,1,0,0:0:0:0:s_056.ogg
448,192,165070,128,0,165230:0:0:0:0:m_069.ogg
64,192,165150,1,0,0:0:0:0:s_055.ogg
192,192,165230,1,0,0:0:0:0:s_056.ogg
64,192,165310,1,0,0:0:0:0:s_055.ogg
448,192,165310,128,0,165710:0:0:0:0:m_071.ogg
192,192,165390,1,0,0:0:0:0:s_056.ogg
64,192,165470,1,0,0:0:0:0:s_055.ogg
192,192,165550,1,0,0:0:0:0:s_056.ogg
320,192,165550,128,0,165710:0:0:0:0:s_067.ogg
64,192,165630,1,0,0:0:0:0:s_055.ogg
192,192,165710,1,0,0:0:0:0:s_056.ogg
64,192,165790,1,0,0:0:0:0:s_055.ogg
448,192,165790,128,0,166670:0:0:0:0:m_072.ogg
320,192,165790,128,0,166670:0:0:0:0:l_063.ogg
192,192,165870,1,0,0:0:0:0:s_056.ogg
64,192,165950,1,0,0:0:0:0:s_055.ogg
192,192,166030,1,0,0:0:0:0:s_056.ogg
64,192,166110,1,0,0:0:0:0:s_055.ogg
192,192,166190,1,0,0:0:0:0:s_056.ogg
64,192,166270,1,0,0:0:0:0:s_055.ogg
192,192,166350,1,0,0:0:0:0:s_056.ogg
64,192,166430,1,0,0:0:0:0:s_055.ogg
192,192,166510,1,0,0:0:0:0:s_056.ogg
64,192,166590,1,0,0:0:0:0:s_055.ogg
192,192,166670,1,0,0:0:0:0:s_056.ogg
64,192,166750,1,0,0:0:0:0:s_055.ogg
448,192,166750,1,0,0:0:0:0:s_074.ogg
320,192,166790,1,0,0:0:0:0:s_072.ogg
192,192,166830,1,0,0:0:0:0:s_056.ogg
448,192,166870,1,0,0:0:0:0:m_072.ogg
64,192,166910,1,0,0:0:0:0:s_055.ogg
192,192,166990,1,0,0:0:0:0:s_056.ogg
320,192,166990,128,0,167390:0:0:0:0:m_074.ogg
64,192,167070,1,0,0:0:0:0:s_055.ogg
192,192,167150,1,0,0:0:0:0:s_056.ogg
64,192,167230,1,0,0:0:0:0:s_055.ogg
448,192,167230,128,0,167630:0:0:0:0:m_075.ogg
192,192,167310,1,0,0:0:0:0:s_056.ogg
64,192,167390,1,0,0:0:0:0:s_055.ogg
192,192,167470,1,0,0:0:0:0:s_056.ogg
320,192,167470,128,0,167630:0:0:0:0:s_077.ogg
64,192,167550,1,0,0:0:0:0:s_055.ogg
192,192,167630,1,0,0:0:0:0:s_056.ogg
64,192,167710,1,0,0:0:0:0:s_055.ogg
448,192,167710,128,0,168350:0:0:0:0:m_078.ogg
320,192,167710,128,0,168590:0:0:0:0:l_071.ogg
192,192,167790,1,0,0:0:0:0:s_056.ogg
64,192,167870,1,0,0:0:0:0:s_055.ogg
192,192,167950,1,0,0:0:0:0:s_056.ogg
64,192,168030,1,0,0:0:0:0:s_055.ogg
192,192,168110,1,0,0:0:0:0:s_056.ogg
64,192,168190,1,0,0:0:0:0:s_055.ogg
192,192,168270,1,0,0:0:0:0:s_056.ogg
64,192,168350,1,0,0:0:0:0:s_055.ogg
192,192,168430,1,0,0:0:0:0:s_056.ogg
448,192,168430,128,0,169550:0:0:0:0:s_079.ogg
64,192,168510,1,0,0:0:0:0:s_055.ogg
192,192,168590,1,0,0:0:0:0:s_056.ogg
64,192,168670,1,0,0:0:0:0:s_055.ogg
320,192,168670,128,0,169550:0:0:0:0:m_067.ogg
192,192,168750,1,0,0:0:0:0:s_056.ogg
64,192,168830,1,0,0:0:0:0:s_055.ogg
192,192,168910,1,0,0:0:0:0:s_056.ogg
64,192,168990,1,0,0:0:0:0:s_055.ogg
192,192,169070,1,0,0:0:0:0:s_056.ogg
64,192,169150,1,0,0:0:0:0:s_055.ogg
192,192,169230,1,0,0:0:0:0:s_056.ogg
64,192,169310,1,0,0:0:0:0:s_055.ogg
192,192,169390,1,0,0:0:0:0:s_056.ogg
64,192,169470,1,0,0:0:0:0:s_055.ogg
192,192,169550,1,0,0:0:0:0:s_056.ogg
64,192,169630,1,0,0:0:0:0:s_055.ogg
448,192,169630,128,0,171230:0:0:0:0:l_072.ogg
320,192,169630,128,0,170990:0:0:0:0:l_060.ogg
192,192,169710,1,0,0:0:0:0:s_056.ogg
64,192,169790,1,0,0:0:0:0:s_055.ogg
192,192,169870,1,0,0:0:0:0:s_056.ogg
64,192,169950,1,0,0:0:0:0:s_055.ogg
192,192,170030,1,0,0:0:0:0:s_056.ogg
64,192,170110,1,0,0:0:0:0:s_055.ogg
192,192,170190,1,0,0:0:0:0:s_056.ogg
64,192,170270,1,0,0:0:0:0:s_055.ogg
192,192,170350,1,0,0:0:0:0:s_056.ogg
64,192,170430,1,0,0:0:0:0:s_055.ogg
192,192,170510,1,0,0:0:0:0:s_056.ogg
64,192,170590,1,0,0:0:0:0:s_055.ogg
192,192,170670,1,0,0:0:0:0:s_056.ogg
64,192,170750,1,0,0:0:0:0:s_055.ogg
192,192,170830,1,0,0:0:0:0:s_056.ogg
64,192,170910,1,0,0:0:0:0:s_055.ogg
192,192,170990,1,0,0:0:0:0:s_056.ogg
64,192,171070,1,0,0:0:0:0:s_055.ogg
320,192,171070,128,0,171470:0:0:0:0:m_067.ogg
192,192,171150,1,0,0:0:0:0:s_056.ogg
64,192,171230,1,0,0:0:0:0:s_055.ogg
192,192,171310,1,0,0:0:0:0:s_056.ogg
448,192,171310,128,0,171470:0:0:0:0:s_075.ogg
64,192,171390,1,0,0:0:0:0:s_055.ogg
192,192,171470,1,0,0:0:0:0:s_056.ogg
64,192,171550,1,0,0:0:0:0:s_055.ogg
448,192,171550,128,0,171950:0:0:0:0:m_067.ogg
320,192,171550,128,0,171710:0:0:0:0:m_074.ogg
192,192,171630,1,0,0:0:0:0:s_056.ogg
64,192,171710,1,0,0:0:0:0:s_055.ogg
192,192,171790,1,0,0:0:0:0:s_056.ogg
320,192,171790,128,0,172430:0:0:0:0:m_072.ogg
64,192,171870,1,0,0:0:0:0:s_055.ogg
192,192,171950,1,0,0:0:0:0:s_056.ogg
64,192,172030,1,0,0:0:0:0:s_055.ogg
448,192,172030,128,0,172190:0:0:0:0:m_071.ogg
192,192,172110,1,0,0:0:0:0:s_056.ogg
64,192,172190,1,0,0:0:0:0:s_055.ogg
192,192,172270,1,0,0:0:0:0:s_056.ogg
448,192,172270,128,0,172910:0:0:0:0:s_069.ogg
64,192,172350,1,0,0:0:0:0:s_055.ogg
192,192,172430,1,0,0:0:0:0:s_056.ogg
64,192,172510,1,0,0:0:0:0:s_055.ogg
320,192,172510,128,0,172670:0:0:0:0:m_067.ogg
192,192,172590,1,0,0:0:0:0:s_056.ogg
64,192,172670,1,0,0:0:0:0:s_055.ogg
192,192,172750,1,0,0:0:0:0:s_056.ogg
320,192,172750,128,0,173150:0:0:0:0:m_069.ogg
64,192,172830,1,0,0:0:0:0:s_055.ogg
192,192,172910,1,0,0:0:0:0:s_056.ogg
64,192,172990,1,0,0:0:0:0:s_055.ogg
448,192,172990,128,0,173390:0:0:0:0:m_071.ogg
192,192,173070,1,0,0:0:0:0:s_056.ogg
64,192,173150,1,0,0:0:0:0:s_055.ogg
192,192,173230,1,0,0:0:0:0:s_056.ogg
320,192,173230,128,0,173390:0:0:0:0:s_067.ogg
64,192,173310,1,0,0:0:0:0:s_055.ogg
192,192,173390,1,0,0:0:0:0:s_056.ogg
64,192,173470,1,0,0:0:0:0:s_055.ogg
448,192,173470,128,0,174350:0:0:0:0:m_072.ogg
320,192,173470,128,0,174350:0:0:0:0:l_067.ogg
192,192,173550,1,0,0:0:0:0:s_056.ogg
64,192,173630,1,0,0:0:0:0:s_055.ogg
192,192,173710,1,0,0:0:0:0:s_056.ogg
64,192,173790,1,0,0:0:0:0:s_055.ogg
192,192,173870,1,0,0:0:0:0:s_056.ogg
64,192,173950,1,0,0:0:0:0:s_055.ogg
192,192,174030,1,0,0:0:0:0:s_056.ogg
64,192,174110,1,0,0:0:0:0:s_055.ogg
192,192,174190,1,0,0:0:0:0:s_056.ogg
64,192,174270,1,0,0:0:0:0:s_055.ogg
192,192,174350,1,0,0:0:0:0:s_056.ogg
64,192,174430,1,0,0:0:0:0:s_055.ogg
448,192,174430,1,0,0:0:0:0:s_074.ogg
320,192,174470,1,0,0:0:0:0:s_072.ogg
192,192,174510,1,0,0:0:0:0:s_056.ogg
448,192,174550,1,0,0:0:0:0:m_072.ogg
64,192,174590,1,0,0:0:0:0:s_055.ogg
192,192,174670,1,0,0:0:0:0:s_056.ogg
320,192,174670,128,0,175070:0:0:0:0:m_074.ogg
64,192,174750,1,0,0:0:0:0:s_055.ogg
192,192,174830,1,0,0:0:0:0:s_056.ogg
64,192,174910,1,0,0:0:0:0:s_055.ogg
448,192,174910,128,0,175310:0:0:0:0:m_075.ogg
192,192,174990,1,0,0:0:0:0:s_056.ogg
64,192,175070,1,0,0:0:0:0:s_055.ogg
192,192,175150,1,0,0:0:0:0:s_056.ogg
320,192,175150,128,0,175310:0:0:0:0:s_077.ogg
64,192,175230,1,0,0:0:0:0:s_055.ogg
192,192,175310,1,0,0:0:0:0:s_056.ogg
64,192,175390,1,0,0:0:0:0:s_055.ogg
448,192,175390,128,0,176030:0:0:0:0:m_078.ogg
320,192,175390,128,0,176270:0:0:0:0:l_071.ogg
192,192,175470,1,0,0:0:0:0:s_056.ogg
64,192,175550,1,0,0:0:0:0:s_055.ogg
192,192,175630,1,0,0:0:0:0:s_056.ogg
64,192,175710,1,0,0:0:0:0:s_055.ogg
192,192,175790,1,0,0:0:0:0:s_056.ogg
64,192,175870,1,0,0:0:0:0:s_055.ogg
192,192,175950,1,0,0:0:0:0:s_056.ogg
64,192,176030,1,0,0:0:0:0:s_055.ogg
192,192,176110,1,0,0:0:0:0:s_056.ogg
448,192,176110,128,0,177230:0:0:0:0:s_079.ogg
64,192,176190,1,0,0:0:0:0:s_055.ogg
192,192,176270,1,0,0:0:0:0:s_056.ogg
64,192,176350,1,0,0:0:0:0:s_055.ogg
320,192,176350,128,0,177230:0:0:0:0:m_067.ogg
192,192,176430,1,0,0:0:0:0:s_056.ogg
64,192,176510,1,0,0:0:0:0:s_055.ogg
192,192,176590,1,0,0:0:0:0:s_056.ogg
64,192,176670,1,0,0:0:0:0:s_055.ogg
192,192,176750,1,0,0:0:0:0:s_056.ogg
64,192,176830,1,0,0:0:0:0:s_055.ogg
192,192,176910,1,0,0:0:0:0:s_056.ogg
64,192,176990,1,0,0:0:0:0:s_055.ogg
192,192,177070,1,0,0:0:0:0:s_056.ogg
64,192,177150,1,0,0:0:0:0:s_055.ogg
192,192,177230,1,0,0:0:0:0:s_056.ogg
64,192,177310,1,0,0:0:0:0:s_055.ogg
448,192,177310,128,0,178430:0:0:0:0:l_072.ogg
320,192,177310,128,0,178670:0:0:0:0:l_064.ogg
192,192,177430,1,0,0:0:0:0:s_056.ogg
64,192,177550,1,0,0:0:0:0:s_055.ogg
192,192,177670,1,0,0:0:0:0:s_056.ogg
64,192,177790,1,0,0:0:0:0:s_055.ogg
192,192,177910,1,0,0:0:0:0:s_056.ogg
64,192,178030,1,0,0:0:0:0:s_055.ogg
192,192,178150,128,0,178910:0:0:0:0:m_056.ogg
64,192,178270,128,0,179150:0:0:0:0:m_055.ogg
448,192,178510,1,0,0:0:0:0:m_079.ogg
320,192,178750,1,0,0:0:0:0:m_076.ogg
192,192,178990,1,0,0:0:0:0:s_072.ogg
64,192,179230,1,0,0:0:0:0:m_070.ogg
448,192,179470,1,0,0:0:0:0:m_067.ogg
320,192,179710,1,0,0:0:0:0:m_064.ogg
192,192,179950,1,0,0:0:0:0:s_060.ogg
64,192,180190,1,0,0:0:0:0:m_058.ogg
448,192,180430,1,0,0:0:0:0:m_056.ogg
64,192,180670,1,0,0:0:0:0:m_060.ogg
320,192,180670,1,0,0:0:0:0:m_055.ogg
448,192,180670,1,0,0:0:0:0:m_065.ogg
192,192,180910,1,0,0:0:0:0:s_053.ogg
192,192,181150,1,0,0:0:0:0:s_056.ogg
448,192,181150,128,0,182270:0:0:0:0:l_070.ogg
320,192,181150,128,0,182510:0:0:0:0:l_050.ogg
64,192,181270,1,0,0:0:0:0:s_055.ogg
192,192,181390,1,0,0:0:0:0:s_056.ogg
64,192,181510,1,0,0:0:0:0:s_055.ogg
192,192,181630,1,0,0:0:0:0:s_056.ogg
64,192,181750,1,0,0:0:0:0:s_055.ogg
192,192,181870,1,0,0:0:0:0:s_056.ogg
64,192,181990,128,0,182990:0:0:0:0:m_055.ogg
192,192,182110,128,0,182750:0:0:0:0:m_056.ogg
448,192,182350,1,0,0:0:0:0:m_077.ogg
320,192,182590,1,0,0:0:0:0:m_074.ogg
192,192,182830,1,0,0:0:0:0:s_070.ogg
64,192,183070,1,0,0:0:0:0:m_068.ogg
448,192,183310,1,0,0:0:0:0:m_065.ogg
320,192,183550,1,0,0:0:0:0:m_062.ogg
192,192,183790,1,0,0:0:0:0:s_058.ogg
64,192,184030,1,0,0:0:0:0:m_056.ogg
448,192,184270,1,0,0:0:0:0:m_055.ogg
64,192,184510,1,0,0:0:0:0:m_063.ogg
320,192,184510,1,0,0:0:0:0:m_053.ogg
448,192,184510,1,0,0:0:0:0:m_058.ogg
192,192,184750,1,0,0:0:0:0:s_051.ogg
192,192,184990,1,0,0:0:0:0:s_056.ogg
448,192,184990,128,0,186110:0:0:0:0:l_047.ogg
320,192,184990,128,0,186350:0:0:0:0:l_053.ogg
64,192,185110,1,0,0:0:0:0:s_055.ogg
192,192,185230,1,0,0:0:0:0:s_056.ogg
64,192,185350,1,0,0:0:0:0:s_055.ogg
192,192,185470,1,0,0:0:0:0:s_056.ogg
64,192,185590,1,0,0:0:0:0:s_055.ogg
192,192,185710,1,0,0:0:0:0:s_056.ogg
64,192,185830,128,0,186830:0:0:0:0:m_055.ogg
192,192,185950,128,0,186590:0:0:0:0:m_056.ogg
448,192,186190,1,0,0:0:0:0:m_065.ogg
320,192,186430,1,0,0:0:0:0:m_062.ogg
192,192,186670,1,0,0:0:0:0:s_060.ogg
64,192,186910,1,0,0:0:0:0:m_059.ogg
320,192,187150,1,0,0:0:0:0:s_055.ogg
64,192,187390,1,0,0:0:0:0:m_067.ogg
192,192,187390,1,0,0:0:0:0:m_053.ogg
448,192,187390,1,0,0:0:0:0:m_059.ogg
64,192,187630,1,0,0:0:0:0:s_050.ogg
192,192,187870,1,0,0:0:0:0:m_051.ogg
320,192,187870,1,0,0:0:0:0:m_060.ogg
448,192,187870,1,0,0:0:0:0:m_067.ogg
320,192,188110,1,0,0:0:0:0:s_055.ogg
64,192,188350,1,0,0:0:0:0:m_064.ogg
192,192,188350,1,0,0:0:0:0:m_067.ogg
448,192,188350,1,0,0:0:0:0:m_060.ogg
320,192,188590,1,0,0:0:0:0:s_058.ogg
64,192,188830,1,0,0:0:0:0:m_068.ogg
192,192,188830,1,0,0:0:0:0:m_056.ogg
320,192,188830,1,0,0:0:0:0:s_065.ogg
448,192,189070,1,0,0:0:0:0:s_065.ogg
320,192,189310,1,0,0:0:0:0:m_062.ogg
192,192,189550,1,0,0:0:0:0:s_060.ogg
64,192,189790,1,0,0:0:0:0:m_059.ogg
320,192,189790,1,0,0:0:0:0:m_065.ogg
448,192,189790,1,0,0:0:0:0:m_055.ogg
448,192,190030,1,0,0:0:0:0:m_074.ogg
320,192,190270,1,0,0:0:0:0:m_071.ogg
192,192,190510,1,0,0:0:0:0:s_067.ogg
64,192,190750,1,0,0:0:0:0:m_060.ogg
192,192,190750,1,0,0:0:0:0:l_063.ogg
320,192,190750,1,0,0:0:0:0:s_071.ogg
448,192,190790,1,0,0:0:0:0:l_072.ogg
192,192,191710,1,0,0:0:0:0:m_060.ogg
448,192,192670,1,0,0:0:0:0:s_019.ogg
192,192,192710,1,0,0:0:0:0:s_021.ogg
64,192,192750,1,0,0:0:0:0:m_031.ogg
320,192,192750,1,0,0:0:0:0:s_023.ogg
448,192,192790,1,0,0:0:0:0:m_024.ogg
192,192,192830,1,0,0:0:0:0:s_036.ogg
64,192,192910,1,0,0:0:0:0:m_036.ogg
320,192,192910,1,0,0:0:0:0:m_039.ogg
448,192,192910,1,0,0:0:0:0:s_043.ogg
192,192,192990,1,0,0:0:0:0:m_043.ogg
320,192,193070,1,0,0:0:0:0:m_048.ogg
64,192,193150,1,0,0:0:0:0:s_055.ogg
192,192,193150,1,0,0:0:0:0:m_027.ogg
448,192,193150,1,0,0:0:0:0:m_051.ogg
320,192,193230,1,0,0:0:0:0:m_055.ogg
448,192,193310,1,0,0:0:0:0:m_060.ogg
64,192,193390,1,0,0:0:0:0:s_067.ogg
192,192,193390,1,0,0:0:0:0:s_063.ogg
320,192,193390,1,0,0:0:0:0:s_039.ogg
448,192,193470,1,0,0:0:0:0:s_067.ogg
64,192,193550,1,0,0:0:0:0:s_072.ogg
192,192,193630,1,0,0:0:0:0:m_077.ogg
320,192,193630,1,0,0:0:0:0:m_079.ogg
448,192,193630,1,0,0:0:0:0:m_026.ogg
64,192,193710,1,0,0:0:0:0:m_071.ogg
448,192,193790,1,0,0:0:0:0:s_067.ogg
64,192,193870,1,0,0:0:0:0:s_067.ogg
192,192,193870,1,0,0:0:0:0:s_065.ogg
320,192,193870,1,0,0:0:0:0:s_038.ogg
448,192,193950,1,0,0:0:0:0:s_059.ogg
320,192,194030,1,0,0:0:0:0:s_055.ogg
64,192,194110,1,0,0:0:0:0:m_051.ogg
192,192,194110,1,0,0:0:0:0:m_012.ogg
448,192,194110,1,0,0:0:0:0:m_055.ogg
320,192,194190,1,0,0:0:0:0:m_048.ogg
192,192,194270,1,0,0:0:0:0:s_043.ogg
64,192,194350,1,0,0:0:0:0:s_039.ogg
320,192,194350,1,0,0:0:0:0:s_043.ogg
448,192,194350,1,0,0:0:0:0:s_036.ogg
192,192,194590,1,0,0:0:0:0:m_038.ogg
320,192,194590,1,0,0:0:0:0:m_043.ogg
448,192,194590,1,0,0:0:0:0:m_035.ogg
64,192,194670,1,0,0:0:0:0:m_011.ogg
192,192,194750,1,0,0:0:0:0:m_014.ogg
64,192,194830,1,0,0:0:0:0:m_062.ogg
320,192,194830,1,0,0:0:0:0:m_019.ogg
448,192,194830,1,0,0:0:0:0:m_067.ogg
192,192,194910,1,0,0:0:0:0:m_023.ogg
320,192,194990,1,0,0:0:0:0:m_026.ogg
448,192,195070,1,0,0:0:0:0:s_031.ogg
64,192,195150,1,0,0:0:0:0:s_035.ogg
192,192,195230,1,0,0:0:0:0:s_038.ogg
64,192,195310,1,0,0:0:0:0:m_043.ogg
320,192,195310,1,0,0:0:0:0:m_058.ogg
448,192,195310,1,0,0:0:0:0:m_070.ogg
192,192,195390,1,0,0:0:0:0:m_047.ogg
320,192,195470,1,0,0:0:0:0:s_050.ogg
448,192,195550,1,0,0:0:0:0:s_055.ogg
320,192,195630,1,0,0:0:0:0:s_050.ogg
192,192,195710,1,0,0:0:0:0:s_047.ogg
64,192,195790,1,0,0:0:0:0:m_043.ogg
320,192,195790,1,0,0:0:0:0:m_056.ogg
448,192,195790,1,0,0:0:0:0:m_068.ogg
192,192,195870,1,0,0:0:0:0:m_038.ogg
64,192,195950,1,0,0:0:0:0:m_035.ogg
448,192,196030,1,0,0:0:0:0:m_031.ogg
320,192,196110,1,0,0:0:0:0:m_026.ogg
192,192,196190,1,0,0:0:0:0:m_023.ogg
64,192,196270,1,0,0:0:0:0:s_019.ogg
320,192,196270,1,0,0:0:0:0:s_055.ogg
448,192,196270,1,0,0:0:0:0:s_067.ogg
192,192,196350,1,0,0:0:0:0:s_014.ogg
64,192,196430,1,0,0:0:0:0:s_011.ogg
320,192,196510,1,0,0:0:0:0:m_024.ogg
448,192,196510,1,0,0:0:0:0:m_012.ogg
64,192,196590,1,0,0:0:0:0:m_031.ogg
192,192,196670,1,0,0:0:0:0:s_036.ogg
64,192,196750,1,0,0:0:0:0:m_036.ogg
320,192,196750,1,0,0:0:0:0:s_043.ogg
448,192,196750,1,0,0:0:0:0:m_039.ogg
192,192,196830,1,0,0:0:0:0:m_043.ogg
320,192,196910,1,0,0:0:0:0:m_048.ogg
64,192,196990,1,0,0:0:0:0:m_051.ogg
192,192,196990,1,0,0:0:0:0:m_027.ogg
448,192,196990,1,0,0:0:0:0:s_055.ogg
320,192,197070,1,0,0:0:0:0:m_055.ogg
448,192,197150,1,0,0:0:0:0:m_060.ogg
64,192,197230,1,0,0:0:0:0:s_063.ogg
192,192,197230,1,0,0:0:0:0:s_067.ogg
320,192,197230,1,0,0:0:0:0:s_039.ogg
448,192,197310,1,0,0:0:0:0:s_067.ogg
64,192,197390,1,0,0:0:0:0:s_072.ogg
192,192,197470,1,0,0:0:0:0:m_077.ogg
320,192,197470,1,0,0:0:0:0:m_079.ogg
448,192,197470,1,0,0:0:0:0:m_026.ogg
64,192,197550,1,0,0:0:0:0:m_071.ogg
448,192,197630,1,0,0:0:0:0:s_067.ogg
64,192,197710,1,0,0:0:0:0:s_065.ogg
192,192,197710,1,0,0:0:0:0:s_067.ogg
320,192,197710,1,0,0:0:0:0:s_038.ogg
448,192,197790,1,0,0:0:0:0:s_059.ogg
320,192,197870,1,0,0:0:0:0:s_055.ogg
64,192,197950,1,0,0:0:0:0:m_055.ogg
192,192,197950,1,0,0:0:0:0:m_024.ogg
448,192,197950,1,0,0:0:0:0:m_051.ogg
320,192,198030,1,0,0:0:0:0:m_048.ogg
192,192,198110,1,0,0:0:0:0:s_043.ogg
64,192,198190,1,0,0:0:0:0:s_039.ogg
320,192,198190,1,0,0:0:0:0:s_043.ogg
448,192,198190,1,0,0:0:0:0:s_036.ogg
64,192,198430,1,0,0:0:0:0:s_031.ogg
192,192,198430,1,0,0:0:0:0:l_026.ogg
320,192,198430,1,0,0:0:0:0:s_043.ogg
448,192,198430,1,0,0:0:0:0:s_035.ogg
64,192,198550,1,0,0:0:0:0:l_031.ogg
192,192,198550,1,0,0:0:0:0:m_055.ogg
320,192,198550,1,0,0:0:0:0:m_043.ogg
192,192,198670,1,0,0:0:0:0:m_044.ogg
320,192,198670,1,0,0:0:0:0:m_056.ogg
448,192,198670,1,0,0:0:0:0:l_032.ogg
64,192,198790,1,0,0:0:0:0:m_057.ogg
320,192,198790,1,0,0:0:0:0:m_033.ogg
448,192,198790,1,0,0:0:0:0:m_045.ogg
64,192,198910,1,0,0:0:0:0:m_046.ogg
192,192,198910,1,0,0:0:0:0:m_058.ogg
448,192,198910,1,0,0:0:0:0:m_034.ogg
64,192,199030,1,0,0:0:0:0:m_035.ogg
192,192,199030,1,0,0:0:0:0:m_047.ogg
320,192,199030,1,0,0:0:0:0:m_059.ogg
192,192,199150,1,0,0:0:0:0:m_036.ogg
320,192,199150,1,0,0:0:0:0:m_060.ogg
448,192,199150,1,0,0:0:0:0:m_048.ogg
64,192,199270,1,0,0:0:0:0:m_049.ogg
320,192,199270,1,0,0:0:0:0:m_037.ogg
448,192,199270,1,0,0:0:0:0:m_061.ogg
64,192,199390,1,0,0:0:0:0:m_038.ogg
192,192,199390,1,0,0:0:0:0:m_062.ogg
448,192,199390,1,0,0:0:0:0:m_050.ogg
64,192,199510,1,0,0:0:0:0:m_039.ogg
192,192,199510,1,0,0:0:0:0:m_063.ogg
320,192,199510,1,0,0:0:0:0:m_051.ogg
192,192,199630,1,0,0:0:0:0:m_064.ogg
320,192,199630,1,0,0:0:0:0:m_040.ogg
448,192,199630,1,0,0:0:0:0:m_052.ogg
64,192,199750,1,0,0:0:0:0:m_065.ogg
320,192,199750,1,0,0:0:0:0:m_041.ogg
448,192,199750,1,0,0:0:0:0:m_053.ogg
64,192,199870,1,0,0:0:0:0:m_042.ogg
192,192,199870,1,0,0:0:0:0:m_054.ogg
448,192,199870,1,0,0:0:0:0:m_066.ogg
64,192,199990,1,0,0:0:0:0:s_055.ogg
192,192,199990,1,0,0:0:0:0:s_043.ogg
320,192,199990,1,0,0:0:0:0:s_067.ogg
192,192,200110,1,0,0:0:0:0:s_056.ogg
320,192,200110,1,0,0:0:0:0:s_044.ogg
448,192,200110,1,0,0:0:0:0:s_068.ogg
64,192,200230,1,0,0:0:0:0:m_067.ogg
192,192,200230,1,0,0:0:0:0:m_043.ogg
320,192,200230,1,0,0:0:0:0:m_055.ogg
448,192,200470,1,0,0:0:0:0:s_019.ogg
192,192,200510,1,0,0:0:0:0:s_021.ogg
64,192,200550,1,0,0:0:0:0:m_031.ogg
320,192,200550,1,0,0:0:0:0:s_023.ogg
448,192,200590,1,0,0:0:0:0:m_012.ogg
192,192,200630,1,0,0:0:0:0:s_036.ogg
64,192,200710,1,0,0:0:0:0:m_036.ogg
320,192,200710,1,0,0:0:0:0:s_043.ogg
448,192,200710,1,0,0:0:0:0:m_039.ogg
192,192,200790,1,0,0:0:0:0:m_043.ogg
320,192,200870,1,0,0:0:0:0:m_048.ogg
64,192,200950,1,0,0:0:0:0:m_051.ogg
192,192,200950,1,0,0:0:0:0:m_015.ogg
448,192,200950,1,0,0:0:0:0:s_055.ogg
320,192,201030,1,0,0:0:0:0:m_055.ogg
448,192,201110,1,0,0:0:0:0:m_060.ogg
64,192,201190,1,0,0:0:0:0:s_067.ogg
192,192,201190,1,0,0:0:0:0:s_063.ogg
320,192,201190,1,0,0:0:0:0:s_039.ogg
448,192,201270,1,0,0:0:0:0:s_067.ogg
64,192,201350,1,0,0:0:0:0:s_072.ogg
192,192,201430,1,0,0:0:0:0:m_077.ogg
320,192,201430,1,0,0:0:0:0:m_079.ogg
448,192,201430,1,0,0:0:0:0:m_014.ogg
64,192,201510,1,0,0:0:0:0:m_071.ogg
448,192,201590,1,0,0:0:0:0:s_067.ogg
64,192,201670,1,0,0:0:0:0:s_065.ogg
192,192,201670,1,0,0:0:0:0:s_067.ogg
320,192,201670,1,0,0:0:0:0:s_038.ogg
448,192,201750,1,0,0:0:0:0:s_059.ogg
320,192,201830,1,0,0:0:0:0:s_055.ogg
64,192,201910,1,0,0:0:0:0:m_055.ogg
192,192,201910,1,0,0:0:0:0:m_012.ogg
448,192,201910,1,0,0:0:0:0:m_051.ogg
320,192,201990,1,0,0:0:0:0:m_048.ogg
192,192,202070,1,0,0:0:0:0:s_043.ogg
64,192,202150,1,0,0:0:0:0:s_039.ogg
320,192,202150,1,0,0:0:0:0:s_043.ogg
448,192,202150,1,0,0:0:0:0:s_036.ogg
192,192,202390,1,0,0:0:0:0:m_038.ogg
320,192,202390,1,0,0:0:0:0:m_043.ogg
448,192,202390,1,0,0:0:0:0:m_035.ogg
64,192,202470,1,0,0:0:0:0:m_011.ogg
192,192,202550,1,0,0:0:0:0:m_014.ogg
64,192,202630,1,0,0:0:0:0:m_062.ogg
320,192,202630,1,0,0:0:0:0:m_019.ogg
448,192,202630,1,0,0:0:0:0:m_067.ogg
192,192,202710,1,0,0:0:0:0:m_023.ogg
320,192,202790,1,0,0:0:0:0:m_026.ogg
448,192,202870,1,0,0:0:0:0:s_031.ogg
64,192,202950,1,0,0:0:0:0:s_035.ogg
192,192,203030,1,0,0:0:0:0:s_038.ogg
64,192,203110,1,0,0:0:0:0:m_043.ogg
320,192,203110,1,0,0:0:0:0:m_058.ogg
448,192,203110,1,0,0:0:0:0:m_070.ogg
192,192,203190,1,0,0:0:0:0:m_047.ogg
320,192,203270,1,0,0:0:0:0:s_050.ogg
448,192,203350,1,0,0:0:0:0:s_055.ogg
320,192,203430,1,0,0:0:0:0:s_050.ogg
192,192,203510,1,0,0:0:0:0:s_047.ogg
64,192,203590,1,0,0:0:0:0:m_043.ogg
320,192,203590,1,0,0:0:0:0:m_056.ogg
448,192,203590,1,0,0:0:0:0:m_068.ogg
192,192,203670,1,0,0:0:0:0:m_038.ogg
64,192,203750,1,0,0:0:0:0:m_035.ogg
448,192,203830,1,0,0:0:0:0:m_031.ogg
320,192,203910,1,0,0:0:0:0:m_026.ogg
192,192,203990,1,0,0:0:0:0:m_023.ogg
64,192,204070,1,0,0:0:0:0:s_019.ogg
320,192,204070,1,0,0:0:0:0:s_055.ogg
448,192,204070,1,0,0:0:0:0:s_067.ogg
192,192,204150,1,0,0:0:0:0:s_014.ogg
64,192,204230,1,0,0:0:0:0:s_011.ogg
320,192,204310,1,0,0:0:0:0:m_024.ogg
448,192,204310,1,0,0:0:0:0:m_012.ogg
64,192,204390,1,0,0:0:0:0:m_031.ogg
192,192,204470,1,0,0:0:0:0:s_036.ogg
64,192,204550,1,0,0:0:0:0:m_036.ogg
320,192,204550,1,0,0:0:0:0:s_043.ogg
448,192,204550,1,0,0:0:0:0:m_039.ogg
192,192,204630,1,0,0:0:0:0:m_043.ogg
320,192,204710,1,0,0:0:0:0:m_048.ogg
64,192,204790,1,0,0:0:0:0:m_051.ogg
192,192,204790,1,0,0:0:0:0:m_015.ogg
448,192,204790,1,0,0:0:0:0:s_055.ogg
320,192,204870,1,0,0:0:0:0:m_055.ogg
448,192,204950,1,0,0:0:0:0:m_060.ogg
64,192,205030,1,0,0:0:0:0:s_063.ogg
192,192,205030,1,0,0:0:0:0:s_067.ogg
320,192,205030,1,0,0:0:0:0:s_039.ogg
448,192,205110,1,0,0:0:0:0:s_067.ogg
64,192,205190,1,0,0:0:0:0:s_072.ogg
192,192,205270,1,0,0:0:0:0:m_077.ogg
320,192,205270,1,0,0:0:0:0:m_079.ogg
448,192,205270,1,0,0:0:0:0:m_026.ogg
64,192,205350,1,0,0:0:0:0:m_071.ogg
448,192,205430,1,0,0:0:0:0:s_067.ogg
64,192,205510,1,0,0:0:0:0:s_065.ogg
192,192,205510,1,0,0:0:0:0:s_067.ogg
320,192,205510,1,0,0:0:0:0:s_038.ogg
448,192,205590,1,0,0:0:0:0:s_059.ogg
320,192,205670,1,0,0:0:0:0:s_055.ogg
64,192,205750,1,0,0:0:0:0:m_055.ogg
192,192,205750,1,0,0:0:0:0:m_012.ogg
448,192,205750,1,0,0:0:0:0:m_051.ogg
320,192,205830,1,0,0:0:0:0:m_048.ogg
192,192,205910,1,0,0:0:0:0:s_043.ogg
64,192,205990,1,0,0:0:0:0:s_039.ogg
320,192,205990,1,0,0:0:0:0:s_043.ogg
448,192,205990,1,0,0:0:0:0:s_036.ogg
64,192,206230,1,0,0:0:0:0:l_019.ogg
192,192,206230,1,0,0:0:0:0:l_026.ogg
320,192,206230,1,0,0:0:0:0:m_035.ogg
448,192,206230,1,0,0:0:0:0:s_043.ogg
64,192,206350,1,0,0:0:0:0:m_043.ogg
192,192,206350,1,0,0:0:0:0:m_055.ogg
320,192,206350,1,0,0:0:0:0:l_031.ogg
192,192,206470,1,0,0:0:0:0:m_056.ogg
320,192,206470,1,0,0:0:0:0:l_032.ogg
448,192,206470,1,0,0:0:0:0:m_044.ogg
64,192,206590,1,0,0:0:0:0:m_057.ogg
320,192,206590,1,0,0:0:0:0:m_033.ogg
448,192,206590,1,0,0:0:0:0:m_045.ogg
64,192,206710,1,0,0:0:0:0:m_034.ogg
192,192,206710,1,0,0:0:0:0:m_046.ogg
448,192,206710,1,0,0:0:0:0:m_058.ogg
64,192,206830,1,0,0:0:0:0:m_059.ogg
192,192,206830,1,0,0:0:0:0:m_035.ogg
320,192,206830,1,0,0:0:0:0:m_047.ogg
192,192,206950,1,0,0:0:0:0:m_036.ogg
320,192,206950,1,0,0:0:0:0:m_048.ogg
448,192,206950,1,0,0:0:0:0:m_060.ogg
64,192,207070,1,0,0:0:0:0:m_061.ogg
320,192,207070,1,0,0:0:0:0:m_037.ogg
448,192,207070,1,0,0:0:0:0:m_049.ogg
64,192,207190,1,0,0:0:0:0:m_050.ogg
192,192,207190,1,0,0:0:0:0:m_038.ogg
448,192,207190,1,0,0:0:0:0:m_062.ogg
64,192,207310,1,0,0:0:0:0:m_063.ogg
192,192,207310,1,0,0:0:0:0:m_039.ogg
320,192,207310,1,0,0:0:0:0:m_051.ogg
192,192,207430,1,0,0:0:0:0:m_052.ogg
320,192,207430,1,0,0:0:0:0:m_040.ogg
448,192,207430,1,0,0:0:0:0:m_064.ogg
64,192,207550,1,0,0:0:0:0:m_065.ogg
320,192,207550,1,0,0:0:0:0:m_053.ogg
448,192,207550,1,0,0:0:0:0:m_041.ogg
64,192,207670,1,0,0:0:0:0:m_066.ogg
192,192,207670,1,0,0:0:0:0:m_042.ogg
448,192,207670,1,0,0:0:0:0:m_054.ogg
64,192,207790,1,0,0:0:0:0:s_055.ogg
192,192,207790,1,0,0:0:0:0:s_043.ogg
320,192,207790,1,0,0:0:0:0:s_067.ogg
192,192,207910,1,0,0:0:0:0:s_056.ogg
320,192,207910,1,0,0:0:0:0:s_044.ogg
448,192,207910,1,0,0:0:0:0:s_068.ogg
64,192,208030,1,0,0:0:0:0:m_055.ogg
192,192,208030,1,0,0:0:0:0:m_043.ogg
320,192,208030,1,0,0:0:0:0:m_067.ogg
192,192,208270,1,0,0:0:0:0:m_028.ogg
320,192,208270,1,0,0:0:0:0:m_031.ogg
448,192,208270,1,0,0:0:0:0:m_036.ogg
64,192,208350,1,0,0:0:0:0:m_040.ogg
192,192,208430,1,0,0:0:0:0:m_043.ogg
320,192,208510,1,0,0:0:0:0:s_048.ogg
448,192,208510,1,0,0:0:0:0:m_016.ogg
192,192,208590,1,0,0:0:0:0:m_048.ogg
320,192,208670,1,0,0:0:0:0:m_052.ogg
64,192,208750,1,0,0:0:0:0:m_058.ogg
192,192,208750,1,0,0:0:0:0:m_037.ogg
448,192,208750,1,0,0:0:0:0:s_061.ogg
320,192,208830,1,0,0:0:0:0:m_061.ogg
448,192,208910,1,0,0:0:0:0:s_064.ogg
64,192,208990,1,0,0:0:0:0:s_070.ogg
192,192,208990,1,0,0:0:0:0:s_073.ogg
320,192,208990,1,0,0:0:0:0:s_024.ogg
448,192,209070,1,0,0:0:0:0:s_064.ogg
320,192,209150,1,0,0:0:0:0:s_061.ogg
64,192,209230,1,0,0:0:0:0:m_072.ogg
192,192,209230,1,0,0:0:0:0:m_032.ogg
448,192,209230,1,0,0:0:0:0:m_068.ogg
320,192,209310,1,0,0:0:0:0:m_064.ogg
192,192,209390,1,0,0:0:0:0:s_060.ogg
64,192,209470,1,0,0:0:0:0:s_016.ogg
320,192,209470,1,0,0:0:0:0:s_056.ogg
448,192,209470,1,0,0:0:0:0:s_060.ogg
192,192,209550,1,0,0:0:0:0:s_052.ogg
64,192,209630,1,0,0:0:0:0:s_048.ogg
192,192,209710,1,0,0:0:0:0:m_058.ogg
320,192,209710,1,0,0:0:0:0:m_055.ogg
448,192,209710,1,0,0:0:0:0:m_031.ogg
64,192,209790,1,0,0:0:0:0:m_049.ogg
448,192,209870,1,0,0:0:0:0:m_048.ogg
64,192,209950,1,0,0:0:0:0:s_043.ogg
192,192,209950,1,0,0:0:0:0:s_046.ogg
320,192,209950,1,0,0:0:0:0:s_024.ogg
448,192,210030,1,0,0:0:0:0:s_037.ogg
320,192,210110,1,0,0:0:0:0:s_036.ogg
64,192,210190,1,0,0:0:0:0:s_044.ogg
192,192,210190,1,0,0:0:0:0:s_041.ogg
448,192,210190,1,0,0:0:0:0:s_032.ogg
64,192,210430,1,0,0:0:0:0:s_046.ogg
320,192,210430,1,0,0:0:0:0:s_037.ogg
448,192,210430,1,0,0:0:0:0:s_034.ogg
192,192,210510,1,0,0:0:0:0:s_053.ogg
320,192,210590,1,0,0:0:0:0:s_055.ogg
64,192,210670,1,0,0:0:0:0:s_041.ogg
192,192,210670,1,0,0:0:0:0:s_056.ogg
448,192,210670,1,0,0:0:0:0:s_053.ogg
320,192,210750,1,0,0:0:0:0:s_058.ogg
448,192,210830,1,0,0:0:0:0:s_060.ogg
64,192,210910,1,0,0:0:0:0:s_055.ogg
192,192,210910,1,0,0:0:0:0:s_049.ogg
320,192,210910,1,0,0:0:0:0:s_058.ogg
448,192,210990,1,0,0:0:0:0:s_065.ogg
64,192,211070,1,0,0:0:0:0:s_067.ogg
192,192,211150,1,0,0:0:0:0:s_065.ogg
320,192,211150,1,0,0:0:0:0:s_048.ogg
448,192,211150,1,0,0:0:0:0:s_056.ogg
64,192,211230,1,0,0:0:0:0:s_070.ogg
192,192,211310,1,0,0:0:0:0:s_072.ogg
64,192,211390,1,0,0:0:0:0:s_076.ogg
320,192,211390,1,0,0:0:0:0:s_061.ogg
448,192,211390,1,0,0:0:0:0:s_067.ogg
192,192,211470,1,0,0:0:0:0:s_077.ogg
320,192,211550,1,0,0:0:0:0:s_079.ogg
64,192,211630,1,0,0:0:0:0:s_068.ogg
192,192,211630,1,0,0:0:0:0:s_065.ogg
448,192,211630,1,0,0:0:0:0:s_072.ogg
192,192,212110,1,0,0:0:0:0:m_029.ogg
320,192,212110,1,0,0:0:0:0:m_034.ogg
448,192,212110,1,0,0:0:0:0:m_026.ogg
64,192,212190,1,0,0:0:0:0:m_038.ogg
192,192,212270,1,0,0:0:0:0:m_041.ogg
320,192,212350,1,0,0:0:0:0:s_046.ogg
448,192,212350,1,0,0:0:0:0:m_014.ogg
192,192,212430,1,0,0:0:0:0:m_046.ogg
320,192,212510,1,0,0:0:0:0:m_050.ogg
64,192,212590,1,0,0:0:0:0:s_059.ogg
192,192,212590,1,0,0:0:0:0:m_035.ogg
448,192,212590,1,0,0:0:0:0:m_056.ogg
320,192,212670,1,0,0:0:0:0:m_059.ogg
448,192,212750,1,0,0:0:0:0:s_062.ogg
64,192,212830,1,0,0:0:0:0:s_068.ogg
192,192,212830,1,0,0:0:0:0:s_071.ogg
320,192,212830,1,0,0:0:0:0:s_022.ogg
448,192,212910,1,0,0:0:0:0:s_062.ogg
320,192,212990,1,0,0:0:0:0:s_059.ogg
64,192,213070,1,0,0:0:0:0:m_070.ogg
192,192,213070,1,0,0:0:0:0:m_031.ogg
448,192,213070,1,0,0:0:0:0:m_067.ogg
320,192,213150,1,0,0:0:0:0:m_062.ogg
192,192,213230,1,0,0:0:0:0:s_058.ogg
64,192,213310,1,0,0:0:0:0:s_014.ogg
320,192,213310,1,0,0:0:0:0:s_055.ogg
448,192,213310,1,0,0:0:0:0:s_058.ogg
192,192,213390,1,0,0:0:0:0:s_050.ogg
64,192,213470,1,0,0:0:0:0:s_046.ogg
192,192,213550,1,0,0:0:0:0:m_053.ogg
320,192,213550,1,0,0:0:0:0:m_056.ogg
448,192,213550,1,0,0:0:0:0:m_029.ogg
64,192,213630,1,0,0:0:0:0:m_047.ogg
448,192,213710,1,0,0:0:0:0:m_046.ogg
64,192,213790,1,0,0:0:0:0:s_041.ogg
192,192,213790,1,0,0:0:0:0:s_044.ogg
320,192,213790,1,0,0:0:0:0:s_022.ogg
448,192,213870,1,0,0:0:0:0:s_035.ogg
320,192,213950,1,0,0:0:0:0:s_034.ogg
64,192,214030,1,0,0:0:0:0:s_043.ogg
192,192,214030,1,0,0:0:0:0:s_039.ogg
448,192,214030,1,0,0:0:0:0:s_015.ogg
64,192,214270,1,0,0:0:0:0:s_044.ogg
320,192,214270,1,0,0:0:0:0:s_050.ogg
448,192,214270,1,0,0:0:0:0:s_035.ogg
192,192,214350,1,0,0:0:0:0:s_051.ogg
320,192,214430,1,0,0:0:0:0:s_053.ogg
64,192,214510,1,0,0:0:0:0:s_051.ogg
192,192,214510,1,0,0:0:0:0:s_039.ogg
448,192,214510,1,0,0:0:0:0:s_055.ogg
320,192,214590,1,0,0:0:0:0:s_056.ogg
448,192,214670,1,0,0:0:0:0:s_058.ogg
64,192,214750,1,0,0:0:0:0:s_056.ogg
192,192,214750,1,0,0:0:0:0:s_062.ogg
320,192,214750,1,0,0:0:0:0:s_044.ogg
448,192,214830,1,0,0:0:0:0:s_063.ogg
64,192,214910,1,0,0:0:0:0:s_065.ogg
192,192,214990,1,0,0:0:0:0:s_063.ogg
320,192,214990,1,0,0:0:0:0:s_067.ogg
448,192,214990,1,0,0:0:0:0:s_051.ogg
64,192,215070,1,0,0:0:0:0:s_068.ogg
192,192,215150,1,0,0:0:0:0:s_070.ogg
64,192,215230,1,0,0:0:0:0:s_068.ogg
320,192,215230,1,0,0:0:0:0:s_074.ogg
448,192,215230,1,0,0:0:0:0:s_056.ogg
192,192,215310,1,0,0:0:0:0:s_075.ogg
320,192,215390,1,0,0:0:0:0:s_077.ogg
64,192,215470,1,0,0:0:0:0:s_070.ogg
192,192,215470,1,0,0:0:0:0:s_075.ogg
448,192,215470,1,0,0:0:0:0:s_079.ogg
64,192,215710,1,0,0:0:0:0:s_039.ogg
320,192,215710,1,0,0:0:0:0:s_027.ogg
192,192,215790,1,0,0:0:0:0:s_041.ogg
448,192,215790,1,0,0:0:0:0:s_029.ogg
64,192,215870,1,0,0:0:0:0:s_043.ogg
320,192,215870,1,0,0:0:0:0:s_031.ogg
192,192,215950,1,0,0:0:0:0:m_044.ogg
448,192,215950,1,0,0:0:0:0:m_020.ogg
192,192,216190,1,0,0:0:0:0:m_056.ogg
320,192,216190,1,0,0:0:0:0:s_038.ogg
448,192,216190,1,0,0:0:0:0:m_068.ogg
64,192,216430,1,0,0:0:0:0:s_050.ogg
192,192,216430,1,0,0:0:0:0:s_062.ogg
320,192,216430,1,0,0:0:0:0:s_038.ogg
64,192,216670,1,0,0:0:0:0:s_038.ogg
320,192,216670,1,0,0:0:0:0:s_026.ogg
448,192,216670,1,0,0:0:0:0:s_014.ogg
192,192,216750,1,0,0:0:0:0:s_039.ogg
320,192,216830,1,0,0:0:0:0:s_041.ogg
64,192,216910,1,0,0:0:0:0:m_018.ogg
192,192,216910,1,0,0:0:0:0:m_030.ogg
448,192,216910,1,0,0:0:0:0:m_042.ogg
192,192,217150,1,0,0:0:0:0:m_054.ogg
320,192,217150,1,0,0:0:0:0:s_045.ogg
448,192,217150,1,0,0:0:0:0:m_066.ogg
64,192,217390,1,0,0:0:0:0:s_048.ogg
192,192,217390,1,0,0:0:0:0:s_045.ogg
320,192,217390,1,0,0:0:0:0:s_060.ogg
64,192,217630,1,0,0:0:0:0:s_036.ogg
320,192,217630,1,0,0:0:0:0:s_024.ogg
448,192,217630,1,0,0:0:0:0:s_012.ogg
192,192,217710,1,0,0:0:0:0:s_038.ogg
320,192,217790,1,0,0:0:0:0:s_039.ogg
64,192,217870,1,0,0:0:0:0:m_016.ogg
192,192,217870,1,0,0:0:0:0:m_028.ogg
448,192,217870,1,0,0:0:0:0:m_040.ogg
192,192,218110,1,0,0:0:0:0:s_043.ogg
320,192,218110,1,0,0:0:0:0:m_052.ogg
448,192,218110,1,0,0:0:0:0:m_064.ogg
64,192,218350,1,0,0:0:0:0:s_046.ogg
192,192,218350,1,0,0:0:0:0:s_043.ogg
320,192,218350,1,0,0:0:0:0:s_058.ogg
64,192,218590,1,0,0:0:0:0:s_034.ogg
320,192,218590,1,0,0:0:0:0:s_022.ogg
448,192,218590,1,0,0:0:0:0:s_010.ogg
192,192,218670,1,0,0:0:0:0:s_035.ogg
320,192,218750,1,0,0:0:0:0:s_037.ogg
64,192,218830,1,0,0:0:0:0:m_014.ogg
192,192,218830,1,0,0:0:0:0:m_026.ogg
448,192,218830,1,0,0:0:0:0:m_038.ogg
192,192,219070,1,0,0:0:0:0:m_050.ogg
320,192,219070,1,0,0:0:0:0:s_041.ogg
448,192,219070,1,0,0:0:0:0:m_062.ogg
64,192,219310,1,0,0:0:0:0:s_044.ogg
192,192,219310,1,0,0:0:0:0:s_041.ogg
320,192,219310,1,0,0:0:0:0:s_056.ogg
64,192,219550,1,0,0:0:0:0:s_032.ogg
320,192,219550,1,0,0:0:0:0:s_020.ogg
448,192,219550,1,0,0:0:0:0:s_008.ogg
192,192,219630,1,0,0:0:0:0:s_035.ogg
320,192,219710,1,0,0:0:0:0:s_037.ogg
64,192,219790,1,0,0:0:0:0:m_014.ogg
192,192,219790,1,0,0:0:0:0:m_026.ogg
448,192,219790,1,0,0:0:0:0:m_038.ogg
192,192,220030,1,0,0:0:0:0:m_050.ogg
320,192,220030,1,0,0:0:0:0:s_041.ogg
448,192,220030,1,0,0:0:0:0:m_062.ogg
64,192,220270,1,0,0:0:0:0:s_044.ogg
192,192,220270,1,0,0:0:0:0:s_041.ogg
320,192,220270,1,0,0:0:0:0:s_056.ogg
64,192,220510,1,0,0:0:0:0:s_032.ogg
320,192,220510,1,0,0:0:0:0:s_020.ogg
448,192,220510,1,0,0:0:0:0:s_008.ogg
192,192,220590,1,0,0:0:0:0:s_036.ogg
320,192,220670,1,0,0:0:0:0:s_037.ogg
64,192,220750,1,0,0:0:0:0:m_014.ogg
192,192,220750,1,0,0:0:0:0:m_026.ogg
448,192,220750,1,0,0:0:0:0:m_038.ogg
192,192,220990,1,0,0:0:0:0:m_050.ogg
320,192,220990,1,0,0:0:0:0:s_032.ogg
448,192,220990,1,0,0:0:0:0:m_062.ogg
64,192,221230,1,0,0:0:0:0:s_044.ogg
192,192,221230,1,0,0:0:0:0:s_032.ogg
320,192,221230,1,0,0:0:0:0:s_056.ogg
192,192,221470,1,0,0:0:0:0:s_036.ogg
448,192,221470,1,0,0:0:0:0:s_024.ogg
64,192,221550,1,0,0:0:0:0:s_034.ogg
320,192,221550,1,0,0:0:0:0:s_022.ogg
192,192,221630,1,0,0:0:0:0:s_032.ogg
448,192,221630,1,0,0:0:0:0:s_020.ogg
320,192,221710,1,0,0:0:0:0:m_019.ogg
64,192,221710,128,0,222550:0:0:0:0:m_031.ogg
192,192,222190,1,0,0:0:0:0:m_062.ogg
320,192,222190,1,0,0:0:0:0:m_060.ogg
448,192,222190,1,0,0:0:0:0:m_055.ogg
64,192,222670,1,0,0:0:0:0:m_043.ogg
448,192,222670,128,0,223510:0:0:0:0:m_019.ogg
64,192,223150,1,0,0:0:0:0:m_055.ogg
192,192,223150,1,0,0:0:0:0:m_067.ogg
320,192,223150,1,0,0:0:0:0:m_062.ogg
192,192,223630,1,0,0:0:0:0:m_015.ogg
320,192,223630,1,0,0:0:0:0:m_024.ogg
448,192,223630,1,0,0:0:0:0:m_012.ogg
64,192,223710,1,0,0:0:0:0:m_031.ogg
192,192,223790,1,0,0:0:0:0:s_036.ogg
320,192,223870,1,0,0:0:0:0:s_043.ogg
448,192,223870,1,0,0:0:0:0:m_039.ogg
192,192,223950,1,0,0:0:0:0:m_043.ogg
64,192,223990,1,0,0:0:0:0:s_036.ogg
320,192,224030,1,0,0:0:0:0:m_048.ogg
64,192,224110,1,0,0:0:0:0:s_055.ogg
192,192,224110,1,0,0:0:0:0:m_036.ogg
448,192,224110,1,0,0:0:0:0:m_051.ogg
320,192,224190,1,0,0:0:0:0:m_055.ogg
192,192,224230,1,0,0:0:0:0:m_039.ogg
448,192,224270,1,0,0:0:0:0:m_060.ogg
64,192,224350,1,0,0:0:0:0:s_063.ogg
192,192,224350,1,0,0:0:0:0:s_067.ogg
320,192,224350,1,0,0:0:0:0:s_038.ogg
448,192,224430,1,0,0:0:0:0:s_067.ogg
320,192,224470,1,0,0:0:0:0:s_036.ogg
64,192,224510,1,0,0:0:0:0:s_072.ogg
192,192,224590,1,0,0:0:0:0:m_075.ogg
320,192,224590,1,0,0:0:0:0:m_079.ogg
448,192,224590,1,0,0:0:0:0:m_043.ogg
64,192,224670,1,0,0:0:0:0:m_072.ogg
448,192,224750,1,0,0:0:0:0:s_067.ogg
64,192,224830,1,0,0:0:0:0:s_067.ogg
192,192,224830,1,0,0:0:0:0:s_063.ogg
448,192,224910,1,0,0:0:0:0:s_060.ogg
64,192,224950,1,0,0:0:0:0:s_019.ogg
320,192,224990,1,0,0:0:0:0:s_055.ogg
64,192,225070,1,0,0:0:0:0:m_055.ogg
192,192,225070,1,0,0:0:0:0:m_019.ogg
448,192,225070,1,0,0:0:0:0:m_051.ogg
320,192,225150,1,0,0:0:0:0:m_048.ogg
448,192,225190,1,0,0:0:0:0:m_022.ogg
192,192,225230,1,0,0:0:0:0:s_043.ogg
64,192,225310,1,0,0:0:0:0:s_020.ogg
320,192,225310,1,0,0:0:0:0:s_039.ogg
448,192,225310,1,0,0:0:0:0:s_043.ogg
192,192,225390,1,0,0:0:0:0:s_036.ogg
320,192,225430,1,0,0:0:0:0:s_019.ogg
64,192,225470,1,0,0:0:0:0:s_031.ogg
192,192,225550,1,0,0:0:0:0:m_016.ogg
320,192,225550,1,0,0:0:0:0:m_024.ogg
448,192,225550,1,0,0:0:0:0:m_012.ogg
64,192,225630,1,0,0:0:0:0:m_031.ogg
192,192,225710,1,0,0:0:0:0:s_036.ogg
320,192,225790,1,0,0:0:0:0:s_043.ogg
448,192,225790,1,0,0:0:0:0:m_040.ogg
192,192,225870,1,0,0:0:0:0:m_043.ogg
64,192,225910,1,0,0:0:0:0:s_036.ogg
320,192,225950,1,0,0:0:0:0:m_048.ogg
64,192,226030,1,0,0:0:0:0:s_055.ogg
192,192,226030,1,0,0:0:0:0:m_036.ogg
448,192,226030,1,0,0:0:0:0:m_052.ogg
320,192,226110,1,0,0:0:0:0:m_055.ogg
192,192,226150,1,0,0:0:0:0:m_039.ogg
448,192,226190,1,0,0:0:0:0:m_060.ogg
64,192,226270,1,0,0:0:0:0:s_067.ogg
192,192,226270,1,0,0:0:0:0:s_064.ogg
320,192,226270,1,0,0:0:0:0:s_037.ogg
448,192,226350,1,0,0:0:0:0:s_067.ogg
320,192,226390,1,0,0:0:0:0:s_036.ogg
64,192,226430,1,0,0:0:0:0:s_072.ogg
192,192,226510,1,0,0:0:0:0:m_079.ogg
320,192,226510,1,0,0:0:0:0:m_076.ogg
448,192,226510,1,0,0:0:0:0:m_046.ogg
64,192,226590,1,0,0:0:0:0:m_072.ogg
448,192,226670,1,0,0:0:0:0:s_067.ogg
64,192,226750,1,0,0:0:0:0:s_067.ogg
192,192,226750,1,0,0:0:0:0:s_064.ogg
448,192,226830,1,0,0:0:0:0:s_060.ogg
64,192,226870,1,0,0:0:0:0:s_024.ogg
320,192,226910,1,0,0:0:0:0:s_055.ogg
64,192,226990,1,0,0:0:0:0:m_055.ogg
192,192,226990,1,0,0:0:0:0:m_024.ogg
448,192,226990,1,0,0:0:0:0:m_052.ogg
320,192,227070,1,0,0:0:0:0:m_048.ogg
448,192,227110,1,0,0:0:0:0:m_027.ogg
192,192,227150,1,0,0:0:0:0:s_043.ogg
64,192,227230,1,0,0:0:0:0:s_025.ogg
320,192,227230,1,0,0:0:0:0:s_040.ogg
448,192,227230,1,0,0:0:0:0:s_043.ogg
192,192,227310,1,0,0:0:0:0:s_036.ogg
320,192,227350,1,0,0:0:0:0:s_024.ogg
64,192,227390,1,0,0:0:0:0:s_031.ogg
192,192,227470,1,0,0:0:0:0:m_020.ogg
320,192,227470,1,0,0:0:0:0:m_024.ogg
448,192,227470,1,0,0:0:0:0:m_029.ogg
64,192,227550,1,0,0:0:0:0:m_032.ogg
192,192,227630,1,0,0:0:0:0:s_036.ogg
320,192,227710,1,0,0:0:0:0:s_044.ogg
448,192,227710,1,0,0:0:0:0:m_041.ogg
192,192,227790,1,0,0:0:0:0:m_044.ogg
64,192,227830,1,0,0:0:0:0:s_036.ogg
320,192,227870,1,0,0:0:0:0:m_048.ogg
64,192,227950,1,0,0:0:0:0:s_056.ogg
192,192,227950,1,0,0:0:0:0:m_036.ogg
448,192,227950,1,0,0:0:0:0:m_053.ogg
320,192,228030,1,0,0:0:0:0:m_056.ogg
192,192,228070,1,0,0:0:0:0:m_039.ogg
448,192,228110,1,0,0:0:0:0:m_060.ogg
64,192,228190,1,0,0:0:0:0:s_068.ogg
192,192,228190,1,0,0:0:0:0:s_065.ogg
320,192,228190,1,0,0:0:0:0:s_037.ogg
448,192,228270,1,0,0:0:0:0:s_068.ogg
320,192,228310,1,0,0:0:0:0:s_036.ogg
64,192,228350,1,0,0:0:0:0:s_072.ogg
192,192,228430,1,0,0:0:0:0:m_080.ogg
320,192,228430,1,0,0:0:0:0:m_077.ogg
448,192,228430,1,0,0:0:0:0:m_044.ogg
64,192,228510,1,0,0:0:0:0:m_072.ogg
448,192,228590,1,0,0:0:0:0:s_068.ogg
64,192,228670,1,0,0:0:0:0:s_068.ogg
192,192,228670,1,0,0:0:0:0:s_065.ogg
448,192,228750,1,0,0:0:0:0:s_060.ogg
64,192,228790,1,0,0:0:0:0:s_017.ogg
320,192,228830,1,0,0:0:0:0:s_056.ogg
64,192,228910,1,0,0:0:0:0:m_056.ogg
192,192,228910,1,0,0:0:0:0:s_017.ogg
448,192,228910,1,0,0:0:0:0:m_053.ogg
320,192,228990,1,0,0:0:0:0:m_048.ogg
448,192,229030,1,0,0:0:0:0:m_016.ogg
192,192,229070,1,0,0:0:0:0:s_044.ogg
64,192,229150,1,0,0:0:0:0:s_017.ogg
320,192,229150,1,0,0:0:0:0:s_041.ogg
448,192,229150,1,0,0:0:0:0:s_044.ogg
192,192,229230,1,0,0:0:0:0:s_036.ogg
320,192,229270,1,0,0:0:0:0:s_019.ogg
64,192,229310,1,0,0:0:0:0:s_032.ogg
192,192,229390,1,0,0:0:0:0:m_032.ogg
448,192,229390,128,0,229750:0:0:0:0:m_020.ogg
320,192,229630,1,0,0:0:0:0:m_062.ogg
192,192,229630,128,0,229990:0:0:0:0:m_050.ogg
64,192,229630,128,0,229990:0:0:0:0:m_053.ogg
448,192,229870,1,0,0:0:0:0:m_023.ogg
320,192,229870,128,0,230230:0:0:0:0:m_035.ogg
64,192,230110,1,0,0:0:0:0:s_053.ogg
192,192,230110,1,0,0:0:0:0:s_056.ogg
448,192,230110,1,0,0:0:0:0:s_065.ogg
320,192,230350,1,0,0:0:0:0:m_038.ogg
64,192,230350,128,0,230710:0:0:0:0:m_026.ogg
192,192,230590,1,0,0:0:0:0:m_059.ogg
320,192,230590,128,0,230950:0:0:0:0:m_056.ogg
448,192,230590,128,0,230950:0:0:0:0:m_068.ogg
64,192,230830,1,0,0:0:0:0:m_031.ogg
192,192,230830,128,0,231190:0:0:0:0:m_019.ogg
64,192,231070,1,0,0:0:0:0:s_035.ogg
320,192,231070,1,0,0:0:0:0:s_059.ogg
448,192,231070,1,0,0:0:0:0:s_055.ogg
192,192,231310,1,0,0:0:0:0:m_015.ogg
320,192,231310,1,0,0:0:0:0:m_024.ogg
448,192,231310,1,0,0:0:0:0:m_012.ogg
64,192,231390,1,0,0:0:0:0:m_031.ogg
192,192,231470,1,0,0:0:0:0:s_036.ogg
320,192,231550,1,0,0:0:0:0:s_043.ogg
448,192,231550,1,0,0:0:0:0:m_039.ogg
192,192,231630,1,0,0:0:0:0:m_043.ogg
64,192,231670,1,0,0:0:0:0:s_036.ogg
320,192,231710,1,0,0:0:0:0:m_048.ogg
64,192,231790,1,0,0:0:0:0:s_055.ogg
192,192,231790,1,0,0:0:0:0:m_036.ogg
448,192,231790,1,0,0:0:0:0:m_051.ogg
320,192,231870,1,0,0:0:0:0:m_055.ogg
192,192,231910,1,0,0:0:0:0:m_039.ogg
448,192,231950,1,0,0:0:0:0:m_060.ogg
64,192,232030,1,0,0:0:0:0:s_067.ogg
192,192,232030,1,0,0:0:0:0:s_063.ogg
320,192,232030,1,0,0:0:0:0:s_038.ogg
448,192,232110,1,0,0:0:0:0:s_067.ogg
320,192,232150,1,0,0:0:0:0:s_036.ogg
64,192,232190,1,0,0:0:0:0:s_072.ogg
192,192,232270,1,0,0:0:0:0:m_079.ogg
320,192,232270,1,0,0:0:0:0:m_075.ogg
448,192,232270,1,0,0:0:0:0:m_043.ogg
64,192,232350,1,0,0:0:0:0:m_072.ogg
448,192,232430,1,0,0:0:0:0:s_067.ogg
64,192,232510,1,0,0:0:0:0:s_067.ogg
192,192,232510,1,0,0:0:0:0:s_063.ogg
448,192,232590,1,0,0:0:0:0:s_060.ogg
64,192,232630,1,0,0:0:0:0:s_019.ogg
320,192,232670,1,0,0:0:0:0:s_055.ogg
64,192,232750,1,0,0:0:0:0:m_055.ogg
192,192,232750,1,0,0:0:0:0:m_019.ogg
448,192,232750,1,0,0:0:0:0:m_051.ogg
320,192,232830,1,0,0:0:0:0:m_048.ogg
448,192,232870,1,0,0:0:0:0:m_022.ogg
192,192,232910,1,0,0:0:0:0:s_043.ogg
64,192,232990,1,0,0:0:0:0:s_020.ogg
320,192,232990,1,0,0:0:0:0:s_043.ogg
448,192,232990,1,0,0:0:0:0:s_039.ogg
192,192,233070,1,0,0:0:0:0:s_036.ogg
320,192,233110,1,0,0:0:0:0:s_019.ogg
64,192,233150,1,0,0:0:0:0:s_031.ogg
192,192,233230,1,0,0:0:0:0:m_016.ogg
320,192,233230,1,0,0:0:0:0:m_024.ogg
448,192,233230,1,0,0:0:0:0:m_012.ogg
64,192,233310,1,0,0:0:0:0:m_031.ogg
192,192,233390,1,0,0:0:0:0:s_036.ogg
320,192,233470,1,0,0:0:0:0:s_043.ogg
448,192,233470,1,0,0:0:0:0:m_040.ogg
192,192,233550,1,0,0:0:0:0:m_043.ogg
64,192,233590,1,0,0:0:0:0:s_036.ogg
320,192,233630,1,0,0:0:0:0:m_048.ogg
64,192,233710,1,0,0:0:0:0:s_055.ogg
192,192,233710,1,0,0:0:0:0:m_036.ogg
448,192,233710,1,0,0:0:0:0:m_052.ogg
320,192,233790,1,0,0:0:0:0:m_055.ogg
192,192,233830,1,0,0:0:0:0:m_039.ogg
448,192,233870,1,0,0:0:0:0:m_060.ogg
64,192,233950,1,0,0:0:0:0:s_067.ogg
192,192,233950,1,0,0:0:0:0:s_064.ogg
320,192,233950,1,0,0:0:0:0:s_037.ogg
448,192,234030,1,0,0:0:0:0:s_067.ogg
320,192,234070,1,0,0:0:0:0:s_036.ogg
64,192,234110,1,0,0:0:0:0:s_072.ogg
192,192,234190,1,0,0:0:0:0:m_076.ogg
320,192,234190,1,0,0:0:0:0:m_079.ogg
448,192,234190,1,0,0:0:0:0:m_046.ogg
64,192,234270,1,0,0:0:0:0:m_072.ogg
448,192,234350,1,0,0:0:0:0:s_067.ogg
64,192,234430,1,0,0:0:0:0:s_067.ogg
192,192,234430,1,0,0:0:0:0:s_064.ogg
448,192,234510,1,0,0:0:0:0:s_060.ogg
64,192,234550,1,0,0:0:0:0:s_024.ogg
320,192,234590,1,0,0:0:0:0:s_055.ogg
64,192,234670,1,0,0:0:0:0:m_055.ogg
192,192,234670,1,0,0:0:0:0:m_024.ogg
448,192,234670,1,0,0:0:0:0:m_052.ogg
320,192,234750,1,0,0:0:0:0:m_048.ogg
448,192,234790,1,0,0:0:0:0:m_027.ogg
192,192,234830,1,0,0:0:0:0:s_043.ogg
64,192,234910,1,0,0:0:0:0:s_025.ogg
320,192,234910,1,0,0:0:0:0:s_040.ogg
448,192,234910,1,0,0:0:0:0:s_043.ogg
192,192,234990,1,0,0:0:0:0:s_036.ogg
320,192,235030,1,0,0:0:0:0:s_024.ogg
64,192,235070,1,0,0:0:0:0:s_031.ogg
192,192,235150,1,0,0:0:0:0:m_020.ogg
320,192,235150,1,0,0:0:0:0:m_024.ogg
448,192,235150,1,0,0:0:0:0:m_029.ogg
64,192,235230,1,0,0:0:0:0:m_032.ogg
192,192,235310,1,0,0:0:0:0:s_036.ogg
320,192,235390,1,0,0:0:0:0:s_044.ogg
448,192,235390,1,0,0:0:0:0:m_041.ogg
192,192,235470,1,0,0:0:0:0:m_044.ogg
64,192,235510,1,0,0:0:0:0:s_036.ogg
320,192,235550,1,0,0:0:0:0:m_048.ogg
64,192,235630,1,0,0:0:0:0:s_056.ogg
192,192,235630,1,0,0:0:0:0:m_036.ogg
448,192,235630,1,0,0:0:0:0:m_053.ogg
320,192,235710,1,0,0:0:0:0:m_056.ogg
192,192,235750,1,0,0:0:0:0:m_039.ogg
448,192,235790,1,0,0:0:0:0:m_060.ogg
64,192,235870,1,0,0:0:0:0:s_068.ogg
192,192,235870,1,0,0:0:0:0:s_065.ogg
320,192,235870,1,0,0:0:0:0:s_037.ogg
448,192,235950,1,0,0:0:0:0:s_068.ogg
320,192,235990,1,0,0:0:0:0:s_036.ogg
64,192,236030,1,0,0:0:0:0:s_072.ogg
192,192,236110,1,0,0:0:0:0:m_077.ogg
320,192,236110,1,0,0:0:0:0:m_080.ogg
448,192,236110,1,0,0:0:0:0:m_044.ogg
64,192,236190,1,0,0:0:0:0:m_072.ogg
448,192,236270,1,0,0:0:0:0:s_068.ogg
64,192,236350,1,0,0:0:0:0:s_068.ogg
192,192,236350,1,0,0:0:0:0:s_065.ogg
448,192,236430,1,0,0:0:0:0:s_060.ogg
64,192,236470,1,0,0:0:0:0:s_017.ogg
320,192,236510,1,0,0:0:0:0:s_056.ogg
64,192,236590,1,0,0:0:0:0:m_056.ogg
192,192,236590,1,0,0:0:0:0:s_017.ogg
448,192,236590,1,0,0:0:0:0:m_053.ogg
320,192,236670,1,0,0:0:0:0:m_048.ogg
448,192,236710,1,0,0:0:0:0:m_016.ogg
192,192,236750,1,0,0:0:0:0:s_044.ogg
64,192,236830,1,0,0:0:0:0:s_017.ogg
320,192,236830,1,0,0:0:0:0:s_041.ogg
448,192,236830,1,0,0:0:0:0:s_044.ogg
192,192,236910,1,0,0:0:0:0:s_036.ogg
320,192,236950,1,0,0:0:0:0:s_019.ogg
64,192,236990,1,0,0:0:0:0:s_032.ogg
192,192,237070,1,0,0:0:0:0:m_020.ogg
448,192,237070,128,0,237430:0:0:0:0:m_032.ogg
320,192,237310,1,0,0:0:0:0:m_062.ogg
192,192,237310,128,0,237670:0:0:0:0:m_050.ogg
64,192,237310,128,0,237670:0:0:0:0:m_053.ogg
448,192,237550,1,0,0:0:0:0:m_035.ogg
320,192,237550,128,0,237910:0:0:0:0:m_023.ogg
64,192,237790,1,0,0:0:0:0:s_056.ogg
192,192,237790,1,0,0:0:0:0:s_053.ogg
448,192,237790,1,0,0:0:0:0:s_065.ogg
320,192,238030,1,0,0:0:0:0:m_038.ogg
64,192,238030,128,0,238390:0:0:0:0:m_026.ogg
192,192,238270,1,0,0:0:0:0:m_059.ogg
448,192,238270,128,0,238630:0:0:0:0:m_068.ogg
320,192,238270,128,0,238630:0:0:0:0:m_056.ogg
64,192,238510,1,0,0:0:0:0:m_031.ogg
192,192,238510,128,0,238870:0:0:0:0:m_019.ogg
64,192,238750,1,0,0:0:0:0:s_059.ogg
320,192,238750,1,0,0:0:0:0:s_055.ogg
448,192,238750,1,0,0:0:0:0:s_067.ogg
64,192,238990,128,0,239230:0:0:0:0:s_024.ogg
192,192,239070,128,0,239310:0:0:0:0:s_028.ogg
320,192,239150,128,0,239390:0:0:0:0:s_031.ogg
448,192,239230,128,0,239470:0:0:0:0:s_036.ogg
64,192,239310,128,0,239550:0:0:0:0:s_040.ogg
192,192,239390,128,0,239630:0:0:0:0:s_043.ogg
320,192,239470,128,0,239710:0:0:0:0:s_048.ogg
448,192,239550,128,0,239790:0:0:0:0:s_052.ogg
64,192,239630,128,0,239870:0:0:0:0:s_055.ogg
192,192,239710,128,0,240110:0:0:0:0:s_060.ogg
320,192,239790,128,0,240030:0:0:0:0:m_064.ogg
448,192,239870,128,0,239950:0:0:0:0:s_067.ogg
64,192,239950,128,0,240190:0:0:0:0:m_072.ogg
448,192,240030,128,0,240270:0:0:0:0:m_067.ogg
320,192,240110,128,0,240350:0:0:0:0:m_064.ogg
192,192,240190,128,0,240430:0:0:0:0:m_060.ogg
64,192,240270,128,0,240510:0:0:0:0:m_055.ogg
448,192,240350,128,0,240590:0:0:0:0:m_052.ogg
320,192,240430,128,0,240670:0:0:0:0:m_048.ogg
192,192,240510,128,0,240750:0:0:0:0:m_043.ogg
64,192,240590,128,0,240830:0:0:0:0:m_040.ogg
448,192,240670,128,0,240910:0:0:0:0:s_036.ogg
320,192,240750,128,0,240910:0:0:0:0:s_031.ogg
192,192,240830,128,0,240910:0:0:0:0:s_028.ogg
64,192,240910,128,0,241150:0:0:0:0:s_024.ogg
192,192,240990,128,0,241230:0:0:0:0:s_028.ogg
320,192,241070,128,0,241310:0:0:0:0:s_031.ogg
448,192,241150,128,0,241390:0:0:0:0:s_036.ogg
64,192,241230,128,0,241470:0:0:0:0:s_040.ogg
192,192,241310,128,0,241550:0:0:0:0:s_043.ogg
320,192,241390,128,0,241630:0:0:0:0:s_048.ogg
448,192,241470,128,0,241690:0:0:0:0:s_052.ogg
64,192,241550,128,0,241750:0:0:0:0:s_055.ogg
192,192,241630,128,0,241810:0:0:0:0:s_060.ogg
320,192,241690,128,0,241990:0:0:0:0:s_064.ogg
448,192,241750,128,0,241930:0:0:0:0:s_067.ogg
64,192,241810,128,0,241870:0:0:0:0:s_072.ogg
192,192,241870,128,0,242050:0:0:0:0:m_076.ogg
64,192,241930,128,0,242110:0:0:0:0:m_072.ogg
448,192,241990,128,0,242190:0:0:0:0:m_067.ogg
320,192,242050,128,0,242270:0:0:0:0:m_064.ogg
192,192,242110,128,0,242350:0:0:0:0:m_060.ogg
64,192,242190,128,0,242430:0:0:0:0:m_055.ogg
448,192,242270,128,0,242510:0:0:0:0:m_052.ogg
320,192,242350,128,0,242590:0:0:0:0:m_048.ogg
192,192,242430,128,0,242670:0:0:0:0:m_043.ogg
64,192,242510,128,0,242750:0:0:0:0:m_040.ogg
448,192,242590,128,0,242830:0:0:0:0:s_036.ogg
320,192,242670,128,0,242830:0:0:0:0:s_031.ogg
192,192,242750,128,0,242830:0:0:0:0:s_028.ogg
64,192,242830,128,0,243070:0:0:0:0:s_024.ogg
192,192,242910,128,0,243150:0:0:0:0:s_028.ogg
320,192,242990,128,0,243230:0:0:0:0:s_031.ogg
448,192,243070,128,0,243310:0:0:0:0:s_036.ogg
64,192,243150,128,0,243390:0:0:0:0:s_040.ogg
192,192,243230,128,0,243470:0:0:0:0:s_043.ogg
320,192,243310,128,0,243550:0:0:0:0:s_048.ogg
448,192,243390,128,0,243630:0:0:0:0:s_052.ogg
64,192,243470,128,0,243710:0:0:0:0:s_055.ogg
192,192,243550,128,0,243790:0:0:0:0:s_060.ogg
320,192,243630,128,0,243890:0:0:0:0:s_064.ogg
448,192,243710,128,0,244290:0:0:0:0:m_067.ogg
64,192,243790,128,0,244190:0:0:0:0:m_072.ogg
192,192,243890,128,0,244090:0:0:0:0:m_076.ogg
320,192,243990,1,0,0:0:0:0:m_080.ogg
320,192,244090,128,0,244370:0:0:0:0:m_079.ogg
192,192,244190,128,0,244450:0:0:0:0:m_076.ogg
64,192,244290,128,0,244530:0:0:0:0:m_072.ogg
448,192,244370,128,0,244610:0:0:0:0:m_067.ogg
320,192,244450,128,0,244690:0:0:0:0:m_064.ogg
192,192,244530,128,0,244770:0:0:0:0:m_060.ogg
64,192,244610,128,0,244850:0:0:0:0:m_055.ogg
448,192,244690,128,0,244930:0:0:0:0:m_052.ogg
320,192,244770,128,0,245010:0:0:0:0:m_048.ogg
192,192,244850,128,0,245090:0:0:0:0:m_043.ogg
64,192,244930,128,0,245170:0:0:0:0:m_040.ogg
448,192,245010,128,0,245250:0:0:0:0:s_036.ogg
320,192,245090,128,0,245170:0:0:0:0:s_031.ogg
192,192,245170,128,0,245250:0:0:0:0:s_028.ogg
64,192,245250,1,0,0:0:0:0:s_024.ogg
320,192,245250,1,0,0:0:0:0:s_012.ogg
192,192,245310,1,0,0:0:0:0:s_025.ogg
448,192,245310,1,0,0:0:0:0:s_013.ogg
64,192,245370,1,0,0:0:0:0:s_024.ogg
320,192,245370,1,0,0:0:0:0:s_012.ogg
192,192,245430,1,0,0:0:0:0:s_025.ogg
448,192,245430,1,0,0:0:0:0:s_013.ogg
64,192,245490,1,0,0:0:0:0:s_024.ogg
320,192,245490,1,0,0:0:0:0:s_012.ogg
192,192,245550,1,0,0:0:0:0:s_025.ogg
448,192,245550,1,0,0:0:0:0:s_013.ogg
64,192,245610,1,0,0:0:0:0:s_024.ogg
320,192,245610,1,0,0:0:0:0:s_012.ogg
192,192,245670,1,0,0:0:0:0:s_025.ogg
448,192,245670,1,0,0:0:0:0:s_013.ogg
64,192,245730,1,0,0:0:0:0:s_024.ogg
320,192,245730,1,0,0:0:0:0:s_012.ogg
192,192,245790,1,0,0:0:0:0:s_025.ogg
448,192,245790,1,0,0:0:0:0:s_013.ogg
64,192,245850,1,0,0:0:0:0:s_024.ogg
320,192,245850,1,0,0:0:0:0:s_012.ogg
192,192,245910,1,0,0:0:0:0:s_025.ogg
448,192,245910,1,0,0:0:0:0:s_013.ogg
64,192,245970,1,0,0:0:0:0:s_024.ogg
320,192,245970,1,0,0:0:0:0:s_012.ogg
192,192,246030,1,0,0:0:0:0:s_025.ogg
448,192,246030,1,0,0:0:0:0:s_013.ogg
64,192,246090,1,0,0:0:0:0:s_024.ogg
320,192,246090,1,0,0:0:0:0:s_012.ogg
192,192,246150,1,0,0:0:0:0:s_025.ogg
448,192,246150,1,0,0:0:0:0:s_013.ogg
64,192,246210,1,0,0:0:0:0:m_024.ogg
192,192,246270,1,0,0:0:0:0:m_025.ogg
320,192,246330,1,0,0:0:0:0:m_026.ogg
448,192,246390,1,0,0:0:0:0:m_027.ogg
64,192,246450,1,0,0:0:0:0:m_028.ogg
192,192,246510,1,0,0:0:0:0:m_029.ogg
320,192,246570,1,0,0:0:0:0:s_030.ogg
448,192,246630,1,0,0:0:0:0:s_031.ogg
64,192,246690,1,0,0:0:0:0:m_032.ogg
448,192,246750,1,0,0:0:0:0:m_031.ogg
320,192,246810,1,0,0:0:0:0:m_030.ogg
192,192,246870,1,0,0:0:0:0:s_029.ogg
64,192,246930,1,0,0:0:0:0:s_028.ogg
448,192,246990,1,0,0:0:0:0:s_027.ogg
320,192,247050,1,0,0:0:0:0:s_026.ogg
192,192,247110,1,0,0:0:0:0:s_025.ogg
64,192,247170,1,0,0:0:0:0:m_024.ogg
64,192,247650,1,0,0:0:0:0:m_060.ogg
192,192,247650,1,0,0:0:0:0:m_048.ogg
320,192,247650,1,0,0:0:0:0:m_052.ogg
448,192,247650,1,0,0:0:0:0:m_055.ogg
64,192,248130,1,0,0:0:0:0:m_064.ogg
192,192,248130,1,0,0:0:0:0:m_060.ogg
320,192,248130,1,0,0:0:0:0:m_072.ogg
448,192,248130,1,0,0:0:0:0:m_067.ogg
