osu file format v14

[General]
AudioFilename: virtual
AudioLeadIn: 0
PreviewTime: 0
Countdown: 0
SampleSet: Soft
StackLeniency: 0.7
Mode: 3
LetterboxInBreaks: 0
SpecialStyle: 0
WidescreenStoryboard: 1

[Editor]
DistanceSpacing: 0.8
BeatDivisor: 4
GridSize: 16
TimelineZoom: 1.800006

[Metadata]
Title:Piano Beatmap Set
TitleUnicode:Piano Beatmap Set
Artist:Collection
ArtistUnicode:Collection
Creator:CircusGalop
Version:Grandes Etudes No.6 - 10K HD
Source:BMS
Tags:
BeatmapID:1354955
BeatmapSetID:332673

[Difficulty]
HPDrainRate:8
CircleSize:10
OverallDifficulty:5
ApproachRate:5
SliderMultiplier:1.4
SliderTickRate:1

[Events]
//Background and Video events
0,0,"CircusGalop.jpg",0,0
//Break Periods
//Storyboard Layer 0 (Background)
//Storyboard Layer 1 (Fail)
//Storyboard Layer 2 (Pass)
//Storyboard Layer 3 (Foreground)
//Storyboard Sound Samples
Sample,2040,0,"s_051.ogg",100
Sample,2060,0,"s_060.ogg",100
Sample,3000,0,"s_059.ogg",100
Sample,3020,0,"s_067.ogg",100
Sample,3960,0,"s_051.ogg",100
Sample,3980,0,"s_060.ogg",100
Sample,4800,0,"m_067.ogg",100
Sample,4890,0,"s_047.ogg",100
Sample,5880,0,"s_051.ogg",100
Sample,5900,0,"s_060.ogg",100
Sample,6840,0,"s_059.ogg",100
Sample,6860,0,"s_067.ogg",100
Sample,7800,0,"s_051.ogg",100
Sample,7820,0,"s_060.ogg",100
Sample,8640,0,"m_067.ogg",100
Sample,8730,0,"s_047.ogg",100
Sample,9720,0,"s_064.ogg",100
Sample,9740,0,"s_072.ogg",100
Sample,10680,0,"s_060.ogg",100
Sample,10700,0,"s_068.ogg",100
Sample,11640,0,"s_062.ogg",100
Sample,11660,0,"s_070.ogg",100
Sample,12600,0,"s_058.ogg",100
Sample,12620,0,"s_067.ogg",100
Sample,13560,0,"s_062.ogg",100
Sample,13580,0,"s_068.ogg",100
Sample,14520,0,"s_067.ogg",100
Sample,17400,0,"s_072.ogg",100
Sample,17760,0,"s_048.ogg",100
Sample,18360,0,"s_068.ogg",100
Sample,18720,0,"s_048.ogg",100
Sample,19320,0,"s_070.ogg",100
Sample,19680,0,"s_046.ogg",100
Sample,20280,0,"s_067.ogg",100
Sample,25320,0,"s_033.ogg",100
Sample,25440,0,"s_033.ogg",100
Sample,26400,0,"m_019.ogg",100
Sample,27240,0,"s_033.ogg",100
Sample,27360,0,"s_033.ogg",100
Sample,28320,0,"s_044.ogg",100
Sample,29160,0,"s_033.ogg",100
Sample,29280,0,"s_033.ogg",100
Sample,30240,0,"m_019.ogg",100
Sample,31080,0,"s_033.ogg",100
Sample,31200,0,"s_033.ogg",100
Sample,32640,0,"m_024.ogg",100
Sample,32640,0,"s_072.ogg",100
Sample,33000,0,"s_048.ogg",100
Sample,33120,0,"s_048.ogg",100
Sample,34560,0,"s_056.ogg",100
Sample,34560,0,"m_029.ogg",100
Sample,34920,0,"s_046.ogg",100
Sample,35040,0,"s_046.ogg",100
Sample,36480,0,"s_020.ogg",100
Sample,36480,0,"s_026.ogg",100
Sample,37440,0,"s_019.ogg",100
Sample,38400,0,"m_026.ogg",100
Sample,39360,0,"m_029.ogg",100
Sample,39360,0,"m_035.ogg",100
Sample,39360,0,"m_050.ogg",100
Sample,40560,0,"s_068.ogg",100
Sample,40680,0,"s_063.ogg",100
Sample,40800,0,"s_055.ogg",100
Sample,40920,0,"s_051.ogg",100
Sample,41520,0,"s_059.ogg",100
Sample,41640,0,"s_054.ogg",100
Sample,41760,0,"s_055.ogg",100
Sample,41880,0,"s_050.ogg",100
Sample,42480,0,"s_060.ogg",100
Sample,42600,0,"s_056.ogg",100
Sample,42720,0,"s_055.ogg",100
Sample,42840,0,"s_043.ogg",100
Sample,43440,0,"s_059.ogg",100
Sample,43560,0,"s_054.ogg",100
Sample,43680,0,"s_055.ogg",100
Sample,43800,0,"s_050.ogg",100
Sample,44160,0,"m_012.ogg",100
Sample,44400,0,"s_060.ogg",100
Sample,44520,0,"s_056.ogg",100
Sample,44640,0,"s_055.ogg",100
Sample,44760,0,"s_051.ogg",100
Sample,45120,0,"m_011.ogg",100
Sample,45360,0,"s_059.ogg",100
Sample,45480,0,"s_054.ogg",100
Sample,45600,0,"s_055.ogg",100
Sample,45720,0,"s_043.ogg",100
Sample,46080,0,"m_024.ogg",100
Sample,46320,0,"s_060.ogg",100
Sample,46440,0,"s_056.ogg",100
Sample,46560,0,"s_055.ogg",100
Sample,46680,0,"s_051.ogg",100
Sample,47040,0,"m_011.ogg",100
Sample,47280,0,"s_059.ogg",100
Sample,47400,0,"s_054.ogg",100
Sample,47520,0,"s_055.ogg",100
Sample,47640,0,"s_050.ogg",100
Sample,48000,0,"m_016.ogg",100
Sample,48240,0,"s_067.ogg",100
Sample,48360,0,"s_061.ogg",100
Sample,48480,0,"s_060.ogg",100
Sample,48600,0,"s_058.ogg",100
Sample,48960,0,"m_029.ogg",100
Sample,49200,0,"s_060.ogg",100
Sample,49320,0,"s_055.ogg",100
Sample,49440,0,"s_056.ogg",100
Sample,49560,0,"s_053.ogg",100
Sample,49920,0,"m_014.ogg",100
Sample,50160,0,"s_065.ogg",100
Sample,50280,0,"s_059.ogg",100
Sample,50400,0,"s_053.ogg",100
Sample,50520,0,"s_056.ogg",100
Sample,50880,0,"m_015.ogg",100
Sample,51120,0,"s_058.ogg",100
Sample,51240,0,"s_054.ogg",100
Sample,51360,0,"s_055.ogg",100
Sample,51480,0,"s_051.ogg",100
Sample,51840,0,"m_029.ogg",100
Sample,52080,0,"s_065.ogg",100
Sample,52200,0,"s_062.ogg",100
Sample,52320,0,"s_061.ogg",100
Sample,52440,0,"s_056.ogg",100
Sample,52800,0,"m_019.ogg",100
Sample,53040,0,"s_071.ogg",100
Sample,53160,0,"s_059.ogg",100
Sample,53280,0,"s_060.ogg",100
Sample,53400,0,"s_055.ogg",100
Sample,53760,0,"m_017.ogg",100
Sample,54000,0,"s_060.ogg",100
Sample,54120,0,"s_056.ogg",100
Sample,54240,0,"s_047.ogg",100
Sample,54240,0,"s_031.ogg",100
Sample,54360,0,"s_050.ogg",100
Sample,54720,0,"m_024.ogg",100
Sample,54960,0,"s_067.ogg",100
Sample,55200,0,"s_072.ogg",100
Sample,55680,0,"s_012.ogg",100
Sample,55680,0,"m_075.ogg",100
Sample,55800,0,"s_017.ogg",100
Sample,55920,0,"s_019.ogg",100
Sample,56040,0,"s_020.ogg",100
Sample,56160,0,"s_019.ogg",100
Sample,56280,0,"s_020.ogg",100
Sample,56400,0,"s_023.ogg",100
Sample,56400,0,"s_074.ogg",100
Sample,56520,0,"s_072.ogg",100
Sample,56520,0,"s_027.ogg",100
Sample,56640,0,"s_029.ogg",100
Sample,56640,0,"s_071.ogg",100
Sample,56760,0,"s_072.ogg",100
Sample,56760,0,"s_031.ogg",100
Sample,56880,0,"s_029.ogg",100
Sample,56880,0,"s_067.ogg",100
Sample,57000,0,"s_065.ogg",100
Sample,57000,0,"s_031.ogg",100
Sample,57120,0,"s_036.ogg",100
Sample,57120,0,"s_063.ogg",100
Sample,57240,0,"s_062.ogg",100
Sample,57240,0,"s_038.ogg",100
Sample,57360,0,"s_039.ogg",100
Sample,57360,0,"s_051.ogg",100
Sample,57480,0,"s_062.ogg",100
Sample,57480,0,"s_038.ogg",100
Sample,57600,0,"s_039.ogg",100
Sample,57600,0,"m_060.ogg",100
Sample,57720,0,"s_041.ogg",100
Sample,57840,0,"s_039.ogg",100
Sample,57960,0,"s_041.ogg",100
Sample,58080,0,"s_044.ogg",100
Sample,58200,0,"s_043.ogg",100
Sample,58320,0,"s_041.ogg",100
Sample,58320,0,"s_062.ogg",100
Sample,58440,0,"s_063.ogg",100
Sample,58440,0,"s_039.ogg",100
Sample,58560,0,"s_038.ogg",100
Sample,58560,0,"s_062.ogg",100
Sample,58680,0,"s_060.ogg",100
Sample,58680,0,"s_039.ogg",100
Sample,58800,0,"s_035.ogg",100
Sample,58800,0,"s_050.ogg",100
Sample,58920,0,"s_056.ogg",100
Sample,58920,0,"s_032.ogg",100
Sample,59040,0,"m_031.ogg",100
Sample,59040,0,"m_055.ogg",100
Sample,59520,0,"m_075.ogg",100
Sample,59520,0,"s_012.ogg",100
Sample,59640,0,"s_026.ogg",100
Sample,59760,0,"s_027.ogg",100
Sample,59880,0,"s_029.ogg",100
Sample,60000,0,"s_019.ogg",100
Sample,60120,0,"s_020.ogg",100
Sample,60240,0,"s_074.ogg",100
Sample,60240,0,"s_035.ogg",100
Sample,60360,0,"s_036.ogg",100
Sample,60360,0,"s_072.ogg",100
Sample,60480,0,"s_071.ogg",100
Sample,60480,0,"s_038.ogg",100
Sample,60600,0,"s_027.ogg",100
Sample,60600,0,"s_072.ogg",100
Sample,60720,0,"s_059.ogg",100
Sample,60720,0,"s_029.ogg",100
Sample,60840,0,"s_043.ogg",100
Sample,60840,0,"s_065.ogg",100
Sample,60960,0,"s_063.ogg",100
Sample,60960,0,"s_044.ogg",100
Sample,61080,0,"s_047.ogg",100
Sample,61080,0,"s_062.ogg",100
Sample,61200,0,"s_051.ogg",100
Sample,61200,0,"s_036.ogg",100
Sample,61320,0,"s_038.ogg",100
Sample,61440,0,"m_063.ogg",100
Sample,61440,0,"s_048.ogg",100
Sample,61560,0,"s_047.ogg",100
Sample,61680,0,"s_032.ogg",100
Sample,61800,0,"s_031.ogg",100
Sample,61920,0,"s_032.ogg",100
Sample,62040,0,"s_031.ogg",100
Sample,62160,0,"s_029.ogg",100
Sample,62160,0,"s_062.ogg",100
Sample,62280,0,"s_067.ogg",100
Sample,62280,0,"s_027.ogg",100
Sample,62400,0,"s_038.ogg",100
Sample,62520,0,"s_036.ogg",100
Sample,62640,0,"s_035.ogg",100
Sample,62760,0,"s_032.ogg",100
Sample,62880,0,"m_043.ogg",100
Sample,63360,0,"m_052.ogg",100
Sample,63360,0,"s_037.ogg",100
Sample,63480,0,"s_036.ogg",100
Sample,63600,0,"s_046.ogg",100
Sample,63720,0,"s_043.ogg",100
Sample,63840,0,"s_028.ogg",100
Sample,63960,0,"s_037.ogg",100
Sample,64080,0,"s_036.ogg",100
Sample,64080,0,"s_065.ogg",100
Sample,64200,0,"s_055.ogg",100
Sample,64320,0,"s_029.ogg",100
Sample,64320,0,"m_065.ogg",100
Sample,64440,0,"m_058.ogg",100
Sample,64440,0,"s_028.ogg",100
Sample,64560,0,"s_026.ogg",100
Sample,64560,0,"m_068.ogg",100
Sample,64680,0,"m_070.ogg",100
Sample,64680,0,"m_028.ogg",100
Sample,64800,0,"m_026.ogg",100
Sample,64800,0,"m_064.ogg",100
Sample,64920,0,"m_074.ogg",100
Sample,64920,0,"s_020.ogg",100
Sample,65040,0,"s_022.ogg",100
Sample,65040,0,"s_067.ogg",100
Sample,65160,0,"s_077.ogg",100
Sample,65160,0,"s_020.ogg",100
Sample,65280,0,"m_062.ogg",100
Sample,65280,0,"s_047.ogg",100
Sample,65400,0,"s_046.ogg",100
Sample,65520,0,"s_044.ogg",100
Sample,65640,0,"s_029.ogg",100
Sample,65760,0,"s_026.ogg",100
Sample,65880,0,"s_023.ogg",100
Sample,66000,0,"s_022.ogg",100
Sample,66000,0,"s_051.ogg",100
Sample,66120,0,"s_065.ogg",100
Sample,66240,0,"s_067.ogg",100
Sample,66240,0,"s_027.ogg",100
Sample,66360,0,"s_068.ogg",100
Sample,66360,0,"s_026.ogg",100
Sample,66480,0,"s_070.ogg",100
Sample,66480,0,"m_027.ogg",100
Sample,66600,0,"m_026.ogg",100
Sample,66600,0,"s_072.ogg",100
Sample,66720,0,"s_020.ogg",100
Sample,66720,0,"s_074.ogg",100
Sample,66840,0,"s_075.ogg",100
Sample,66840,0,"s_019.ogg",100
Sample,66960,0,"s_065.ogg",100
Sample,66960,0,"s_017.ogg",100
Sample,67080,0,"s_015.ogg",100
Sample,67080,0,"s_067.ogg",100
Sample,67200,0,"s_080.ogg",100
Sample,67200,0,"s_026.ogg",100
Sample,67320,0,"s_032.ogg",100
Sample,67440,0,"s_023.ogg",100
Sample,67560,0,"s_038.ogg",100
Sample,67680,0,"s_035.ogg",100
Sample,67680,0,"s_068.ogg",100
Sample,67800,0,"s_042.ogg",100
Sample,67920,0,"s_031.ogg",100
Sample,68040,0,"s_032.ogg",100
Sample,68160,0,"s_066.ogg",100
Sample,68160,0,"s_021.ogg",100
Sample,68280,0,"s_015.ogg",100
Sample,68400,0,"s_018.ogg",100
Sample,68520,0,"s_033.ogg",100
Sample,68640,0,"s_057.ogg",100
Sample,68640,0,"s_036.ogg",100
Sample,68760,0,"s_025.ogg",100
Sample,68880,0,"s_026.ogg",100
Sample,69000,0,"s_027.ogg",100
Sample,69120,0,"s_044.ogg",100
Sample,70080,0,"m_041.ogg",100
Sample,71040,0,"s_043.ogg",100
Sample,72030,0,"s_043.ogg",100
Sample,72510,0,"s_043.ogg",100
Sample,73500,0,"s_042.ogg",100
Sample,73680,0,"s_038.ogg",100
Sample,73980,0,"s_048.ogg",100
Sample,73980,0,"s_055.ogg",100
Sample,74250,0,"s_043.ogg",100
Sample,74430,0,"s_053.ogg",100
Sample,74610,0,"s_043.ogg",100
Sample,74790,0,"s_043.ogg",100
Sample,75150,0,"s_043.ogg",100
Sample,75330,0,"s_043.ogg",100
Sample,75450,0,"s_051.ogg",100
Sample,75450,0,"s_043.ogg",100
Sample,75720,0,"s_055.ogg",100
Sample,75900,0,"s_053.ogg",100
Sample,76080,0,"s_043.ogg",100
Sample,76260,0,"s_043.ogg",100
Sample,76440,0,"s_060.ogg",100
Sample,76620,0,"s_059.ogg",100
Sample,76710,0,"s_043.ogg",100
Sample,76800,0,"s_055.ogg",100
Sample,76920,0,"s_043.ogg",100
Sample,76920,0,"s_052.ogg",100
Sample,77190,0,"s_055.ogg",100
Sample,77190,0,"s_053.ogg",100
Sample,77370,0,"s_043.ogg",100
Sample,77550,0,"s_052.ogg",100
Sample,77730,0,"m_065.ogg",100
Sample,77910,0,"m_058.ogg",100
Sample,78090,0,"s_056.ogg",100
Sample,78270,0,"s_053.ogg",100
Sample,78390,0,"s_050.ogg",100
Sample,78390,0,"s_046.ogg",100
Sample,78660,0,"s_053.ogg",100
Sample,78660,0,"s_046.ogg",100
Sample,78840,0,"s_046.ogg",100
Sample,79020,0,"s_041.ogg",100
Sample,79200,0,"m_067.ogg",100
Sample,79380,0,"m_068.ogg",100
Sample,79560,0,"s_063.ogg",100
Sample,79740,0,"s_055.ogg",100
Sample,80130,0,"s_065.ogg",100
Sample,80310,0,"m_055.ogg",100
Sample,80490,0,"s_062.ogg",100
Sample,80850,0,"s_053.ogg",100
Sample,81030,0,"m_060.ogg",100
Sample,81210,0,"s_052.ogg",100
Sample,81390,0,"m_056.ogg",100
Sample,81480,0,"s_039.ogg",100
Sample,81570,0,"s_063.ogg",100
Sample,81660,0,"m_039.ogg",100
Sample,81750,0,"s_067.ogg",100
Sample,81840,0,"s_043.ogg",100
Sample,81930,0,"s_067.ogg",100
Sample,82110,0,"m_072.ogg",100
Sample,84990,0,"m_055.ogg",100
Sample,85470,0,"m_058.ogg",100
Sample,85950,0,"m_056.ogg",100
Sample,86430,0,"s_062.ogg",100
Sample,88590,0,"l_019.ogg",100
Sample,92790,0,"m_055.ogg",100
Sample,93270,0,"m_058.ogg",100
Sample,93750,0,"m_056.ogg",100
Sample,94230,0,"s_062.ogg",100
Sample,96390,0,"l_019.ogg",100
Sample,99150,0,"s_024.ogg",100
Sample,99630,0,"s_016.ogg",100
Sample,100110,0,"s_024.ogg",100
Sample,100590,0,"s_037.ogg",100
Sample,100830,0,"s_041.ogg",100
Sample,101070,0,"s_046.ogg",100
Sample,101310,0,"s_048.ogg",100
Sample,101550,0,"s_067.ogg",100
Sample,101790,0,"s_072.ogg",100
Sample,101790,0,"s_065.ogg",100
Sample,102990,0,"s_022.ogg",100
Sample,103470,0,"s_014.ogg",100
Sample,103950,0,"s_022.ogg",100
Sample,104430,0,"s_035.ogg",100
Sample,104670,0,"s_034.ogg",100
Sample,104910,0,"s_047.ogg",100
Sample,105150,0,"s_055.ogg",100
Sample,105390,0,"s_065.ogg",100
Sample,105630,0,"s_070.ogg",100
Sample,105630,0,"s_067.ogg",100
Sample,106110,0,"m_020.ogg",100
Sample,106830,0,"s_014.ogg",100
Sample,107070,0,"m_018.ogg",100
Sample,107790,0,"s_012.ogg",100
Sample,108030,0,"m_016.ogg",100
Sample,108750,0,"s_010.ogg",100
Sample,108990,0,"m_014.ogg",100
Sample,109710,0,"s_008.ogg",100
Sample,109950,0,"m_014.ogg",100
Sample,110670,0,"s_008.ogg",100
Sample,110910,0,"m_014.ogg",100
Sample,112350,0,"m_031.ogg",100
Sample,112350,0,"m_050.ogg",100
Sample,112830,0,"m_031.ogg",100
Sample,113310,0,"m_031.ogg",100
Sample,113310,0,"m_055.ogg",100
Sample,113790,0,"m_019.ogg",100
Sample,115710,0,"m_016.ogg",100
Sample,117630,0,"m_020.ogg",100
Sample,121470,0,"m_019.ogg",100
Sample,123390,0,"m_016.ogg",100
Sample,125310,0,"m_020.ogg",100
Sample,135410,0,"s_024.ogg",100
Sample,135470,0,"s_025.ogg",100
Sample,135530,0,"s_024.ogg",100
Sample,135590,0,"s_025.ogg",100
Sample,135650,0,"s_024.ogg",100
Sample,135710,0,"s_025.ogg",100
Sample,135770,0,"s_024.ogg",100
Sample,135830,0,"s_025.ogg",100
Sample,135890,0,"s_024.ogg",100
Sample,135950,0,"s_025.ogg",100
Sample,136010,0,"s_024.ogg",100
Sample,136070,0,"s_025.ogg",100
Sample,136130,0,"s_024.ogg",100
Sample,136190,0,"s_025.ogg",100
Sample,136250,0,"s_024.ogg",100
Sample,136310,0,"s_025.ogg",100
Sample,136370,0,"m_024.ogg",100
Sample,136430,0,"m_025.ogg",100
Sample,136490,0,"m_026.ogg",100
Sample,136550,0,"m_027.ogg",100
Sample,136610,0,"m_028.ogg",100
Sample,136670,0,"m_029.ogg",100
Sample,136730,0,"s_030.ogg",100
Sample,136790,0,"s_031.ogg",100
Sample,136850,0,"m_032.ogg",100
Sample,136910,0,"m_031.ogg",100
Sample,136970,0,"m_030.ogg",100
Sample,137030,0,"s_029.ogg",100
Sample,137090,0,"s_028.ogg",100
Sample,137150,0,"s_027.ogg",100
Sample,137210,0,"s_026.ogg",100
Sample,137270,0,"s_025.ogg",100
Sample,137330,0,"m_024.ogg",100
Sample,137810,0,"m_055.ogg",100
Sample,137810,0,"m_028.ogg",100
Sample,138290,0,"m_036.ogg",100
Sample,138290,0,"m_072.ogg",100

[TimingPoints]
0,480.000000000001,4,2,0,100,1,0
71040,360.000000000001,4,2,0,100,1,0
71040,-133.333333333333,4,2,0,100,0,0
72390,480.000000000001,4,2,0,100,1,0
72510,360.000000000001,4,2,0,100,1,0
72510,-133.333333333333,4,2,0,100,0,0
73860,480.000000000001,4,2,0,100,1,0
73980,360.000000000001,4,2,0,100,1,0
73980,-133.333333333333,4,2,0,100,0,0
75330,480.000000000001,4,2,0,100,1,0
75450,360.000000000001,4,2,0,100,1,0
75450,-133.333333333333,4,2,0,100,0,0
76800,480.000000000001,4,2,0,100,1,0
76920,360.000000000001,4,2,0,100,1,0
76920,-133.333333333333,4,2,0,100,0,0
78270,480.000000000001,4,2,0,100,1,0
78390,360.000000000001,4,2,0,100,1,0
78390,-133.333333333333,4,2,0,100,0,0
79740,480.000000000001,4,2,0,100,1,0
79860,360.000000000001,4,2,0,100,1,0
79860,-133.333333333333,4,2,0,100,0,0
81930,480.000000000001,4,2,0,100,1,0
82110,360.000000000001,4,2,0,100,1,0
82110,-133.333333333333,4,2,0,100,0,0
82830,480.000000000001,4,2,0,100,1,0
90630,480.000000000001,4,2,0,100,1,0
98430,480.000000000001,4,2,0,100,1,0
133950,400.000000000001,4,2,0,100,1,0
133950,-120,4,2,0,100,0,0
134450,480.000000000001,4,2,0,100,1,0

[HitObjects]
25,192,1920,5,0,0:0:0:0:s_024.ogg
76,192,1940,1,0,0:0:0:0:s_031.ogg
128,192,1960,1,0,0:0:0:0:s_036.ogg
281,192,1980,1,0,0:0:0:0:s_039.ogg
332,192,2000,1,0,0:0:0:0:s_043.ogg
384,192,2020,1,0,0:0:0:0:s_048.ogg
281,192,2340,1,0,0:0:0:0:s_048.ogg
332,192,2400,1,0,0:0:0:0:s_048.ogg
384,192,2520,1,0,0:0:0:0:s_051.ogg
332,192,2640,1,0,0:0:0:0:s_050.ogg
281,192,2760,1,0,0:0:0:0:s_048.ogg
128,192,2880,1,0,0:0:0:0:s_031.ogg
179,192,2900,1,0,0:0:0:0:s_038.ogg
230,192,2920,1,0,0:0:0:0:s_043.ogg
384,192,2940,1,0,0:0:0:0:s_047.ogg
435,192,2960,1,0,0:0:0:0:s_050.ogg
486,192,2980,1,0,0:0:0:0:s_055.ogg
384,192,3300,1,0,0:0:0:0:s_043.ogg
435,192,3360,1,0,0:0:0:0:s_043.ogg
486,192,3480,1,0,0:0:0:0:s_047.ogg
435,192,3600,1,0,0:0:0:0:s_045.ogg
384,192,3720,1,0,0:0:0:0:s_043.ogg
25,192,3840,1,0,0:0:0:0:s_024.ogg
76,192,3860,1,0,0:0:0:0:s_031.ogg
128,192,3880,1,0,0:0:0:0:s_036.ogg
281,192,3900,1,0,0:0:0:0:s_039.ogg
332,192,3920,1,0,0:0:0:0:s_043.ogg
384,192,3940,1,0,0:0:0:0:s_048.ogg
281,192,4260,1,0,0:0:0:0:s_048.ogg
332,192,4320,1,0,0:0:0:0:s_048.ogg
384,192,4440,1,0,0:0:0:0:s_051.ogg
332,192,4560,1,0,0:0:0:0:s_050.ogg
281,192,4680,1,0,0:0:0:0:s_048.ogg
128,192,4800,1,0,0:0:0:0:s_031.ogg
486,192,4800,128,0,5280:0:0:0:0:m_059.ogg
435,192,4800,128,0,5280:0:0:0:0:m_055.ogg
384,192,4800,128,0,5280:0:0:0:0:m_050.ogg
179,192,4830,1,0,0:0:0:0:s_038.ogg
230,192,4860,1,0,0:0:0:0:s_043.ogg
281,192,5280,1,0,0:0:0:0:s_043.ogg
25,192,5760,1,0,0:0:0:0:s_024.ogg
76,192,5780,1,0,0:0:0:0:s_031.ogg
128,192,5800,1,0,0:0:0:0:s_036.ogg
281,192,5820,1,0,0:0:0:0:s_039.ogg
332,192,5840,1,0,0:0:0:0:s_043.ogg
384,192,5860,1,0,0:0:0:0:s_048.ogg
281,192,6180,1,0,0:0:0:0:s_048.ogg
332,192,6240,1,0,0:0:0:0:s_048.ogg
384,192,6360,1,0,0:0:0:0:s_051.ogg
332,192,6480,1,0,0:0:0:0:s_050.ogg
281,192,6600,1,0,0:0:0:0:s_048.ogg
128,192,6720,1,0,0:0:0:0:s_031.ogg
179,192,6740,1,0,0:0:0:0:s_038.ogg
230,192,6760,1,0,0:0:0:0:s_043.ogg
384,192,6780,1,0,0:0:0:0:s_047.ogg
435,192,6800,1,0,0:0:0:0:s_050.ogg
486,192,6820,1,0,0:0:0:0:s_055.ogg
384,192,7140,1,0,0:0:0:0:s_043.ogg
435,192,7200,1,0,0:0:0:0:s_043.ogg
486,192,7320,1,0,0:0:0:0:s_047.ogg
435,192,7440,1,0,0:0:0:0:s_045.ogg
384,192,7560,1,0,0:0:0:0:s_043.ogg
25,192,7680,1,0,0:0:0:0:s_024.ogg
76,192,7700,1,0,0:0:0:0:s_031.ogg
128,192,7720,1,0,0:0:0:0:s_036.ogg
281,192,7740,1,0,0:0:0:0:s_039.ogg
332,192,7760,1,0,0:0:0:0:s_043.ogg
384,192,7780,1,0,0:0:0:0:s_048.ogg
281,192,8100,1,0,0:0:0:0:s_048.ogg
332,192,8160,1,0,0:0:0:0:s_048.ogg
384,192,8280,1,0,0:0:0:0:s_051.ogg
332,192,8400,1,0,0:0:0:0:s_050.ogg
281,192,8520,1,0,0:0:0:0:s_048.ogg
128,192,8640,1,0,0:0:0:0:s_031.ogg
486,192,8640,128,0,9120:0:0:0:0:m_059.ogg
435,192,8640,128,0,9120:0:0:0:0:m_055.ogg
384,192,8640,128,0,9120:0:0:0:0:m_050.ogg
179,192,8670,1,0,0:0:0:0:s_038.ogg
230,192,8700,1,0,0:0:0:0:s_043.ogg
281,192,9120,1,0,0:0:0:0:s_043.ogg
25,192,9600,1,0,0:0:0:0:s_024.ogg
76,192,9620,1,0,0:0:0:0:s_031.ogg
128,192,9640,1,0,0:0:0:0:s_036.ogg
332,192,9660,1,0,0:0:0:0:s_040.ogg
384,192,9680,1,0,0:0:0:0:s_055.ogg
435,192,9700,1,0,0:0:0:0:s_060.ogg
384,192,10020,1,0,0:0:0:0:s_060.ogg
435,192,10080,1,0,0:0:0:0:s_060.ogg
486,192,10200,1,0,0:0:0:0:s_061.ogg
435,192,10320,1,0,0:0:0:0:s_060.ogg
384,192,10440,1,0,0:0:0:0:s_058.ogg
128,192,10560,1,0,0:0:0:0:s_029.ogg
179,192,10580,1,0,0:0:0:0:s_036.ogg
230,192,10600,1,0,0:0:0:0:s_041.ogg
332,192,10620,1,0,0:0:0:0:s_044.ogg
384,192,10640,1,0,0:0:0:0:s_048.ogg
435,192,10660,1,0,0:0:0:0:s_056.ogg
281,192,10980,1,0,0:0:0:0:s_053.ogg
332,192,11040,1,0,0:0:0:0:s_053.ogg
384,192,11160,1,0,0:0:0:0:s_056.ogg
332,192,11280,1,0,0:0:0:0:s_055.ogg
281,192,11400,1,0,0:0:0:0:s_053.ogg
25,192,11520,1,0,0:0:0:0:s_022.ogg
76,192,11540,1,0,0:0:0:0:s_029.ogg
128,192,11560,1,0,0:0:0:0:s_034.ogg
332,192,11580,1,0,0:0:0:0:s_038.ogg
384,192,11600,1,0,0:0:0:0:s_053.ogg
435,192,11620,1,0,0:0:0:0:s_058.ogg
384,192,11940,1,0,0:0:0:0:s_058.ogg
435,192,12000,1,0,0:0:0:0:s_058.ogg
486,192,12120,1,0,0:0:0:0:s_060.ogg
435,192,12240,1,0,0:0:0:0:s_058.ogg
384,192,12360,1,0,0:0:0:0:s_056.ogg
128,192,12480,1,0,0:0:0:0:s_027.ogg
179,192,12500,1,0,0:0:0:0:s_034.ogg
230,192,12520,1,0,0:0:0:0:s_039.ogg
332,192,12540,1,0,0:0:0:0:s_043.ogg
384,192,12560,1,0,0:0:0:0:s_046.ogg
435,192,12580,1,0,0:0:0:0:s_055.ogg
281,192,12900,1,0,0:0:0:0:s_051.ogg
332,192,12960,1,0,0:0:0:0:s_051.ogg
384,192,13080,1,0,0:0:0:0:s_055.ogg
332,192,13200,1,0,0:0:0:0:s_053.ogg
281,192,13320,1,0,0:0:0:0:s_051.ogg
25,192,13440,1,0,0:0:0:0:s_029.ogg
76,192,13460,1,0,0:0:0:0:s_032.ogg
128,192,13480,1,0,0:0:0:0:s_038.ogg
384,192,13500,1,0,0:0:0:0:s_044.ogg
435,192,13520,1,0,0:0:0:0:s_050.ogg
486,192,13540,1,0,0:0:0:0:s_056.ogg
281,192,13860,1,0,0:0:0:0:s_050.ogg
332,192,13920,1,0,0:0:0:0:s_050.ogg
384,192,14040,1,0,0:0:0:0:s_053.ogg
332,192,14160,1,0,0:0:0:0:s_051.ogg
281,192,14280,1,0,0:0:0:0:s_050.ogg
76,192,14400,1,0,0:0:0:0:s_027.ogg
128,192,14420,1,0,0:0:0:0:s_039.ogg
179,192,14440,1,0,0:0:0:0:s_043.ogg
332,192,14460,1,0,0:0:0:0:s_048.ogg
384,192,14480,1,0,0:0:0:0:s_055.ogg
435,192,14500,1,0,0:0:0:0:s_060.ogg
332,192,14820,1,0,0:0:0:0:s_048.ogg
384,192,14880,1,0,0:0:0:0:s_048.ogg
435,192,15000,1,0,0:0:0:0:s_051.ogg
384,192,15120,1,0,0:0:0:0:s_050.ogg
332,192,15240,1,0,0:0:0:0:s_048.ogg
128,192,15360,1,0,0:0:0:0:m_032.ogg
384,192,15360,1,0,0:0:0:0:m_044.ogg
179,192,15720,1,0,0:0:0:0:s_036.ogg
230,192,15720,1,0,0:0:0:0:s_042.ogg
435,192,15720,1,0,0:0:0:0:s_054.ogg
76,192,15840,1,0,0:0:0:0:m_031.ogg
332,192,15840,1,0,0:0:0:0:m_043.ogg
486,192,15960,1,0,0:0:0:0:s_055.ogg
435,192,16080,1,0,0:0:0:0:s_053.ogg
25,192,16200,1,0,0:0:0:0:s_035.ogg
179,192,16200,1,0,0:0:0:0:s_041.ogg
384,192,16200,1,0,0:0:0:0:s_050.ogg
332,192,16320,128,0,16800:0:0:0:0:m_048.ogg
281,192,16320,128,0,16800:0:0:0:0:m_043.ogg
128,192,16320,128,0,16800:0:0:0:0:m_039.ogg
76,192,16320,128,0,16800:0:0:0:0:m_036.ogg
179,192,16800,1,0,0:0:0:0:s_043.ogg
230,192,16800,1,0,0:0:0:0:s_048.ogg
435,192,16800,1,0,0:0:0:0:s_051.ogg
486,192,16800,1,0,0:0:0:0:s_060.ogg
25,192,17280,1,0,0:0:0:0:s_024.ogg
76,192,17300,1,0,0:0:0:0:s_031.ogg
128,192,17320,1,0,0:0:0:0:s_040.ogg
384,192,17340,1,0,0:0:0:0:s_055.ogg
435,192,17360,1,0,0:0:0:0:s_060.ogg
486,192,17380,1,0,0:0:0:0:s_064.ogg
384,192,17700,1,0,0:0:0:0:s_060.ogg
179,192,17760,1,0,0:0:0:0:s_043.ogg
230,192,17760,1,0,0:0:0:0:s_040.ogg
435,192,17760,1,0,0:0:0:0:s_060.ogg
486,192,17880,1,0,0:0:0:0:s_061.ogg
435,192,18000,1,0,0:0:0:0:s_060.ogg
384,192,18120,1,0,0:0:0:0:s_058.ogg
25,192,18240,1,0,0:0:0:0:s_029.ogg
76,192,18260,1,0,0:0:0:0:s_036.ogg
128,192,18280,1,0,0:0:0:0:s_044.ogg
281,192,18300,1,0,0:0:0:0:s_048.ogg
332,192,18320,1,0,0:0:0:0:s_056.ogg
384,192,18340,1,0,0:0:0:0:s_060.ogg
281,192,18660,1,0,0:0:0:0:s_053.ogg
179,192,18720,1,0,0:0:0:0:s_044.ogg
230,192,18720,1,0,0:0:0:0:s_041.ogg
332,192,18720,1,0,0:0:0:0:s_053.ogg
384,192,18840,1,0,0:0:0:0:s_056.ogg
332,192,18960,1,0,0:0:0:0:s_055.ogg
281,192,19080,1,0,0:0:0:0:s_053.ogg
25,192,19200,1,0,0:0:0:0:s_022.ogg
76,192,19220,1,0,0:0:0:0:s_029.ogg
128,192,19240,1,0,0:0:0:0:s_038.ogg
384,192,19260,1,0,0:0:0:0:s_053.ogg
435,192,19280,1,0,0:0:0:0:s_058.ogg
486,192,19300,1,0,0:0:0:0:s_062.ogg
384,192,19620,1,0,0:0:0:0:s_058.ogg
179,192,19680,1,0,0:0:0:0:s_041.ogg
230,192,19680,1,0,0:0:0:0:s_038.ogg
435,192,19680,1,0,0:0:0:0:s_058.ogg
486,192,19800,1,0,0:0:0:0:s_060.ogg
435,192,19920,1,0,0:0:0:0:s_058.ogg
384,192,20040,1,0,0:0:0:0:s_056.ogg
25,192,20160,1,0,0:0:0:0:s_027.ogg
76,192,20180,1,0,0:0:0:0:s_034.ogg
128,192,20200,1,0,0:0:0:0:s_043.ogg
281,192,20220,1,0,0:0:0:0:s_046.ogg
332,192,20240,1,0,0:0:0:0:s_055.ogg
384,192,20260,1,0,0:0:0:0:s_058.ogg
281,192,20580,1,0,0:0:0:0:s_051.ogg
179,192,20640,1,0,0:0:0:0:s_046.ogg
230,192,20640,1,0,0:0:0:0:s_043.ogg
332,192,20640,1,0,0:0:0:0:s_051.ogg
384,192,20760,1,0,0:0:0:0:s_055.ogg
332,192,20880,1,0,0:0:0:0:s_053.ogg
281,192,21000,1,0,0:0:0:0:s_051.ogg
25,192,21120,1,0,0:0:0:0:s_029.ogg
76,192,21140,1,0,0:0:0:0:s_037.ogg
128,192,21160,1,0,0:0:0:0:s_044.ogg
384,192,21180,1,0,0:0:0:0:s_049.ogg
435,192,21200,1,0,0:0:0:0:s_056.ogg
486,192,21220,1,0,0:0:0:0:s_068.ogg
384,192,21540,1,0,0:0:0:0:s_049.ogg
179,192,21600,1,0,0:0:0:0:s_041.ogg
230,192,21600,1,0,0:0:0:0:s_044.ogg
435,192,21600,1,0,0:0:0:0:s_049.ogg
486,192,21720,1,0,0:0:0:0:s_053.ogg
435,192,21840,1,0,0:0:0:0:s_051.ogg
384,192,21960,1,0,0:0:0:0:s_049.ogg
25,192,22080,1,0,0:0:0:0:s_027.ogg
76,192,22100,1,0,0:0:0:0:s_039.ogg
128,192,22120,1,0,0:0:0:0:s_043.ogg
332,192,22140,1,0,0:0:0:0:s_048.ogg
384,192,22160,1,0,0:0:0:0:s_055.ogg
435,192,22180,1,0,0:0:0:0:s_067.ogg
281,192,22500,1,0,0:0:0:0:s_048.ogg
179,192,22560,1,0,0:0:0:0:s_039.ogg
230,192,22560,1,0,0:0:0:0:s_043.ogg
332,192,22560,1,0,0:0:0:0:s_048.ogg
384,192,22680,1,0,0:0:0:0:s_051.ogg
332,192,22800,1,0,0:0:0:0:s_050.ogg
281,192,22920,1,0,0:0:0:0:s_048.ogg
128,192,23040,1,0,0:0:0:0:m_032.ogg
332,192,23040,1,0,0:0:0:0:m_044.ogg
179,192,23400,1,0,0:0:0:0:s_036.ogg
230,192,23400,1,0,0:0:0:0:s_042.ogg
435,192,23400,1,0,0:0:0:0:s_054.ogg
76,192,23520,1,0,0:0:0:0:m_031.ogg
281,192,23520,1,0,0:0:0:0:m_043.ogg
486,192,23640,1,0,0:0:0:0:s_055.ogg
435,192,23760,1,0,0:0:0:0:s_053.ogg
25,192,23880,1,0,0:0:0:0:s_035.ogg
179,192,23880,1,0,0:0:0:0:s_041.ogg
384,192,23880,1,0,0:0:0:0:s_050.ogg
332,192,24000,128,0,24480:0:0:0:0:m_043.ogg
281,192,24000,128,0,24480:0:0:0:0:m_048.ogg
128,192,24000,128,0,24480:0:0:0:0:m_039.ogg
76,192,24000,128,0,24480:0:0:0:0:m_036.ogg
179,192,24480,1,0,0:0:0:0:s_043.ogg
230,192,24480,1,0,0:0:0:0:s_048.ogg
435,192,24480,1,0,0:0:0:0:s_051.ogg
486,192,24480,1,0,0:0:0:0:s_060.ogg
25,192,24960,1,0,0:0:0:0:m_027.ogg
76,192,24960,1,0,0:0:0:0:m_015.ogg
486,192,24960,1,0,0:0:0:0:s_036.ogg
435,192,24960,1,0,0:0:0:0:s_048.ogg
332,192,25080,1,0,0:0:0:0:s_045.ogg
384,192,25080,1,0,0:0:0:0:s_042.ogg
128,192,25320,1,0,0:0:0:0:s_039.ogg
230,192,25320,1,0,0:0:0:0:s_030.ogg
281,192,25320,1,0,0:0:0:0:s_048.ogg
435,192,25320,1,0,0:0:0:0:s_036.ogg
128,192,25440,1,0,0:0:0:0:s_039.ogg
230,192,25440,1,0,0:0:0:0:s_030.ogg
281,192,25440,1,0,0:0:0:0:s_036.ogg
435,192,25440,1,0,0:0:0:0:s_048.ogg
384,192,25560,1,0,0:0:0:0:s_039.ogg
486,192,25560,1,0,0:0:0:0:s_051.ogg
76,192,25680,1,0,0:0:0:0:s_012.ogg
179,192,25680,1,0,0:0:0:0:s_024.ogg
332,192,25680,1,0,0:0:0:0:s_038.ogg
435,192,25680,1,0,0:0:0:0:s_050.ogg
281,192,25800,1,0,0:0:0:0:s_036.ogg
384,192,25800,1,0,0:0:0:0:s_048.ogg
25,192,25920,1,0,0:0:0:0:s_023.ogg
128,192,25920,1,0,0:0:0:0:s_011.ogg
435,192,25920,1,0,0:0:0:0:s_055.ogg
486,192,25920,1,0,0:0:0:0:s_043.ogg
384,192,26040,1,0,0:0:0:0:s_050.ogg
332,192,26040,1,0,0:0:0:0:s_047.ogg
76,192,26160,1,0,0:0:0:0:s_026.ogg
230,192,26160,1,0,0:0:0:0:s_014.ogg
281,192,26280,1,0,0:0:0:0:s_055.ogg
435,192,26280,1,0,0:0:0:0:s_043.ogg
128,192,26400,1,0,0:0:0:0:m_031.ogg
179,192,26400,1,0,0:0:0:0:m_023.ogg
281,192,26400,1,0,0:0:0:0:s_055.ogg
435,192,26400,1,0,0:0:0:0:s_043.ogg
486,192,26520,1,0,0:0:0:0:s_046.ogg
384,192,26520,1,0,0:0:0:0:s_058.ogg
332,192,26640,1,0,0:0:0:0:s_044.ogg
435,192,26640,1,0,0:0:0:0:s_056.ogg
384,192,26760,1,0,0:0:0:0:s_043.ogg
281,192,26760,1,0,0:0:0:0:s_055.ogg
25,192,26880,1,0,0:0:0:0:m_027.ogg
76,192,26880,1,0,0:0:0:0:m_015.ogg
486,192,26880,1,0,0:0:0:0:s_036.ogg
435,192,26880,1,0,0:0:0:0:s_048.ogg
332,192,27000,1,0,0:0:0:0:s_045.ogg
384,192,27000,1,0,0:0:0:0:s_042.ogg
128,192,27240,1,0,0:0:0:0:s_039.ogg
230,192,27240,1,0,0:0:0:0:s_030.ogg
281,192,27240,1,0,0:0:0:0:s_048.ogg
435,192,27240,1,0,0:0:0:0:s_036.ogg
128,192,27360,1,0,0:0:0:0:s_039.ogg
230,192,27360,1,0,0:0:0:0:s_030.ogg
281,192,27360,1,0,0:0:0:0:s_036.ogg
435,192,27360,1,0,0:0:0:0:s_048.ogg
384,192,27480,1,0,0:0:0:0:s_039.ogg
486,192,27480,1,0,0:0:0:0:s_051.ogg
25,192,27600,1,0,0:0:0:0:s_024.ogg
76,192,27600,1,0,0:0:0:0:s_012.ogg
332,192,27600,1,0,0:0:0:0:s_050.ogg
435,192,27600,1,0,0:0:0:0:s_038.ogg
281,192,27720,1,0,0:0:0:0:s_036.ogg
384,192,27720,1,0,0:0:0:0:s_048.ogg
25,192,27840,1,0,0:0:0:0:s_026.ogg
128,192,27840,1,0,0:0:0:0:s_014.ogg
332,192,27840,1,0,0:0:0:0:s_047.ogg
486,192,27840,1,0,0:0:0:0:s_035.ogg
281,192,27960,1,0,0:0:0:0:s_038.ogg
76,192,28080,1,0,0:0:0:0:s_030.ogg
179,192,28080,1,0,0:0:0:0:s_018.ogg
384,192,28200,1,0,0:0:0:0:s_042.ogg
128,192,28320,1,0,0:0:0:0:s_020.ogg
230,192,28320,1,0,0:0:0:0:s_032.ogg
435,192,28320,1,0,0:0:0:0:s_035.ogg
332,192,28320,1,0,0:0:0:0:s_038.ogg
76,192,28560,1,0,0:0:0:0:s_031.ogg
179,192,28560,1,0,0:0:0:0:s_019.ogg
384,192,28560,1,0,0:0:0:0:s_043.ogg
25,192,28800,1,0,0:0:0:0:m_027.ogg
76,192,28800,1,0,0:0:0:0:m_015.ogg
486,192,28800,1,0,0:0:0:0:s_048.ogg
435,192,28800,1,0,0:0:0:0:s_060.ogg
332,192,28920,1,0,0:0:0:0:s_057.ogg
384,192,28920,1,0,0:0:0:0:s_054.ogg
128,192,29160,1,0,0:0:0:0:s_039.ogg
230,192,29160,1,0,0:0:0:0:s_030.ogg
281,192,29160,1,0,0:0:0:0:s_060.ogg
435,192,29160,1,0,0:0:0:0:s_048.ogg
128,192,29280,1,0,0:0:0:0:s_039.ogg
230,192,29280,1,0,0:0:0:0:s_030.ogg
281,192,29280,1,0,0:0:0:0:s_048.ogg
435,192,29280,1,0,0:0:0:0:s_060.ogg
384,192,29400,1,0,0:0:0:0:s_051.ogg
486,192,29400,1,0,0:0:0:0:s_063.ogg
76,192,29520,1,0,0:0:0:0:s_024.ogg
179,192,29520,1,0,0:0:0:0:s_012.ogg
332,192,29520,1,0,0:0:0:0:s_050.ogg
435,192,29520,1,0,0:0:0:0:s_062.ogg
281,192,29640,1,0,0:0:0:0:s_048.ogg
384,192,29640,1,0,0:0:0:0:s_060.ogg
25,192,29760,1,0,0:0:0:0:s_023.ogg
128,192,29760,1,0,0:0:0:0:s_011.ogg
435,192,29760,1,0,0:0:0:0:s_067.ogg
486,192,29760,1,0,0:0:0:0:s_055.ogg
384,192,29880,1,0,0:0:0:0:s_062.ogg
332,192,29880,1,0,0:0:0:0:s_059.ogg
76,192,30000,1,0,0:0:0:0:s_014.ogg
230,192,30000,1,0,0:0:0:0:s_026.ogg
281,192,30120,1,0,0:0:0:0:s_067.ogg
435,192,30120,1,0,0:0:0:0:s_055.ogg
128,192,30240,1,0,0:0:0:0:m_031.ogg
179,192,30240,1,0,0:0:0:0:m_023.ogg
281,192,30240,1,0,0:0:0:0:s_055.ogg
435,192,30240,1,0,0:0:0:0:s_067.ogg
486,192,30360,1,0,0:0:0:0:s_058.ogg
384,192,30360,1,0,0:0:0:0:s_070.ogg
332,192,30480,1,0,0:0:0:0:s_056.ogg
435,192,30480,1,0,0:0:0:0:s_068.ogg
384,192,30600,1,0,0:0:0:0:s_067.ogg
281,192,30600,1,0,0:0:0:0:s_055.ogg
25,192,30720,1,0,0:0:0:0:m_027.ogg
76,192,30720,1,0,0:0:0:0:m_015.ogg
486,192,30720,1,0,0:0:0:0:s_048.ogg
435,192,30720,1,0,0:0:0:0:s_060.ogg
332,192,30840,1,0,0:0:0:0:s_057.ogg
384,192,30840,1,0,0:0:0:0:s_054.ogg
128,192,31080,1,0,0:0:0:0:s_039.ogg
230,192,31080,1,0,0:0:0:0:s_030.ogg
281,192,31080,1,0,0:0:0:0:s_060.ogg
435,192,31080,1,0,0:0:0:0:s_048.ogg
128,192,31200,1,0,0:0:0:0:s_039.ogg
230,192,31200,1,0,0:0:0:0:s_030.ogg
281,192,31200,1,0,0:0:0:0:s_048.ogg
435,192,31200,1,0,0:0:0:0:s_060.ogg
384,192,31320,1,0,0:0:0:0:s_051.ogg
486,192,31320,1,0,0:0:0:0:s_063.ogg
25,192,31440,1,0,0:0:0:0:s_024.ogg
76,192,31440,1,0,0:0:0:0:s_012.ogg
332,192,31440,1,0,0:0:0:0:s_050.ogg
435,192,31440,1,0,0:0:0:0:s_062.ogg
281,192,31560,1,0,0:0:0:0:s_048.ogg
384,192,31560,1,0,0:0:0:0:s_060.ogg
25,192,31680,1,0,0:0:0:0:s_026.ogg
128,192,31680,1,0,0:0:0:0:s_014.ogg
435,192,31680,1,0,0:0:0:0:s_059.ogg
486,192,31680,1,0,0:0:0:0:s_047.ogg
384,192,31800,1,0,0:0:0:0:s_050.ogg
332,192,31800,1,0,0:0:0:0:s_062.ogg
76,192,31920,1,0,0:0:0:0:s_030.ogg
179,192,31920,1,0,0:0:0:0:s_018.ogg
281,192,32040,1,0,0:0:0:0:s_054.ogg
435,192,32040,1,0,0:0:0:0:s_066.ogg
128,192,32160,1,0,0:0:0:0:s_032.ogg
230,192,32160,1,0,0:0:0:0:s_020.ogg
384,192,32160,1,0,0:0:0:0:s_056.ogg
486,192,32160,1,0,0:0:0:0:s_068.ogg
76,192,32400,1,0,0:0:0:0:s_031.ogg
179,192,32400,1,0,0:0:0:0:s_019.ogg
332,192,32400,1,0,0:0:0:0:s_055.ogg
435,192,32400,1,0,0:0:0:0:s_067.ogg
25,192,32640,1,0,0:0:0:0:m_040.ogg
76,192,32640,1,0,0:0:0:0:m_031.ogg
486,192,32640,1,0,0:0:0:0:s_058.ogg
435,192,32640,1,0,0:0:0:0:s_060.ogg
332,192,32760,1,0,0:0:0:0:s_067.ogg
384,192,32760,1,0,0:0:0:0:s_064.ogg
179,192,33000,1,0,0:0:0:0:s_043.ogg
230,192,33000,1,0,0:0:0:0:s_040.ogg
281,192,33000,1,0,0:0:0:0:s_072.ogg
435,192,33000,1,0,0:0:0:0:s_060.ogg
179,192,33120,1,0,0:0:0:0:s_043.ogg
230,192,33120,1,0,0:0:0:0:s_040.ogg
281,192,33120,1,0,0:0:0:0:s_060.ogg
435,192,33120,1,0,0:0:0:0:s_072.ogg
384,192,33240,1,0,0:0:0:0:s_061.ogg
486,192,33240,1,0,0:0:0:0:s_073.ogg
25,192,33360,1,0,0:0:0:0:s_031.ogg
76,192,33360,1,0,0:0:0:0:s_016.ogg
332,192,33360,1,0,0:0:0:0:s_060.ogg
435,192,33360,1,0,0:0:0:0:s_072.ogg
281,192,33480,1,0,0:0:0:0:s_058.ogg
384,192,33480,1,0,0:0:0:0:s_070.ogg
25,192,33600,1,0,0:0:0:0:s_032.ogg
128,192,33600,1,0,0:0:0:0:s_017.ogg
435,192,33600,1,0,0:0:0:0:s_068.ogg
486,192,33600,1,0,0:0:0:0:s_056.ogg
384,192,33720,1,0,0:0:0:0:s_065.ogg
332,192,33720,1,0,0:0:0:0:s_060.ogg
76,192,33840,1,0,0:0:0:0:s_034.ogg
179,192,33840,1,0,0:0:0:0:s_019.ogg
281,192,33960,1,0,0:0:0:0:s_064.ogg
384,192,33960,1,0,0:0:0:0:s_052.ogg
128,192,34080,1,0,0:0:0:0:s_035.ogg
230,192,34080,1,0,0:0:0:0:s_020.ogg
332,192,34080,1,0,0:0:0:0:s_053.ogg
435,192,34080,1,0,0:0:0:0:s_065.ogg
384,192,34200,1,0,0:0:0:0:s_056.ogg
486,192,34200,1,0,0:0:0:0:s_068.ogg
179,192,34320,1,0,0:0:0:0:s_036.ogg
230,192,34320,1,0,0:0:0:0:s_021.ogg
332,192,34320,1,0,0:0:0:0:s_054.ogg
435,192,34320,1,0,0:0:0:0:s_066.ogg
281,192,34440,1,0,0:0:0:0:s_053.ogg
384,192,34440,1,0,0:0:0:0:s_065.ogg
25,192,34560,1,0,0:0:0:0:m_038.ogg
128,192,34560,1,0,0:0:0:0:m_022.ogg
435,192,34560,1,0,0:0:0:0:s_070.ogg
486,192,34560,1,0,0:0:0:0:s_058.ogg
332,192,34680,1,0,0:0:0:0:s_065.ogg
384,192,34680,1,0,0:0:0:0:s_062.ogg
179,192,34920,1,0,0:0:0:0:s_041.ogg
230,192,34920,1,0,0:0:0:0:s_038.ogg
281,192,34920,1,0,0:0:0:0:s_070.ogg
435,192,34920,1,0,0:0:0:0:s_058.ogg
179,192,35040,1,0,0:0:0:0:s_041.ogg
230,192,35040,1,0,0:0:0:0:s_038.ogg
281,192,35040,1,0,0:0:0:0:s_058.ogg
435,192,35040,1,0,0:0:0:0:s_070.ogg
384,192,35160,1,0,0:0:0:0:s_059.ogg
486,192,35160,1,0,0:0:0:0:s_071.ogg
25,192,35280,1,0,0:0:0:0:s_029.ogg
76,192,35280,1,0,0:0:0:0:s_014.ogg
332,192,35280,1,0,0:0:0:0:s_058.ogg
435,192,35280,1,0,0:0:0:0:s_070.ogg
384,192,35400,1,0,0:0:0:0:s_056.ogg
281,192,35400,1,0,0:0:0:0:s_068.ogg
25,192,35520,1,0,0:0:0:0:s_031.ogg
128,192,35520,1,0,0:0:0:0:s_015.ogg
486,192,35520,1,0,0:0:0:0:s_055.ogg
435,192,35520,1,0,0:0:0:0:s_067.ogg
332,192,35640,1,0,0:0:0:0:s_063.ogg
384,192,35640,1,0,0:0:0:0:s_058.ogg
76,192,35760,1,0,0:0:0:0:s_017.ogg
179,192,35760,1,0,0:0:0:0:s_032.ogg
281,192,35880,1,0,0:0:0:0:s_062.ogg
384,192,35880,1,0,0:0:0:0:s_050.ogg
128,192,36000,1,0,0:0:0:0:s_018.ogg
230,192,36000,1,0,0:0:0:0:s_033.ogg
332,192,36000,1,0,0:0:0:0:s_051.ogg
435,192,36000,1,0,0:0:0:0:s_063.ogg
384,192,36120,1,0,0:0:0:0:s_066.ogg
486,192,36120,1,0,0:0:0:0:s_054.ogg
179,192,36240,1,0,0:0:0:0:s_034.ogg
230,192,36240,1,0,0:0:0:0:s_019.ogg
332,192,36240,1,0,0:0:0:0:s_052.ogg
435,192,36240,1,0,0:0:0:0:s_064.ogg
281,192,36360,1,0,0:0:0:0:s_051.ogg
384,192,36360,1,0,0:0:0:0:s_063.ogg
25,192,36480,1,0,0:0:0:0:s_035.ogg
76,192,36480,1,0,0:0:0:0:s_029.ogg
435,192,36480,1,0,0:0:0:0:s_056.ogg
486,192,36480,1,0,0:0:0:0:s_068.ogg
384,192,36600,1,0,0:0:0:0:s_062.ogg
332,192,36600,1,0,0:0:0:0:s_059.ogg
179,192,36840,1,0,0:0:0:0:s_044.ogg
230,192,36840,1,0,0:0:0:0:s_041.ogg
281,192,36840,1,0,0:0:0:0:s_050.ogg
332,192,36840,1,0,0:0:0:0:s_047.ogg
179,192,36960,1,0,0:0:0:0:s_041.ogg
230,192,36960,1,0,0:0:0:0:m_044.ogg
281,192,36960,1,0,0:0:0:0:s_050.ogg
332,192,36960,1,0,0:0:0:0:m_047.ogg
76,192,37080,1,0,0:0:0:0:s_038.ogg
435,192,37080,1,0,0:0:0:0:s_053.ogg
128,192,37200,1,0,0:0:0:0:s_039.ogg
384,192,37200,1,0,0:0:0:0:s_051.ogg
179,192,37320,1,0,0:0:0:0:s_041.ogg
332,192,37320,1,0,0:0:0:0:s_050.ogg
25,192,37440,1,0,0:0:0:0:s_036.ogg
76,192,37440,1,0,0:0:0:0:s_027.ogg
435,192,37440,1,0,0:0:0:0:s_055.ogg
486,192,37440,1,0,0:0:0:0:s_067.ogg
384,192,37560,1,0,0:0:0:0:s_063.ogg
332,192,37560,1,0,0:0:0:0:s_060.ogg
179,192,37800,1,0,0:0:0:0:s_039.ogg
281,192,37800,1,0,0:0:0:0:s_048.ogg
384,192,37800,1,0,0:0:0:0:s_043.ogg
179,192,37920,1,0,0:0:0:0:s_039.ogg
281,192,37920,1,0,0:0:0:0:m_043.ogg
384,192,37920,1,0,0:0:0:0:s_048.ogg
76,192,38040,1,0,0:0:0:0:s_036.ogg
486,192,38040,1,0,0:0:0:0:s_051.ogg
128,192,38160,1,0,0:0:0:0:s_038.ogg
435,192,38160,1,0,0:0:0:0:s_050.ogg
179,192,38280,1,0,0:0:0:0:s_039.ogg
384,192,38280,1,0,0:0:0:0:s_048.ogg
25,192,38400,1,0,0:0:0:0:m_036.ogg
76,192,38400,1,0,0:0:0:0:m_032.ogg
281,192,38400,1,0,0:0:0:0:s_053.ogg
435,192,38400,1,0,0:0:0:0:s_041.ogg
230,192,38520,1,0,0:0:0:0:s_056.ogg
486,192,38520,1,0,0:0:0:0:s_044.ogg
179,192,38640,1,0,0:0:0:0:s_055.ogg
435,192,38640,1,0,0:0:0:0:s_043.ogg
384,192,38760,1,0,0:0:0:0:s_042.ogg
128,192,38760,1,0,0:0:0:0:s_054.ogg
25,192,38880,1,0,0:0:0:0:m_035.ogg
230,192,38880,1,0,0:0:0:0:m_019.ogg
332,192,38880,1,0,0:0:0:0:s_055.ogg
435,192,38880,1,0,0:0:0:0:s_043.ogg
128,192,39000,1,0,0:0:0:0:s_050.ogg
281,192,39000,1,0,0:0:0:0:s_038.ogg
179,192,39120,1,0,0:0:0:0:s_041.ogg
486,192,39120,1,0,0:0:0:0:s_053.ogg
76,192,39240,1,0,0:0:0:0:s_051.ogg
384,192,39240,1,0,0:0:0:0:s_039.ogg
25,192,39360,1,0,0:0:0:0:s_031.ogg
230,192,39360,1,0,0:0:0:0:m_024.ogg
281,192,39360,1,0,0:0:0:0:s_043.ogg
332,192,39360,1,0,0:0:0:0:m_038.ogg
179,192,39480,1,0,0:0:0:0:s_034.ogg
435,192,39480,1,0,0:0:0:0:s_046.ogg
128,192,39600,1,0,0:0:0:0:s_032.ogg
384,192,39600,1,0,0:0:0:0:s_044.ogg
76,192,39720,1,0,0:0:0:0:s_031.ogg
332,192,39720,1,0,0:0:0:0:s_043.ogg
25,192,39840,1,0,0:0:0:0:s_024.ogg
230,192,39840,1,0,0:0:0:0:s_027.ogg
435,192,39840,1,0,0:0:0:0:s_048.ogg
486,192,39840,1,0,0:0:0:0:s_036.ogg
281,192,40320,128,0,40920:0:0:0:0:m_036.ogg
25,192,40320,128,0,40920:0:0:0:0:m_024.ogg
486,192,40560,1,0,0:0:0:0:s_060.ogg
384,192,40680,1,0,0:0:0:0:s_056.ogg
179,192,40800,1,0,0:0:0:0:s_048.ogg
76,192,40920,1,0,0:0:0:0:s_043.ogg
230,192,41040,1,0,0:0:0:0:s_027.ogg
435,192,41040,1,0,0:0:0:0:s_039.ogg
179,192,41120,1,0,0:0:0:0:s_026.ogg
384,192,41120,1,0,0:0:0:0:s_038.ogg
128,192,41200,1,0,0:0:0:0:s_024.ogg
332,192,41200,1,0,0:0:0:0:s_036.ogg
281,192,41280,128,0,41880:0:0:0:0:m_035.ogg
76,192,41280,128,0,41880:0:0:0:0:m_023.ogg
486,192,41520,1,0,0:0:0:0:s_066.ogg
384,192,41640,1,0,0:0:0:0:s_062.ogg
128,192,41760,1,0,0:0:0:0:s_047.ogg
25,192,41880,1,0,0:0:0:0:s_043.ogg
76,192,42000,1,0,0:0:0:0:s_019.ogg
332,192,42000,1,0,0:0:0:0:s_031.ogg
128,192,42080,1,0,0:0:0:0:s_021.ogg
384,192,42080,1,0,0:0:0:0:s_033.ogg
179,192,42160,1,0,0:0:0:0:s_023.ogg
435,192,42160,1,0,0:0:0:0:s_035.ogg
230,192,42240,128,0,42840:0:0:0:0:m_024.ogg
486,192,42240,128,0,42840:0:0:0:0:m_036.ogg
384,192,42480,1,0,0:0:0:0:s_068.ogg
281,192,42600,1,0,0:0:0:0:s_063.ogg
128,192,42720,1,0,0:0:0:0:s_048.ogg
25,192,42840,1,0,0:0:0:0:s_051.ogg
179,192,42960,1,0,0:0:0:0:s_027.ogg
435,192,42960,1,0,0:0:0:0:s_039.ogg
128,192,43040,1,0,0:0:0:0:s_026.ogg
384,192,43040,1,0,0:0:0:0:s_038.ogg
76,192,43120,1,0,0:0:0:0:s_024.ogg
332,192,43120,1,0,0:0:0:0:s_036.ogg
281,192,43200,128,0,43800:0:0:0:0:m_035.ogg
25,192,43200,128,0,43800:0:0:0:0:m_023.ogg
486,192,43440,1,0,0:0:0:0:s_066.ogg
384,192,43560,1,0,0:0:0:0:s_062.ogg
230,192,43680,1,0,0:0:0:0:s_047.ogg
128,192,43800,1,0,0:0:0:0:s_043.ogg
25,192,43980,1,0,0:0:0:0:s_019.ogg
332,192,43980,1,0,0:0:0:0:s_031.ogg
76,192,44040,1,0,0:0:0:0:s_021.ogg
384,192,44040,1,0,0:0:0:0:s_033.ogg
128,192,44100,1,0,0:0:0:0:s_023.ogg
435,192,44100,1,0,0:0:0:0:s_035.ogg
179,192,44160,128,0,44760:0:0:0:0:m_024.ogg
486,192,44160,128,0,44760:0:0:0:0:m_036.ogg
384,192,44400,1,0,0:0:0:0:s_068.ogg
281,192,44520,1,0,0:0:0:0:s_063.ogg
128,192,44640,1,0,0:0:0:0:s_048.ogg
25,192,44760,1,0,0:0:0:0:s_043.ogg
179,192,44880,1,0,0:0:0:0:s_027.ogg
435,192,44880,1,0,0:0:0:0:s_039.ogg
128,192,44960,1,0,0:0:0:0:s_026.ogg
384,192,44960,1,0,0:0:0:0:s_038.ogg
76,192,45040,1,0,0:0:0:0:s_024.ogg
332,192,45040,1,0,0:0:0:0:s_036.ogg
281,192,45120,128,0,45720:0:0:0:0:m_035.ogg
25,192,45120,128,0,45720:0:0:0:0:m_023.ogg
486,192,45360,1,0,0:0:0:0:s_066.ogg
384,192,45480,1,0,0:0:0:0:s_062.ogg
230,192,45600,1,0,0:0:0:0:s_047.ogg
128,192,45720,1,0,0:0:0:0:s_050.ogg
25,192,45840,1,0,0:0:0:0:s_019.ogg
332,192,45840,1,0,0:0:0:0:s_031.ogg
76,192,45920,1,0,0:0:0:0:s_021.ogg
384,192,45920,1,0,0:0:0:0:s_033.ogg
128,192,46000,1,0,0:0:0:0:s_023.ogg
435,192,46000,1,0,0:0:0:0:s_035.ogg
179,192,46080,128,0,46680:0:0:0:0:m_012.ogg
486,192,46080,128,0,46680:0:0:0:0:m_036.ogg
384,192,46320,1,0,0:0:0:0:s_068.ogg
281,192,46440,1,0,0:0:0:0:s_063.ogg
128,192,46560,1,0,0:0:0:0:s_048.ogg
25,192,46680,1,0,0:0:0:0:s_043.ogg
179,192,46800,1,0,0:0:0:0:s_027.ogg
435,192,46800,1,0,0:0:0:0:s_039.ogg
128,192,46880,1,0,0:0:0:0:s_026.ogg
384,192,46880,1,0,0:0:0:0:s_038.ogg
76,192,46960,1,0,0:0:0:0:s_024.ogg
332,192,46960,1,0,0:0:0:0:s_036.ogg
281,192,47040,128,0,47640:0:0:0:0:m_035.ogg
25,192,47040,128,0,47640:0:0:0:0:m_023.ogg
486,192,47280,1,0,0:0:0:0:s_066.ogg
384,192,47400,1,0,0:0:0:0:s_062.ogg
230,192,47520,1,0,0:0:0:0:s_047.ogg
128,192,47640,1,0,0:0:0:0:s_043.ogg
25,192,47820,1,0,0:0:0:0:s_024.ogg
281,192,47820,1,0,0:0:0:0:s_036.ogg
76,192,47880,1,0,0:0:0:0:s_026.ogg
332,192,47880,1,0,0:0:0:0:s_038.ogg
128,192,47940,1,0,0:0:0:0:s_027.ogg
384,192,47940,1,0,0:0:0:0:s_039.ogg
179,192,48000,128,0,48600:0:0:0:0:m_028.ogg
435,192,48000,128,0,48600:0:0:0:0:m_040.ogg
384,192,48240,1,0,0:0:0:0:s_073.ogg
281,192,48360,1,0,0:0:0:0:s_070.ogg
128,192,48480,1,0,0:0:0:0:s_055.ogg
25,192,48600,1,0,0:0:0:0:s_048.ogg
76,192,48720,1,0,0:0:0:0:s_024.ogg
332,192,48720,1,0,0:0:0:0:s_036.ogg
128,192,48800,1,0,0:0:0:0:s_026.ogg
384,192,48800,1,0,0:0:0:0:s_038.ogg
179,192,48880,1,0,0:0:0:0:s_028.ogg
435,192,48880,1,0,0:0:0:0:s_040.ogg
230,192,48960,128,0,49560:0:0:0:0:m_017.ogg
486,192,48960,128,0,49560:0:0:0:0:m_041.ogg
384,192,49200,1,0,0:0:0:0:s_067.ogg
281,192,49320,1,0,0:0:0:0:s_065.ogg
128,192,49440,1,0,0:0:0:0:s_048.ogg
25,192,49560,1,0,0:0:0:0:s_044.ogg
179,192,49680,1,0,0:0:0:0:s_031.ogg
435,192,49680,1,0,0:0:0:0:s_043.ogg
128,192,49760,1,0,0:0:0:0:s_029.ogg
384,192,49760,1,0,0:0:0:0:s_041.ogg
76,192,49840,1,0,0:0:0:0:s_027.ogg
332,192,49840,1,0,0:0:0:0:s_039.ogg
281,192,49920,128,0,50520:0:0:0:0:m_038.ogg
25,192,49920,128,0,50520:0:0:0:0:m_026.ogg
486,192,50160,1,0,0:0:0:0:s_071.ogg
384,192,50280,1,0,0:0:0:0:s_068.ogg
230,192,50400,1,0,0:0:0:0:s_058.ogg
128,192,50520,1,0,0:0:0:0:s_046.ogg
25,192,50640,1,0,0:0:0:0:s_022.ogg
281,192,50640,1,0,0:0:0:0:s_034.ogg
76,192,50720,1,0,0:0:0:0:s_024.ogg
332,192,50720,1,0,0:0:0:0:s_036.ogg
128,192,50800,1,0,0:0:0:0:s_026.ogg
384,192,50800,1,0,0:0:0:0:s_038.ogg
179,192,50880,128,0,51480:0:0:0:0:m_027.ogg
435,192,50880,128,0,51480:0:0:0:0:m_039.ogg
384,192,51120,1,0,0:0:0:0:s_066.ogg
281,192,51240,1,0,0:0:0:0:s_063.ogg
128,192,51360,1,0,0:0:0:0:s_046.ogg
25,192,51480,1,0,0:0:0:0:s_043.ogg
76,192,51600,1,0,0:0:0:0:s_026.ogg
332,192,51600,1,0,0:0:0:0:s_038.ogg
128,192,51680,1,0,0:0:0:0:s_027.ogg
384,192,51680,1,0,0:0:0:0:s_039.ogg
179,192,51760,1,0,0:0:0:0:s_028.ogg
435,192,51760,1,0,0:0:0:0:s_040.ogg
230,192,51840,128,0,52440:0:0:0:0:m_017.ogg
486,192,51840,128,0,52440:0:0:0:0:m_041.ogg
384,192,52080,1,0,0:0:0:0:s_074.ogg
281,192,52200,1,0,0:0:0:0:s_068.ogg
128,192,52320,1,0,0:0:0:0:s_053.ogg
25,192,52440,1,0,0:0:0:0:s_049.ogg
76,192,52560,1,0,0:0:0:0:s_025.ogg
281,192,52560,1,0,0:0:0:0:s_037.ogg
128,192,52640,1,0,0:0:0:0:s_027.ogg
332,192,52640,1,0,0:0:0:0:s_039.ogg
179,192,52720,1,0,0:0:0:0:s_029.ogg
384,192,52720,1,0,0:0:0:0:s_041.ogg
230,192,52800,128,0,53400:0:0:0:0:m_031.ogg
435,192,52800,128,0,53400:0:0:0:0:m_043.ogg
486,192,53040,1,0,0:0:0:0:s_062.ogg
384,192,53160,1,0,0:0:0:0:s_065.ogg
128,192,53280,1,0,0:0:0:0:s_051.ogg
25,192,53400,1,0,0:0:0:0:s_048.ogg
230,192,53520,1,0,0:0:0:0:s_032.ogg
435,192,53520,1,0,0:0:0:0:s_044.ogg
179,192,53600,1,0,0:0:0:0:s_031.ogg
384,192,53600,1,0,0:0:0:0:s_043.ogg
128,192,53680,1,0,0:0:0:0:s_030.ogg
332,192,53680,1,0,0:0:0:0:s_042.ogg
76,192,53760,1,0,0:0:0:0:m_029.ogg
281,192,53760,128,0,54360:0:0:0:0:m_041.ogg
25,192,54000,1,0,0:0:0:0:s_026.ogg
435,192,54000,1,0,0:0:0:0:s_068.ogg
76,192,54080,1,0,0:0:0:0:s_027.ogg
332,192,54120,1,0,0:0:0:0:s_062.ogg
128,192,54160,1,0,0:0:0:0:s_029.ogg
179,192,54240,1,0,0:0:0:0:s_019.ogg
435,192,54240,1,0,0:0:0:0:s_055.ogg
332,192,54360,1,0,0:0:0:0:s_043.ogg
230,192,54480,1,0,0:0:0:0:s_029.ogg
486,192,54480,1,0,0:0:0:0:s_041.ogg
179,192,54560,1,0,0:0:0:0:s_027.ogg
435,192,54560,1,0,0:0:0:0:s_039.ogg
128,192,54640,1,0,0:0:0:0:s_026.ogg
384,192,54640,1,0,0:0:0:0:s_038.ogg
332,192,54720,1,0,0:0:0:0:m_036.ogg
76,192,54720,128,0,55320:0:0:0:0:m_012.ogg
128,192,54960,1,0,0:0:0:0:s_043.ogg
230,192,54960,1,0,0:0:0:0:s_051.ogg
435,192,54960,1,0,0:0:0:0:s_075.ogg
332,192,55080,1,0,0:0:0:0:s_063.ogg
25,192,55200,1,0,0:0:0:0:s_039.ogg
179,192,55200,1,0,0:0:0:0:s_048.ogg
384,192,55200,1,0,0:0:0:0:s_067.ogg
281,192,55320,1,0,0:0:0:0:s_060.ogg
25,192,55680,1,0,0:0:0:0:s_015.ogg
486,192,55680,128,0,56280:0:0:0:0:m_079.ogg
384,192,55680,128,0,56280:0:0:0:0:m_067.ogg
76,192,55800,1,0,0:0:0:0:s_014.ogg
128,192,55920,1,0,0:0:0:0:s_015.ogg
179,192,56040,1,0,0:0:0:0:s_017.ogg
230,192,56160,1,0,0:0:0:0:s_023.ogg
25,192,56280,1,0,0:0:0:0:s_024.ogg
76,192,56400,1,0,0:0:0:0:s_026.ogg
332,192,56400,1,0,0:0:0:0:s_065.ogg
486,192,56400,1,0,0:0:0:0:s_077.ogg
128,192,56520,1,0,0:0:0:0:s_024.ogg
281,192,56520,1,0,0:0:0:0:s_075.ogg
435,192,56520,1,0,0:0:0:0:s_063.ogg
179,192,56640,1,0,0:0:0:0:s_026.ogg
384,192,56640,1,0,0:0:0:0:s_074.ogg
486,192,56640,1,0,0:0:0:0:s_062.ogg
230,192,56760,1,0,0:0:0:0:s_027.ogg
332,192,56760,1,0,0:0:0:0:s_068.ogg
435,192,56760,1,0,0:0:0:0:s_060.ogg
25,192,56880,1,0,0:0:0:0:s_032.ogg
281,192,56880,1,0,0:0:0:0:s_071.ogg
384,192,56880,1,0,0:0:0:0:s_059.ogg
76,192,57000,1,0,0:0:0:0:s_035.ogg
332,192,57000,1,0,0:0:0:0:s_068.ogg
486,192,57000,1,0,0:0:0:0:s_056.ogg
128,192,57120,1,0,0:0:0:0:s_032.ogg
281,192,57120,1,0,0:0:0:0:s_055.ogg
435,192,57120,1,0,0:0:0:0:s_067.ogg
179,192,57240,1,0,0:0:0:0:s_035.ogg
384,192,57240,1,0,0:0:0:0:s_065.ogg
486,192,57240,1,0,0:0:0:0:s_053.ogg
230,192,57360,1,0,0:0:0:0:s_036.ogg
332,192,57360,1,0,0:0:0:0:s_060.ogg
435,192,57360,1,0,0:0:0:0:s_063.ogg
25,192,57480,1,0,0:0:0:0:s_041.ogg
281,192,57480,1,0,0:0:0:0:s_059.ogg
384,192,57480,1,0,0:0:0:0:s_050.ogg
76,192,57600,1,0,0:0:0:0:s_036.ogg
435,192,57600,128,0,58200:0:0:0:0:m_063.ogg
332,192,57600,128,0,58200:0:0:0:0:m_051.ogg
128,192,57720,1,0,0:0:0:0:s_038.ogg
179,192,57840,1,0,0:0:0:0:s_043.ogg
230,192,57960,1,0,0:0:0:0:s_044.ogg
179,192,58080,1,0,0:0:0:0:s_041.ogg
128,192,58200,1,0,0:0:0:0:s_039.ogg
76,192,58320,1,0,0:0:0:0:s_038.ogg
384,192,58320,1,0,0:0:0:0:s_065.ogg
486,192,58320,1,0,0:0:0:0:s_053.ogg
25,192,58440,1,0,0:0:0:0:s_036.ogg
281,192,58440,1,0,0:0:0:0:s_055.ogg
435,192,58440,1,0,0:0:0:0:s_067.ogg
230,192,58560,1,0,0:0:0:0:s_041.ogg
384,192,58560,1,0,0:0:0:0:s_053.ogg
486,192,58560,1,0,0:0:0:0:s_065.ogg
179,192,58680,1,0,0:0:0:0:s_036.ogg
332,192,58680,1,0,0:0:0:0:s_063.ogg
435,192,58680,1,0,0:0:0:0:s_051.ogg
128,192,58800,1,0,0:0:0:0:s_038.ogg
281,192,58800,1,0,0:0:0:0:s_059.ogg
384,192,58800,1,0,0:0:0:0:s_062.ogg
76,192,58920,1,0,0:0:0:0:s_036.ogg
332,192,58920,1,0,0:0:0:0:s_048.ogg
486,192,58920,1,0,0:0:0:0:s_060.ogg
25,192,59040,1,0,0:0:0:0:m_035.ogg
281,192,59040,1,0,0:0:0:0:m_059.ogg
435,192,59040,1,0,0:0:0:0:m_047.ogg
281,192,59520,1,0,0:0:0:0:s_024.ogg
230,192,59520,128,0,60120:0:0:0:0:m_079.ogg
128,192,59520,128,0,60120:0:0:0:0:m_067.ogg
332,192,59640,1,0,0:0:0:0:s_014.ogg
384,192,59760,1,0,0:0:0:0:s_015.ogg
435,192,59880,1,0,0:0:0:0:s_017.ogg
332,192,60000,1,0,0:0:0:0:s_031.ogg
384,192,60120,1,0,0:0:0:0:s_032.ogg
76,192,60240,1,0,0:0:0:0:s_065.ogg
230,192,60240,1,0,0:0:0:0:s_077.ogg
435,192,60240,1,0,0:0:0:0:s_023.ogg
25,192,60360,1,0,0:0:0:0:s_075.ogg
179,192,60360,1,0,0:0:0:0:s_063.ogg
486,192,60360,1,0,0:0:0:0:s_024.ogg
128,192,60480,1,0,0:0:0:0:s_074.ogg
230,192,60480,1,0,0:0:0:0:s_062.ogg
281,192,60480,1,0,0:0:0:0:s_026.ogg
76,192,60600,1,0,0:0:0:0:s_068.ogg
179,192,60600,1,0,0:0:0:0:s_060.ogg
332,192,60600,1,0,0:0:0:0:s_039.ogg
25,192,60720,1,0,0:0:0:0:s_071.ogg
128,192,60720,1,0,0:0:0:0:s_067.ogg
384,192,60720,1,0,0:0:0:0:s_041.ogg
76,192,60840,1,0,0:0:0:0:s_068.ogg
230,192,60840,1,0,0:0:0:0:s_056.ogg
435,192,60840,1,0,0:0:0:0:s_031.ogg
25,192,60960,1,0,0:0:0:0:s_055.ogg
179,192,60960,1,0,0:0:0:0:s_067.ogg
332,192,60960,1,0,0:0:0:0:s_032.ogg
128,192,61080,1,0,0:0:0:0:s_065.ogg
230,192,61080,1,0,0:0:0:0:s_053.ogg
384,192,61080,1,0,0:0:0:0:s_035.ogg
76,192,61200,1,0,0:0:0:0:s_060.ogg
179,192,61200,1,0,0:0:0:0:s_063.ogg
435,192,61200,1,0,0:0:0:0:s_048.ogg
25,192,61320,1,0,0:0:0:0:s_062.ogg
128,192,61320,1,0,0:0:0:0:s_059.ogg
486,192,61320,1,0,0:0:0:0:s_050.ogg
435,192,61440,1,0,0:0:0:0:s_036.ogg
179,192,61440,128,0,62040:0:0:0:0:m_060.ogg
76,192,61440,128,0,62040:0:0:0:0:m_051.ogg
384,192,61560,1,0,0:0:0:0:s_035.ogg
332,192,61680,1,0,0:0:0:0:s_044.ogg
281,192,61800,1,0,0:0:0:0:s_043.ogg
486,192,61920,1,0,0:0:0:0:s_044.ogg
435,192,62040,1,0,0:0:0:0:s_043.ogg
128,192,62160,1,0,0:0:0:0:s_053.ogg
230,192,62160,1,0,0:0:0:0:s_065.ogg
384,192,62160,1,0,0:0:0:0:s_041.ogg
25,192,62280,1,0,0:0:0:0:s_055.ogg
179,192,62280,1,0,0:0:0:0:s_063.ogg
332,192,62280,1,0,0:0:0:0:s_039.ogg
128,192,62400,1,0,0:0:0:0:s_065.ogg
230,192,62400,1,0,0:0:0:0:s_053.ogg
486,192,62400,1,0,0:0:0:0:s_026.ogg
76,192,62520,1,0,0:0:0:0:s_051.ogg
179,192,62520,1,0,0:0:0:0:s_063.ogg
435,192,62520,1,0,0:0:0:0:s_024.ogg
25,192,62640,1,0,0:0:0:0:s_062.ogg
128,192,62640,1,0,0:0:0:0:s_050.ogg
384,192,62640,1,0,0:0:0:0:s_023.ogg
76,192,62760,1,0,0:0:0:0:s_048.ogg
230,192,62760,1,0,0:0:0:0:s_060.ogg
332,192,62760,1,0,0:0:0:0:s_044.ogg
25,192,62880,1,0,0:0:0:0:m_047.ogg
179,192,62880,1,0,0:0:0:0:m_059.ogg
281,192,62880,1,0,0:0:0:0:m_031.ogg
230,192,63360,1,0,0:0:0:0:s_049.ogg
435,192,63360,128,0,63840:0:0:0:0:m_055.ogg
332,192,63360,128,0,63840:0:0:0:0:m_064.ogg
179,192,63480,1,0,0:0:0:0:s_048.ogg
128,192,63600,1,0,0:0:0:0:s_034.ogg
76,192,63720,1,0,0:0:0:0:s_031.ogg
230,192,63840,1,0,0:0:0:0:s_040.ogg
281,192,63840,1,0,0:0:0:0:s_060.ogg
179,192,63960,1,0,0:0:0:0:s_025.ogg
128,192,64080,1,0,0:0:0:0:s_024.ogg
384,192,64080,1,0,0:0:0:0:s_062.ogg
486,192,64080,1,0,0:0:0:0:s_053.ogg
76,192,64200,1,0,0:0:0:0:s_034.ogg
281,192,64200,1,0,0:0:0:0:s_064.ogg
435,192,64200,1,0,0:0:0:0:s_067.ogg
179,192,64320,1,0,0:0:0:0:m_032.ogg
332,192,64320,1,0,0:0:0:0:m_056.ogg
486,192,64320,1,0,0:0:0:0:s_068.ogg
128,192,64440,1,0,0:0:0:0:m_031.ogg
281,192,64440,1,0,0:0:0:0:m_067.ogg
384,192,64440,1,0,0:0:0:0:s_070.ogg
76,192,64560,1,0,0:0:0:0:m_029.ogg
332,192,64560,1,0,0:0:0:0:m_060.ogg
435,192,64560,1,0,0:0:0:0:s_072.ogg
25,192,64680,1,0,0:0:0:0:s_024.ogg
384,192,64680,1,0,0:0:0:0:m_062.ogg
486,192,64680,1,0,0:0:0:0:s_074.ogg
179,192,64800,1,0,0:0:0:0:s_022.ogg
281,192,64800,1,0,0:0:0:0:m_072.ogg
435,192,64800,1,0,0:0:0:0:s_076.ogg
128,192,64920,1,0,0:0:0:0:m_024.ogg
332,192,64920,1,0,0:0:0:0:m_065.ogg
486,192,64920,1,0,0:0:0:0:s_077.ogg
76,192,65040,1,0,0:0:0:0:s_019.ogg
281,192,65040,1,0,0:0:0:0:s_079.ogg
384,192,65040,1,0,0:0:0:0:s_076.ogg
25,192,65160,1,0,0:0:0:0:s_017.ogg
332,192,65160,1,0,0:0:0:0:s_080.ogg
435,192,65160,1,0,0:0:0:0:s_068.ogg
486,192,65280,1,0,0:0:0:0:s_035.ogg
179,192,65280,128,0,65760:0:0:0:0:m_053.ogg
76,192,65280,128,0,65760:0:0:0:0:m_050.ogg
435,192,65400,1,0,0:0:0:0:s_034.ogg
384,192,65520,1,0,0:0:0:0:s_032.ogg
332,192,65640,1,0,0:0:0:0:s_041.ogg
25,192,65760,1,0,0:0:0:0:s_058.ogg
486,192,65760,1,0,0:0:0:0:s_038.ogg
435,192,65880,1,0,0:0:0:0:s_035.ogg
128,192,66000,1,0,0:0:0:0:s_060.ogg
230,192,66000,1,0,0:0:0:0:s_063.ogg
384,192,66000,1,0,0:0:0:0:s_034.ogg
25,192,66120,1,0,0:0:0:0:s_053.ogg
179,192,66120,1,0,0:0:0:0:s_062.ogg
332,192,66120,1,0,0:0:0:0:s_032.ogg
76,192,66240,1,0,0:0:0:0:m_055.ogg
230,192,66240,1,0,0:0:0:0:m_063.ogg
435,192,66240,1,0,0:0:0:0:m_031.ogg
25,192,66360,1,0,0:0:0:0:m_056.ogg
128,192,66360,1,0,0:0:0:0:m_065.ogg
384,192,66360,1,0,0:0:0:0:m_029.ogg
76,192,66480,1,0,0:0:0:0:m_058.ogg
179,192,66480,1,0,0:0:0:0:m_067.ogg
332,192,66480,1,0,0:0:0:0:s_024.ogg
128,192,66600,1,0,0:0:0:0:m_068.ogg
230,192,66600,1,0,0:0:0:0:m_060.ogg
281,192,66600,1,0,0:0:0:0:s_022.ogg
25,192,66720,1,0,0:0:0:0:m_070.ogg
179,192,66720,1,0,0:0:0:0:m_062.ogg
435,192,66720,1,0,0:0:0:0:m_024.ogg
76,192,66840,1,0,0:0:0:0:m_063.ogg
230,192,66840,1,0,0:0:0:0:m_072.ogg
384,192,66840,1,0,0:0:0:0:m_022.ogg
25,192,66960,1,0,0:0:0:0:s_077.ogg
128,192,66960,1,0,0:0:0:0:s_074.ogg
332,192,66960,1,0,0:0:0:0:s_020.ogg
76,192,67080,1,0,0:0:0:0:s_079.ogg
179,192,67080,1,0,0:0:0:0:s_075.ogg
281,192,67080,1,0,0:0:0:0:s_019.ogg
25,192,67200,1,0,0:0:0:0:s_017.ogg
128,192,67200,1,0,0:0:0:0:s_023.ogg
230,192,67200,1,0,0:0:0:0:s_029.ogg
332,192,67200,1,0,0:0:0:0:s_068.ogg
435,192,67200,1,0,0:0:0:0:s_074.ogg
486,192,67200,1,0,0:0:0:0:s_071.ogg
76,192,67320,1,0,0:0:0:0:s_020.ogg
384,192,67320,1,0,0:0:0:0:s_065.ogg
486,192,67320,1,0,0:0:0:0:s_077.ogg
128,192,67440,1,0,0:0:0:0:s_035.ogg
332,192,67440,1,0,0:0:0:0:s_074.ogg
435,192,67440,1,0,0:0:0:0:s_062.ogg
179,192,67560,1,0,0:0:0:0:s_026.ogg
281,192,67560,1,0,0:0:0:0:s_071.ogg
384,192,67560,1,0,0:0:0:0:s_059.ogg
25,192,67680,1,0,0:0:0:0:s_029.ogg
76,192,67680,1,0,0:0:0:0:s_038.ogg
128,192,67680,1,0,0:0:0:0:s_041.ogg
281,192,67680,1,0,0:0:0:0:s_059.ogg
332,192,67680,1,0,0:0:0:0:s_056.ogg
486,192,67680,1,0,0:0:0:0:s_062.ogg
76,192,67800,1,0,0:0:0:0:s_054.ogg
179,192,67800,1,0,0:0:0:0:s_066.ogg
435,192,67800,1,0,0:0:0:0:s_030.ogg
128,192,67920,1,0,0:0:0:0:s_067.ogg
230,192,67920,1,0,0:0:0:0:s_055.ogg
384,192,67920,1,0,0:0:0:0:s_043.ogg
76,192,68040,1,0,0:0:0:0:s_065.ogg
179,192,68040,1,0,0:0:0:0:s_053.ogg
332,192,68040,1,0,0:0:0:0:s_044.ogg
25,192,68160,1,0,0:0:0:0:s_012.ogg
179,192,68160,1,0,0:0:0:0:s_018.ogg
230,192,68160,1,0,0:0:0:0:s_024.ogg
281,192,68160,1,0,0:0:0:0:s_075.ogg
435,192,68160,1,0,0:0:0:0:s_063.ogg
486,192,68160,1,0,0:0:0:0:s_069.ogg
76,192,68280,1,0,0:0:0:0:s_027.ogg
384,192,68280,1,0,0:0:0:0:s_072.ogg
486,192,68280,1,0,0:0:0:0:s_060.ogg
128,192,68400,1,0,0:0:0:0:s_030.ogg
332,192,68400,1,0,0:0:0:0:s_069.ogg
435,192,68400,1,0,0:0:0:0:s_057.ogg
179,192,68520,1,0,0:0:0:0:s_021.ogg
281,192,68520,1,0,0:0:0:0:s_066.ogg
384,192,68520,1,0,0:0:0:0:s_054.ogg
25,192,68640,1,0,0:0:0:0:s_033.ogg
76,192,68640,1,0,0:0:0:0:s_030.ogg
128,192,68640,1,0,0:0:0:0:s_024.ogg
281,192,68640,1,0,0:0:0:0:s_063.ogg
332,192,68640,1,0,0:0:0:0:s_051.ogg
486,192,68640,1,0,0:0:0:0:s_054.ogg
76,192,68760,1,0,0:0:0:0:s_037.ogg
179,192,68760,1,0,0:0:0:0:s_049.ogg
435,192,68760,1,0,0:0:0:0:s_061.ogg
128,192,68880,1,0,0:0:0:0:s_038.ogg
230,192,68880,1,0,0:0:0:0:s_062.ogg
384,192,68880,1,0,0:0:0:0:s_050.ogg
76,192,69000,1,0,0:0:0:0:s_039.ogg
179,192,69000,1,0,0:0:0:0:s_060.ogg
332,192,69000,1,0,0:0:0:0:s_048.ogg
25,192,69120,1,0,0:0:0:0:s_038.ogg
179,192,69120,1,0,0:0:0:0:s_029.ogg
230,192,69120,1,0,0:0:0:0:s_036.ogg
281,192,69120,1,0,0:0:0:0:s_056.ogg
384,192,69120,1,0,0:0:0:0:s_050.ogg
486,192,69120,1,0,0:0:0:0:s_048.ogg
76,192,69240,1,0,0:0:0:0:s_030.ogg
332,192,69240,1,0,0:0:0:0:s_054.ogg
435,192,69240,1,0,0:0:0:0:s_042.ogg
128,192,69360,1,0,0:0:0:0:s_031.ogg
384,192,69360,1,0,0:0:0:0:s_055.ogg
486,192,69360,1,0,0:0:0:0:s_043.ogg
179,192,69480,1,0,0:0:0:0:s_032.ogg
332,192,69480,1,0,0:0:0:0:s_053.ogg
435,192,69480,1,0,0:0:0:0:s_041.ogg
76,192,69600,1,0,0:0:0:0:s_043.ogg
128,192,69600,1,0,0:0:0:0:s_035.ogg
230,192,69600,1,0,0:0:0:0:s_031.ogg
281,192,69600,1,0,0:0:0:0:s_052.ogg
486,192,69600,1,0,0:0:0:0:s_040.ogg
332,192,69720,1,0,0:0:0:0:s_050.ogg
384,192,69720,1,0,0:0:0:0:s_038.ogg
25,192,69840,1,0,0:0:0:0:s_031.ogg
76,192,69840,1,0,0:0:0:0:s_035.ogg
179,192,69840,1,0,0:0:0:0:s_041.ogg
435,192,69840,1,0,0:0:0:0:s_039.ogg
486,192,69840,1,0,0:0:0:0:s_051.ogg
332,192,69960,1,0,0:0:0:0:s_050.ogg
384,192,69960,1,0,0:0:0:0:s_038.ogg
25,192,70080,1,0,0:0:0:0:m_032.ogg
76,192,70080,1,0,0:0:0:0:m_029.ogg
128,192,70080,1,0,0:0:0:0:m_024.ogg
281,192,70080,1,0,0:0:0:0:m_048.ogg
435,192,70080,1,0,0:0:0:0:m_044.ogg
486,192,70080,1,0,0:0:0:0:m_036.ogg
179,192,70560,1,0,0:0:0:0:s_031.ogg
230,192,70560,1,0,0:0:0:0:s_027.ogg
332,192,70560,1,0,0:0:0:0:s_043.ogg
384,192,70560,1,0,0:0:0:0:s_039.ogg
128,192,71040,1,0,0:0:0:0:s_024.ogg
230,192,71040,1,0,0:0:0:0:s_031.ogg
281,192,71040,1,0,0:0:0:0:s_039.ogg
384,192,71040,1,0,0:0:0:0:s_036.ogg
179,192,71220,1,0,0:0:0:0:s_031.ogg
230,192,71220,1,0,0:0:0:0:s_027.ogg
435,192,71310,1,0,0:0:0:0:s_043.ogg
128,192,71400,1,0,0:0:0:0:s_026.ogg
230,192,71400,1,0,0:0:0:0:s_031.ogg
384,192,71490,1,0,0:0:0:0:s_041.ogg
435,192,71490,1,0,0:0:0:0:s_043.ogg
76,192,71580,1,0,0:0:0:0:s_024.ogg
230,192,71580,1,0,0:0:0:0:s_031.ogg
332,192,71670,1,0,0:0:0:0:s_039.ogg
435,192,71670,1,0,0:0:0:0:s_043.ogg
25,192,71760,1,0,0:0:0:0:s_023.ogg
230,192,71760,1,0,0:0:0:0:s_031.ogg
281,192,71850,1,0,0:0:0:0:s_038.ogg
435,192,71850,1,0,0:0:0:0:s_043.ogg
128,192,71940,1,0,0:0:0:0:s_019.ogg
230,192,71940,1,0,0:0:0:0:s_031.ogg
435,192,72030,1,0,0:0:0:0:s_050.ogg
486,192,72030,1,0,0:0:0:0:s_038.ogg
25,192,72120,1,0,0:0:0:0:s_031.ogg
230,192,72120,1,0,0:0:0:0:s_021.ogg
281,192,72210,1,0,0:0:0:0:s_036.ogg
435,192,72210,1,0,0:0:0:0:s_043.ogg
76,192,72300,1,0,0:0:0:0:s_023.ogg
230,192,72300,1,0,0:0:0:0:s_031.ogg
332,192,72390,1,0,0:0:0:0:s_038.ogg
435,192,72390,1,0,0:0:0:0:s_043.ogg
128,192,72510,1,0,0:0:0:0:s_024.ogg
230,192,72510,1,0,0:0:0:0:s_031.ogg
384,192,72510,1,0,0:0:0:0:s_039.ogg
435,192,72510,1,0,0:0:0:0:s_036.ogg
179,192,72690,1,0,0:0:0:0:s_027.ogg
230,192,72690,1,0,0:0:0:0:s_031.ogg
435,192,72780,1,0,0:0:0:0:s_043.ogg
128,192,72870,1,0,0:0:0:0:s_026.ogg
230,192,72870,1,0,0:0:0:0:s_031.ogg
384,192,72960,1,0,0:0:0:0:s_041.ogg
435,192,72960,1,0,0:0:0:0:s_043.ogg
76,192,73050,1,0,0:0:0:0:s_024.ogg
230,192,73050,1,0,0:0:0:0:s_031.ogg
332,192,73140,1,0,0:0:0:0:s_039.ogg
435,192,73140,1,0,0:0:0:0:s_043.ogg
25,192,73230,1,0,0:0:0:0:s_023.ogg
230,192,73230,1,0,0:0:0:0:s_031.ogg
281,192,73320,1,0,0:0:0:0:s_038.ogg
435,192,73320,1,0,0:0:0:0:s_043.ogg
76,192,73410,1,0,0:0:0:0:s_020.ogg
179,192,73410,1,0,0:0:0:0:s_030.ogg
384,192,73500,1,0,0:0:0:0:s_048.ogg
486,192,73500,1,0,0:0:0:0:s_038.ogg
128,192,73590,1,0,0:0:0:0:s_019.ogg
230,192,73590,1,0,0:0:0:0:s_031.ogg
332,192,73680,1,0,0:0:0:0:s_047.ogg
435,192,73680,1,0,0:0:0:0:s_043.ogg
179,192,73770,1,0,0:0:0:0:s_031.ogg
230,192,73770,1,0,0:0:0:0:s_035.ogg
435,192,73860,1,0,0:0:0:0:s_043.ogg
25,192,73980,1,0,0:0:0:0:s_024.ogg
128,192,73980,1,0,0:0:0:0:s_036.ogg
384,192,73980,1,0,0:0:0:0:s_043.ogg
486,192,73980,1,0,0:0:0:0:s_051.ogg
76,192,74160,1,0,0:0:0:0:s_039.ogg
179,192,74160,1,0,0:0:0:0:s_027.ogg
384,192,74250,1,0,0:0:0:0:s_055.ogg
25,192,74340,1,0,0:0:0:0:s_026.ogg
128,192,74340,1,0,0:0:0:0:s_038.ogg
384,192,74430,1,0,0:0:0:0:s_043.ogg
486,192,74430,1,0,0:0:0:0:s_055.ogg
76,192,74520,1,0,0:0:0:0:s_036.ogg
230,192,74520,1,0,0:0:0:0:s_024.ogg
384,192,74610,1,0,0:0:0:0:s_051.ogg
435,192,74610,1,0,0:0:0:0:s_055.ogg
25,192,74700,1,0,0:0:0:0:s_023.ogg
179,192,74700,1,0,0:0:0:0:s_035.ogg
332,192,74790,1,0,0:0:0:0:s_050.ogg
384,192,74790,1,0,0:0:0:0:s_055.ogg
128,192,74880,1,0,0:0:0:0:s_031.ogg
230,192,74880,1,0,0:0:0:0:s_019.ogg
435,192,74970,1,0,0:0:0:0:s_050.ogg
486,192,74970,1,0,0:0:0:0:s_062.ogg
25,192,75060,1,0,0:0:0:0:s_021.ogg
179,192,75060,1,0,0:0:0:0:s_033.ogg
281,192,75150,1,0,0:0:0:0:s_048.ogg
384,192,75150,1,0,0:0:0:0:s_055.ogg
76,192,75240,1,0,0:0:0:0:s_035.ogg
230,192,75240,1,0,0:0:0:0:s_023.ogg
332,192,75330,1,0,0:0:0:0:s_050.ogg
384,192,75330,1,0,0:0:0:0:s_055.ogg
25,192,75450,1,0,0:0:0:0:s_024.ogg
128,192,75450,1,0,0:0:0:0:s_036.ogg
384,192,75450,1,0,0:0:0:0:s_055.ogg
435,192,75450,1,0,0:0:0:0:s_048.ogg
76,192,75630,1,0,0:0:0:0:s_027.ogg
179,192,75630,1,0,0:0:0:0:s_039.ogg
384,192,75720,1,0,0:0:0:0:s_043.ogg
25,192,75810,1,0,0:0:0:0:s_026.ogg
128,192,75810,1,0,0:0:0:0:s_038.ogg
384,192,75900,1,0,0:0:0:0:s_043.ogg
435,192,75900,1,0,0:0:0:0:s_055.ogg
76,192,75990,1,0,0:0:0:0:s_036.ogg
230,192,75990,1,0,0:0:0:0:s_024.ogg
332,192,76080,1,0,0:0:0:0:s_055.ogg
384,192,76080,1,0,0:0:0:0:s_051.ogg
25,192,76170,1,0,0:0:0:0:s_023.ogg
179,192,76170,1,0,0:0:0:0:s_035.ogg
281,192,76260,1,0,0:0:0:0:s_050.ogg
384,192,76260,1,0,0:0:0:0:s_055.ogg
128,192,76350,1,0,0:0:0:0:s_032.ogg
230,192,76350,1,0,0:0:0:0:s_020.ogg
435,192,76440,1,0,0:0:0:0:s_054.ogg
486,192,76440,1,0,0:0:0:0:s_048.ogg
76,192,76530,1,0,0:0:0:0:s_031.ogg
179,192,76530,1,0,0:0:0:0:s_019.ogg
332,192,76620,1,0,0:0:0:0:s_047.ogg
384,192,76620,1,0,0:0:0:0:s_055.ogg
128,192,76710,1,0,0:0:0:0:s_038.ogg
230,192,76710,1,0,0:0:0:0:s_035.ogg
281,192,76800,1,0,0:0:0:0:s_050.ogg
384,192,76800,1,0,0:0:0:0:s_047.ogg
25,192,76920,1,0,0:0:0:0:s_024.ogg
128,192,76920,1,0,0:0:0:0:s_036.ogg
332,192,76920,1,0,0:0:0:0:s_055.ogg
435,192,76920,1,0,0:0:0:0:s_048.ogg
76,192,77100,1,0,0:0:0:0:s_026.ogg
179,192,77100,1,0,0:0:0:0:s_038.ogg
384,192,77190,1,0,0:0:0:0:s_043.ogg
486,192,77190,1,0,0:0:0:0:s_048.ogg
128,192,77280,1,0,0:0:0:0:s_028.ogg
230,192,77280,1,0,0:0:0:0:s_040.ogg
435,192,77370,1,0,0:0:0:0:s_055.ogg
486,192,77370,1,0,0:0:0:0:s_048.ogg
76,192,77460,1,0,0:0:0:0:s_036.ogg
179,192,77460,1,0,0:0:0:0:s_024.ogg
384,192,77550,1,0,0:0:0:0:s_043.ogg
486,192,77550,1,0,0:0:0:0:s_055.ogg
25,192,77640,1,0,0:0:0:0:m_029.ogg
128,192,77640,1,0,0:0:0:0:m_041.ogg
281,192,77730,1,0,0:0:0:0:m_056.ogg
332,192,77730,1,0,0:0:0:0:m_053.ogg
76,192,77820,1,0,0:0:0:0:s_049.ogg
179,192,77820,1,0,0:0:0:0:s_040.ogg
281,192,77910,1,0,0:0:0:0:m_067.ogg
384,192,77910,1,0,0:0:0:0:m_055.ogg
128,192,78000,1,0,0:0:0:0:s_048.ogg
230,192,78000,1,0,0:0:0:0:m_041.ogg
332,192,78090,1,0,0:0:0:0:s_060.ogg
435,192,78090,1,0,0:0:0:0:s_068.ogg
76,192,78180,1,0,0:0:0:0:s_044.ogg
179,192,78180,1,0,0:0:0:0:s_048.ogg
281,192,78270,1,0,0:0:0:0:s_056.ogg
384,192,78270,1,0,0:0:0:0:s_065.ogg
25,192,78390,1,0,0:0:0:0:s_022.ogg
128,192,78390,1,0,0:0:0:0:s_034.ogg
332,192,78390,1,0,0:0:0:0:s_041.ogg
435,192,78390,1,0,0:0:0:0:s_053.ogg
76,192,78570,1,0,0:0:0:0:s_024.ogg
179,192,78570,1,0,0:0:0:0:s_036.ogg
384,192,78660,1,0,0:0:0:0:s_041.ogg
486,192,78660,1,0,0:0:0:0:s_051.ogg
128,192,78750,1,0,0:0:0:0:s_026.ogg
230,192,78750,1,0,0:0:0:0:s_038.ogg
435,192,78840,1,0,0:0:0:0:s_053.ogg
486,192,78840,1,0,0:0:0:0:s_041.ogg
76,192,78930,1,0,0:0:0:0:s_034.ogg
179,192,78930,1,0,0:0:0:0:s_022.ogg
384,192,79020,1,0,0:0:0:0:s_050.ogg
486,192,79020,1,0,0:0:0:0:s_053.ogg
25,192,79110,1,0,0:0:0:0:m_027.ogg
128,192,79110,1,0,0:0:0:0:m_039.ogg
281,192,79200,1,0,0:0:0:0:s_063.ogg
332,192,79200,1,0,0:0:0:0:m_055.ogg
76,192,79290,1,0,0:0:0:0:s_041.ogg
179,192,79290,1,0,0:0:0:0:s_046.ogg
281,192,79380,1,0,0:0:0:0:s_063.ogg
384,192,79380,1,0,0:0:0:0:m_056.ogg
128,192,79470,1,0,0:0:0:0:s_046.ogg
230,192,79470,1,0,0:0:0:0:m_043.ogg
332,192,79560,1,0,0:0:0:0:s_058.ogg
435,192,79560,1,0,0:0:0:0:s_070.ogg
76,192,79650,1,0,0:0:0:0:s_046.ogg
179,192,79650,1,0,0:0:0:0:s_039.ogg
281,192,79740,1,0,0:0:0:0:s_063.ogg
384,192,79740,1,0,0:0:0:0:s_067.ogg
25,192,79860,1,0,0:0:0:0:m_029.ogg
76,192,79860,1,0,0:0:0:0:m_041.ogg
128,192,79860,1,0,0:0:0:0:m_068.ogg
384,192,79860,1,0,0:0:0:0:m_056.ogg
435,192,79860,1,0,0:0:0:0:m_059.ogg
486,192,79860,1,0,0:0:0:0:m_062.ogg
25,192,80040,1,0,0:0:0:0:s_050.ogg
179,192,80040,1,0,0:0:0:0:s_047.ogg
230,192,80040,1,0,0:0:0:0:s_044.ogg
281,192,80130,1,0,0:0:0:0:s_053.ogg
332,192,80130,1,0,0:0:0:0:s_062.ogg
384,192,80130,1,0,0:0:0:0:s_059.ogg
25,192,80220,1,0,0:0:0:0:s_050.ogg
179,192,80220,1,0,0:0:0:0:m_043.ogg
230,192,80220,1,0,0:0:0:0:s_047.ogg
332,192,80310,1,0,0:0:0:0:s_059.ogg
384,192,80310,1,0,0:0:0:0:s_062.ogg
435,192,80310,1,0,0:0:0:0:m_067.ogg
25,192,80400,1,0,0:0:0:0:s_050.ogg
179,192,80400,1,0,0:0:0:0:s_047.ogg
230,192,80400,1,0,0:0:0:0:s_041.ogg
384,192,80490,1,0,0:0:0:0:s_056.ogg
435,192,80490,1,0,0:0:0:0:s_059.ogg
486,192,80490,1,0,0:0:0:0:s_068.ogg
128,192,80580,1,0,0:0:0:0:m_051.ogg
179,192,80580,1,0,0:0:0:0:m_048.ogg
230,192,80580,1,0,0:0:0:0:m_039.ogg
332,192,80670,1,0,0:0:0:0:m_060.ogg
384,192,80670,1,0,0:0:0:0:m_067.ogg
435,192,80670,1,0,0:0:0:0:m_055.ogg
76,192,80760,1,0,0:0:0:0:s_038.ogg
128,192,80760,1,0,0:0:0:0:s_044.ogg
179,192,80760,1,0,0:0:0:0:s_047.ogg
281,192,80850,1,0,0:0:0:0:s_056.ogg
332,192,80850,1,0,0:0:0:0:s_059.ogg
384,192,80850,1,0,0:0:0:0:s_065.ogg
25,192,80940,1,0,0:0:0:0:m_048.ogg
76,192,80940,1,0,0:0:0:0:s_043.ogg
128,192,80940,1,0,0:0:0:0:m_036.ogg
281,192,81030,1,0,0:0:0:0:s_055.ogg
332,192,81030,1,0,0:0:0:0:m_051.ogg
486,192,81030,1,0,0:0:0:0:m_063.ogg
25,192,81120,1,0,0:0:0:0:s_040.ogg
76,192,81120,1,0,0:0:0:0:s_034.ogg
230,192,81120,1,0,0:0:0:0:s_043.ogg
281,192,81210,1,0,0:0:0:0:s_061.ogg
332,192,81210,1,0,0:0:0:0:s_055.ogg
384,192,81210,1,0,0:0:0:0:s_064.ogg
25,192,81300,1,0,0:0:0:0:m_041.ogg
76,192,81300,1,0,0:0:0:0:m_044.ogg
128,192,81300,1,0,0:0:0:0:m_032.ogg
332,192,81390,1,0,0:0:0:0:m_061.ogg
384,192,81390,1,0,0:0:0:0:m_053.ogg
435,192,81390,1,0,0:0:0:0:m_065.ogg
76,192,81480,1,0,0:0:0:0:s_036.ogg
128,192,81480,1,0,0:0:0:0:s_030.ogg
179,192,81480,1,0,0:0:0:0:s_042.ogg
384,192,81570,1,0,0:0:0:0:s_068.ogg
435,192,81570,1,0,0:0:0:0:s_072.ogg
486,192,81570,1,0,0:0:0:0:s_060.ogg
128,192,81660,1,0,0:0:0:0:s_043.ogg
179,192,81660,1,0,0:0:0:0:s_031.ogg
230,192,81660,1,0,0:0:0:0:m_036.ogg
384,192,81750,1,0,0:0:0:0:m_060.ogg
435,192,81750,1,0,0:0:0:0:m_072.ogg
486,192,81750,1,0,0:0:0:0:m_063.ogg
128,192,81840,1,0,0:0:0:0:s_031.ogg
179,192,81840,1,0,0:0:0:0:s_035.ogg
230,192,81840,1,0,0:0:0:0:s_038.ogg
332,192,81930,1,0,0:0:0:0:s_062.ogg
384,192,81930,1,0,0:0:0:0:s_071.ogg
435,192,81930,1,0,0:0:0:0:s_059.ogg
25,192,82110,1,0,0:0:0:0:m_036.ogg
76,192,82110,1,0,0:0:0:0:m_031.ogg
128,192,82110,1,0,0:0:0:0:m_024.ogg
384,192,82110,1,0,0:0:0:0:m_060.ogg
435,192,82110,1,0,0:0:0:0:m_063.ogg
486,192,82110,1,0,0:0:0:0:m_067.ogg
128,192,82470,1,0,0:0:0:0:s_039.ogg
179,192,82470,1,0,0:0:0:0:s_048.ogg
230,192,82470,1,0,0:0:0:0:s_043.ogg
281,192,82470,1,0,0:0:0:0:s_060.ogg
332,192,82470,1,0,0:0:0:0:s_055.ogg
384,192,82470,1,0,0:0:0:0:s_051.ogg
128,192,82830,1,0,0:0:0:0:s_019.ogg
179,192,82870,1,0,0:0:0:0:s_021.ogg
230,192,82910,1,0,0:0:0:0:s_023.ogg
281,192,82910,1,0,0:0:0:0:m_031.ogg
25,192,82950,1,0,0:0:0:0:m_012.ogg
76,192,82950,1,0,0:0:0:0:m_024.ogg
332,192,82990,1,0,0:0:0:0:s_036.ogg
179,192,83070,1,0,0:0:0:0:m_036.ogg
384,192,83070,1,0,0:0:0:0:m_039.ogg
435,192,83070,1,0,0:0:0:0:s_043.ogg
332,192,83150,1,0,0:0:0:0:m_043.ogg
384,192,83230,1,0,0:0:0:0:m_048.ogg
76,192,83310,1,0,0:0:0:0:m_015.ogg
128,192,83310,1,0,0:0:0:0:m_027.ogg
435,192,83310,1,0,0:0:0:0:m_051.ogg
486,192,83310,1,0,0:0:0:0:s_055.ogg
281,192,83390,1,0,0:0:0:0:m_055.ogg
332,192,83470,1,0,0:0:0:0:m_060.ogg
230,192,83550,1,0,0:0:0:0:s_039.ogg
384,192,83550,1,0,0:0:0:0:s_067.ogg
435,192,83550,1,0,0:0:0:0:s_063.ogg
332,192,83630,1,0,0:0:0:0:s_067.ogg
384,192,83710,1,0,0:0:0:0:s_072.ogg
25,192,83790,1,0,0:0:0:0:m_014.ogg
128,192,83790,1,0,0:0:0:0:m_026.ogg
435,192,83790,1,0,0:0:0:0:m_077.ogg
486,192,83790,1,0,0:0:0:0:m_079.ogg
384,192,83870,1,0,0:0:0:0:m_071.ogg
332,192,83950,1,0,0:0:0:0:s_067.ogg
179,192,84030,1,0,0:0:0:0:s_038.ogg
384,192,84030,1,0,0:0:0:0:s_067.ogg
435,192,84030,1,0,0:0:0:0:s_065.ogg
332,192,84110,1,0,0:0:0:0:s_059.ogg
281,192,84190,1,0,0:0:0:0:s_055.ogg
25,192,84270,1,0,0:0:0:0:m_012.ogg
76,192,84270,1,0,0:0:0:0:m_024.ogg
435,192,84270,1,0,0:0:0:0:m_051.ogg
486,192,84270,1,0,0:0:0:0:m_055.ogg
384,192,84350,1,0,0:0:0:0:m_048.ogg
332,192,84430,1,0,0:0:0:0:s_043.ogg
128,192,84510,1,0,0:0:0:0:s_036.ogg
281,192,84510,1,0,0:0:0:0:s_039.ogg
384,192,84510,1,0,0:0:0:0:s_043.ogg
281,192,84750,1,0,0:0:0:0:m_043.ogg
332,192,84750,1,0,0:0:0:0:m_038.ogg
486,192,84750,1,0,0:0:0:0:m_035.ogg
25,192,84830,1,0,0:0:0:0:m_011.ogg
76,192,84910,1,0,0:0:0:0:m_014.ogg
128,192,84990,1,0,0:0:0:0:m_019.ogg
332,192,84990,128,0,85350:0:0:0:0:m_062.ogg
384,192,84990,128,0,85350:0:0:0:0:m_067.ogg
435,192,84990,128,0,85350:0:0:0:0:m_059.ogg
179,192,85070,1,0,0:0:0:0:m_023.ogg
76,192,85150,1,0,0:0:0:0:m_026.ogg
128,192,85230,1,0,0:0:0:0:s_031.ogg
179,192,85310,1,0,0:0:0:0:s_035.ogg
230,192,85390,1,0,0:0:0:0:s_038.ogg
25,192,85470,1,0,0:0:0:0:m_043.ogg
486,192,85470,128,0,85830:0:0:0:0:m_062.ogg
435,192,85470,128,0,85830:0:0:0:0:m_065.ogg
384,192,85470,128,0,85830:0:0:0:0:m_070.ogg
76,192,85550,1,0,0:0:0:0:m_047.ogg
128,192,85630,1,0,0:0:0:0:s_050.ogg
179,192,85710,1,0,0:0:0:0:s_055.ogg
128,192,85790,1,0,0:0:0:0:s_050.ogg
76,192,85870,1,0,0:0:0:0:s_047.ogg
25,192,85950,1,0,0:0:0:0:m_043.ogg
435,192,85950,128,0,86310:0:0:0:0:m_062.ogg
384,192,85950,128,0,86310:0:0:0:0:m_065.ogg
332,192,85950,128,0,86310:0:0:0:0:m_068.ogg
230,192,86030,1,0,0:0:0:0:m_038.ogg
179,192,86110,1,0,0:0:0:0:m_035.ogg
128,192,86190,1,0,0:0:0:0:m_031.ogg
76,192,86270,1,0,0:0:0:0:m_026.ogg
25,192,86350,1,0,0:0:0:0:m_023.ogg
230,192,86430,1,0,0:0:0:0:s_019.ogg
384,192,86430,128,0,86670:0:0:0:0:s_065.ogg
332,192,86430,128,0,86670:0:0:0:0:s_067.ogg
281,192,86430,128,0,86670:0:0:0:0:s_055.ogg
179,192,86510,1,0,0:0:0:0:s_014.ogg
128,192,86590,1,0,0:0:0:0:s_011.ogg
25,192,86670,1,0,0:0:0:0:m_024.ogg
76,192,86670,1,0,0:0:0:0:m_012.ogg
281,192,86750,1,0,0:0:0:0:m_031.ogg
332,192,86830,1,0,0:0:0:0:s_036.ogg
179,192,86910,1,0,0:0:0:0:m_036.ogg
384,192,86910,1,0,0:0:0:0:s_043.ogg
435,192,86910,1,0,0:0:0:0:m_039.ogg
332,192,86990,1,0,0:0:0:0:m_043.ogg
384,192,87070,1,0,0:0:0:0:m_048.ogg
76,192,87150,1,0,0:0:0:0:m_015.ogg
128,192,87150,1,0,0:0:0:0:m_027.ogg
435,192,87150,1,0,0:0:0:0:s_055.ogg
486,192,87150,1,0,0:0:0:0:m_051.ogg
281,192,87230,1,0,0:0:0:0:m_055.ogg
332,192,87310,1,0,0:0:0:0:m_060.ogg
230,192,87390,1,0,0:0:0:0:s_039.ogg
384,192,87390,1,0,0:0:0:0:s_063.ogg
435,192,87390,1,0,0:0:0:0:s_067.ogg
332,192,87470,1,0,0:0:0:0:s_067.ogg
384,192,87550,1,0,0:0:0:0:s_072.ogg
25,192,87630,1,0,0:0:0:0:m_014.ogg
128,192,87630,1,0,0:0:0:0:m_026.ogg
435,192,87630,1,0,0:0:0:0:m_077.ogg
486,192,87630,1,0,0:0:0:0:m_079.ogg
384,192,87710,1,0,0:0:0:0:m_071.ogg
332,192,87790,1,0,0:0:0:0:s_067.ogg
179,192,87870,1,0,0:0:0:0:s_038.ogg
384,192,87870,1,0,0:0:0:0:s_065.ogg
435,192,87870,1,0,0:0:0:0:s_067.ogg
332,192,87950,1,0,0:0:0:0:s_059.ogg
281,192,88030,1,0,0:0:0:0:s_055.ogg
25,192,88110,1,0,0:0:0:0:m_012.ogg
76,192,88110,1,0,0:0:0:0:m_024.ogg
435,192,88110,1,0,0:0:0:0:m_051.ogg
486,192,88110,1,0,0:0:0:0:m_055.ogg
384,192,88190,1,0,0:0:0:0:m_048.ogg
332,192,88270,1,0,0:0:0:0:s_043.ogg
128,192,88350,1,0,0:0:0:0:s_036.ogg
281,192,88350,1,0,0:0:0:0:s_039.ogg
384,192,88350,1,0,0:0:0:0:s_043.ogg
76,192,88590,1,0,0:0:0:0:s_031.ogg
128,192,88590,1,0,0:0:0:0:l_026.ogg
435,192,88590,1,0,0:0:0:0:s_043.ogg
486,192,88590,1,0,0:0:0:0:s_035.ogg
25,192,88710,1,0,0:0:0:0:l_031.ogg
179,192,88710,1,0,0:0:0:0:m_043.ogg
332,192,88710,1,0,0:0:0:0:m_055.ogg
76,192,88830,1,0,0:0:0:0:l_032.ogg
230,192,88830,1,0,0:0:0:0:m_044.ogg
384,192,88830,1,0,0:0:0:0:m_056.ogg
128,192,88950,1,0,0:0:0:0:m_033.ogg
281,192,88950,1,0,0:0:0:0:m_057.ogg
435,192,88950,1,0,0:0:0:0:m_045.ogg
179,192,89070,1,0,0:0:0:0:m_034.ogg
332,192,89070,1,0,0:0:0:0:m_058.ogg
486,192,89070,1,0,0:0:0:0:m_046.ogg
25,192,89190,1,0,0:0:0:0:m_047.ogg
230,192,89190,1,0,0:0:0:0:m_035.ogg
384,192,89190,1,0,0:0:0:0:m_059.ogg
76,192,89310,1,0,0:0:0:0:m_036.ogg
281,192,89310,1,0,0:0:0:0:m_060.ogg
435,192,89310,1,0,0:0:0:0:m_048.ogg
128,192,89430,1,0,0:0:0:0:m_061.ogg
332,192,89430,1,0,0:0:0:0:m_037.ogg
486,192,89430,1,0,0:0:0:0:m_049.ogg
25,192,89550,1,0,0:0:0:0:m_038.ogg
179,192,89550,1,0,0:0:0:0:m_062.ogg
384,192,89550,1,0,0:0:0:0:m_050.ogg
76,192,89670,1,0,0:0:0:0:m_039.ogg
230,192,89670,1,0,0:0:0:0:m_063.ogg
435,192,89670,1,0,0:0:0:0:m_051.ogg
128,192,89790,1,0,0:0:0:0:m_040.ogg
281,192,89790,1,0,0:0:0:0:m_064.ogg
486,192,89790,1,0,0:0:0:0:m_052.ogg
25,192,89910,1,0,0:0:0:0:m_041.ogg
179,192,89910,1,0,0:0:0:0:m_053.ogg
332,192,89910,1,0,0:0:0:0:m_065.ogg
76,192,90030,1,0,0:0:0:0:m_042.ogg
230,192,90030,1,0,0:0:0:0:m_054.ogg
384,192,90030,1,0,0:0:0:0:m_066.ogg
128,192,90150,1,0,0:0:0:0:s_043.ogg
281,192,90150,1,0,0:0:0:0:s_055.ogg
435,192,90150,1,0,0:0:0:0:s_067.ogg
179,192,90270,1,0,0:0:0:0:s_044.ogg
332,192,90270,1,0,0:0:0:0:s_056.ogg
486,192,90270,1,0,0:0:0:0:s_068.ogg
128,192,90390,1,0,0:0:0:0:m_043.ogg
281,192,90390,1,0,0:0:0:0:m_067.ogg
435,192,90390,1,0,0:0:0:0:m_055.ogg
128,192,90630,1,0,0:0:0:0:s_019.ogg
179,192,90670,1,0,0:0:0:0:s_021.ogg
230,192,90710,1,0,0:0:0:0:s_023.ogg
281,192,90710,1,0,0:0:0:0:m_031.ogg
25,192,90750,1,0,0:0:0:0:m_024.ogg
76,192,90750,1,0,0:0:0:0:m_012.ogg
332,192,90790,1,0,0:0:0:0:s_036.ogg
179,192,90870,1,0,0:0:0:0:m_036.ogg
384,192,90870,1,0,0:0:0:0:s_043.ogg
435,192,90870,1,0,0:0:0:0:m_039.ogg
332,192,90950,1,0,0:0:0:0:m_043.ogg
384,192,91030,1,0,0:0:0:0:m_048.ogg
76,192,91110,1,0,0:0:0:0:m_015.ogg
128,192,91110,1,0,0:0:0:0:m_027.ogg
435,192,91110,1,0,0:0:0:0:s_055.ogg
486,192,91110,1,0,0:0:0:0:m_051.ogg
281,192,91190,1,0,0:0:0:0:m_055.ogg
332,192,91270,1,0,0:0:0:0:m_060.ogg
230,192,91350,1,0,0:0:0:0:s_039.ogg
384,192,91350,1,0,0:0:0:0:s_067.ogg
435,192,91350,1,0,0:0:0:0:s_063.ogg
332,192,91430,1,0,0:0:0:0:s_067.ogg
384,192,91510,1,0,0:0:0:0:s_072.ogg
25,192,91590,1,0,0:0:0:0:m_014.ogg
128,192,91590,1,0,0:0:0:0:m_026.ogg
435,192,91590,1,0,0:0:0:0:m_077.ogg
486,192,91590,1,0,0:0:0:0:m_079.ogg
384,192,91670,1,0,0:0:0:0:m_071.ogg
332,192,91750,1,0,0:0:0:0:s_067.ogg
179,192,91830,1,0,0:0:0:0:s_038.ogg
384,192,91830,1,0,0:0:0:0:s_065.ogg
435,192,91830,1,0,0:0:0:0:s_067.ogg
332,192,91910,1,0,0:0:0:0:s_059.ogg
281,192,91990,1,0,0:0:0:0:s_055.ogg
25,192,92070,1,0,0:0:0:0:m_012.ogg
76,192,92070,1,0,0:0:0:0:m_024.ogg
435,192,92070,1,0,0:0:0:0:m_051.ogg
486,192,92070,1,0,0:0:0:0:m_055.ogg
384,192,92150,1,0,0:0:0:0:m_048.ogg
332,192,92230,1,0,0:0:0:0:s_043.ogg
128,192,92310,1,0,0:0:0:0:s_036.ogg
281,192,92310,1,0,0:0:0:0:s_039.ogg
384,192,92310,1,0,0:0:0:0:s_043.ogg
281,192,92550,1,0,0:0:0:0:m_043.ogg
332,192,92550,1,0,0:0:0:0:m_038.ogg
486,192,92550,1,0,0:0:0:0:m_035.ogg
25,192,92630,1,0,0:0:0:0:m_011.ogg
76,192,92710,1,0,0:0:0:0:m_014.ogg
128,192,92790,1,0,0:0:0:0:m_019.ogg
332,192,92790,128,0,93150:0:0:0:0:m_062.ogg
384,192,92790,128,0,93150:0:0:0:0:m_067.ogg
435,192,92790,128,0,93150:0:0:0:0:m_059.ogg
179,192,92870,1,0,0:0:0:0:m_023.ogg
76,192,92950,1,0,0:0:0:0:m_026.ogg
128,192,93030,1,0,0:0:0:0:s_031.ogg
179,192,93110,1,0,0:0:0:0:s_035.ogg
230,192,93190,1,0,0:0:0:0:s_038.ogg
25,192,93270,1,0,0:0:0:0:m_043.ogg
486,192,93270,128,0,93630:0:0:0:0:m_062.ogg
435,192,93270,128,0,93630:0:0:0:0:m_065.ogg
384,192,93270,128,0,93630:0:0:0:0:m_070.ogg
76,192,93350,1,0,0:0:0:0:m_047.ogg
128,192,93430,1,0,0:0:0:0:s_050.ogg
179,192,93510,1,0,0:0:0:0:s_055.ogg
128,192,93590,1,0,0:0:0:0:s_050.ogg
76,192,93670,1,0,0:0:0:0:s_047.ogg
25,192,93750,1,0,0:0:0:0:m_043.ogg
435,192,93750,128,0,94110:0:0:0:0:m_062.ogg
384,192,93750,128,0,94110:0:0:0:0:m_065.ogg
332,192,93750,128,0,94110:0:0:0:0:m_068.ogg
230,192,93830,1,0,0:0:0:0:m_038.ogg
179,192,93910,1,0,0:0:0:0:m_035.ogg
128,192,93990,1,0,0:0:0:0:m_031.ogg
76,192,94070,1,0,0:0:0:0:m_026.ogg
25,192,94150,1,0,0:0:0:0:m_023.ogg
230,192,94230,1,0,0:0:0:0:s_019.ogg
384,192,94230,128,0,94470:0:0:0:0:s_065.ogg
332,192,94230,128,0,94470:0:0:0:0:s_067.ogg
281,192,94230,128,0,94470:0:0:0:0:s_055.ogg
179,192,94310,1,0,0:0:0:0:s_014.ogg
128,192,94390,1,0,0:0:0:0:s_011.ogg
25,192,94470,1,0,0:0:0:0:m_024.ogg
76,192,94470,1,0,0:0:0:0:m_012.ogg
281,192,94550,1,0,0:0:0:0:m_031.ogg
332,192,94630,1,0,0:0:0:0:s_036.ogg
179,192,94710,1,0,0:0:0:0:m_036.ogg
384,192,94710,1,0,0:0:0:0:s_043.ogg
435,192,94710,1,0,0:0:0:0:m_039.ogg
332,192,94790,1,0,0:0:0:0:m_043.ogg
384,192,94870,1,0,0:0:0:0:m_048.ogg
76,192,94950,1,0,0:0:0:0:m_015.ogg
128,192,94950,1,0,0:0:0:0:m_027.ogg
435,192,94950,1,0,0:0:0:0:s_055.ogg
486,192,94950,1,0,0:0:0:0:m_051.ogg
281,192,95030,1,0,0:0:0:0:m_055.ogg
332,192,95110,1,0,0:0:0:0:m_060.ogg
230,192,95190,1,0,0:0:0:0:s_039.ogg
384,192,95190,1,0,0:0:0:0:s_067.ogg
435,192,95190,1,0,0:0:0:0:s_063.ogg
332,192,95270,1,0,0:0:0:0:s_067.ogg
384,192,95350,1,0,0:0:0:0:s_072.ogg
25,192,95430,1,0,0:0:0:0:m_026.ogg
128,192,95430,1,0,0:0:0:0:m_014.ogg
435,192,95430,1,0,0:0:0:0:m_077.ogg
486,192,95430,1,0,0:0:0:0:m_079.ogg
384,192,95510,1,0,0:0:0:0:m_071.ogg
332,192,95590,1,0,0:0:0:0:s_067.ogg
179,192,95670,1,0,0:0:0:0:s_038.ogg
384,192,95670,1,0,0:0:0:0:s_065.ogg
435,192,95670,1,0,0:0:0:0:s_067.ogg
332,192,95750,1,0,0:0:0:0:s_059.ogg
281,192,95830,1,0,0:0:0:0:s_055.ogg
25,192,95910,1,0,0:0:0:0:m_012.ogg
76,192,95910,1,0,0:0:0:0:m_024.ogg
435,192,95910,1,0,0:0:0:0:m_051.ogg
486,192,95910,1,0,0:0:0:0:m_055.ogg
384,192,95990,1,0,0:0:0:0:m_048.ogg
332,192,96070,1,0,0:0:0:0:s_043.ogg
128,192,96150,1,0,0:0:0:0:s_036.ogg
281,192,96150,1,0,0:0:0:0:s_039.ogg
384,192,96150,1,0,0:0:0:0:s_043.ogg
76,192,96390,1,0,0:0:0:0:s_031.ogg
128,192,96390,1,0,0:0:0:0:l_026.ogg
435,192,96390,1,0,0:0:0:0:m_035.ogg
486,192,96390,1,0,0:0:0:0:s_043.ogg
25,192,96510,1,0,0:0:0:0:m_043.ogg
179,192,96510,1,0,0:0:0:0:l_031.ogg
332,192,96510,1,0,0:0:0:0:m_055.ogg
76,192,96630,1,0,0:0:0:0:m_056.ogg
230,192,96630,1,0,0:0:0:0:l_032.ogg
384,192,96630,1,0,0:0:0:0:m_044.ogg
128,192,96750,1,0,0:0:0:0:m_033.ogg
281,192,96750,1,0,0:0:0:0:m_057.ogg
435,192,96750,1,0,0:0:0:0:m_045.ogg
179,192,96870,1,0,0:0:0:0:m_034.ogg
332,192,96870,1,0,0:0:0:0:m_046.ogg
486,192,96870,1,0,0:0:0:0:m_058.ogg
25,192,96990,1,0,0:0:0:0:m_059.ogg
230,192,96990,1,0,0:0:0:0:m_035.ogg
384,192,96990,1,0,0:0:0:0:m_047.ogg
76,192,97110,1,0,0:0:0:0:m_048.ogg
281,192,97110,1,0,0:0:0:0:m_036.ogg
435,192,97110,1,0,0:0:0:0:m_060.ogg
128,192,97230,1,0,0:0:0:0:m_037.ogg
332,192,97230,1,0,0:0:0:0:m_061.ogg
486,192,97230,1,0,0:0:0:0:m_049.ogg
25,192,97350,1,0,0:0:0:0:m_050.ogg
179,192,97350,1,0,0:0:0:0:m_038.ogg
384,192,97350,1,0,0:0:0:0:m_062.ogg
76,192,97470,1,0,0:0:0:0:m_063.ogg
230,192,97470,1,0,0:0:0:0:m_039.ogg
435,192,97470,1,0,0:0:0:0:m_051.ogg
128,192,97590,1,0,0:0:0:0:m_040.ogg
281,192,97590,1,0,0:0:0:0:m_052.ogg
486,192,97590,1,0,0:0:0:0:m_064.ogg
25,192,97710,1,0,0:0:0:0:m_053.ogg
179,192,97710,1,0,0:0:0:0:m_041.ogg
332,192,97710,1,0,0:0:0:0:m_065.ogg
76,192,97830,1,0,0:0:0:0:m_066.ogg
230,192,97830,1,0,0:0:0:0:m_042.ogg
384,192,97830,1,0,0:0:0:0:m_054.ogg
128,192,97950,1,0,0:0:0:0:s_043.ogg
281,192,97950,1,0,0:0:0:0:s_055.ogg
435,192,97950,1,0,0:0:0:0:s_067.ogg
179,192,98070,1,0,0:0:0:0:s_044.ogg
332,192,98070,1,0,0:0:0:0:s_056.ogg
486,192,98070,1,0,0:0:0:0:s_068.ogg
128,192,98190,1,0,0:0:0:0:m_043.ogg
281,192,98190,1,0,0:0:0:0:m_055.ogg
435,192,98190,1,0,0:0:0:0:m_067.ogg
128,192,98430,128,0,98790:0:0:0:0:m_036.ogg
76,192,98430,128,0,98790:0:0:0:0:m_031.ogg
25,192,98430,128,0,98790:0:0:0:0:m_028.ogg
281,192,98510,1,0,0:0:0:0:m_040.ogg
332,192,98590,1,0,0:0:0:0:m_043.ogg
384,192,98670,1,0,0:0:0:0:s_048.ogg
435,192,98670,1,0,0:0:0:0:m_016.ogg
332,192,98750,1,0,0:0:0:0:m_048.ogg
384,192,98830,1,0,0:0:0:0:m_052.ogg
435,192,98910,1,0,0:0:0:0:s_061.ogg
486,192,98910,1,0,0:0:0:0:m_058.ogg
230,192,98910,128,0,99270:0:0:0:0:m_034.ogg
179,192,98910,128,0,99270:0:0:0:0:m_028.ogg
128,192,98910,128,0,99270:0:0:0:0:m_037.ogg
384,192,98990,1,0,0:0:0:0:m_061.ogg
435,192,99070,1,0,0:0:0:0:s_064.ogg
281,192,99150,1,0,0:0:0:0:s_070.ogg
486,192,99150,1,0,0:0:0:0:s_073.ogg
435,192,99230,1,0,0:0:0:0:s_064.ogg
384,192,99310,1,0,0:0:0:0:s_061.ogg
435,192,99390,1,0,0:0:0:0:m_068.ogg
486,192,99390,1,0,0:0:0:0:m_072.ogg
179,192,99390,128,0,99750:0:0:0:0:m_036.ogg
128,192,99390,128,0,99750:0:0:0:0:m_028.ogg
76,192,99390,128,0,99750:0:0:0:0:m_032.ogg
384,192,99470,1,0,0:0:0:0:m_064.ogg
332,192,99550,1,0,0:0:0:0:s_060.ogg
384,192,99630,1,0,0:0:0:0:s_056.ogg
435,192,99630,1,0,0:0:0:0:s_060.ogg
332,192,99710,1,0,0:0:0:0:s_052.ogg
281,192,99790,1,0,0:0:0:0:s_048.ogg
435,192,99870,1,0,0:0:0:0:m_058.ogg
486,192,99870,1,0,0:0:0:0:m_055.ogg
128,192,99870,128,0,100230:0:0:0:0:m_034.ogg
76,192,99870,128,0,100230:0:0:0:0:m_028.ogg
25,192,99870,128,0,100230:0:0:0:0:m_031.ogg
384,192,99950,1,0,0:0:0:0:m_049.ogg
332,192,100030,1,0,0:0:0:0:m_048.ogg
281,192,100110,1,0,0:0:0:0:s_043.ogg
486,192,100110,1,0,0:0:0:0:s_046.ogg
435,192,100190,1,0,0:0:0:0:s_037.ogg
384,192,100270,1,0,0:0:0:0:s_036.ogg
76,192,100350,1,0,0:0:0:0:s_032.ogg
179,192,100350,1,0,0:0:0:0:s_017.ogg
281,192,100350,1,0,0:0:0:0:s_044.ogg
332,192,100350,1,0,0:0:0:0:s_041.ogg
128,192,100590,1,0,0:0:0:0:s_034.ogg
230,192,100590,1,0,0:0:0:0:s_043.ogg
281,192,100590,1,0,0:0:0:0:s_052.ogg
384,192,100590,1,0,0:0:0:0:s_046.ogg
435,192,100670,1,0,0:0:0:0:s_053.ogg
486,192,100750,1,0,0:0:0:0:s_055.ogg
25,192,100830,1,0,0:0:0:0:s_036.ogg
179,192,100830,1,0,0:0:0:0:s_044.ogg
281,192,100830,1,0,0:0:0:0:s_056.ogg
332,192,100830,1,0,0:0:0:0:s_053.ogg
384,192,100910,1,0,0:0:0:0:s_058.ogg
435,192,100990,1,0,0:0:0:0:s_060.ogg
76,192,101070,1,0,0:0:0:0:s_055.ogg
230,192,101070,1,0,0:0:0:0:s_049.ogg
281,192,101070,1,0,0:0:0:0:s_064.ogg
486,192,101070,1,0,0:0:0:0:s_058.ogg
332,192,101150,1,0,0:0:0:0:s_065.ogg
384,192,101230,1,0,0:0:0:0:s_067.ogg
25,192,101310,1,0,0:0:0:0:s_056.ogg
128,192,101310,1,0,0:0:0:0:s_053.ogg
281,192,101310,1,0,0:0:0:0:s_068.ogg
435,192,101310,1,0,0:0:0:0:s_065.ogg
486,192,101390,1,0,0:0:0:0:s_070.ogg
332,192,101470,1,0,0:0:0:0:s_072.ogg
76,192,101550,1,0,0:0:0:0:s_061.ogg
179,192,101550,1,0,0:0:0:0:s_058.ogg
281,192,101550,1,0,0:0:0:0:s_070.ogg
384,192,101550,1,0,0:0:0:0:s_076.ogg
435,192,101630,1,0,0:0:0:0:s_077.ogg
486,192,101710,1,0,0:0:0:0:s_079.ogg
128,192,101790,1,0,0:0:0:0:s_068.ogg
230,192,101790,1,0,0:0:0:0:s_060.ogg
332,192,101790,1,0,0:0:0:0:s_077.ogg
384,192,101790,1,0,0:0:0:0:s_080.ogg
281,192,102270,128,0,102630:0:0:0:0:m_029.ogg
332,192,102270,128,0,102630:0:0:0:0:m_034.ogg
384,192,102270,128,0,102630:0:0:0:0:m_026.ogg
25,192,102350,1,0,0:0:0:0:m_038.ogg
76,192,102430,1,0,0:0:0:0:m_041.ogg
128,192,102510,1,0,0:0:0:0:s_046.ogg
179,192,102510,1,0,0:0:0:0:m_014.ogg
76,192,102590,1,0,0:0:0:0:m_046.ogg
128,192,102670,1,0,0:0:0:0:m_050.ogg
179,192,102750,1,0,0:0:0:0:m_056.ogg
230,192,102750,1,0,0:0:0:0:s_059.ogg
486,192,102750,128,0,103110:0:0:0:0:m_032.ogg
435,192,102750,128,0,103110:0:0:0:0:m_026.ogg
384,192,102750,128,0,103110:0:0:0:0:m_035.ogg
128,192,102830,1,0,0:0:0:0:m_059.ogg
179,192,102910,1,0,0:0:0:0:s_062.ogg
25,192,102990,1,0,0:0:0:0:s_068.ogg
230,192,102990,1,0,0:0:0:0:s_071.ogg
179,192,103070,1,0,0:0:0:0:s_062.ogg
128,192,103150,1,0,0:0:0:0:s_059.ogg
179,192,103230,1,0,0:0:0:0:m_067.ogg
230,192,103230,1,0,0:0:0:0:m_070.ogg
435,192,103230,128,0,103590:0:0:0:0:m_034.ogg
384,192,103230,128,0,103590:0:0:0:0:m_026.ogg
332,192,103230,128,0,103590:0:0:0:0:m_031.ogg
128,192,103310,1,0,0:0:0:0:m_062.ogg
76,192,103390,1,0,0:0:0:0:s_058.ogg
128,192,103470,1,0,0:0:0:0:s_055.ogg
179,192,103470,1,0,0:0:0:0:s_058.ogg
76,192,103550,1,0,0:0:0:0:s_050.ogg
25,192,103630,1,0,0:0:0:0:s_046.ogg
179,192,103710,1,0,0:0:0:0:m_053.ogg
230,192,103710,1,0,0:0:0:0:m_056.ogg
384,192,103710,128,0,104070:0:0:0:0:m_032.ogg
332,192,103710,128,0,104070:0:0:0:0:m_026.ogg
281,192,103710,128,0,104070:0:0:0:0:m_029.ogg
128,192,103790,1,0,0:0:0:0:m_047.ogg
76,192,103870,1,0,0:0:0:0:m_046.ogg
25,192,103950,1,0,0:0:0:0:s_041.ogg
230,192,103950,1,0,0:0:0:0:s_044.ogg
179,192,104030,1,0,0:0:0:0:s_035.ogg
128,192,104110,1,0,0:0:0:0:s_034.ogg
25,192,104190,1,0,0:0:0:0:s_043.ogg
76,192,104190,1,0,0:0:0:0:s_039.ogg
332,192,104190,1,0,0:0:0:0:s_015.ogg
435,192,104190,1,0,0:0:0:0:s_031.ogg
25,192,104430,1,0,0:0:0:0:s_044.ogg
128,192,104430,1,0,0:0:0:0:s_050.ogg
384,192,104430,1,0,0:0:0:0:s_032.ogg
486,192,104430,1,0,0:0:0:0:s_041.ogg
179,192,104510,1,0,0:0:0:0:s_051.ogg
230,192,104590,1,0,0:0:0:0:s_053.ogg
25,192,104670,1,0,0:0:0:0:s_051.ogg
76,192,104670,1,0,0:0:0:0:s_055.ogg
281,192,104670,1,0,0:0:0:0:s_039.ogg
435,192,104670,1,0,0:0:0:0:s_043.ogg
128,192,104750,1,0,0:0:0:0:s_056.ogg
179,192,104830,1,0,0:0:0:0:s_058.ogg
25,192,104910,1,0,0:0:0:0:s_056.ogg
230,192,104910,1,0,0:0:0:0:s_062.ogg
332,192,104910,1,0,0:0:0:0:s_044.ogg
486,192,104910,1,0,0:0:0:0:s_053.ogg
76,192,104990,1,0,0:0:0:0:s_063.ogg
128,192,105070,1,0,0:0:0:0:s_065.ogg
25,192,105150,1,0,0:0:0:0:s_063.ogg
179,192,105150,1,0,0:0:0:0:s_067.ogg
281,192,105150,1,0,0:0:0:0:s_051.ogg
384,192,105150,1,0,0:0:0:0:s_046.ogg
230,192,105230,1,0,0:0:0:0:s_068.ogg
76,192,105310,1,0,0:0:0:0:s_070.ogg
25,192,105390,1,0,0:0:0:0:s_068.ogg
128,192,105390,1,0,0:0:0:0:s_074.ogg
332,192,105390,1,0,0:0:0:0:s_056.ogg
435,192,105390,1,0,0:0:0:0:s_059.ogg
179,192,105470,1,0,0:0:0:0:s_075.ogg
230,192,105550,1,0,0:0:0:0:s_077.ogg
76,192,105630,1,0,0:0:0:0:s_075.ogg
128,192,105630,1,0,0:0:0:0:s_079.ogg
384,192,105630,1,0,0:0:0:0:s_063.ogg
486,192,105630,1,0,0:0:0:0:s_058.ogg
76,192,105870,1,0,0:0:0:0:s_027.ogg
281,192,105870,1,0,0:0:0:0:s_039.ogg
128,192,105950,1,0,0:0:0:0:s_029.ogg
332,192,105950,1,0,0:0:0:0:s_041.ogg
179,192,106030,1,0,0:0:0:0:s_031.ogg
384,192,106030,1,0,0:0:0:0:s_043.ogg
230,192,106110,1,0,0:0:0:0:m_032.ogg
435,192,106110,1,0,0:0:0:0:m_044.ogg
128,192,106350,1,0,0:0:0:0:s_038.ogg
179,192,106350,1,0,0:0:0:0:s_041.ogg
230,192,106350,1,0,0:0:0:0:s_047.ogg
384,192,106350,1,0,0:0:0:0:m_056.ogg
486,192,106350,1,0,0:0:0:0:m_068.ogg
76,192,106590,1,0,0:0:0:0:s_038.ogg
128,192,106590,1,0,0:0:0:0:s_041.ogg
179,192,106590,1,0,0:0:0:0:s_047.ogg
332,192,106590,1,0,0:0:0:0:s_050.ogg
435,192,106590,1,0,0:0:0:0:s_062.ogg
25,192,106830,1,0,0:0:0:0:s_026.ogg
281,192,106830,1,0,0:0:0:0:s_038.ogg
332,192,106910,1,0,0:0:0:0:s_039.ogg
384,192,106990,1,0,0:0:0:0:s_041.ogg
76,192,107070,1,0,0:0:0:0:m_030.ogg
435,192,107070,1,0,0:0:0:0:m_042.ogg
128,192,107310,1,0,0:0:0:0:s_036.ogg
179,192,107310,1,0,0:0:0:0:s_039.ogg
230,192,107310,1,0,0:0:0:0:s_045.ogg
332,192,107310,1,0,0:0:0:0:m_054.ogg
486,192,107310,1,0,0:0:0:0:m_066.ogg
76,192,107550,1,0,0:0:0:0:s_036.ogg
128,192,107550,1,0,0:0:0:0:s_039.ogg
179,192,107550,1,0,0:0:0:0:s_045.ogg
281,192,107550,1,0,0:0:0:0:s_048.ogg
435,192,107550,1,0,0:0:0:0:s_060.ogg
25,192,107790,1,0,0:0:0:0:s_024.ogg
281,192,107790,1,0,0:0:0:0:s_036.ogg
332,192,107870,1,0,0:0:0:0:s_038.ogg
384,192,107950,1,0,0:0:0:0:s_039.ogg
76,192,108030,1,0,0:0:0:0:m_028.ogg
435,192,108030,1,0,0:0:0:0:m_040.ogg
128,192,108270,1,0,0:0:0:0:s_034.ogg
179,192,108270,1,0,0:0:0:0:s_037.ogg
230,192,108270,1,0,0:0:0:0:s_043.ogg
384,192,108270,1,0,0:0:0:0:m_052.ogg
486,192,108270,1,0,0:0:0:0:m_064.ogg
76,192,108510,1,0,0:0:0:0:s_034.ogg
128,192,108510,1,0,0:0:0:0:s_037.ogg
179,192,108510,1,0,0:0:0:0:s_043.ogg
332,192,108510,1,0,0:0:0:0:s_046.ogg
435,192,108510,1,0,0:0:0:0:s_058.ogg
25,192,108750,1,0,0:0:0:0:s_022.ogg
281,192,108750,1,0,0:0:0:0:s_034.ogg
332,192,108830,1,0,0:0:0:0:s_035.ogg
384,192,108910,1,0,0:0:0:0:s_037.ogg
76,192,108990,1,0,0:0:0:0:m_026.ogg
435,192,108990,1,0,0:0:0:0:m_038.ogg
128,192,109230,1,0,0:0:0:0:s_032.ogg
179,192,109230,1,0,0:0:0:0:s_035.ogg
230,192,109230,1,0,0:0:0:0:s_041.ogg
332,192,109230,1,0,0:0:0:0:m_050.ogg
486,192,109230,1,0,0:0:0:0:m_062.ogg
76,192,109470,1,0,0:0:0:0:s_032.ogg
128,192,109470,1,0,0:0:0:0:s_035.ogg
179,192,109470,1,0,0:0:0:0:s_041.ogg
281,192,109470,1,0,0:0:0:0:s_044.ogg
435,192,109470,1,0,0:0:0:0:s_056.ogg
25,192,109710,1,0,0:0:0:0:s_020.ogg
281,192,109710,1,0,0:0:0:0:s_032.ogg
332,192,109790,1,0,0:0:0:0:s_035.ogg
384,192,109870,1,0,0:0:0:0:s_037.ogg
76,192,109950,1,0,0:0:0:0:m_026.ogg
435,192,109950,1,0,0:0:0:0:m_038.ogg
128,192,110190,1,0,0:0:0:0:s_032.ogg
179,192,110190,1,0,0:0:0:0:s_036.ogg
230,192,110190,1,0,0:0:0:0:s_041.ogg
332,192,110190,1,0,0:0:0:0:m_050.ogg
486,192,110190,1,0,0:0:0:0:m_062.ogg
76,192,110430,1,0,0:0:0:0:s_032.ogg
128,192,110430,1,0,0:0:0:0:s_036.ogg
179,192,110430,1,0,0:0:0:0:s_041.ogg
281,192,110430,1,0,0:0:0:0:s_044.ogg
435,192,110430,1,0,0:0:0:0:s_056.ogg
25,192,110670,1,0,0:0:0:0:s_020.ogg
281,192,110670,1,0,0:0:0:0:s_032.ogg
332,192,110750,1,0,0:0:0:0:s_036.ogg
384,192,110830,1,0,0:0:0:0:s_037.ogg
76,192,110910,1,0,0:0:0:0:m_026.ogg
435,192,110910,1,0,0:0:0:0:m_038.ogg
128,192,111150,1,0,0:0:0:0:s_032.ogg
179,192,111150,1,0,0:0:0:0:s_036.ogg
230,192,111150,1,0,0:0:0:0:s_042.ogg
332,192,111150,1,0,0:0:0:0:m_050.ogg
486,192,111150,1,0,0:0:0:0:m_062.ogg
76,192,111390,1,0,0:0:0:0:s_032.ogg
128,192,111390,1,0,0:0:0:0:s_036.ogg
179,192,111390,1,0,0:0:0:0:s_042.ogg
281,192,111390,1,0,0:0:0:0:s_044.ogg
435,192,111390,1,0,0:0:0:0:s_056.ogg
179,192,111630,1,0,0:0:0:0:s_024.ogg
435,192,111630,1,0,0:0:0:0:s_036.ogg
128,192,111710,1,0,0:0:0:0:s_022.ogg
384,192,111710,1,0,0:0:0:0:s_034.ogg
76,192,111790,1,0,0:0:0:0:s_020.ogg
332,192,111790,1,0,0:0:0:0:s_032.ogg
281,192,111870,128,0,112710:0:0:0:0:m_031.ogg
25,192,111870,128,0,112710:0:0:0:0:m_019.ogg
76,192,112350,1,0,0:0:0:0:m_043.ogg
128,192,112350,1,0,0:0:0:0:m_038.ogg
179,192,112350,1,0,0:0:0:0:m_036.ogg
332,192,112350,1,0,0:0:0:0:m_062.ogg
384,192,112350,1,0,0:0:0:0:m_060.ogg
435,192,112350,1,0,0:0:0:0:m_055.ogg
332,192,112830,128,0,113670:0:0:0:0:m_043.ogg
76,192,112830,128,0,113670:0:0:0:0:m_019.ogg
128,192,113310,1,0,0:0:0:0:m_043.ogg
179,192,113310,1,0,0:0:0:0:m_038.ogg
230,192,113310,1,0,0:0:0:0:m_035.ogg
384,192,113310,1,0,0:0:0:0:m_067.ogg
435,192,113310,1,0,0:0:0:0:m_062.ogg
486,192,113310,1,0,0:0:0:0:m_059.ogg
25,192,113790,1,0,0:0:0:0:m_015.ogg
76,192,113790,1,0,0:0:0:0:m_024.ogg
128,192,113790,1,0,0:0:0:0:m_012.ogg
281,192,113870,1,0,0:0:0:0:m_031.ogg
332,192,113950,1,0,0:0:0:0:s_036.ogg
384,192,114030,1,0,0:0:0:0:s_043.ogg
435,192,114030,1,0,0:0:0:0:m_039.ogg
332,192,114110,1,0,0:0:0:0:m_043.ogg
76,192,114150,1,0,0:0:0:0:s_036.ogg
384,192,114190,1,0,0:0:0:0:m_048.ogg
76,192,114270,1,0,0:0:0:0:m_036.ogg
435,192,114270,1,0,0:0:0:0:m_051.ogg
486,192,114270,1,0,0:0:0:0:s_055.ogg
384,192,114350,1,0,0:0:0:0:m_055.ogg
179,192,114390,1,0,0:0:0:0:m_039.ogg
435,192,114430,1,0,0:0:0:0:m_060.ogg
128,192,114510,1,0,0:0:0:0:s_038.ogg
281,192,114510,1,0,0:0:0:0:s_067.ogg
486,192,114510,1,0,0:0:0:0:s_063.ogg
435,192,114590,1,0,0:0:0:0:s_067.ogg
76,192,114630,1,0,0:0:0:0:s_036.ogg
486,192,114670,1,0,0:0:0:0:s_072.ogg
281,192,114750,1,0,0:0:0:0:m_075.ogg
332,192,114750,1,0,0:0:0:0:m_079.ogg
230,192,114750,128,0,115230:0:0:0:0:m_043.ogg
486,192,114830,1,0,0:0:0:0:m_072.ogg
435,192,114910,1,0,0:0:0:0:s_067.ogg
281,192,114990,1,0,0:0:0:0:s_063.ogg
486,192,114990,1,0,0:0:0:0:s_067.ogg
435,192,115070,1,0,0:0:0:0:s_060.ogg
25,192,115110,1,0,0:0:0:0:s_019.ogg
384,192,115150,1,0,0:0:0:0:s_055.ogg
25,192,115230,1,0,0:0:0:0:m_019.ogg
435,192,115230,1,0,0:0:0:0:m_051.ogg
486,192,115230,1,0,0:0:0:0:m_055.ogg
384,192,115310,1,0,0:0:0:0:m_048.ogg
128,192,115350,1,0,0:0:0:0:m_022.ogg
332,192,115390,1,0,0:0:0:0:s_043.ogg
76,192,115470,1,0,0:0:0:0:s_020.ogg
384,192,115470,1,0,0:0:0:0:s_039.ogg
435,192,115470,1,0,0:0:0:0:s_043.ogg
332,192,115550,1,0,0:0:0:0:s_036.ogg
25,192,115590,1,0,0:0:0:0:s_019.ogg
281,192,115630,1,0,0:0:0:0:s_031.ogg
128,192,115710,1,0,0:0:0:0:m_024.ogg
179,192,115710,1,0,0:0:0:0:m_012.ogg
230,192,115710,1,0,0:0:0:0:m_019.ogg
281,192,115790,1,0,0:0:0:0:m_031.ogg
332,192,115870,1,0,0:0:0:0:s_036.ogg
384,192,115950,1,0,0:0:0:0:s_043.ogg
435,192,115950,1,0,0:0:0:0:m_040.ogg
332,192,116030,1,0,0:0:0:0:m_043.ogg
76,192,116070,1,0,0:0:0:0:s_036.ogg
384,192,116110,1,0,0:0:0:0:m_048.ogg
76,192,116190,1,0,0:0:0:0:m_036.ogg
435,192,116190,1,0,0:0:0:0:m_052.ogg
486,192,116190,1,0,0:0:0:0:s_055.ogg
384,192,116270,1,0,0:0:0:0:m_055.ogg
179,192,116310,1,0,0:0:0:0:m_039.ogg
435,192,116350,1,0,0:0:0:0:m_060.ogg
128,192,116430,1,0,0:0:0:0:s_037.ogg
281,192,116430,1,0,0:0:0:0:s_064.ogg
486,192,116430,1,0,0:0:0:0:s_067.ogg
435,192,116510,1,0,0:0:0:0:s_067.ogg
76,192,116550,1,0,0:0:0:0:s_036.ogg
486,192,116590,1,0,0:0:0:0:s_072.ogg
281,192,116670,1,0,0:0:0:0:m_079.ogg
332,192,116670,1,0,0:0:0:0:m_076.ogg
230,192,116670,128,0,117150:0:0:0:0:m_046.ogg
486,192,116750,1,0,0:0:0:0:m_072.ogg
435,192,116830,1,0,0:0:0:0:s_067.ogg
281,192,116910,1,0,0:0:0:0:s_064.ogg
486,192,116910,1,0,0:0:0:0:s_067.ogg
435,192,116990,1,0,0:0:0:0:s_060.ogg
25,192,117030,1,0,0:0:0:0:s_024.ogg
384,192,117070,1,0,0:0:0:0:s_055.ogg
25,192,117150,1,0,0:0:0:0:m_024.ogg
435,192,117150,1,0,0:0:0:0:m_052.ogg
486,192,117150,1,0,0:0:0:0:m_055.ogg
384,192,117230,1,0,0:0:0:0:m_048.ogg
128,192,117270,1,0,0:0:0:0:m_027.ogg
332,192,117310,1,0,0:0:0:0:s_043.ogg
76,192,117390,1,0,0:0:0:0:s_025.ogg
384,192,117390,1,0,0:0:0:0:s_040.ogg
435,192,117390,1,0,0:0:0:0:s_043.ogg
332,192,117470,1,0,0:0:0:0:s_036.ogg
25,192,117510,1,0,0:0:0:0:s_024.ogg
281,192,117550,1,0,0:0:0:0:s_031.ogg
128,192,117630,1,0,0:0:0:0:m_024.ogg
179,192,117630,1,0,0:0:0:0:m_029.ogg
230,192,117630,1,0,0:0:0:0:m_017.ogg
281,192,117710,1,0,0:0:0:0:m_032.ogg
332,192,117790,1,0,0:0:0:0:s_036.ogg
384,192,117870,1,0,0:0:0:0:s_044.ogg
435,192,117870,1,0,0:0:0:0:m_041.ogg
332,192,117950,1,0,0:0:0:0:m_044.ogg
128,192,117990,1,0,0:0:0:0:s_036.ogg
384,192,118030,1,0,0:0:0:0:m_048.ogg
128,192,118110,1,0,0:0:0:0:m_036.ogg
435,192,118110,1,0,0:0:0:0:m_053.ogg
486,192,118110,1,0,0:0:0:0:s_056.ogg
384,192,118190,1,0,0:0:0:0:m_056.ogg
230,192,118230,1,0,0:0:0:0:m_039.ogg
435,192,118270,1,0,0:0:0:0:m_060.ogg
179,192,118350,1,0,0:0:0:0:s_037.ogg
281,192,118350,1,0,0:0:0:0:s_065.ogg
486,192,118350,1,0,0:0:0:0:s_068.ogg
435,192,118430,1,0,0:0:0:0:s_068.ogg
128,192,118470,1,0,0:0:0:0:s_036.ogg
486,192,118510,1,0,0:0:0:0:s_072.ogg
281,192,118590,1,0,0:0:0:0:m_080.ogg
332,192,118590,1,0,0:0:0:0:m_077.ogg
230,192,118590,128,0,119070:0:0:0:0:m_044.ogg
486,192,118670,1,0,0:0:0:0:m_072.ogg
435,192,118750,1,0,0:0:0:0:s_068.ogg
281,192,118830,1,0,0:0:0:0:s_065.ogg
486,192,118830,1,0,0:0:0:0:s_068.ogg
435,192,118910,1,0,0:0:0:0:s_060.ogg
76,192,118950,1,0,0:0:0:0:s_017.ogg
384,192,118990,1,0,0:0:0:0:s_056.ogg
76,192,119070,1,0,0:0:0:0:s_017.ogg
435,192,119070,1,0,0:0:0:0:m_053.ogg
486,192,119070,1,0,0:0:0:0:m_056.ogg
384,192,119150,1,0,0:0:0:0:m_048.ogg
25,192,119190,1,0,0:0:0:0:m_016.ogg
332,192,119230,1,0,0:0:0:0:s_044.ogg
76,192,119310,1,0,0:0:0:0:s_017.ogg
384,192,119310,1,0,0:0:0:0:s_041.ogg
435,192,119310,1,0,0:0:0:0:s_044.ogg
332,192,119390,1,0,0:0:0:0:s_036.ogg
128,192,119430,1,0,0:0:0:0:s_019.ogg
281,192,119470,1,0,0:0:0:0:s_032.ogg
230,192,119550,1,0,0:0:0:0:m_032.ogg
486,192,119550,1,0,0:0:0:0:m_020.ogg
25,192,119790,1,0,0:0:0:0:s_035.ogg
76,192,119790,1,0,0:0:0:0:m_044.ogg
128,192,119790,1,0,0:0:0:0:m_041.ogg
281,192,119790,1,0,0:0:0:0:m_053.ogg
332,192,119790,1,0,0:0:0:0:m_050.ogg
384,192,119790,1,0,0:0:0:0:m_062.ogg
230,192,120030,1,0,0:0:0:0:m_023.ogg
486,192,120030,1,0,0:0:0:0:m_035.ogg
76,192,120270,1,0,0:0:0:0:s_038.ogg
128,192,120270,1,0,0:0:0:0:s_044.ogg
179,192,120270,1,0,0:0:0:0:s_047.ogg
332,192,120270,1,0,0:0:0:0:s_056.ogg
384,192,120270,1,0,0:0:0:0:s_053.ogg
435,192,120270,1,0,0:0:0:0:s_065.ogg
25,192,120510,1,0,0:0:0:0:m_026.ogg
281,192,120510,1,0,0:0:0:0:m_038.ogg
128,192,120750,1,0,0:0:0:0:m_047.ogg
179,192,120750,1,0,0:0:0:0:m_041.ogg
230,192,120750,1,0,0:0:0:0:m_050.ogg
384,192,120750,1,0,0:0:0:0:m_059.ogg
435,192,120750,1,0,0:0:0:0:m_056.ogg
486,192,120750,1,0,0:0:0:0:m_068.ogg
25,192,120990,1,0,0:0:0:0:m_019.ogg
281,192,120990,1,0,0:0:0:0:m_031.ogg
76,192,121230,1,0,0:0:0:0:s_035.ogg
128,192,121230,1,0,0:0:0:0:s_038.ogg
179,192,121230,1,0,0:0:0:0:s_043.ogg
332,192,121230,1,0,0:0:0:0:s_059.ogg
384,192,121230,1,0,0:0:0:0:s_055.ogg
435,192,121230,1,0,0:0:0:0:s_067.ogg
281,192,121470,1,0,0:0:0:0:m_015.ogg
332,192,121470,1,0,0:0:0:0:m_024.ogg
384,192,121470,1,0,0:0:0:0:m_012.ogg
25,192,121550,1,0,0:0:0:0:m_031.ogg
76,192,121630,1,0,0:0:0:0:s_036.ogg
128,192,121710,1,0,0:0:0:0:s_043.ogg
179,192,121710,1,0,0:0:0:0:m_039.ogg
76,192,121790,1,0,0:0:0:0:m_043.ogg
332,192,121830,1,0,0:0:0:0:s_036.ogg
128,192,121870,1,0,0:0:0:0:m_048.ogg
179,192,121950,1,0,0:0:0:0:m_051.ogg
230,192,121950,1,0,0:0:0:0:s_055.ogg
332,192,121950,1,0,0:0:0:0:m_036.ogg
128,192,122030,1,0,0:0:0:0:m_055.ogg
435,192,122070,1,0,0:0:0:0:m_039.ogg
179,192,122110,1,0,0:0:0:0:m_060.ogg
25,192,122190,1,0,0:0:0:0:s_063.ogg
230,192,122190,1,0,0:0:0:0:s_067.ogg
384,192,122190,1,0,0:0:0:0:s_038.ogg
179,192,122270,1,0,0:0:0:0:s_067.ogg
332,192,122310,1,0,0:0:0:0:s_036.ogg
230,192,122350,1,0,0:0:0:0:s_072.ogg
25,192,122430,1,0,0:0:0:0:m_079.ogg
76,192,122430,1,0,0:0:0:0:m_075.ogg
486,192,122430,128,0,122910:0:0:0:0:m_043.ogg
230,192,122510,1,0,0:0:0:0:m_072.ogg
179,192,122590,1,0,0:0:0:0:s_067.ogg
25,192,122670,1,0,0:0:0:0:s_063.ogg
230,192,122670,1,0,0:0:0:0:s_067.ogg
179,192,122750,1,0,0:0:0:0:s_060.ogg
281,192,122790,1,0,0:0:0:0:s_019.ogg
128,192,122830,1,0,0:0:0:0:s_055.ogg
179,192,122910,1,0,0:0:0:0:m_051.ogg
230,192,122910,1,0,0:0:0:0:m_055.ogg
281,192,122910,1,0,0:0:0:0:m_019.ogg
128,192,122990,1,0,0:0:0:0:m_048.ogg
384,192,123030,1,0,0:0:0:0:m_022.ogg
76,192,123070,1,0,0:0:0:0:s_043.ogg
128,192,123150,1,0,0:0:0:0:s_043.ogg
179,192,123150,1,0,0:0:0:0:s_039.ogg
332,192,123150,1,0,0:0:0:0:s_020.ogg
76,192,123230,1,0,0:0:0:0:s_036.ogg
281,192,123270,1,0,0:0:0:0:s_019.ogg
25,192,123310,1,0,0:0:0:0:s_031.ogg
384,192,123390,1,0,0:0:0:0:m_024.ogg
435,192,123390,1,0,0:0:0:0:m_012.ogg
486,192,123390,1,0,0:0:0:0:m_019.ogg
25,192,123470,1,0,0:0:0:0:m_031.ogg
76,192,123550,1,0,0:0:0:0:s_036.ogg
128,192,123630,1,0,0:0:0:0:s_043.ogg
179,192,123630,1,0,0:0:0:0:m_040.ogg
76,192,123710,1,0,0:0:0:0:m_043.ogg
332,192,123750,1,0,0:0:0:0:s_036.ogg
128,192,123790,1,0,0:0:0:0:m_048.ogg
179,192,123870,1,0,0:0:0:0:m_052.ogg
230,192,123870,1,0,0:0:0:0:s_055.ogg
332,192,123870,1,0,0:0:0:0:m_036.ogg
128,192,123950,1,0,0:0:0:0:m_055.ogg
435,192,123990,1,0,0:0:0:0:m_039.ogg
179,192,124030,1,0,0:0:0:0:m_060.ogg
25,192,124110,1,0,0:0:0:0:s_064.ogg
230,192,124110,1,0,0:0:0:0:s_067.ogg
384,192,124110,1,0,0:0:0:0:s_037.ogg
179,192,124190,1,0,0:0:0:0:s_067.ogg
332,192,124230,1,0,0:0:0:0:s_036.ogg
230,192,124270,1,0,0:0:0:0:s_072.ogg
25,192,124350,1,0,0:0:0:0:m_076.ogg
76,192,124350,1,0,0:0:0:0:m_079.ogg
486,192,124350,128,0,124830:0:0:0:0:m_046.ogg
230,192,124430,1,0,0:0:0:0:m_072.ogg
179,192,124510,1,0,0:0:0:0:s_067.ogg
25,192,124590,1,0,0:0:0:0:s_064.ogg
230,192,124590,1,0,0:0:0:0:s_067.ogg
179,192,124670,1,0,0:0:0:0:s_060.ogg
281,192,124710,1,0,0:0:0:0:s_024.ogg
128,192,124750,1,0,0:0:0:0:s_055.ogg
179,192,124830,1,0,0:0:0:0:m_052.ogg
230,192,124830,1,0,0:0:0:0:m_055.ogg
281,192,124830,1,0,0:0:0:0:m_024.ogg
128,192,124910,1,0,0:0:0:0:m_048.ogg
384,192,124950,1,0,0:0:0:0:m_027.ogg
76,192,124990,1,0,0:0:0:0:s_043.ogg
128,192,125070,1,0,0:0:0:0:s_040.ogg
179,192,125070,1,0,0:0:0:0:s_043.ogg
332,192,125070,1,0,0:0:0:0:s_025.ogg
76,192,125150,1,0,0:0:0:0:s_036.ogg
281,192,125190,1,0,0:0:0:0:s_024.ogg
25,192,125230,1,0,0:0:0:0:s_031.ogg
384,192,125310,1,0,0:0:0:0:m_024.ogg
435,192,125310,1,0,0:0:0:0:m_029.ogg
486,192,125310,1,0,0:0:0:0:m_017.ogg
25,192,125390,1,0,0:0:0:0:m_032.ogg
76,192,125470,1,0,0:0:0:0:s_036.ogg
128,192,125550,1,0,0:0:0:0:s_044.ogg
179,192,125550,1,0,0:0:0:0:m_041.ogg
76,192,125630,1,0,0:0:0:0:m_044.ogg
384,192,125670,1,0,0:0:0:0:s_036.ogg
128,192,125710,1,0,0:0:0:0:m_048.ogg
179,192,125790,1,0,0:0:0:0:m_053.ogg
230,192,125790,1,0,0:0:0:0:s_056.ogg
384,192,125790,1,0,0:0:0:0:m_036.ogg
128,192,125870,1,0,0:0:0:0:m_056.ogg
486,192,125910,1,0,0:0:0:0:m_039.ogg
179,192,125950,1,0,0:0:0:0:m_060.ogg
25,192,126030,1,0,0:0:0:0:s_065.ogg
230,192,126030,1,0,0:0:0:0:s_068.ogg
435,192,126030,1,0,0:0:0:0:s_037.ogg
179,192,126110,1,0,0:0:0:0:s_068.ogg
384,192,126150,1,0,0:0:0:0:s_036.ogg
230,192,126190,1,0,0:0:0:0:s_072.ogg
25,192,126270,1,0,0:0:0:0:m_077.ogg
76,192,126270,1,0,0:0:0:0:m_080.ogg
486,192,126270,128,0,126750:0:0:0:0:m_044.ogg
230,192,126350,1,0,0:0:0:0:m_072.ogg
179,192,126430,1,0,0:0:0:0:s_068.ogg
25,192,126510,1,0,0:0:0:0:s_065.ogg
230,192,126510,1,0,0:0:0:0:s_068.ogg
179,192,126590,1,0,0:0:0:0:s_060.ogg
332,192,126630,1,0,0:0:0:0:s_017.ogg
128,192,126670,1,0,0:0:0:0:s_056.ogg
179,192,126750,1,0,0:0:0:0:m_053.ogg
230,192,126750,1,0,0:0:0:0:m_056.ogg
332,192,126750,1,0,0:0:0:0:s_017.ogg
128,192,126830,1,0,0:0:0:0:m_048.ogg
281,192,126870,1,0,0:0:0:0:m_016.ogg
76,192,126910,1,0,0:0:0:0:s_044.ogg
128,192,126990,1,0,0:0:0:0:s_041.ogg
179,192,126990,1,0,0:0:0:0:s_044.ogg
332,192,126990,1,0,0:0:0:0:s_017.ogg
76,192,127070,1,0,0:0:0:0:s_036.ogg
384,192,127110,1,0,0:0:0:0:s_019.ogg
25,192,127150,1,0,0:0:0:0:s_032.ogg
486,192,127230,1,0,0:0:0:0:m_032.ogg
230,192,127230,1,0,0:0:0:0:m_020.ogg
25,192,127470,1,0,0:0:0:0:m_053.ogg
76,192,127470,1,0,0:0:0:0:m_050.ogg
128,192,127470,1,0,0:0:0:0:m_062.ogg
281,192,127470,1,0,0:0:0:0:s_035.ogg
332,192,127470,1,0,0:0:0:0:m_044.ogg
384,192,127470,1,0,0:0:0:0:m_041.ogg
486,192,127710,1,0,0:0:0:0:m_023.ogg
230,192,127710,1,0,0:0:0:0:m_035.ogg
76,192,127950,1,0,0:0:0:0:s_056.ogg
128,192,127950,1,0,0:0:0:0:s_053.ogg
179,192,127950,1,0,0:0:0:0:s_065.ogg
332,192,127950,1,0,0:0:0:0:s_038.ogg
384,192,127950,1,0,0:0:0:0:s_044.ogg
435,192,127950,1,0,0:0:0:0:s_047.ogg
281,192,128190,1,0,0:0:0:0:m_038.ogg
25,192,128190,1,0,0:0:0:0:m_026.ogg
128,192,128430,1,0,0:0:0:0:m_059.ogg
179,192,128430,1,0,0:0:0:0:m_056.ogg
230,192,128430,1,0,0:0:0:0:m_068.ogg
384,192,128430,1,0,0:0:0:0:m_047.ogg
435,192,128430,1,0,0:0:0:0:m_041.ogg
486,192,128430,1,0,0:0:0:0:m_050.ogg
281,192,128670,1,0,0:0:0:0:m_031.ogg
25,192,128670,1,0,0:0:0:0:m_019.ogg
76,192,128910,1,0,0:0:0:0:s_059.ogg
128,192,128910,1,0,0:0:0:0:s_055.ogg
179,192,128910,1,0,0:0:0:0:s_067.ogg
332,192,128910,1,0,0:0:0:0:s_035.ogg
384,192,128910,1,0,0:0:0:0:s_038.ogg
435,192,128910,1,0,0:0:0:0:s_043.ogg
25,192,129150,1,0,0:0:0:0:l_012.ogg
281,192,129150,1,0,0:0:0:0:s_024.ogg
76,192,129230,1,0,0:0:0:0:l_016.ogg
332,192,129230,1,0,0:0:0:0:s_028.ogg
128,192,129310,1,0,0:0:0:0:m_019.ogg
384,192,129310,1,0,0:0:0:0:s_031.ogg
179,192,129390,1,0,0:0:0:0:m_024.ogg
435,192,129390,1,0,0:0:0:0:s_036.ogg
230,192,129470,1,0,0:0:0:0:m_028.ogg
486,192,129470,1,0,0:0:0:0:s_040.ogg
25,192,129550,1,0,0:0:0:0:m_031.ogg
281,192,129550,1,0,0:0:0:0:s_043.ogg
76,192,129630,1,0,0:0:0:0:m_036.ogg
332,192,129630,1,0,0:0:0:0:s_048.ogg
128,192,129710,1,0,0:0:0:0:m_040.ogg
384,192,129710,1,0,0:0:0:0:s_052.ogg
179,192,129790,1,0,0:0:0:0:m_043.ogg
435,192,129790,1,0,0:0:0:0:s_055.ogg
230,192,129870,1,0,0:0:0:0:m_048.ogg
486,192,129870,1,0,0:0:0:0:s_060.ogg
25,192,129950,1,0,0:0:0:0:m_052.ogg
281,192,129950,1,0,0:0:0:0:m_064.ogg
76,192,130030,1,0,0:0:0:0:s_055.ogg
332,192,130030,1,0,0:0:0:0:s_067.ogg
230,192,130110,1,0,0:0:0:0:s_060.ogg
486,192,130110,1,0,0:0:0:0:m_072.ogg
179,192,130190,1,0,0:0:0:0:s_055.ogg
435,192,130190,1,0,0:0:0:0:m_067.ogg
128,192,130270,1,0,0:0:0:0:s_052.ogg
384,192,130270,1,0,0:0:0:0:m_064.ogg
76,192,130350,1,0,0:0:0:0:s_048.ogg
332,192,130350,1,0,0:0:0:0:m_060.ogg
25,192,130430,1,0,0:0:0:0:s_043.ogg
281,192,130430,1,0,0:0:0:0:m_055.ogg
230,192,130510,1,0,0:0:0:0:s_040.ogg
486,192,130510,1,0,0:0:0:0:m_052.ogg
179,192,130590,1,0,0:0:0:0:s_036.ogg
435,192,130590,1,0,0:0:0:0:m_048.ogg
128,192,130670,1,0,0:0:0:0:s_031.ogg
384,192,130670,1,0,0:0:0:0:m_043.ogg
76,192,130750,1,0,0:0:0:0:s_028.ogg
332,192,130750,1,0,0:0:0:0:m_040.ogg
25,192,130830,1,0,0:0:0:0:s_024.ogg
281,192,130830,1,0,0:0:0:0:s_036.ogg
230,192,130910,1,0,0:0:0:0:s_019.ogg
486,192,130910,1,0,0:0:0:0:s_031.ogg
179,192,130990,1,0,0:0:0:0:s_016.ogg
435,192,130990,1,0,0:0:0:0:s_028.ogg
25,192,131070,1,0,0:0:0:0:l_012.ogg
281,192,131070,1,0,0:0:0:0:s_024.ogg
76,192,131150,1,0,0:0:0:0:l_016.ogg
332,192,131150,1,0,0:0:0:0:s_028.ogg
128,192,131230,1,0,0:0:0:0:m_019.ogg
384,192,131230,1,0,0:0:0:0:s_031.ogg
179,192,131310,1,0,0:0:0:0:m_024.ogg
435,192,131310,1,0,0:0:0:0:s_036.ogg
230,192,131390,1,0,0:0:0:0:m_028.ogg
486,192,131390,1,0,0:0:0:0:s_040.ogg
25,192,131470,1,0,0:0:0:0:m_031.ogg
281,192,131470,1,0,0:0:0:0:s_043.ogg
76,192,131550,1,0,0:0:0:0:m_036.ogg
332,192,131550,1,0,0:0:0:0:s_048.ogg
128,192,131630,1,0,0:0:0:0:m_040.ogg
384,192,131630,1,0,0:0:0:0:s_052.ogg
179,192,131710,1,0,0:0:0:0:m_043.ogg
435,192,131710,1,0,0:0:0:0:s_055.ogg
230,192,131790,1,0,0:0:0:0:m_048.ogg
486,192,131790,1,0,0:0:0:0:s_060.ogg
25,192,131850,1,0,0:0:0:0:m_052.ogg
281,192,131850,1,0,0:0:0:0:s_064.ogg
76,192,131910,1,0,0:0:0:0:s_055.ogg
332,192,131910,1,0,0:0:0:0:s_067.ogg
128,192,131970,1,0,0:0:0:0:s_060.ogg
384,192,131970,1,0,0:0:0:0:s_072.ogg
230,192,132030,1,0,0:0:0:0:s_064.ogg
486,192,132030,1,0,0:0:0:0:m_076.ogg
179,192,132090,1,0,0:0:0:0:s_060.ogg
435,192,132090,1,0,0:0:0:0:m_072.ogg
128,192,132150,1,0,0:0:0:0:s_055.ogg
384,192,132150,1,0,0:0:0:0:m_067.ogg
76,192,132210,1,0,0:0:0:0:s_052.ogg
332,192,132210,1,0,0:0:0:0:m_064.ogg
25,192,132270,1,0,0:0:0:0:s_048.ogg
281,192,132270,1,0,0:0:0:0:m_060.ogg
230,192,132350,1,0,0:0:0:0:s_043.ogg
486,192,132350,1,0,0:0:0:0:m_055.ogg
179,192,132430,1,0,0:0:0:0:s_040.ogg
435,192,132430,1,0,0:0:0:0:m_052.ogg
128,192,132510,1,0,0:0:0:0:s_036.ogg
384,192,132510,1,0,0:0:0:0:m_048.ogg
76,192,132590,1,0,0:0:0:0:s_031.ogg
332,192,132590,1,0,0:0:0:0:m_043.ogg
25,192,132670,1,0,0:0:0:0:s_028.ogg
281,192,132670,1,0,0:0:0:0:m_040.ogg
230,192,132750,1,0,0:0:0:0:s_024.ogg
486,192,132750,1,0,0:0:0:0:s_036.ogg
179,192,132830,1,0,0:0:0:0:s_019.ogg
435,192,132830,1,0,0:0:0:0:s_031.ogg
128,192,132910,1,0,0:0:0:0:s_016.ogg
384,192,132910,1,0,0:0:0:0:s_028.ogg
25,192,132990,1,0,0:0:0:0:l_012.ogg
281,192,132990,1,0,0:0:0:0:s_024.ogg
76,192,133070,1,0,0:0:0:0:l_016.ogg
332,192,133070,1,0,0:0:0:0:s_028.ogg
128,192,133150,1,0,0:0:0:0:l_019.ogg
384,192,133150,1,0,0:0:0:0:s_031.ogg
179,192,133230,1,0,0:0:0:0:l_024.ogg
435,192,133230,1,0,0:0:0:0:s_036.ogg
230,192,133310,1,0,0:0:0:0:l_028.ogg
486,192,133310,1,0,0:0:0:0:s_040.ogg
25,192,133390,1,0,0:0:0:0:l_031.ogg
281,192,133390,1,0,0:0:0:0:s_043.ogg
76,192,133470,1,0,0:0:0:0:m_036.ogg
332,192,133470,1,0,0:0:0:0:s_048.ogg
128,192,133550,1,0,0:0:0:0:m_040.ogg
384,192,133550,1,0,0:0:0:0:s_052.ogg
179,192,133630,1,0,0:0:0:0:m_043.ogg
435,192,133630,1,0,0:0:0:0:s_055.ogg
230,192,133710,1,0,0:0:0:0:m_048.ogg
486,192,133710,1,0,0:0:0:0:s_060.ogg
25,192,133790,1,0,0:0:0:0:m_052.ogg
281,192,133790,1,0,0:0:0:0:s_064.ogg
76,192,133870,1,0,0:0:0:0:m_055.ogg
332,192,133870,1,0,0:0:0:0:m_067.ogg
128,192,133950,1,0,0:0:0:0:m_060.ogg
384,192,133950,1,0,0:0:0:0:m_072.ogg
179,192,134050,1,0,0:0:0:0:m_064.ogg
435,192,134050,1,0,0:0:0:0:m_076.ogg
230,192,134150,1,0,0:0:0:0:m_068.ogg
486,192,134150,1,0,0:0:0:0:m_080.ogg
179,192,134250,1,0,0:0:0:0:m_067.ogg
435,192,134250,1,0,0:0:0:0:m_079.ogg
128,192,134350,1,0,0:0:0:0:s_064.ogg
384,192,134350,1,0,0:0:0:0:m_076.ogg
76,192,134450,1,0,0:0:0:0:s_060.ogg
332,192,134450,1,0,0:0:0:0:m_072.ogg
25,192,134530,1,0,0:0:0:0:s_055.ogg
281,192,134530,1,0,0:0:0:0:m_067.ogg
230,192,134610,1,0,0:0:0:0:s_052.ogg
486,192,134610,1,0,0:0:0:0:m_064.ogg
179,192,134690,1,0,0:0:0:0:s_048.ogg
435,192,134690,1,0,0:0:0:0:m_060.ogg
128,192,134770,1,0,0:0:0:0:s_043.ogg
384,192,134770,1,0,0:0:0:0:m_055.ogg
76,192,134850,1,0,0:0:0:0:s_040.ogg
332,192,134850,1,0,0:0:0:0:m_052.ogg
25,192,134930,1,0,0:0:0:0:s_036.ogg
281,192,134930,1,0,0:0:0:0:m_048.ogg
230,192,135010,1,0,0:0:0:0:s_031.ogg
486,192,135010,1,0,0:0:0:0:m_043.ogg
179,192,135090,1,0,0:0:0:0:s_028.ogg
435,192,135090,1,0,0:0:0:0:m_040.ogg
128,192,135170,1,0,0:0:0:0:s_024.ogg
384,192,135170,1,0,0:0:0:0:s_036.ogg
76,192,135250,1,0,0:0:0:0:s_019.ogg
332,192,135250,1,0,0:0:0:0:s_031.ogg
25,192,135330,1,0,0:0:0:0:s_016.ogg
281,192,135330,1,0,0:0:0:0:s_028.ogg
230,192,135410,1,0,0:0:0:0:s_012.ogg
486,192,135470,1,0,0:0:0:0:s_013.ogg
230,192,135530,1,0,0:0:0:0:s_012.ogg
486,192,135590,1,0,0:0:0:0:s_013.ogg
230,192,135650,1,0,0:0:0:0:s_012.ogg
486,192,135710,1,0,0:0:0:0:s_013.ogg
230,192,135770,1,0,0:0:0:0:s_012.ogg
486,192,135830,1,0,0:0:0:0:s_013.ogg
230,192,135890,1,0,0:0:0:0:s_012.ogg
486,192,135950,1,0,0:0:0:0:s_013.ogg
230,192,136010,1,0,0:0:0:0:s_012.ogg
486,192,136070,1,0,0:0:0:0:s_013.ogg
230,192,136130,1,0,0:0:0:0:s_012.ogg
486,192,136190,1,0,0:0:0:0:s_013.ogg
230,192,136250,1,0,0:0:0:0:s_012.ogg
486,192,136310,1,0,0:0:0:0:s_013.ogg
25,192,136370,1,0,0:0:0:0:m_012.ogg
76,192,136430,1,0,0:0:0:0:m_013.ogg
128,192,136490,1,0,0:0:0:0:m_014.ogg
179,192,136550,1,0,0:0:0:0:m_015.ogg
230,192,136610,1,0,0:0:0:0:m_016.ogg
281,192,136670,1,0,0:0:0:0:m_017.ogg
332,192,136730,1,0,0:0:0:0:s_018.ogg
384,192,136790,1,0,0:0:0:0:s_019.ogg
486,192,136850,1,0,0:0:0:0:m_020.ogg
435,192,136910,1,0,0:0:0:0:m_019.ogg
384,192,136970,1,0,0:0:0:0:m_018.ogg
332,192,137030,1,0,0:0:0:0:s_017.ogg
281,192,137090,1,0,0:0:0:0:s_016.ogg
230,192,137150,1,0,0:0:0:0:s_015.ogg
179,192,137210,1,0,0:0:0:0:s_014.ogg
128,192,137270,1,0,0:0:0:0:s_013.ogg
76,192,137330,1,0,0:0:0:0:m_012.ogg
25,192,137810,1,0,0:0:0:0:m_024.ogg
76,192,137810,1,0,0:0:0:0:m_036.ogg
128,192,137810,1,0,0:0:0:0:m_031.ogg
281,192,137810,1,0,0:0:0:0:m_060.ogg
332,192,137810,1,0,0:0:0:0:m_048.ogg
384,192,137810,1,0,0:0:0:0:m_052.ogg
128,192,138290,1,0,0:0:0:0:m_048.ogg
179,192,138290,1,0,0:0:0:0:m_043.ogg
230,192,138290,1,0,0:0:0:0:m_040.ogg
384,192,138290,1,0,0:0:0:0:m_064.ogg
435,192,138290,1,0,0:0:0:0:m_060.ogg
486,192,138290,1,0,0:0:0:0:m_067.ogg
