osu file format v14

[General]
AudioFilename: virtual
AudioLeadIn: 0
PreviewTime: 0
Countdown: 0
SampleSet: None
StackLeniency: 0.7
Mode: 3
LetterboxInBreaks: 0
SpecialStyle: 0
WidescreenStoryboard: 1

[Editor]
DistanceSpacing: 0.8
BeatDivisor: 4
GridSize: 16
TimelineZoom: 1.800006

[Metadata]
Title:Piano Beatmap Set
TitleUnicode:Piano Beatmap Set
Artist:Collection
ArtistUnicode:Collection
Creator:CircusGalop
Version:Grandes Etudes No.6 - 10K EZ
Source:BMS
Tags:
BeatmapID:1355221
BeatmapSetID:332673

[Difficulty]
HPDrainRate:5
CircleSize:10
OverallDifficulty:5
ApproachRate:5
SliderMultiplier:1.4
SliderTickRate:1

[Events]
//Background and Video events
0,0,"CircusGalop.jpg",0,0
//Break Periods
//Storyboard Layer 0 (Background)
//Storyboard Layer 1 (Fail)
//Storyboard Layer 2 (Pass)
//Storyboard Layer 3 (Foreground)
//Storyboard Sound Samples
Sample,1940,0,"s_031.ogg",100
Sample,1960,0,"s_036.ogg",100
Sample,2000,0,"s_043.ogg",100
Sample,2020,0,"s_048.ogg",100
Sample,2040,0,"s_051.ogg",100
Sample,2060,0,"s_060.ogg",100
Sample,2900,0,"s_038.ogg",100
Sample,2920,0,"s_043.ogg",100
Sample,2960,0,"s_050.ogg",100
Sample,2980,0,"s_055.ogg",100
Sample,3000,0,"s_059.ogg",100
Sample,3020,0,"s_067.ogg",100
Sample,3860,0,"s_031.ogg",100
Sample,3880,0,"s_036.ogg",100
Sample,3920,0,"s_043.ogg",100
Sample,3940,0,"s_048.ogg",100
Sample,3960,0,"s_051.ogg",100
Sample,3980,0,"s_060.ogg",100
Sample,4800,0,"s_031.ogg",100
Sample,4800,0,"m_050.ogg",100
Sample,4800,0,"m_067.ogg",100
Sample,4830,0,"s_038.ogg",100
Sample,4860,0,"s_043.ogg",100
Sample,4890,0,"s_047.ogg",100
Sample,5780,0,"s_031.ogg",100
Sample,5800,0,"s_036.ogg",100
Sample,5840,0,"s_043.ogg",100
Sample,5860,0,"s_048.ogg",100
Sample,5880,0,"s_051.ogg",100
Sample,5900,0,"s_060.ogg",100
Sample,6740,0,"s_038.ogg",100
Sample,6760,0,"s_043.ogg",100
Sample,6800,0,"s_050.ogg",100
Sample,6820,0,"s_055.ogg",100
Sample,6840,0,"s_059.ogg",100
Sample,6860,0,"s_067.ogg",100
Sample,7700,0,"s_031.ogg",100
Sample,7720,0,"s_036.ogg",100
Sample,7760,0,"s_043.ogg",100
Sample,7780,0,"s_048.ogg",100
Sample,7800,0,"s_051.ogg",100
Sample,7820,0,"s_060.ogg",100
Sample,8640,0,"m_050.ogg",100
Sample,8640,0,"m_067.ogg",100
Sample,8640,0,"s_031.ogg",100
Sample,8670,0,"s_038.ogg",100
Sample,8700,0,"s_043.ogg",100
Sample,8730,0,"s_047.ogg",100
Sample,9620,0,"s_031.ogg",100
Sample,9640,0,"s_036.ogg",100
Sample,9680,0,"s_055.ogg",100
Sample,9700,0,"s_060.ogg",100
Sample,9720,0,"s_064.ogg",100
Sample,9740,0,"s_072.ogg",100
Sample,10580,0,"s_036.ogg",100
Sample,10600,0,"s_041.ogg",100
Sample,10640,0,"s_048.ogg",100
Sample,10660,0,"s_056.ogg",100
Sample,10680,0,"s_060.ogg",100
Sample,10700,0,"s_068.ogg",100
Sample,11540,0,"s_029.ogg",100
Sample,11560,0,"s_034.ogg",100
Sample,11600,0,"s_053.ogg",100
Sample,11620,0,"s_058.ogg",100
Sample,11640,0,"s_062.ogg",100
Sample,11660,0,"s_070.ogg",100
Sample,12500,0,"s_034.ogg",100
Sample,12520,0,"s_039.ogg",100
Sample,12560,0,"s_046.ogg",100
Sample,12580,0,"s_055.ogg",100
Sample,12600,0,"s_058.ogg",100
Sample,12620,0,"s_067.ogg",100
Sample,13460,0,"s_032.ogg",100
Sample,13480,0,"s_038.ogg",100
Sample,13520,0,"s_050.ogg",100
Sample,13540,0,"s_056.ogg",100
Sample,13560,0,"s_062.ogg",100
Sample,13580,0,"s_068.ogg",100
Sample,14420,0,"s_039.ogg",100
Sample,14440,0,"s_043.ogg",100
Sample,14480,0,"s_055.ogg",100
Sample,14500,0,"s_060.ogg",100
Sample,14520,0,"s_067.ogg",100
Sample,15720,0,"s_042.ogg",100
Sample,15960,0,"s_055.ogg",100
Sample,16080,0,"s_053.ogg",100
Sample,16200,0,"s_050.ogg",100
Sample,16320,0,"m_043.ogg",100
Sample,16320,0,"m_039.ogg",100
Sample,16800,0,"s_043.ogg",100
Sample,16800,0,"s_048.ogg",100
Sample,17300,0,"s_031.ogg",100
Sample,17320,0,"s_040.ogg",100
Sample,17360,0,"s_060.ogg",100
Sample,17380,0,"s_064.ogg",100
Sample,17400,0,"s_072.ogg",100
Sample,17760,0,"s_048.ogg",100
Sample,17760,0,"s_043.ogg",100
Sample,18260,0,"s_036.ogg",100
Sample,18280,0,"s_044.ogg",100
Sample,18320,0,"s_056.ogg",100
Sample,18340,0,"s_060.ogg",100
Sample,18360,0,"s_068.ogg",100
Sample,18720,0,"s_048.ogg",100
Sample,18720,0,"s_044.ogg",100
Sample,19220,0,"s_029.ogg",100
Sample,19240,0,"s_038.ogg",100
Sample,19280,0,"s_058.ogg",100
Sample,19300,0,"s_062.ogg",100
Sample,19320,0,"s_070.ogg",100
Sample,19680,0,"s_038.ogg",100
Sample,19680,0,"s_041.ogg",100
Sample,20180,0,"s_034.ogg",100
Sample,20200,0,"s_043.ogg",100
Sample,20240,0,"s_055.ogg",100
Sample,20260,0,"s_058.ogg",100
Sample,20280,0,"s_067.ogg",100
Sample,20640,0,"s_046.ogg",100
Sample,21140,0,"s_037.ogg",100
Sample,21160,0,"s_044.ogg",100
Sample,21200,0,"s_056.ogg",100
Sample,21220,0,"s_068.ogg",100
Sample,21600,0,"s_041.ogg",100
Sample,22100,0,"s_039.ogg",100
Sample,22120,0,"s_043.ogg",100
Sample,22160,0,"s_055.ogg",100
Sample,22180,0,"s_067.ogg",100
Sample,22560,0,"s_039.ogg",100
Sample,23400,0,"s_042.ogg",100
Sample,23640,0,"s_055.ogg",100
Sample,23760,0,"s_053.ogg",100
Sample,23880,0,"s_041.ogg",100
Sample,24000,0,"m_048.ogg",100
Sample,24000,0,"m_039.ogg",100
Sample,24480,0,"s_043.ogg",100
Sample,24480,0,"s_048.ogg",100
Sample,24960,0,"s_036.ogg",100
Sample,25320,0,"s_036.ogg",100
Sample,25440,0,"s_036.ogg",100
Sample,25560,0,"s_039.ogg",100
Sample,25680,0,"s_038.ogg",100
Sample,25800,0,"s_036.ogg",100
Sample,25920,0,"s_043.ogg",100
Sample,26280,0,"s_031.ogg",100
Sample,26400,0,"s_031.ogg",100
Sample,26520,0,"s_034.ogg",100
Sample,26640,0,"s_032.ogg",100
Sample,26760,0,"s_031.ogg",100
Sample,26880,0,"s_036.ogg",100
Sample,27240,0,"s_036.ogg",100
Sample,27360,0,"s_036.ogg",100
Sample,27480,0,"s_039.ogg",100
Sample,27600,0,"s_038.ogg",100
Sample,27720,0,"s_036.ogg",100
Sample,28000,0,"s_047.ogg",100
Sample,28160,0,"s_050.ogg",100
Sample,28320,0,"s_031.ogg",100
Sample,28320,0,"s_055.ogg",100
Sample,28800,0,"s_036.ogg",100
Sample,29160,0,"s_036.ogg",100
Sample,29280,0,"s_036.ogg",100
Sample,29400,0,"s_039.ogg",100
Sample,29520,0,"s_038.ogg",100
Sample,29640,0,"s_036.ogg",100
Sample,29760,0,"s_043.ogg",100
Sample,30120,0,"s_031.ogg",100
Sample,30240,0,"s_031.ogg",100
Sample,30360,0,"s_034.ogg",100
Sample,30480,0,"s_032.ogg",100
Sample,30600,0,"s_031.ogg",100
Sample,30720,0,"s_036.ogg",100
Sample,31080,0,"s_036.ogg",100
Sample,31200,0,"s_036.ogg",100
Sample,31320,0,"s_039.ogg",100
Sample,31440,0,"s_038.ogg",100
Sample,31560,0,"s_036.ogg",100
Sample,31840,0,"s_047.ogg",100
Sample,32000,0,"s_050.ogg",100
Sample,32160,0,"s_031.ogg",100
Sample,32160,0,"s_055.ogg",100
Sample,32640,0,"s_036.ogg",100
Sample,32680,0,"s_064.ogg",100
Sample,32720,0,"s_072.ogg",100
Sample,33000,0,"s_048.ogg",100
Sample,33120,0,"s_048.ogg",100
Sample,33240,0,"s_049.ogg",100
Sample,33360,0,"s_048.ogg",100
Sample,33480,0,"s_046.ogg",100
Sample,33640,0,"s_044.ogg",100
Sample,33760,0,"s_053.ogg",100
Sample,33920,0,"s_056.ogg",100
Sample,33960,0,"s_041.ogg",100
Sample,34080,0,"s_041.ogg",100
Sample,34080,0,"s_060.ogg",100
Sample,34200,0,"s_044.ogg",100
Sample,34240,0,"s_065.ogg",100
Sample,34320,0,"s_043.ogg",100
Sample,34400,0,"s_068.ogg",100
Sample,34440,0,"s_041.ogg",100
Sample,34560,0,"s_034.ogg",100
Sample,34600,0,"s_062.ogg",100
Sample,34640,0,"s_070.ogg",100
Sample,34920,0,"s_046.ogg",100
Sample,35040,0,"s_046.ogg",100
Sample,35160,0,"s_048.ogg",100
Sample,35280,0,"s_046.ogg",100
Sample,35400,0,"s_044.ogg",100
Sample,35560,0,"s_043.ogg",100
Sample,35680,0,"s_051.ogg",100
Sample,35840,0,"s_055.ogg",100
Sample,35880,0,"s_039.ogg",100
Sample,36000,0,"s_058.ogg",100
Sample,36000,0,"s_039.ogg",100
Sample,36120,0,"s_043.ogg",100
Sample,36160,0,"s_063.ogg",100
Sample,36240,0,"s_041.ogg",100
Sample,36320,0,"s_067.ogg",100
Sample,36360,0,"s_039.ogg",100
Sample,36480,0,"s_068.ogg",100
Sample,36480,0,"s_029.ogg",100
Sample,36520,0,"s_035.ogg",100
Sample,36560,0,"s_044.ogg",100
Sample,36640,0,"s_065.ogg",100
Sample,36800,0,"s_062.ogg",100
Sample,36840,0,"s_038.ogg",100
Sample,36960,0,"s_038.ogg",100
Sample,36960,0,"s_059.ogg",100
Sample,37080,0,"s_041.ogg",100
Sample,37120,0,"s_056.ogg",100
Sample,37200,0,"s_039.ogg",100
Sample,37320,0,"s_038.ogg",100
Sample,37440,0,"s_027.ogg",100
Sample,37480,0,"s_043.ogg",100
Sample,37800,0,"s_036.ogg",100
Sample,37920,0,"s_036.ogg",100
Sample,38040,0,"s_039.ogg",100
Sample,38160,0,"s_038.ogg",100
Sample,38280,0,"s_036.ogg",100
Sample,38560,0,"s_042.ogg",100
Sample,38720,0,"s_054.ogg",100
Sample,38760,0,"s_038.ogg",100
Sample,39000,0,"s_043.ogg",100
Sample,39040,0,"s_055.ogg",100
Sample,39120,0,"s_041.ogg",100
Sample,39200,0,"s_050.ogg",100
Sample,39240,0,"s_038.ogg",100
Sample,39520,0,"s_060.ogg",100
Sample,39680,0,"s_055.ogg",100
Sample,39840,0,"s_051.ogg",100
Sample,39840,0,"s_043.ogg",100
Sample,39840,0,"s_072.ogg",100
Sample,40320,0,"m_036.ogg",100
Sample,40560,0,"s_068.ogg",100
Sample,40560,0,"s_060.ogg",100
Sample,40680,0,"s_056.ogg",100
Sample,40680,0,"s_063.ogg",100
Sample,40800,0,"s_048.ogg",100
Sample,40800,0,"s_055.ogg",100
Sample,40920,0,"s_043.ogg",100
Sample,40920,0,"s_051.ogg",100
Sample,41040,0,"s_039.ogg",100
Sample,41120,0,"s_038.ogg",100
Sample,41200,0,"s_036.ogg",100
Sample,41280,0,"m_035.ogg",100
Sample,41520,0,"s_066.ogg",100
Sample,41520,0,"s_059.ogg",100
Sample,41640,0,"s_054.ogg",100
Sample,41640,0,"s_062.ogg",100
Sample,41760,0,"s_055.ogg",100
Sample,41760,0,"s_047.ogg",100
Sample,41880,0,"s_043.ogg",100
Sample,41880,0,"s_050.ogg",100
Sample,42000,0,"s_031.ogg",100
Sample,42080,0,"s_033.ogg",100
Sample,42160,0,"s_035.ogg",100
Sample,42240,0,"m_036.ogg",100
Sample,42480,0,"s_060.ogg",100
Sample,42480,0,"s_068.ogg",100
Sample,42600,0,"s_056.ogg",100
Sample,42600,0,"s_063.ogg",100
Sample,42720,0,"s_048.ogg",100
Sample,42720,0,"s_055.ogg",100
Sample,42840,0,"s_051.ogg",100
Sample,42840,0,"s_043.ogg",100
Sample,42960,0,"s_039.ogg",100
Sample,43040,0,"s_038.ogg",100
Sample,43120,0,"s_036.ogg",100
Sample,43200,0,"m_035.ogg",100
Sample,43440,0,"s_066.ogg",100
Sample,43440,0,"s_059.ogg",100
Sample,43560,0,"s_054.ogg",100
Sample,43560,0,"s_062.ogg",100
Sample,43680,0,"s_055.ogg",100
Sample,43680,0,"s_047.ogg",100
Sample,43800,0,"s_050.ogg",100
Sample,43800,0,"s_043.ogg",100
Sample,43980,0,"s_031.ogg",100
Sample,44040,0,"s_033.ogg",100
Sample,44100,0,"s_035.ogg",100
Sample,44160,0,"m_024.ogg",100
Sample,44160,0,"m_036.ogg",100
Sample,44400,0,"s_060.ogg",100
Sample,44400,0,"s_068.ogg",100
Sample,44520,0,"s_063.ogg",100
Sample,44520,0,"s_056.ogg",100
Sample,44640,0,"s_048.ogg",100
Sample,44640,0,"s_055.ogg",100
Sample,44760,0,"s_043.ogg",100
Sample,44760,0,"s_051.ogg",100
Sample,44880,0,"s_039.ogg",100
Sample,44960,0,"s_038.ogg",100
Sample,45040,0,"s_036.ogg",100
Sample,45120,0,"m_035.ogg",100
Sample,45120,0,"m_011.ogg",100
Sample,45360,0,"s_066.ogg",100
Sample,45360,0,"s_059.ogg",100
Sample,45480,0,"s_062.ogg",100
Sample,45480,0,"s_054.ogg",100
Sample,45600,0,"s_047.ogg",100
Sample,45600,0,"s_055.ogg",100
Sample,45720,0,"s_043.ogg",100
Sample,45720,0,"s_050.ogg",100
Sample,45840,0,"s_031.ogg",100
Sample,45920,0,"s_033.ogg",100
Sample,46000,0,"s_035.ogg",100
Sample,46080,0,"m_024.ogg",100
Sample,46080,0,"m_036.ogg",100
Sample,46320,0,"s_060.ogg",100
Sample,46320,0,"s_068.ogg",100
Sample,46440,0,"s_063.ogg",100
Sample,46440,0,"s_056.ogg",100
Sample,46560,0,"s_055.ogg",100
Sample,46560,0,"s_048.ogg",100
Sample,46680,0,"s_043.ogg",100
Sample,46680,0,"s_051.ogg",100
Sample,46800,0,"s_039.ogg",100
Sample,46880,0,"s_038.ogg",100
Sample,46960,0,"s_036.ogg",100
Sample,47040,0,"m_011.ogg",100
Sample,47040,0,"m_035.ogg",100
Sample,47280,0,"s_059.ogg",100
Sample,47280,0,"s_066.ogg",100
Sample,47400,0,"s_062.ogg",100
Sample,47400,0,"s_054.ogg",100
Sample,47520,0,"s_055.ogg",100
Sample,47520,0,"s_047.ogg",100
Sample,47640,0,"s_043.ogg",100
Sample,47640,0,"s_050.ogg",100
Sample,47820,0,"s_036.ogg",100
Sample,47880,0,"s_038.ogg",100
Sample,47940,0,"s_039.ogg",100
Sample,48000,0,"m_016.ogg",100
Sample,48000,0,"m_040.ogg",100
Sample,48240,0,"s_073.ogg",100
Sample,48240,0,"s_067.ogg",100
Sample,48360,0,"s_061.ogg",100
Sample,48360,0,"s_070.ogg",100
Sample,48480,0,"s_060.ogg",100
Sample,48480,0,"s_055.ogg",100
Sample,48600,0,"s_058.ogg",100
Sample,48600,0,"s_048.ogg",100
Sample,48720,0,"s_024.ogg",100
Sample,48800,0,"s_026.ogg",100
Sample,48880,0,"s_028.ogg",100
Sample,48960,0,"m_029.ogg",100
Sample,48960,0,"m_017.ogg",100
Sample,49200,0,"s_067.ogg",100
Sample,49200,0,"s_060.ogg",100
Sample,49320,0,"s_065.ogg",100
Sample,49320,0,"s_055.ogg",100
Sample,49440,0,"s_056.ogg",100
Sample,49440,0,"s_048.ogg",100
Sample,49560,0,"s_044.ogg",100
Sample,49560,0,"s_053.ogg",100
Sample,49680,0,"s_043.ogg",100
Sample,49760,0,"s_041.ogg",100
Sample,49840,0,"s_039.ogg",100
Sample,49920,0,"m_014.ogg",100
Sample,49920,0,"m_038.ogg",100
Sample,50160,0,"s_065.ogg",100
Sample,50160,0,"s_071.ogg",100
Sample,50280,0,"s_059.ogg",100
Sample,50280,0,"s_068.ogg",100
Sample,50400,0,"s_058.ogg",100
Sample,50400,0,"s_053.ogg",100
Sample,50520,0,"s_056.ogg",100
Sample,50520,0,"s_046.ogg",100
Sample,50640,0,"s_034.ogg",100
Sample,50720,0,"s_036.ogg",100
Sample,50800,0,"s_038.ogg",100
Sample,50880,0,"m_039.ogg",100
Sample,50880,0,"m_015.ogg",100
Sample,51120,0,"s_066.ogg",100
Sample,51120,0,"s_058.ogg",100
Sample,51240,0,"s_063.ogg",100
Sample,51240,0,"s_054.ogg",100
Sample,51360,0,"s_046.ogg",100
Sample,51360,0,"s_055.ogg",100
Sample,51480,0,"s_043.ogg",100
Sample,51480,0,"s_051.ogg",100
Sample,51600,0,"s_038.ogg",100
Sample,51680,0,"s_039.ogg",100
Sample,51760,0,"s_040.ogg",100
Sample,51840,0,"m_041.ogg",100
Sample,51840,0,"m_029.ogg",100
Sample,52080,0,"s_065.ogg",100
Sample,52080,0,"s_074.ogg",100
Sample,52200,0,"s_068.ogg",100
Sample,52200,0,"s_062.ogg",100
Sample,52320,0,"s_061.ogg",100
Sample,52320,0,"s_053.ogg",100
Sample,52440,0,"s_056.ogg",100
Sample,52440,0,"s_049.ogg",100
Sample,52560,0,"s_037.ogg",100
Sample,52640,0,"s_039.ogg",100
Sample,52720,0,"s_041.ogg",100
Sample,52800,0,"m_019.ogg",100
Sample,52800,0,"m_043.ogg",100
Sample,53040,0,"s_062.ogg",100
Sample,53040,0,"s_071.ogg",100
Sample,53160,0,"s_065.ogg",100
Sample,53160,0,"s_059.ogg",100
Sample,53280,0,"s_051.ogg",100
Sample,53280,0,"s_060.ogg",100
Sample,53400,0,"s_055.ogg",100
Sample,53400,0,"s_048.ogg",100
Sample,53520,0,"s_044.ogg",100
Sample,53600,0,"s_043.ogg",100
Sample,53680,0,"s_042.ogg",100
Sample,53760,0,"m_041.ogg",100
Sample,53760,0,"m_017.ogg",100
Sample,54000,0,"s_060.ogg",100
Sample,54000,0,"s_068.ogg",100
Sample,54120,0,"s_056.ogg",100
Sample,54120,0,"s_062.ogg",100
Sample,54240,0,"s_031.ogg",100
Sample,54240,0,"s_047.ogg",100
Sample,54240,0,"s_055.ogg",100
Sample,54360,0,"s_050.ogg",100
Sample,54360,0,"s_043.ogg",100
Sample,54480,0,"s_041.ogg",100
Sample,54560,0,"s_039.ogg",100
Sample,54640,0,"s_038.ogg",100
Sample,54720,0,"m_024.ogg",100
Sample,54720,0,"m_036.ogg",100
Sample,54960,0,"s_075.ogg",100
Sample,54960,0,"s_067.ogg",100
Sample,55080,0,"s_063.ogg",100
Sample,55200,0,"s_072.ogg",100
Sample,55200,0,"s_067.ogg",100
Sample,55320,0,"s_060.ogg",100
Sample,55680,0,"m_075.ogg",100
Sample,55680,0,"m_079.ogg",100
Sample,55680,0,"s_015.ogg",100
Sample,55680,0,"s_012.ogg",100
Sample,55800,0,"s_017.ogg",100
Sample,55800,0,"s_014.ogg",100
Sample,55920,0,"s_019.ogg",100
Sample,55920,0,"s_015.ogg",100
Sample,56040,0,"s_017.ogg",100
Sample,56040,0,"s_020.ogg",100
Sample,56160,0,"s_019.ogg",100
Sample,56160,0,"s_023.ogg",100
Sample,56280,0,"s_024.ogg",100
Sample,56280,0,"s_020.ogg",100
Sample,56400,0,"s_026.ogg",100
Sample,56400,0,"s_074.ogg",100
Sample,56400,0,"s_023.ogg",100
Sample,56400,0,"s_077.ogg",100
Sample,56520,0,"s_027.ogg",100
Sample,56520,0,"s_024.ogg",100
Sample,56520,0,"s_072.ogg",100
Sample,56520,0,"s_063.ogg",100
Sample,56640,0,"s_026.ogg",100
Sample,56640,0,"s_029.ogg",100
Sample,56640,0,"s_062.ogg",100
Sample,56640,0,"s_074.ogg",100
Sample,56760,0,"s_031.ogg",100
Sample,56760,0,"s_060.ogg",100
Sample,56760,0,"s_068.ogg",100
Sample,56760,0,"s_027.ogg",100
Sample,56880,0,"s_029.ogg",100
Sample,56880,0,"s_032.ogg",100
Sample,56880,0,"s_059.ogg",100
Sample,56880,0,"s_067.ogg",100
Sample,57000,0,"s_031.ogg",100
Sample,57000,0,"s_056.ogg",100
Sample,57000,0,"s_035.ogg",100
Sample,57000,0,"s_065.ogg",100
Sample,57120,0,"s_036.ogg",100
Sample,57120,0,"s_063.ogg",100
Sample,57120,0,"s_067.ogg",100
Sample,57120,0,"s_032.ogg",100
Sample,57240,0,"s_038.ogg",100
Sample,57240,0,"s_035.ogg",100
Sample,57240,0,"s_065.ogg",100
Sample,57240,0,"s_053.ogg",100
Sample,57360,0,"s_063.ogg",100
Sample,57360,0,"s_060.ogg",100
Sample,57360,0,"s_039.ogg",100
Sample,57360,0,"s_036.ogg",100
Sample,57480,0,"s_050.ogg",100
Sample,57480,0,"s_062.ogg",100
Sample,57480,0,"s_038.ogg",100
Sample,57480,0,"s_041.ogg",100
Sample,57600,0,"s_039.ogg",100
Sample,57600,0,"m_051.ogg",100
Sample,57600,0,"s_036.ogg",100
Sample,57600,0,"m_063.ogg",100
Sample,57720,0,"s_041.ogg",100
Sample,57720,0,"s_038.ogg",100
Sample,57840,0,"s_039.ogg",100
Sample,57840,0,"s_043.ogg",100
Sample,57960,0,"s_041.ogg",100
Sample,57960,0,"s_044.ogg",100
Sample,58080,0,"s_041.ogg",100
Sample,58080,0,"s_044.ogg",100
Sample,58200,0,"s_043.ogg",100
Sample,58200,0,"s_039.ogg",100
Sample,58320,0,"s_041.ogg",100
Sample,58320,0,"s_065.ogg",100
Sample,58320,0,"s_038.ogg",100
Sample,58320,0,"s_062.ogg",100
Sample,58440,0,"s_036.ogg",100
Sample,58440,0,"s_055.ogg",100
Sample,58440,0,"s_063.ogg",100
Sample,58440,0,"s_039.ogg",100
Sample,58560,0,"s_038.ogg",100
Sample,58560,0,"s_041.ogg",100
Sample,58560,0,"s_053.ogg",100
Sample,58560,0,"s_062.ogg",100
Sample,58680,0,"s_036.ogg",100
Sample,58680,0,"s_039.ogg",100
Sample,58680,0,"s_063.ogg",100
Sample,58680,0,"s_060.ogg",100
Sample,58800,0,"s_062.ogg",100
Sample,58800,0,"s_035.ogg",100
Sample,58800,0,"s_059.ogg",100
Sample,58800,0,"s_038.ogg",100
Sample,58920,0,"s_048.ogg",100
Sample,58920,0,"s_056.ogg",100
Sample,58920,0,"s_036.ogg",100
Sample,58920,0,"s_032.ogg",100
Sample,59040,0,"m_031.ogg",100
Sample,59040,0,"m_035.ogg",100
Sample,59040,0,"m_055.ogg",100
Sample,59040,0,"m_059.ogg",100
Sample,59520,0,"s_012.ogg",100
Sample,59520,0,"s_024.ogg",100
Sample,59520,0,"m_075.ogg",100
Sample,59520,0,"m_067.ogg",100
Sample,59640,0,"s_014.ogg",100
Sample,59640,0,"s_026.ogg",100
Sample,59760,0,"s_015.ogg",100
Sample,59760,0,"s_027.ogg",100
Sample,59880,0,"s_029.ogg",100
Sample,59880,0,"s_017.ogg",100
Sample,60000,0,"s_031.ogg",100
Sample,60000,0,"s_019.ogg",100
Sample,60120,0,"s_020.ogg",100
Sample,60120,0,"s_032.ogg",100
Sample,60240,0,"s_035.ogg",100
Sample,60240,0,"s_023.ogg",100
Sample,60240,0,"s_065.ogg",100
Sample,60240,0,"s_074.ogg",100
Sample,60360,0,"s_075.ogg",100
Sample,60360,0,"s_024.ogg",100
Sample,60360,0,"s_072.ogg",100
Sample,60360,0,"s_036.ogg",100
Sample,60480,0,"s_074.ogg",100
Sample,60480,0,"s_071.ogg",100
Sample,60480,0,"s_038.ogg",100
Sample,60480,0,"s_026.ogg",100
Sample,60600,0,"s_039.ogg",100
Sample,60600,0,"s_060.ogg",100
Sample,60600,0,"s_027.ogg",100
Sample,60600,0,"s_068.ogg",100
Sample,60720,0,"s_029.ogg",100
Sample,60720,0,"s_041.ogg",100
Sample,60720,0,"s_067.ogg",100
Sample,60720,0,"s_071.ogg",100
Sample,60840,0,"s_068.ogg",100
Sample,60840,0,"s_031.ogg",100
Sample,60840,0,"s_043.ogg",100
Sample,60840,0,"s_065.ogg",100
Sample,60960,0,"s_063.ogg",100
Sample,60960,0,"s_055.ogg",100
Sample,60960,0,"s_032.ogg",100
Sample,60960,0,"s_044.ogg",100
Sample,61080,0,"s_065.ogg",100
Sample,61080,0,"s_035.ogg",100
Sample,61080,0,"s_062.ogg",100
Sample,61080,0,"s_047.ogg",100
Sample,61200,0,"s_048.ogg",100
Sample,61200,0,"s_036.ogg",100
Sample,61200,0,"s_060.ogg",100
Sample,61200,0,"s_063.ogg",100
Sample,61320,0,"s_062.ogg",100
Sample,61320,0,"s_038.ogg",100
Sample,61320,0,"s_050.ogg",100
Sample,61440,0,"m_051.ogg",100
Sample,61440,0,"m_060.ogg",100
Sample,61440,0,"s_048.ogg",100
Sample,61440,0,"s_036.ogg",100
Sample,61560,0,"s_047.ogg",100
Sample,61560,0,"s_035.ogg",100
Sample,61680,0,"s_032.ogg",100
Sample,61680,0,"s_044.ogg",100
Sample,61800,0,"s_043.ogg",100
Sample,61800,0,"s_031.ogg",100
Sample,61920,0,"s_044.ogg",100
Sample,61920,0,"s_032.ogg",100
Sample,62040,0,"s_031.ogg",100
Sample,62040,0,"s_043.ogg",100
Sample,62160,0,"s_053.ogg",100
Sample,62160,0,"s_029.ogg",100
Sample,62160,0,"s_062.ogg",100
Sample,62160,0,"s_041.ogg",100
Sample,62280,0,"s_027.ogg",100
Sample,62280,0,"s_063.ogg",100
Sample,62280,0,"s_039.ogg",100
Sample,62280,0,"s_055.ogg",100
Sample,62400,0,"s_065.ogg",100
Sample,62400,0,"s_026.ogg",100
Sample,62400,0,"s_038.ogg",100
Sample,62520,0,"s_036.ogg",100
Sample,62520,0,"s_051.ogg",100
Sample,62520,0,"s_024.ogg",100
Sample,62640,0,"s_023.ogg",100
Sample,62640,0,"s_035.ogg",100
Sample,62640,0,"s_050.ogg",100
Sample,62760,0,"s_032.ogg",100
Sample,62760,0,"s_044.ogg",100
Sample,62760,0,"s_048.ogg",100
Sample,62880,0,"m_047.ogg",100
Sample,62880,0,"m_043.ogg",100
Sample,62880,0,"m_031.ogg",100
Sample,63360,0,"m_055.ogg",100
Sample,63360,0,"m_064.ogg",100
Sample,63360,0,"s_037.ogg",100
Sample,63360,0,"s_049.ogg",100
Sample,63480,0,"s_036.ogg",100
Sample,63480,0,"s_048.ogg",100
Sample,63600,0,"s_046.ogg",100
Sample,63600,0,"s_034.ogg",100
Sample,63720,0,"s_043.ogg",100
Sample,63720,0,"s_031.ogg",100
Sample,63840,0,"s_028.ogg",100
Sample,63840,0,"s_040.ogg",100
Sample,63960,0,"s_037.ogg",100
Sample,63960,0,"s_025.ogg",100
Sample,64080,0,"s_036.ogg",100
Sample,64080,0,"s_024.ogg",100
Sample,64080,0,"s_062.ogg",100
Sample,64080,0,"s_065.ogg",100
Sample,64200,0,"s_034.ogg",100
Sample,64200,0,"s_055.ogg",100
Sample,64200,0,"s_064.ogg",100
Sample,64320,0,"s_029.ogg",100
Sample,64320,0,"m_056.ogg",100
Sample,64320,0,"m_065.ogg",100
Sample,64320,0,"m_032.ogg",100
Sample,64440,0,"m_067.ogg",100
Sample,64440,0,"s_028.ogg",100
Sample,64440,0,"m_058.ogg",100
Sample,64440,0,"m_031.ogg",100
Sample,64560,0,"m_029.ogg",100
Sample,64560,0,"m_068.ogg",100
Sample,64560,0,"m_060.ogg",100
Sample,64560,0,"s_026.ogg",100
Sample,64680,0,"m_028.ogg",100
Sample,64680,0,"m_062.ogg",100
Sample,64680,0,"m_070.ogg",100
Sample,64680,0,"s_024.ogg",100
Sample,64800,0,"s_022.ogg",100
Sample,64800,0,"m_072.ogg",100
Sample,64800,0,"m_064.ogg",100
Sample,64800,0,"m_026.ogg",100
Sample,64920,0,"m_065.ogg",100
Sample,64920,0,"s_020.ogg",100
Sample,64920,0,"m_074.ogg",100
Sample,64920,0,"m_024.ogg",100
Sample,65040,0,"s_022.ogg",100
Sample,65040,0,"s_079.ogg",100
Sample,65040,0,"s_019.ogg",100
Sample,65040,0,"s_067.ogg",100
Sample,65160,0,"s_077.ogg",100
Sample,65160,0,"s_080.ogg",100
Sample,65160,0,"s_020.ogg",100
Sample,65160,0,"s_017.ogg",100
Sample,65280,0,"m_062.ogg",100
Sample,65280,0,"m_053.ogg",100
Sample,65280,0,"s_047.ogg",100
Sample,65280,0,"s_035.ogg",100
Sample,65400,0,"s_034.ogg",100
Sample,65400,0,"s_046.ogg",100
Sample,65520,0,"s_032.ogg",100
Sample,65520,0,"s_044.ogg",100
Sample,65640,0,"s_041.ogg",100
Sample,65640,0,"s_029.ogg",100
Sample,65760,0,"s_026.ogg",100
Sample,65760,0,"s_038.ogg",100
Sample,65880,0,"s_023.ogg",100
Sample,65880,0,"s_035.ogg",100
Sample,66000,0,"s_063.ogg",100
Sample,66000,0,"s_034.ogg",100
Sample,66000,0,"s_022.ogg",100
Sample,66000,0,"s_060.ogg",100
Sample,66120,0,"s_053.ogg",100
Sample,66120,0,"s_032.ogg",100
Sample,66120,0,"s_062.ogg",100
Sample,66240,0,"m_031.ogg",100
Sample,66240,0,"m_063.ogg",100
Sample,66240,0,"m_055.ogg",100
Sample,66240,0,"s_027.ogg",100
Sample,66360,0,"m_065.ogg",100
Sample,66360,0,"m_056.ogg",100
Sample,66360,0,"s_026.ogg",100
Sample,66360,0,"m_029.ogg",100
Sample,66480,0,"s_024.ogg",100
Sample,66480,0,"m_067.ogg",100
Sample,66480,0,"m_058.ogg",100
Sample,66480,0,"m_027.ogg",100
Sample,66600,0,"m_068.ogg",100
Sample,66600,0,"m_060.ogg",100
Sample,66600,0,"m_026.ogg",100
Sample,66600,0,"s_022.ogg",100
Sample,66720,0,"m_024.ogg",100
Sample,66720,0,"s_020.ogg",100
Sample,66720,0,"m_070.ogg",100
Sample,66720,0,"m_062.ogg",100
Sample,66840,0,"m_063.ogg",100
Sample,66840,0,"s_019.ogg",100
Sample,66840,0,"m_072.ogg",100
Sample,66840,0,"m_022.ogg",100
Sample,66960,0,"s_020.ogg",100
Sample,66960,0,"s_077.ogg",100
Sample,66960,0,"s_017.ogg",100
Sample,66960,0,"s_074.ogg",100
Sample,67080,0,"s_075.ogg",100
Sample,67080,0,"s_079.ogg",100
Sample,67080,0,"s_019.ogg",100
Sample,67080,0,"s_015.ogg",100
Sample,67200,0,"s_074.ogg",100
Sample,67200,0,"s_071.ogg",100
Sample,67200,0,"s_017.ogg",100
Sample,67200,0,"s_023.ogg",100
Sample,67200,0,"s_026.ogg",100
Sample,67200,0,"s_029.ogg",100
Sample,67320,0,"s_032.ogg",100
Sample,67320,0,"s_077.ogg",100
Sample,67320,0,"s_020.ogg",100
Sample,67440,0,"s_035.ogg",100
Sample,67440,0,"s_023.ogg",100
Sample,67440,0,"s_062.ogg",100
Sample,67560,0,"s_059.ogg",100
Sample,67560,0,"s_038.ogg",100
Sample,67560,0,"s_026.ogg",100
Sample,67680,0,"s_029.ogg",100
Sample,67680,0,"s_035.ogg",100
Sample,67680,0,"s_041.ogg",100
Sample,67680,0,"s_038.ogg",100
Sample,67680,0,"s_062.ogg",100
Sample,67680,0,"s_068.ogg",100
Sample,67800,0,"s_066.ogg",100
Sample,67800,0,"s_042.ogg",100
Sample,67800,0,"s_030.ogg",100
Sample,67920,0,"s_043.ogg",100
Sample,67920,0,"s_055.ogg",100
Sample,67920,0,"s_031.ogg",100
Sample,68040,0,"s_053.ogg",100
Sample,68040,0,"s_032.ogg",100
Sample,68040,0,"s_044.ogg",100
Sample,68160,0,"s_012.ogg",100
Sample,68160,0,"s_024.ogg",100
Sample,68160,0,"s_069.ogg",100
Sample,68160,0,"s_018.ogg",100
Sample,68160,0,"s_066.ogg",100
Sample,68160,0,"s_021.ogg",100
Sample,68280,0,"s_015.ogg",100
Sample,68280,0,"s_027.ogg",100
Sample,68280,0,"s_060.ogg",100
Sample,68400,0,"s_030.ogg",100
Sample,68400,0,"s_057.ogg",100
Sample,68400,0,"s_018.ogg",100
Sample,68520,0,"s_021.ogg",100
Sample,68520,0,"s_066.ogg",100
Sample,68520,0,"s_033.ogg",100
Sample,68640,0,"s_024.ogg",100
Sample,68640,0,"s_033.ogg",100
Sample,68640,0,"s_036.ogg",100
Sample,68640,0,"s_054.ogg",100
Sample,68640,0,"s_030.ogg",100
Sample,68640,0,"s_057.ogg",100
Sample,68760,0,"s_037.ogg",100
Sample,68760,0,"s_061.ogg",100
Sample,68760,0,"s_025.ogg",100
Sample,68880,0,"s_050.ogg",100
Sample,68880,0,"s_038.ogg",100
Sample,68880,0,"s_026.ogg",100
Sample,69000,0,"s_039.ogg",100
Sample,69000,0,"s_060.ogg",100
Sample,69000,0,"s_027.ogg",100
Sample,69120,0,"s_038.ogg",100
Sample,69120,0,"s_029.ogg",100
Sample,69120,0,"s_048.ogg",100
Sample,69120,0,"s_036.ogg",100
Sample,69120,0,"s_044.ogg",100
Sample,69240,0,"s_042.ogg",100
Sample,69240,0,"s_030.ogg",100
Sample,69360,0,"s_043.ogg",100
Sample,69360,0,"s_031.ogg",100
Sample,69480,0,"s_032.ogg",100
Sample,69480,0,"s_041.ogg",100
Sample,69600,0,"s_035.ogg",100
Sample,69600,0,"s_043.ogg",100
Sample,69600,0,"s_031.ogg",100
Sample,69720,0,"s_038.ogg",100
Sample,69840,0,"s_041.ogg",100
Sample,69840,0,"s_035.ogg",100
Sample,69840,0,"s_051.ogg",100
Sample,69960,0,"s_038.ogg",100
Sample,70080,0,"m_036.ogg",100
Sample,70080,0,"m_024.ogg",100
Sample,70080,0,"m_032.ogg",100
Sample,70080,0,"m_029.ogg",100
Sample,70080,0,"m_044.ogg",100
Sample,70560,0,"s_031.ogg",100
Sample,70560,0,"s_027.ogg",100
Sample,71040,0,"s_036.ogg",100
Sample,71073,0,"s_063.ogg",100
Sample,71140,0,"s_043.ogg",100
Sample,71240,0,"s_031.ogg",100
Sample,71340,0,"s_043.ogg",100
Sample,71440,0,"s_039.ogg",100
Sample,71540,0,"s_043.ogg",100
Sample,71640,0,"s_036.ogg",100
Sample,71740,0,"s_043.ogg",100
Sample,71840,0,"s_035.ogg",100
Sample,71873,0,"s_062.ogg",100
Sample,71940,0,"s_043.ogg",100
Sample,72040,0,"s_031.ogg",100
Sample,72140,0,"s_043.ogg",100
Sample,72240,0,"s_035.ogg",100
Sample,72340,0,"s_043.ogg",100
Sample,72440,0,"s_038.ogg",100
Sample,72540,0,"s_043.ogg",100
Sample,72640,0,"s_036.ogg",100
Sample,72673,0,"s_063.ogg",100
Sample,72740,0,"s_043.ogg",100
Sample,72840,0,"s_031.ogg",100
Sample,72940,0,"s_043.ogg",100
Sample,73040,0,"s_039.ogg",100
Sample,73140,0,"s_043.ogg",100
Sample,73240,0,"s_036.ogg",100
Sample,73340,0,"s_043.ogg",100
Sample,73440,0,"s_035.ogg",100
Sample,73473,0,"s_062.ogg",100
Sample,73540,0,"s_043.ogg",100
Sample,73640,0,"s_031.ogg",100
Sample,73740,0,"s_043.ogg",100
Sample,73840,0,"s_035.ogg",100
Sample,73940,0,"s_038.ogg",100
Sample,74040,0,"s_043.ogg",100
Sample,74240,0,"s_036.ogg",100
Sample,74265,0,"s_067.ogg",100
Sample,74290,0,"s_075.ogg",100
Sample,74340,0,"s_043.ogg",100
Sample,74440,0,"s_031.ogg",100
Sample,74540,0,"s_043.ogg",100
Sample,74640,0,"s_039.ogg",100
Sample,74740,0,"s_043.ogg",100
Sample,74840,0,"s_036.ogg",100
Sample,74940,0,"s_043.ogg",100
Sample,75040,0,"s_035.ogg",100
Sample,75065,0,"s_067.ogg",100
Sample,75090,0,"s_074.ogg",100
Sample,75140,0,"s_043.ogg",100
Sample,75240,0,"s_031.ogg",100
Sample,75340,0,"s_043.ogg",100
Sample,75440,0,"s_035.ogg",100
Sample,75540,0,"s_043.ogg",100
Sample,75640,0,"s_038.ogg",100
Sample,75740,0,"s_043.ogg",100
Sample,75840,0,"s_036.ogg",100
Sample,75865,0,"s_067.ogg",100
Sample,75890,0,"s_075.ogg",100
Sample,75940,0,"s_043.ogg",100
Sample,76040,0,"s_031.ogg",100
Sample,76140,0,"s_043.ogg",100
Sample,76240,0,"s_039.ogg",100
Sample,76340,0,"s_043.ogg",100
Sample,76440,0,"s_036.ogg",100
Sample,76540,0,"s_043.ogg",100
Sample,76640,0,"s_035.ogg",100
Sample,76665,0,"s_067.ogg",100
Sample,76690,0,"s_074.ogg",100
Sample,76740,0,"s_043.ogg",100
Sample,76840,0,"s_031.ogg",100
Sample,76940,0,"s_043.ogg",100
Sample,77040,0,"s_038.ogg",100
Sample,77140,0,"s_047.ogg",100
Sample,77240,0,"s_043.ogg",100
Sample,77440,0,"s_040.ogg",100
Sample,77473,0,"s_067.ogg",100
Sample,77540,0,"s_048.ogg",100
Sample,77640,0,"s_036.ogg",100
Sample,77740,0,"s_048.ogg",100
Sample,78240,0,"s_036.ogg",100
Sample,78240,0,"s_029.ogg",100
Sample,79040,0,"s_038.ogg",100
Sample,79073,0,"s_065.ogg",100
Sample,79140,0,"s_046.ogg",100
Sample,79240,0,"s_034.ogg",100
Sample,79340,0,"s_046.ogg",100
Sample,79840,0,"s_034.ogg",100
Sample,79840,0,"s_027.ogg",100
Sample,80640,0,"s_035.ogg",100
Sample,80640,0,"s_041.ogg",100
Sample,80640,0,"s_044.ogg",100
Sample,80740,0,"s_068.ogg",100
Sample,80940,0,"s_065.ogg",100
Sample,81140,0,"s_053.ogg",100
Sample,81340,0,"s_050.ogg",100
Sample,81440,0,"s_043.ogg",100
Sample,81440,0,"s_039.ogg",100
Sample,81540,0,"s_055.ogg",100
Sample,81740,0,"s_051.ogg",100
Sample,81940,0,"s_039.ogg",100
Sample,82140,0,"s_036.ogg",100
Sample,82440,0,"s_060.ogg",100
Sample,82540,0,"s_056.ogg",100
Sample,82840,0,"s_062.ogg",100
Sample,82940,0,"s_053.ogg",100
Sample,83040,0,"s_060.ogg",100
Sample,83140,0,"s_048.ogg",100
Sample,83840,0,"l_048.ogg",100
Sample,83840,0,"s_055.ogg",100
Sample,83920,0,"s_056.ogg",100
Sample,84000,0,"s_055.ogg",100
Sample,84080,0,"s_056.ogg",100
Sample,84160,0,"s_055.ogg",100
Sample,84240,0,"s_056.ogg",100
Sample,84320,0,"s_055.ogg",100
Sample,84400,0,"s_056.ogg",100
Sample,84480,0,"s_055.ogg",100
Sample,84560,0,"s_056.ogg",100
Sample,84640,0,"s_055.ogg",100
Sample,84720,0,"s_056.ogg",100
Sample,84800,0,"s_055.ogg",100
Sample,84880,0,"s_056.ogg",100
Sample,84960,0,"s_055.ogg",100
Sample,85040,0,"s_056.ogg",100
Sample,85120,0,"s_055.ogg",100
Sample,85200,0,"s_056.ogg",100
Sample,85280,0,"s_055.ogg",100
Sample,85360,0,"s_056.ogg",100
Sample,85440,0,"s_055.ogg",100
Sample,85520,0,"s_056.ogg",100
Sample,85600,0,"s_055.ogg",100
Sample,85680,0,"s_056.ogg",100
Sample,85760,0,"l_048.ogg",100
Sample,85760,0,"l_053.ogg",100
Sample,85760,0,"s_055.ogg",100
Sample,85840,0,"s_056.ogg",100
Sample,85920,0,"s_055.ogg",100
Sample,86000,0,"s_056.ogg",100
Sample,86080,0,"s_055.ogg",100
Sample,86160,0,"s_056.ogg",100
Sample,86240,0,"s_055.ogg",100
Sample,86320,0,"s_056.ogg",100
Sample,86400,0,"s_055.ogg",100
Sample,86480,0,"s_056.ogg",100
Sample,86560,0,"s_055.ogg",100
Sample,86640,0,"s_056.ogg",100
Sample,86720,0,"s_055.ogg",100
Sample,86800,0,"s_056.ogg",100
Sample,86880,0,"s_055.ogg",100
Sample,86960,0,"s_056.ogg",100
Sample,87040,0,"s_055.ogg",100
Sample,87120,0,"s_056.ogg",100
Sample,87200,0,"s_055.ogg",100
Sample,87280,0,"s_056.ogg",100
Sample,87360,0,"s_055.ogg",100
Sample,87440,0,"s_056.ogg",100
Sample,87520,0,"s_055.ogg",100
Sample,87600,0,"s_056.ogg",100
Sample,87680,0,"l_048.ogg",100
Sample,87680,0,"l_051.ogg",100
Sample,87680,0,"s_055.ogg",100
Sample,87760,0,"s_056.ogg",100
Sample,87840,0,"s_055.ogg",100
Sample,87920,0,"s_056.ogg",100
Sample,88000,0,"s_055.ogg",100
Sample,88080,0,"s_056.ogg",100
Sample,88160,0,"s_055.ogg",100
Sample,88240,0,"s_056.ogg",100
Sample,88320,0,"s_055.ogg",100
Sample,88400,0,"s_056.ogg",100
Sample,88480,0,"s_055.ogg",100
Sample,88560,0,"s_056.ogg",100
Sample,88640,0,"s_055.ogg",100
Sample,88720,0,"s_056.ogg",100
Sample,88800,0,"s_055.ogg",100
Sample,88880,0,"s_056.ogg",100
Sample,88960,0,"s_055.ogg",100
Sample,89040,0,"s_056.ogg",100
Sample,89120,0,"s_055.ogg",100
Sample,89200,0,"s_056.ogg",100
Sample,89280,0,"s_055.ogg",100
Sample,89360,0,"s_056.ogg",100
Sample,89440,0,"s_055.ogg",100
Sample,89520,0,"s_056.ogg",100
Sample,89600,0,"l_048.ogg",100
Sample,89600,0,"l_050.ogg",100
Sample,89600,0,"s_055.ogg",100
Sample,89680,0,"s_056.ogg",100
Sample,89760,0,"s_055.ogg",100
Sample,89840,0,"s_056.ogg",100
Sample,89920,0,"s_055.ogg",100
Sample,90000,0,"s_056.ogg",100
Sample,90080,0,"s_055.ogg",100
Sample,90160,0,"s_056.ogg",100
Sample,90240,0,"s_055.ogg",100
Sample,90320,0,"s_056.ogg",100
Sample,90400,0,"s_055.ogg",100
Sample,90480,0,"s_056.ogg",100
Sample,90560,0,"s_055.ogg",100
Sample,90640,0,"s_056.ogg",100
Sample,90720,0,"s_055.ogg",100
Sample,90800,0,"s_056.ogg",100
Sample,90880,0,"s_055.ogg",100
Sample,90960,0,"s_056.ogg",100
Sample,91040,0,"s_055.ogg",100
Sample,91120,0,"s_056.ogg",100
Sample,91200,0,"s_055.ogg",100
Sample,91280,0,"s_056.ogg",100
Sample,91360,0,"s_055.ogg",100
Sample,91440,0,"s_056.ogg",100
Sample,91520,0,"l_048.ogg",100
Sample,91520,0,"s_055.ogg",100
Sample,91600,0,"s_056.ogg",100
Sample,91680,0,"s_055.ogg",100
Sample,91760,0,"s_056.ogg",100
Sample,91840,0,"s_055.ogg",100
Sample,91920,0,"s_056.ogg",100
Sample,92000,0,"s_055.ogg",100
Sample,92080,0,"s_056.ogg",100
Sample,92160,0,"s_055.ogg",100
Sample,92240,0,"s_056.ogg",100
Sample,92320,0,"s_055.ogg",100
Sample,92400,0,"s_056.ogg",100
Sample,92480,0,"s_055.ogg",100
Sample,92560,0,"s_056.ogg",100
Sample,92640,0,"s_055.ogg",100
Sample,92720,0,"s_056.ogg",100
Sample,92800,0,"s_055.ogg",100
Sample,92880,0,"s_056.ogg",100
Sample,92960,0,"s_055.ogg",100
Sample,93040,0,"s_056.ogg",100
Sample,93120,0,"s_055.ogg",100
Sample,93200,0,"s_056.ogg",100
Sample,93280,0,"s_055.ogg",100
Sample,93360,0,"s_056.ogg",100
Sample,93440,0,"l_053.ogg",100
Sample,93440,0,"l_048.ogg",100
Sample,93440,0,"s_055.ogg",100
Sample,93520,0,"s_056.ogg",100
Sample,93600,0,"s_055.ogg",100
Sample,93680,0,"s_056.ogg",100
Sample,93760,0,"s_055.ogg",100
Sample,93840,0,"s_056.ogg",100
Sample,93920,0,"s_055.ogg",100
Sample,94000,0,"s_056.ogg",100
Sample,94080,0,"s_055.ogg",100
Sample,94160,0,"s_056.ogg",100
Sample,94240,0,"s_055.ogg",100
Sample,94320,0,"s_056.ogg",100
Sample,94400,0,"s_055.ogg",100
Sample,94480,0,"s_056.ogg",100
Sample,94560,0,"s_055.ogg",100
Sample,94640,0,"s_056.ogg",100
Sample,94720,0,"s_055.ogg",100
Sample,94800,0,"s_056.ogg",100
Sample,94880,0,"s_055.ogg",100
Sample,94960,0,"s_056.ogg",100
Sample,95040,0,"s_055.ogg",100
Sample,95120,0,"s_056.ogg",100
Sample,95200,0,"s_055.ogg",100
Sample,95280,0,"s_056.ogg",100
Sample,95360,0,"l_051.ogg",100
Sample,95360,0,"l_048.ogg",100
Sample,95360,0,"s_055.ogg",100
Sample,95440,0,"s_056.ogg",100
Sample,95520,0,"s_055.ogg",100
Sample,95600,0,"s_056.ogg",100
Sample,95680,0,"s_055.ogg",100
Sample,95760,0,"s_056.ogg",100
Sample,95840,0,"s_055.ogg",100
Sample,95920,0,"s_056.ogg",100
Sample,96000,0,"s_055.ogg",100
Sample,96080,0,"s_056.ogg",100
Sample,96160,0,"s_055.ogg",100
Sample,96240,0,"s_056.ogg",100
Sample,96320,0,"s_055.ogg",100
Sample,96400,0,"s_056.ogg",100
Sample,96480,0,"s_055.ogg",100
Sample,96560,0,"s_056.ogg",100
Sample,96640,0,"s_055.ogg",100
Sample,96720,0,"s_056.ogg",100
Sample,96800,0,"s_055.ogg",100
Sample,96880,0,"s_056.ogg",100
Sample,96960,0,"s_055.ogg",100
Sample,97040,0,"s_056.ogg",100
Sample,97120,0,"s_055.ogg",100
Sample,97200,0,"s_056.ogg",100
Sample,97280,0,"l_048.ogg",100
Sample,97280,0,"l_050.ogg",100
Sample,97280,0,"s_055.ogg",100
Sample,97360,0,"s_056.ogg",100
Sample,97440,0,"s_055.ogg",100
Sample,97520,0,"s_056.ogg",100
Sample,97600,0,"s_055.ogg",100
Sample,97680,0,"s_056.ogg",100
Sample,97760,0,"s_055.ogg",100
Sample,97840,0,"s_056.ogg",100
Sample,97920,0,"s_055.ogg",100
Sample,98000,0,"s_056.ogg",100
Sample,98080,0,"s_055.ogg",100
Sample,98160,0,"s_056.ogg",100
Sample,98240,0,"s_055.ogg",100
Sample,98320,0,"s_056.ogg",100
Sample,98400,0,"s_055.ogg",100
Sample,98480,0,"s_056.ogg",100
Sample,98560,0,"s_055.ogg",100
Sample,98640,0,"s_056.ogg",100
Sample,98720,0,"s_055.ogg",100
Sample,98800,0,"s_056.ogg",100
Sample,98880,0,"s_055.ogg",100
Sample,98960,0,"s_056.ogg",100
Sample,99040,0,"s_055.ogg",100
Sample,99120,0,"s_056.ogg",100
Sample,99200,0,"l_048.ogg",100
Sample,99200,0,"s_055.ogg",100
Sample,99320,0,"s_056.ogg",100
Sample,99440,0,"s_055.ogg",100
Sample,99560,0,"s_056.ogg",100
Sample,99680,0,"s_055.ogg",100
Sample,99800,0,"s_056.ogg",100
Sample,99920,0,"s_055.ogg",100
Sample,100040,0,"m_056.ogg",100
Sample,100160,0,"m_055.ogg",100
Sample,102560,0,"m_068.ogg",100
Sample,103040,0,"s_056.ogg",100
Sample,103040,0,"l_065.ogg",100
Sample,103160,0,"s_055.ogg",100
Sample,103280,0,"s_056.ogg",100
Sample,103400,0,"s_055.ogg",100
Sample,103520,0,"s_056.ogg",100
Sample,103640,0,"s_055.ogg",100
Sample,103760,0,"s_056.ogg",100
Sample,103880,0,"m_055.ogg",100
Sample,104000,0,"m_056.ogg",100
Sample,106400,0,"m_067.ogg",100
Sample,106880,0,"s_056.ogg",100
Sample,106880,0,"m_062.ogg",100
Sample,107000,0,"s_055.ogg",100
Sample,107120,0,"s_056.ogg",100
Sample,107240,0,"s_055.ogg",100
Sample,107360,0,"s_056.ogg",100
Sample,107480,0,"s_055.ogg",100
Sample,107600,0,"s_056.ogg",100
Sample,107720,0,"m_055.ogg",100
Sample,107840,0,"m_056.ogg",100

[TimingPoints]
0,480.000000000001,4,2,0,100,1,0
71040,400.000000000001,4,2,0,100,1,0
71040,-120,4,2,0,100,0,0
83840,480.000000000001,4,2,0,100,1,0

[HitObjects]
76,192,1920,5,0,0:0:0:0:s_024.ogg
179,192,1980,1,0,0:0:0:0:s_039.ogg
332,192,2340,1,0,0:0:0:0:s_048.ogg
384,192,2400,1,0,0:0:0:0:s_048.ogg
486,192,2520,1,0,0:0:0:0:s_051.ogg
435,192,2640,1,0,0:0:0:0:s_050.ogg
384,192,2760,1,0,0:0:0:0:s_048.ogg
128,192,2880,1,0,0:0:0:0:s_031.ogg
230,192,2940,1,0,0:0:0:0:s_047.ogg
281,192,3300,1,0,0:0:0:0:s_043.ogg
332,192,3360,1,0,0:0:0:0:s_043.ogg
435,192,3480,1,0,0:0:0:0:s_047.ogg
384,192,3600,1,0,0:0:0:0:s_045.ogg
332,192,3720,1,0,0:0:0:0:s_043.ogg
76,192,3840,1,0,0:0:0:0:s_024.ogg
179,192,3900,1,0,0:0:0:0:s_039.ogg
332,192,4260,1,0,0:0:0:0:s_048.ogg
384,192,4320,1,0,0:0:0:0:s_048.ogg
486,192,4440,1,0,0:0:0:0:s_051.ogg
435,192,4560,1,0,0:0:0:0:s_050.ogg
384,192,4680,1,0,0:0:0:0:s_048.ogg
128,192,4800,1,0,0:0:0:0:m_055.ogg
230,192,4800,1,0,0:0:0:0:m_059.ogg
25,192,5280,1,0,0:0:0:0:s_043.ogg
76,192,5760,1,0,0:0:0:0:s_024.ogg
179,192,5820,1,0,0:0:0:0:s_039.ogg
332,192,6180,1,0,0:0:0:0:s_048.ogg
384,192,6240,1,0,0:0:0:0:s_048.ogg
486,192,6360,1,0,0:0:0:0:s_051.ogg
435,192,6480,1,0,0:0:0:0:s_050.ogg
384,192,6600,1,0,0:0:0:0:s_048.ogg
128,192,6720,1,0,0:0:0:0:s_031.ogg
230,192,6780,1,0,0:0:0:0:s_047.ogg
281,192,7140,1,0,0:0:0:0:s_043.ogg
332,192,7200,1,0,0:0:0:0:s_043.ogg
435,192,7320,1,0,0:0:0:0:s_047.ogg
384,192,7440,1,0,0:0:0:0:s_045.ogg
332,192,7560,1,0,0:0:0:0:s_043.ogg
76,192,7680,1,0,0:0:0:0:s_024.ogg
179,192,7740,1,0,0:0:0:0:s_039.ogg
332,192,8100,1,0,0:0:0:0:s_048.ogg
384,192,8160,1,0,0:0:0:0:s_048.ogg
486,192,8280,1,0,0:0:0:0:s_051.ogg
435,192,8400,1,0,0:0:0:0:s_050.ogg
384,192,8520,1,0,0:0:0:0:s_048.ogg
128,192,8640,1,0,0:0:0:0:m_055.ogg
230,192,8640,1,0,0:0:0:0:m_059.ogg
25,192,9120,1,0,0:0:0:0:s_043.ogg
128,192,9600,1,0,0:0:0:0:s_024.ogg
230,192,9660,1,0,0:0:0:0:s_040.ogg
332,192,10020,1,0,0:0:0:0:s_060.ogg
384,192,10080,1,0,0:0:0:0:s_060.ogg
486,192,10200,1,0,0:0:0:0:s_061.ogg
435,192,10320,1,0,0:0:0:0:s_060.ogg
384,192,10440,1,0,0:0:0:0:s_058.ogg
76,192,10560,1,0,0:0:0:0:s_029.ogg
179,192,10620,1,0,0:0:0:0:s_044.ogg
281,192,10980,1,0,0:0:0:0:s_053.ogg
332,192,11040,1,0,0:0:0:0:s_053.ogg
435,192,11160,1,0,0:0:0:0:s_056.ogg
384,192,11280,1,0,0:0:0:0:s_055.ogg
332,192,11400,1,0,0:0:0:0:s_053.ogg
128,192,11520,1,0,0:0:0:0:s_022.ogg
230,192,11580,1,0,0:0:0:0:s_038.ogg
332,192,11940,1,0,0:0:0:0:s_058.ogg
384,192,12000,1,0,0:0:0:0:s_058.ogg
486,192,12120,1,0,0:0:0:0:s_060.ogg
435,192,12240,1,0,0:0:0:0:s_058.ogg
384,192,12360,1,0,0:0:0:0:s_056.ogg
25,192,12480,1,0,0:0:0:0:s_027.ogg
128,192,12540,1,0,0:0:0:0:s_043.ogg
281,192,12900,1,0,0:0:0:0:s_051.ogg
332,192,12960,1,0,0:0:0:0:s_051.ogg
435,192,13080,1,0,0:0:0:0:s_055.ogg
384,192,13200,1,0,0:0:0:0:s_053.ogg
332,192,13320,1,0,0:0:0:0:s_051.ogg
76,192,13440,1,0,0:0:0:0:s_029.ogg
179,192,13500,1,0,0:0:0:0:s_044.ogg
281,192,13860,1,0,0:0:0:0:s_050.ogg
332,192,13920,1,0,0:0:0:0:s_050.ogg
486,192,14040,1,0,0:0:0:0:s_053.ogg
435,192,14160,1,0,0:0:0:0:s_051.ogg
384,192,14280,1,0,0:0:0:0:s_050.ogg
25,192,14400,1,0,0:0:0:0:s_027.ogg
128,192,14460,1,0,0:0:0:0:s_048.ogg
281,192,14820,1,0,0:0:0:0:s_048.ogg
332,192,14880,1,0,0:0:0:0:s_048.ogg
435,192,15000,1,0,0:0:0:0:s_051.ogg
384,192,15120,1,0,0:0:0:0:s_050.ogg
332,192,15240,1,0,0:0:0:0:s_048.ogg
76,192,15360,1,0,0:0:0:0:m_044.ogg
179,192,15360,1,0,0:0:0:0:m_032.ogg
25,192,15720,1,0,0:0:0:0:s_054.ogg
281,192,15720,1,0,0:0:0:0:s_036.ogg
128,192,15840,1,0,0:0:0:0:m_043.ogg
384,192,15840,1,0,0:0:0:0:m_031.ogg
179,192,16200,1,0,0:0:0:0:s_035.ogg
435,192,16200,1,0,0:0:0:0:s_041.ogg
76,192,16320,1,0,0:0:0:0:m_036.ogg
332,192,16320,1,0,0:0:0:0:m_048.ogg
230,192,16800,1,0,0:0:0:0:s_051.ogg
486,192,16800,1,0,0:0:0:0:s_060.ogg
76,192,17280,1,0,0:0:0:0:s_024.ogg
179,192,17340,1,0,0:0:0:0:s_055.ogg
332,192,17700,1,0,0:0:0:0:s_060.ogg
230,192,17760,1,0,0:0:0:0:s_040.ogg
384,192,17760,1,0,0:0:0:0:s_060.ogg
486,192,17880,1,0,0:0:0:0:s_061.ogg
435,192,18000,1,0,0:0:0:0:s_060.ogg
384,192,18120,1,0,0:0:0:0:s_058.ogg
25,192,18240,1,0,0:0:0:0:s_029.ogg
128,192,18300,1,0,0:0:0:0:s_048.ogg
281,192,18660,1,0,0:0:0:0:s_053.ogg
230,192,18720,1,0,0:0:0:0:s_041.ogg
332,192,18720,1,0,0:0:0:0:s_053.ogg
435,192,18840,1,0,0:0:0:0:s_056.ogg
384,192,18960,1,0,0:0:0:0:s_055.ogg
332,192,19080,1,0,0:0:0:0:s_053.ogg
76,192,19200,1,0,0:0:0:0:s_022.ogg
179,192,19260,1,0,0:0:0:0:s_053.ogg
332,192,19620,1,0,0:0:0:0:s_058.ogg
230,192,19680,1,0,0:0:0:0:s_046.ogg
384,192,19680,1,0,0:0:0:0:s_058.ogg
486,192,19800,1,0,0:0:0:0:s_060.ogg
435,192,19920,1,0,0:0:0:0:s_058.ogg
384,192,20040,1,0,0:0:0:0:s_056.ogg
25,192,20160,1,0,0:0:0:0:s_027.ogg
128,192,20220,1,0,0:0:0:0:s_046.ogg
281,192,20580,1,0,0:0:0:0:s_051.ogg
230,192,20640,1,0,0:0:0:0:s_043.ogg
332,192,20640,1,0,0:0:0:0:s_051.ogg
435,192,20760,1,0,0:0:0:0:s_055.ogg
384,192,20880,1,0,0:0:0:0:s_053.ogg
332,192,21000,1,0,0:0:0:0:s_051.ogg
76,192,21120,1,0,0:0:0:0:s_029.ogg
179,192,21180,1,0,0:0:0:0:s_049.ogg
281,192,21540,1,0,0:0:0:0:s_049.ogg
230,192,21600,1,0,0:0:0:0:s_044.ogg
332,192,21600,1,0,0:0:0:0:s_049.ogg
486,192,21720,1,0,0:0:0:0:s_053.ogg
435,192,21840,1,0,0:0:0:0:s_051.ogg
384,192,21960,1,0,0:0:0:0:s_049.ogg
25,192,22080,1,0,0:0:0:0:s_027.ogg
128,192,22140,1,0,0:0:0:0:s_048.ogg
281,192,22500,1,0,0:0:0:0:s_048.ogg
230,192,22560,1,0,0:0:0:0:s_043.ogg
332,192,22560,1,0,0:0:0:0:s_048.ogg
435,192,22680,1,0,0:0:0:0:s_051.ogg
384,192,22800,1,0,0:0:0:0:s_050.ogg
332,192,22920,1,0,0:0:0:0:s_048.ogg
76,192,23040,1,0,0:0:0:0:m_032.ogg
179,192,23040,1,0,0:0:0:0:m_044.ogg
25,192,23400,1,0,0:0:0:0:s_036.ogg
281,192,23400,1,0,0:0:0:0:s_054.ogg
128,192,23520,1,0,0:0:0:0:m_031.ogg
384,192,23520,1,0,0:0:0:0:m_043.ogg
179,192,23880,1,0,0:0:0:0:s_035.ogg
435,192,23880,1,0,0:0:0:0:s_050.ogg
76,192,24000,1,0,0:0:0:0:m_036.ogg
332,192,24000,1,0,0:0:0:0:m_043.ogg
230,192,24480,1,0,0:0:0:0:s_060.ogg
486,192,24480,1,0,0:0:0:0:s_051.ogg
128,192,24960,1,0,0:0:0:0:s_051.ogg
179,192,25000,1,0,0:0:0:0:s_060.ogg
230,192,25040,1,0,0:0:0:0:s_067.ogg
486,192,25120,1,0,0:0:0:0:s_063.ogg
435,192,25280,1,0,0:0:0:0:s_060.ogg
384,192,25440,1,0,0:0:0:0:s_055.ogg
332,192,25600,1,0,0:0:0:0:s_051.ogg
281,192,25760,1,0,0:0:0:0:s_048.ogg
25,192,25920,1,0,0:0:0:0:s_047.ogg
76,192,25960,1,0,0:0:0:0:s_055.ogg
128,192,26000,1,0,0:0:0:0:s_062.ogg
486,192,26080,1,0,0:0:0:0:s_059.ogg
435,192,26240,1,0,0:0:0:0:s_055.ogg
384,192,26400,1,0,0:0:0:0:s_050.ogg
332,192,26560,1,0,0:0:0:0:s_047.ogg
281,192,26720,1,0,0:0:0:0:s_043.ogg
128,192,26880,1,0,0:0:0:0:s_051.ogg
179,192,26920,1,0,0:0:0:0:s_060.ogg
230,192,26960,1,0,0:0:0:0:s_067.ogg
486,192,27040,1,0,0:0:0:0:s_063.ogg
435,192,27200,1,0,0:0:0:0:s_060.ogg
384,192,27360,1,0,0:0:0:0:s_055.ogg
332,192,27520,1,0,0:0:0:0:s_051.ogg
281,192,27680,1,0,0:0:0:0:s_048.ogg
25,192,27840,1,0,0:0:0:0:m_043.ogg
76,192,28000,1,0,0:0:0:0:s_055.ogg
128,192,28160,1,0,0:0:0:0:s_059.ogg
179,192,28320,1,0,0:0:0:0:s_067.ogg
128,192,28800,1,0,0:0:0:0:s_051.ogg
179,192,28840,1,0,0:0:0:0:s_060.ogg
230,192,28880,1,0,0:0:0:0:s_067.ogg
486,192,28960,1,0,0:0:0:0:s_063.ogg
435,192,29120,1,0,0:0:0:0:s_060.ogg
384,192,29280,1,0,0:0:0:0:s_055.ogg
332,192,29440,1,0,0:0:0:0:s_051.ogg
281,192,29600,1,0,0:0:0:0:s_048.ogg
25,192,29760,1,0,0:0:0:0:s_047.ogg
76,192,29800,1,0,0:0:0:0:s_055.ogg
128,192,29840,1,0,0:0:0:0:s_062.ogg
486,192,29920,1,0,0:0:0:0:s_059.ogg
435,192,30080,1,0,0:0:0:0:s_055.ogg
384,192,30240,1,0,0:0:0:0:s_050.ogg
332,192,30400,1,0,0:0:0:0:s_047.ogg
281,192,30560,1,0,0:0:0:0:s_043.ogg
128,192,30720,1,0,0:0:0:0:s_051.ogg
179,192,30760,1,0,0:0:0:0:s_060.ogg
230,192,30800,1,0,0:0:0:0:s_067.ogg
486,192,30880,1,0,0:0:0:0:s_063.ogg
435,192,31040,1,0,0:0:0:0:s_060.ogg
384,192,31200,1,0,0:0:0:0:s_055.ogg
332,192,31360,1,0,0:0:0:0:s_051.ogg
281,192,31520,1,0,0:0:0:0:s_048.ogg
76,192,31680,1,0,0:0:0:0:m_043.ogg
128,192,31840,1,0,0:0:0:0:s_055.ogg
179,192,32000,1,0,0:0:0:0:s_059.ogg
230,192,32160,1,0,0:0:0:0:s_067.ogg
128,192,32640,1,0,0:0:0:0:s_060.ogg
179,192,32680,1,0,0:0:0:0:s_043.ogg
230,192,32720,1,0,0:0:0:0:s_048.ogg
486,192,32800,1,0,0:0:0:0:s_067.ogg
435,192,32960,1,0,0:0:0:0:s_064.ogg
384,192,33120,1,0,0:0:0:0:s_060.ogg
332,192,33280,1,0,0:0:0:0:s_055.ogg
281,192,33440,1,0,0:0:0:0:s_052.ogg
25,192,33600,1,0,0:0:0:0:s_029.ogg
281,192,33760,1,0,0:0:0:0:s_048.ogg
332,192,33920,1,0,0:0:0:0:s_053.ogg
384,192,34080,1,0,0:0:0:0:s_056.ogg
435,192,34240,1,0,0:0:0:0:s_060.ogg
486,192,34400,1,0,0:0:0:0:s_065.ogg
76,192,34560,1,0,0:0:0:0:s_058.ogg
128,192,34600,1,0,0:0:0:0:s_041.ogg
179,192,34640,1,0,0:0:0:0:s_046.ogg
486,192,34720,1,0,0:0:0:0:s_065.ogg
435,192,34880,1,0,0:0:0:0:s_062.ogg
384,192,35040,1,0,0:0:0:0:s_058.ogg
332,192,35200,1,0,0:0:0:0:s_053.ogg
281,192,35360,1,0,0:0:0:0:s_050.ogg
25,192,35520,1,0,0:0:0:0:s_027.ogg
281,192,35680,1,0,0:0:0:0:s_046.ogg
332,192,35840,1,0,0:0:0:0:s_051.ogg
384,192,36000,1,0,0:0:0:0:s_055.ogg
435,192,36160,1,0,0:0:0:0:s_058.ogg
486,192,36320,1,0,0:0:0:0:s_063.ogg
230,192,36480,1,0,0:0:0:0:s_062.ogg
179,192,36640,1,0,0:0:0:0:s_059.ogg
128,192,36800,1,0,0:0:0:0:s_056.ogg
384,192,36960,1,0,0:0:0:0:s_053.ogg
332,192,37120,1,0,0:0:0:0:s_050.ogg
281,192,37280,1,0,0:0:0:0:s_053.ogg
76,192,37440,1,0,0:0:0:0:s_055.ogg
128,192,37480,1,0,0:0:0:0:s_060.ogg
179,192,37520,1,0,0:0:0:0:s_067.ogg
486,192,37600,1,0,0:0:0:0:s_063.ogg
435,192,37760,1,0,0:0:0:0:s_060.ogg
384,192,37920,1,0,0:0:0:0:s_055.ogg
332,192,38080,1,0,0:0:0:0:s_051.ogg
281,192,38240,1,0,0:0:0:0:s_048.ogg
25,192,38400,1,0,0:0:0:0:m_032.ogg
76,192,38560,1,0,0:0:0:0:s_050.ogg
128,192,38720,1,0,0:0:0:0:s_048.ogg
384,192,38880,1,0,0:0:0:0:m_031.ogg
435,192,39040,1,0,0:0:0:0:s_047.ogg
486,192,39200,1,0,0:0:0:0:s_059.ogg
179,192,39360,1,0,0:0:0:0:m_036.ogg
230,192,39520,1,0,0:0:0:0:s_051.ogg
281,192,39680,1,0,0:0:0:0:s_063.ogg
332,192,39840,1,0,0:0:0:0:s_060.ogg
435,192,40320,128,0,40920:0:0:0:0:m_024.ogg
179,192,41040,1,0,0:0:0:0:s_027.ogg
128,192,41120,1,0,0:0:0:0:s_026.ogg
76,192,41200,1,0,0:0:0:0:s_024.ogg
25,192,41280,128,0,41880:0:0:0:0:m_023.ogg
281,192,42000,1,0,0:0:0:0:s_019.ogg
332,192,42080,1,0,0:0:0:0:s_021.ogg
384,192,42160,1,0,0:0:0:0:s_023.ogg
435,192,42240,128,0,42840:0:0:0:0:m_024.ogg
179,192,42960,1,0,0:0:0:0:s_027.ogg
128,192,43040,1,0,0:0:0:0:s_026.ogg
76,192,43120,1,0,0:0:0:0:s_024.ogg
25,192,43200,128,0,43800:0:0:0:0:m_023.ogg
281,192,43980,1,0,0:0:0:0:s_019.ogg
332,192,44040,1,0,0:0:0:0:s_021.ogg
384,192,44100,1,0,0:0:0:0:s_023.ogg
435,192,44160,128,0,44760:0:0:0:0:m_012.ogg
179,192,44880,1,0,0:0:0:0:s_027.ogg
128,192,44960,1,0,0:0:0:0:s_026.ogg
76,192,45040,1,0,0:0:0:0:s_024.ogg
25,192,45120,128,0,45720:0:0:0:0:m_023.ogg
281,192,45840,1,0,0:0:0:0:s_019.ogg
332,192,45920,1,0,0:0:0:0:s_021.ogg
384,192,46000,1,0,0:0:0:0:s_023.ogg
435,192,46080,128,0,46680:0:0:0:0:m_012.ogg
179,192,46800,1,0,0:0:0:0:s_027.ogg
128,192,46880,1,0,0:0:0:0:s_026.ogg
76,192,46960,1,0,0:0:0:0:s_024.ogg
25,192,47040,128,0,47640:0:0:0:0:m_023.ogg
332,192,47820,1,0,0:0:0:0:s_024.ogg
384,192,47880,1,0,0:0:0:0:s_026.ogg
435,192,47940,1,0,0:0:0:0:s_027.ogg
486,192,48000,128,0,48600:0:0:0:0:m_028.ogg
76,192,48720,1,0,0:0:0:0:s_036.ogg
128,192,48800,1,0,0:0:0:0:s_038.ogg
179,192,48880,1,0,0:0:0:0:s_040.ogg
230,192,48960,128,0,49560:0:0:0:0:m_041.ogg
486,192,49680,1,0,0:0:0:0:s_031.ogg
435,192,49760,1,0,0:0:0:0:s_029.ogg
384,192,49840,1,0,0:0:0:0:s_027.ogg
332,192,49920,128,0,50520:0:0:0:0:m_026.ogg
76,192,50640,1,0,0:0:0:0:s_022.ogg
128,192,50720,1,0,0:0:0:0:s_024.ogg
179,192,50800,1,0,0:0:0:0:s_026.ogg
230,192,50880,128,0,51480:0:0:0:0:m_027.ogg
332,192,51600,1,0,0:0:0:0:s_026.ogg
384,192,51680,1,0,0:0:0:0:s_027.ogg
435,192,51760,1,0,0:0:0:0:s_028.ogg
486,192,51840,128,0,52440:0:0:0:0:m_017.ogg
76,192,52560,1,0,0:0:0:0:s_025.ogg
128,192,52640,1,0,0:0:0:0:s_027.ogg
179,192,52720,1,0,0:0:0:0:s_029.ogg
230,192,52800,128,0,53400:0:0:0:0:m_031.ogg
486,192,53520,1,0,0:0:0:0:s_032.ogg
435,192,53600,1,0,0:0:0:0:s_031.ogg
384,192,53680,1,0,0:0:0:0:s_030.ogg
332,192,53760,1,0,0:0:0:0:m_029.ogg
25,192,54000,1,0,0:0:0:0:s_026.ogg
76,192,54080,1,0,0:0:0:0:s_027.ogg
128,192,54160,1,0,0:0:0:0:s_029.ogg
179,192,54240,1,0,0:0:0:0:s_019.ogg
435,192,54480,1,0,0:0:0:0:s_029.ogg
384,192,54560,1,0,0:0:0:0:s_027.ogg
332,192,54640,1,0,0:0:0:0:s_026.ogg
281,192,54720,1,0,0:0:0:0:m_012.ogg
230,192,54960,1,0,0:0:0:0:s_051.ogg
486,192,54960,1,0,0:0:0:0:s_043.ogg
179,192,55200,1,0,0:0:0:0:s_048.ogg
435,192,55200,1,0,0:0:0:0:s_039.ogg
384,192,55680,128,0,56280:0:0:0:0:m_067.ogg
486,192,56400,1,0,0:0:0:0:s_065.ogg
435,192,56520,1,0,0:0:0:0:s_075.ogg
384,192,56640,1,0,0:0:0:0:s_071.ogg
332,192,56760,1,0,0:0:0:0:s_072.ogg
281,192,56880,1,0,0:0:0:0:s_071.ogg
230,192,57000,1,0,0:0:0:0:s_068.ogg
179,192,57120,1,0,0:0:0:0:s_055.ogg
128,192,57240,1,0,0:0:0:0:s_062.ogg
76,192,57360,1,0,0:0:0:0:s_051.ogg
25,192,57480,1,0,0:0:0:0:s_059.ogg
128,192,57600,128,0,58200:0:0:0:0:m_060.ogg
179,192,58320,1,0,0:0:0:0:s_053.ogg
230,192,58440,1,0,0:0:0:0:s_067.ogg
486,192,58560,1,0,0:0:0:0:s_065.ogg
435,192,58680,1,0,0:0:0:0:s_051.ogg
384,192,58800,1,0,0:0:0:0:s_050.ogg
332,192,58920,1,0,0:0:0:0:s_060.ogg
281,192,59040,1,0,0:0:0:0:m_047.ogg
384,192,59520,128,0,60120:0:0:0:0:m_079.ogg
486,192,60240,1,0,0:0:0:0:s_077.ogg
435,192,60360,1,0,0:0:0:0:s_063.ogg
384,192,60480,1,0,0:0:0:0:s_062.ogg
332,192,60600,1,0,0:0:0:0:s_072.ogg
281,192,60720,1,0,0:0:0:0:s_059.ogg
230,192,60840,1,0,0:0:0:0:s_056.ogg
179,192,60960,1,0,0:0:0:0:s_067.ogg
128,192,61080,1,0,0:0:0:0:s_053.ogg
76,192,61200,1,0,0:0:0:0:s_051.ogg
25,192,61320,1,0,0:0:0:0:s_059.ogg
128,192,61440,128,0,62040:0:0:0:0:m_063.ogg
179,192,62160,1,0,0:0:0:0:s_065.ogg
230,192,62280,1,0,0:0:0:0:s_067.ogg
486,192,62400,1,0,0:0:0:0:s_053.ogg
435,192,62520,1,0,0:0:0:0:s_063.ogg
384,192,62640,1,0,0:0:0:0:s_062.ogg
332,192,62760,1,0,0:0:0:0:s_060.ogg
281,192,62880,1,0,0:0:0:0:m_059.ogg
128,192,63360,128,0,63840:0:0:0:0:m_052.ogg
384,192,63840,1,0,0:0:0:0:s_060.ogg
25,192,64080,1,0,0:0:0:0:s_053.ogg
76,192,64200,1,0,0:0:0:0:s_067.ogg
128,192,64320,1,0,0:0:0:0:s_068.ogg
179,192,64440,1,0,0:0:0:0:s_070.ogg
230,192,64560,1,0,0:0:0:0:s_072.ogg
281,192,64680,1,0,0:0:0:0:s_074.ogg
332,192,64800,1,0,0:0:0:0:s_076.ogg
384,192,64920,1,0,0:0:0:0:s_077.ogg
435,192,65040,1,0,0:0:0:0:s_076.ogg
486,192,65160,1,0,0:0:0:0:s_068.ogg
128,192,65280,128,0,65760:0:0:0:0:m_050.ogg
384,192,65760,1,0,0:0:0:0:s_058.ogg
25,192,66000,1,0,0:0:0:0:s_051.ogg
76,192,66120,1,0,0:0:0:0:s_065.ogg
128,192,66240,1,0,0:0:0:0:s_067.ogg
179,192,66360,1,0,0:0:0:0:s_068.ogg
230,192,66480,1,0,0:0:0:0:s_070.ogg
281,192,66600,1,0,0:0:0:0:s_072.ogg
332,192,66720,1,0,0:0:0:0:s_074.ogg
384,192,66840,1,0,0:0:0:0:s_075.ogg
435,192,66960,1,0,0:0:0:0:s_065.ogg
486,192,67080,1,0,0:0:0:0:s_067.ogg
230,192,67200,1,0,0:0:0:0:s_068.ogg
281,192,67200,1,0,0:0:0:0:s_080.ogg
179,192,67320,1,0,0:0:0:0:s_065.ogg
128,192,67440,1,0,0:0:0:0:s_074.ogg
76,192,67560,1,0,0:0:0:0:s_071.ogg
25,192,67680,1,0,0:0:0:0:s_059.ogg
486,192,67680,1,0,0:0:0:0:s_056.ogg
435,192,67800,1,0,0:0:0:0:s_054.ogg
384,192,67920,1,0,0:0:0:0:s_067.ogg
332,192,68040,1,0,0:0:0:0:s_065.ogg
230,192,68160,1,0,0:0:0:0:s_063.ogg
281,192,68160,1,0,0:0:0:0:s_075.ogg
179,192,68280,1,0,0:0:0:0:s_072.ogg
128,192,68400,1,0,0:0:0:0:s_069.ogg
76,192,68520,1,0,0:0:0:0:s_054.ogg
25,192,68640,1,0,0:0:0:0:s_051.ogg
486,192,68640,1,0,0:0:0:0:s_063.ogg
435,192,68760,1,0,0:0:0:0:s_049.ogg
384,192,68880,1,0,0:0:0:0:s_062.ogg
332,192,69000,1,0,0:0:0:0:s_048.ogg
179,192,69120,1,0,0:0:0:0:s_050.ogg
281,192,69120,1,0,0:0:0:0:s_056.ogg
76,192,69240,1,0,0:0:0:0:s_054.ogg
179,192,69360,1,0,0:0:0:0:s_055.ogg
76,192,69480,1,0,0:0:0:0:s_053.ogg
230,192,69600,1,0,0:0:0:0:s_040.ogg
435,192,69600,1,0,0:0:0:0:s_052.ogg
332,192,69720,1,0,0:0:0:0:s_050.ogg
230,192,69840,1,0,0:0:0:0:s_039.ogg
435,192,69840,1,0,0:0:0:0:s_031.ogg
332,192,69960,1,0,0:0:0:0:s_050.ogg
128,192,70080,1,0,0:0:0:0:m_041.ogg
384,192,70080,1,0,0:0:0:0:m_048.ogg
25,192,70560,1,0,0:0:0:0:s_043.ogg
281,192,70560,1,0,0:0:0:0:s_039.ogg
486,192,71040,1,0,0:0:0:0:s_055.ogg
435,192,71140,1,0,0:0:0:0:s_060.ogg
384,192,71240,1,0,0:0:0:0:s_055.ogg
332,192,71340,1,0,0:0:0:0:s_051.ogg
281,192,71440,1,0,0:0:0:0:s_048.ogg
230,192,71540,1,0,0:0:0:0:s_055.ogg
179,192,71640,1,0,0:0:0:0:s_051.ogg
128,192,71740,1,0,0:0:0:0:s_048.ogg
384,192,71840,1,0,0:0:0:0:s_055.ogg
332,192,71940,1,0,0:0:0:0:s_059.ogg
281,192,72040,1,0,0:0:0:0:s_055.ogg
230,192,72140,1,0,0:0:0:0:s_065.ogg
179,192,72240,1,0,0:0:0:0:s_062.ogg
128,192,72340,1,0,0:0:0:0:s_055.ogg
76,192,72440,1,0,0:0:0:0:s_059.ogg
25,192,72540,1,0,0:0:0:0:s_055.ogg
486,192,72640,1,0,0:0:0:0:s_055.ogg
435,192,72740,1,0,0:0:0:0:s_060.ogg
384,192,72840,1,0,0:0:0:0:s_055.ogg
332,192,72940,1,0,0:0:0:0:s_051.ogg
281,192,73040,1,0,0:0:0:0:s_048.ogg
230,192,73140,1,0,0:0:0:0:s_055.ogg
179,192,73240,1,0,0:0:0:0:s_051.ogg
128,192,73340,1,0,0:0:0:0:s_048.ogg
384,192,73440,1,0,0:0:0:0:s_055.ogg
332,192,73540,1,0,0:0:0:0:s_059.ogg
281,192,73640,1,0,0:0:0:0:s_055.ogg
128,192,73740,1,0,0:0:0:0:s_055.ogg
76,192,73840,1,0,0:0:0:0:s_050.ogg
25,192,73940,1,0,0:0:0:0:s_047.ogg
486,192,74240,1,0,0:0:0:0:s_063.ogg
435,192,74340,1,0,0:0:0:0:s_072.ogg
384,192,74440,1,0,0:0:0:0:s_067.ogg
332,192,74540,1,0,0:0:0:0:s_063.ogg
281,192,74640,1,0,0:0:0:0:s_060.ogg
230,192,74740,1,0,0:0:0:0:s_067.ogg
179,192,74840,1,0,0:0:0:0:s_063.ogg
128,192,74940,1,0,0:0:0:0:s_060.ogg
384,192,75040,1,0,0:0:0:0:s_062.ogg
332,192,75140,1,0,0:0:0:0:s_071.ogg
281,192,75240,1,0,0:0:0:0:s_067.ogg
230,192,75340,1,0,0:0:0:0:s_077.ogg
179,192,75440,1,0,0:0:0:0:s_074.ogg
128,192,75540,1,0,0:0:0:0:s_067.ogg
76,192,75640,1,0,0:0:0:0:s_071.ogg
25,192,75740,1,0,0:0:0:0:s_067.ogg
486,192,75840,1,0,0:0:0:0:s_063.ogg
435,192,75940,1,0,0:0:0:0:s_072.ogg
384,192,76040,1,0,0:0:0:0:s_067.ogg
332,192,76140,1,0,0:0:0:0:s_063.ogg
281,192,76240,1,0,0:0:0:0:s_060.ogg
230,192,76340,1,0,0:0:0:0:s_067.ogg
179,192,76440,1,0,0:0:0:0:s_063.ogg
128,192,76540,1,0,0:0:0:0:s_060.ogg
486,192,76640,1,0,0:0:0:0:s_062.ogg
435,192,76740,1,0,0:0:0:0:s_071.ogg
384,192,76840,1,0,0:0:0:0:s_067.ogg
332,192,76940,1,0,0:0:0:0:s_062.ogg
281,192,77040,1,0,0:0:0:0:s_059.ogg
25,192,77140,1,0,0:0:0:0:s_050.ogg
76,192,77240,1,0,0:0:0:0:s_055.ogg
486,192,77440,1,0,0:0:0:0:s_055.ogg
435,192,77540,1,0,0:0:0:0:s_064.ogg
384,192,77640,1,0,0:0:0:0:s_060.ogg
332,192,77740,1,0,0:0:0:0:s_055.ogg
281,192,77840,1,0,0:0:0:0:s_052.ogg
230,192,77940,1,0,0:0:0:0:s_048.ogg
179,192,78040,1,0,0:0:0:0:s_046.ogg
128,192,78140,1,0,0:0:0:0:s_043.ogg
76,192,78240,1,0,0:0:0:0:s_044.ogg
25,192,78340,1,0,0:0:0:0:s_041.ogg
384,192,78440,1,0,0:0:0:0:s_065.ogg
332,192,78540,1,0,0:0:0:0:s_060.ogg
281,192,78640,1,0,0:0:0:0:s_056.ogg
230,192,78740,1,0,0:0:0:0:s_053.ogg
179,192,78840,1,0,0:0:0:0:s_044.ogg
128,192,78940,1,0,0:0:0:0:s_041.ogg
486,192,79040,1,0,0:0:0:0:s_058.ogg
435,192,79140,1,0,0:0:0:0:s_062.ogg
384,192,79240,1,0,0:0:0:0:s_058.ogg
332,192,79340,1,0,0:0:0:0:s_056.ogg
281,192,79440,1,0,0:0:0:0:s_053.ogg
230,192,79540,1,0,0:0:0:0:s_050.ogg
179,192,79640,1,0,0:0:0:0:s_044.ogg
128,192,79740,1,0,0:0:0:0:s_041.ogg
76,192,79840,1,0,0:0:0:0:s_043.ogg
25,192,79940,1,0,0:0:0:0:s_039.ogg
384,192,80040,1,0,0:0:0:0:s_063.ogg
332,192,80140,1,0,0:0:0:0:s_058.ogg
281,192,80240,1,0,0:0:0:0:s_055.ogg
230,192,80340,1,0,0:0:0:0:s_051.ogg
179,192,80440,1,0,0:0:0:0:s_043.ogg
128,192,80540,1,0,0:0:0:0:s_039.ogg
486,192,80640,1,0,0:0:0:0:s_062.ogg
435,192,80740,1,0,0:0:0:0:s_060.ogg
384,192,80840,1,0,0:0:0:0:s_059.ogg
332,192,80940,1,0,0:0:0:0:s_056.ogg
281,192,81040,1,0,0:0:0:0:s_055.ogg
230,192,81140,1,0,0:0:0:0:s_062.ogg
179,192,81240,1,0,0:0:0:0:s_051.ogg
128,192,81340,1,0,0:0:0:0:s_059.ogg
384,192,81440,1,0,0:0:0:0:s_048.ogg
332,192,81540,1,0,0:0:0:0:s_046.ogg
281,192,81640,1,0,0:0:0:0:s_044.ogg
230,192,81740,1,0,0:0:0:0:s_043.ogg
179,192,81840,1,0,0:0:0:0:s_041.ogg
128,192,81940,1,0,0:0:0:0:s_048.ogg
76,192,82040,1,0,0:0:0:0:s_038.ogg
25,192,82140,1,0,0:0:0:0:s_043.ogg
384,192,82240,1,0,0:0:0:0:s_044.ogg
281,192,82340,1,0,0:0:0:0:s_029.ogg
76,192,82440,1,0,0:0:0:0:s_050.ogg
179,192,82540,1,0,0:0:0:0:s_053.ogg
435,192,82640,1,0,0:0:0:0:s_047.ogg
332,192,82740,1,0,0:0:0:0:s_031.ogg
128,192,82840,1,0,0:0:0:0:s_050.ogg
230,192,82940,1,0,0:0:0:0:s_059.ogg
486,192,83040,1,0,0:0:0:0:s_051.ogg
435,192,83140,1,0,0:0:0:0:s_043.ogg
384,192,83240,1,0,0:0:0:0:s_039.ogg
332,192,83340,1,0,0:0:0:0:s_036.ogg
281,192,83440,1,0,0:0:0:0:s_024.ogg
76,192,83840,1,0,0:0:0:0:l_063.ogg
179,192,83840,1,0,0:0:0:0:l_072.ogg
384,192,83840,1,0,0:0:0:0:l_060.ogg
332,192,85280,1,0,0:0:0:0:m_067.ogg
486,192,85520,1,0,0:0:0:0:s_075.ogg
128,192,85760,1,0,0:0:0:0:m_067.ogg
230,192,85760,1,0,0:0:0:0:l_062.ogg
435,192,85760,1,0,0:0:0:0:m_074.ogg
384,192,86000,1,0,0:0:0:0:m_072.ogg
332,192,86240,1,0,0:0:0:0:m_071.ogg
281,192,86480,1,0,0:0:0:0:s_069.ogg
384,192,86720,1,0,0:0:0:0:m_067.ogg
435,192,86960,1,0,0:0:0:0:m_069.ogg
486,192,87200,1,0,0:0:0:0:m_071.ogg
332,192,87440,1,0,0:0:0:0:s_067.ogg
76,192,87680,1,0,0:0:0:0:m_072.ogg
179,192,87680,1,0,0:0:0:0:l_067.ogg
384,192,87680,1,0,0:0:0:0:l_063.ogg
486,192,88640,1,0,0:0:0:0:s_074.ogg
435,192,88680,1,0,0:0:0:0:s_072.ogg
384,192,88720,1,0,0:0:0:0:s_071.ogg
332,192,88760,1,0,0:0:0:0:m_072.ogg
281,192,88880,1,0,0:0:0:0:m_074.ogg
332,192,89120,1,0,0:0:0:0:m_075.ogg
384,192,89360,1,0,0:0:0:0:s_077.ogg
25,192,89600,1,0,0:0:0:0:l_071.ogg
128,192,89600,1,0,0:0:0:0:m_078.ogg
435,192,89600,1,0,0:0:0:0:l_065.ogg
486,192,90320,1,0,0:0:0:0:s_079.ogg
332,192,90560,1,0,0:0:0:0:m_067.ogg
76,192,91520,1,0,0:0:0:0:l_072.ogg
179,192,91520,1,0,0:0:0:0:l_060.ogg
384,192,91520,1,0,0:0:0:0:l_063.ogg
332,192,92960,1,0,0:0:0:0:m_067.ogg
486,192,93200,1,0,0:0:0:0:s_075.ogg
128,192,93440,1,0,0:0:0:0:m_067.ogg
230,192,93440,1,0,0:0:0:0:m_074.ogg
435,192,93440,1,0,0:0:0:0:l_062.ogg
384,192,93680,1,0,0:0:0:0:m_072.ogg
332,192,93920,1,0,0:0:0:0:m_071.ogg
281,192,94160,1,0,0:0:0:0:s_069.ogg
384,192,94400,1,0,0:0:0:0:m_067.ogg
435,192,94640,1,0,0:0:0:0:m_069.ogg
486,192,94880,1,0,0:0:0:0:m_071.ogg
332,192,95120,1,0,0:0:0:0:s_067.ogg
76,192,95360,1,0,0:0:0:0:l_067.ogg
179,192,95360,1,0,0:0:0:0:l_063.ogg
384,192,95360,1,0,0:0:0:0:m_072.ogg
486,192,96320,1,0,0:0:0:0:s_074.ogg
435,192,96360,1,0,0:0:0:0:s_072.ogg
384,192,96400,1,0,0:0:0:0:s_071.ogg
332,192,96440,1,0,0:0:0:0:m_072.ogg
281,192,96560,1,0,0:0:0:0:m_074.ogg
332,192,96800,1,0,0:0:0:0:m_075.ogg
384,192,97040,1,0,0:0:0:0:s_077.ogg
25,192,97280,1,0,0:0:0:0:m_078.ogg
128,192,97280,1,0,0:0:0:0:l_071.ogg
435,192,97280,1,0,0:0:0:0:l_065.ogg
486,192,98000,1,0,0:0:0:0:s_079.ogg
332,192,98240,1,0,0:0:0:0:m_067.ogg
128,192,99200,1,0,0:0:0:0:l_072.ogg
230,192,99200,1,0,0:0:0:0:l_064.ogg
384,192,99200,1,0,0:0:0:0:l_058.ogg
486,192,100400,1,0,0:0:0:0:m_079.ogg
435,192,100640,1,0,0:0:0:0:m_076.ogg
384,192,100880,1,0,0:0:0:0:s_072.ogg
332,192,101120,1,0,0:0:0:0:m_070.ogg
281,192,101360,1,0,0:0:0:0:m_067.ogg
230,192,101600,1,0,0:0:0:0:m_064.ogg
179,192,101840,1,0,0:0:0:0:s_060.ogg
128,192,102080,1,0,0:0:0:0:m_058.ogg
76,192,102320,1,0,0:0:0:0:m_056.ogg
128,192,102560,1,0,0:0:0:0:m_055.ogg
332,192,102560,1,0,0:0:0:0:m_060.ogg
435,192,102560,1,0,0:0:0:0:m_065.ogg
25,192,102800,1,0,0:0:0:0:s_053.ogg
76,192,103040,1,0,0:0:0:0:l_050.ogg
384,192,103040,1,0,0:0:0:0:l_070.ogg
486,192,103040,1,0,0:0:0:0:l_058.ogg
486,192,104240,1,0,0:0:0:0:m_077.ogg
435,192,104480,1,0,0:0:0:0:m_074.ogg
384,192,104720,1,0,0:0:0:0:s_070.ogg
332,192,104960,1,0,0:0:0:0:m_068.ogg
281,192,105200,1,0,0:0:0:0:m_065.ogg
230,192,105440,1,0,0:0:0:0:m_062.ogg
179,192,105680,1,0,0:0:0:0:s_058.ogg
128,192,105920,1,0,0:0:0:0:m_056.ogg
76,192,106160,1,0,0:0:0:0:m_055.ogg
128,192,106400,1,0,0:0:0:0:m_053.ogg
281,192,106400,1,0,0:0:0:0:m_058.ogg
384,192,106400,1,0,0:0:0:0:m_063.ogg
25,192,106640,1,0,0:0:0:0:s_051.ogg
76,192,106880,1,0,0:0:0:0:l_053.ogg
332,192,106880,1,0,0:0:0:0:l_047.ogg
435,192,106880,1,0,0:0:0:0:l_068.ogg
384,192,108080,1,0,0:0:0:0:m_065.ogg
332,192,108320,1,0,0:0:0:0:m_062.ogg
281,192,108560,1,0,0:0:0:0:s_060.ogg
230,192,108800,1,0,0:0:0:0:m_059.ogg
179,192,109040,1,0,0:0:0:0:s_055.ogg
128,192,109280,1,0,0:0:0:0:m_053.ogg
281,192,109280,1,0,0:0:0:0:m_067.ogg
384,192,109280,1,0,0:0:0:0:m_059.ogg
76,192,109520,1,0,0:0:0:0:s_050.ogg
128,192,109760,1,0,0:0:0:0:m_051.ogg
332,192,109760,1,0,0:0:0:0:m_060.ogg
384,192,109760,1,0,0:0:0:0:m_067.ogg
179,192,110000,1,0,0:0:0:0:s_055.ogg
230,192,110240,1,0,0:0:0:0:m_060.ogg
332,192,110240,1,0,0:0:0:0:m_067.ogg
435,192,110240,1,0,0:0:0:0:m_064.ogg
179,192,110480,1,0,0:0:0:0:s_058.ogg
128,192,110720,1,0,0:0:0:0:m_056.ogg
384,192,110720,1,0,0:0:0:0:m_068.ogg
486,192,110720,1,0,0:0:0:0:s_065.ogg
230,192,110960,1,0,0:0:0:0:s_065.ogg
179,192,111200,1,0,0:0:0:0:m_062.ogg
128,192,111440,1,0,0:0:0:0:s_060.ogg
25,192,111680,1,0,0:0:0:0:m_065.ogg
76,192,111680,1,0,0:0:0:0:m_055.ogg
281,192,111680,1,0,0:0:0:0:m_059.ogg
486,192,111920,1,0,0:0:0:0:m_074.ogg
384,192,112160,1,0,0:0:0:0:m_071.ogg
332,192,112400,1,0,0:0:0:0:s_067.ogg
179,192,112640,1,0,0:0:0:0:m_060.ogg
230,192,112640,1,0,0:0:0:0:l_063.ogg
384,192,112640,1,0,0:0:0:0:s_071.ogg
435,192,112680,1,0,0:0:0:0:l_072.ogg
281,192,113600,1,0,0:0:0:0:m_060.ogg
