osu file format v14

[General]
AudioFilename: virtual
AudioLeadIn: 0
PreviewTime: 0
Countdown: 0
SampleSet: Soft
StackLeniency: 0.7
Mode: 3
LetterboxInBreaks: 0
SpecialStyle: 0
WidescreenStoryboard: 1

[Editor]
DistanceSpacing: 0.8
BeatDivisor: 4
GridSize: 32
TimelineZoom: 1.500006

[Metadata]
Title:Piano Beatmap Set
TitleUnicode:Piano Beatmap Set
Artist:Collection
ArtistUnicode:Collection
Creator:CircusGalop
Version:Fantaisie Impromptu - 10K HD
Source:BMS
Tags:
BeatmapID:882922
BeatmapSetID:332673

[Difficulty]
HPDrainRate:7
CircleSize:10
OverallDifficulty:5
ApproachRate:5
SliderMultiplier:1.4
SliderTickRate:1

[Events]
//Background and Video events
0,0,"CircusGalop.jpg",0,0
//Break Periods
//Storyboard Layer 0 (Background)
//Storyboard Layer 1 (Fail)
//Storyboard Layer 2 (Pass)
//Storyboard Layer 3 (Foreground)
//Storyboard Sound Samples
Sample,7393,0,"m_035.ogg",100
Sample,7515,0,"m_040.ogg",100
Sample,7636,0,"m_043.ogg",100
Sample,7757,0,"s_040.ogg",100
Sample,7878,0,"s_035.ogg",100
Sample,8121,0,"m_035.ogg",100
Sample,8242,0,"m_040.ogg",100
Sample,8363,0,"m_043.ogg",100
Sample,8484,0,"s_040.ogg",100
Sample,8606,0,"s_035.ogg",100
Sample,8848,0,"m_035.ogg",100
Sample,8969,0,"m_040.ogg",100
Sample,9090,0,"m_043.ogg",100
Sample,9212,0,"s_040.ogg",100
Sample,9333,0,"s_035.ogg",100
Sample,9575,0,"m_035.ogg",100
Sample,9696,0,"m_040.ogg",100
Sample,9818,0,"m_043.ogg",100
Sample,9939,0,"s_040.ogg",100
Sample,10060,0,"s_035.ogg",100
Sample,10303,0,"m_036.ogg",100
Sample,10424,0,"m_040.ogg",100
Sample,10545,0,"m_045.ogg",100
Sample,10666,0,"s_040.ogg",100
Sample,10787,0,"s_036.ogg",100
Sample,11030,0,"m_040.ogg",100
Sample,11151,0,"m_042.ogg",100
Sample,11272,0,"m_048.ogg",100
Sample,11393,0,"s_042.ogg",100
Sample,11515,0,"s_040.ogg",100
Sample,11757,0,"m_030.ogg",100
Sample,11878,0,"m_033.ogg",100
Sample,12000,0,"m_039.ogg",100
Sample,12121,0,"m_033.ogg",100
Sample,12242,0,"m_030.ogg",100
Sample,12484,0,"m_030.ogg",100
Sample,12606,0,"m_033.ogg",100
Sample,12727,0,"m_039.ogg",100
Sample,12848,0,"s_033.ogg",100
Sample,12969,0,"s_030.ogg",100
Sample,13212,0,"m_035.ogg",100
Sample,13333,0,"m_040.ogg",100
Sample,13454,0,"m_043.ogg",100
Sample,13575,0,"s_040.ogg",100
Sample,13696,0,"s_035.ogg",100
Sample,13939,0,"m_035.ogg",100
Sample,14060,0,"m_040.ogg",100
Sample,14181,0,"m_043.ogg",100
Sample,14303,0,"s_040.ogg",100
Sample,14424,0,"s_035.ogg",100
Sample,14666,0,"m_035.ogg",100
Sample,14787,0,"m_037.ogg",100
Sample,14909,0,"m_043.ogg",100
Sample,15030,0,"s_037.ogg",100
Sample,15151,0,"s_035.ogg",100
Sample,15393,0,"m_035.ogg",100
Sample,15515,0,"m_037.ogg",100
Sample,15636,0,"m_040.ogg",100
Sample,15757,0,"s_037.ogg",100
Sample,15878,0,"s_035.ogg",100
Sample,16121,0,"m_035.ogg",100
Sample,16242,0,"m_038.ogg",100
Sample,16363,0,"m_042.ogg",100
Sample,16484,0,"s_038.ogg",100
Sample,16606,0,"s_035.ogg",100
Sample,16848,0,"m_037.ogg",100
Sample,16969,0,"m_040.ogg",100
Sample,17090,0,"m_046.ogg",100
Sample,17212,0,"s_040.ogg",100
Sample,17333,0,"s_037.ogg",100
Sample,17575,0,"m_030.ogg",100
Sample,17696,0,"m_035.ogg",100
Sample,17818,0,"m_038.ogg",100
Sample,17939,0,"m_035.ogg",100
Sample,18060,0,"m_030.ogg",100
Sample,18303,0,"m_030.ogg",100
Sample,18424,0,"m_035.ogg",100
Sample,18545,0,"m_038.ogg",100
Sample,18666,0,"s_035.ogg",100
Sample,18787,0,"s_030.ogg",100
Sample,19030,0,"m_028.ogg",100
Sample,19151,0,"m_033.ogg",100
Sample,19393,0,"s_033.ogg",100
Sample,19515,0,"s_028.ogg",100
Sample,19757,0,"m_028.ogg",100
Sample,19878,0,"m_033.ogg",100
Sample,20121,0,"s_033.ogg",100
Sample,20242,0,"s_028.ogg",100
Sample,20484,0,"m_033.ogg",100
Sample,20606,0,"m_036.ogg",100
Sample,20848,0,"s_036.ogg",100
Sample,20969,0,"s_033.ogg",100
Sample,21212,0,"m_026.ogg",100
Sample,21333,0,"m_031.ogg",100
Sample,21575,0,"s_031.ogg",100
Sample,21696,0,"s_026.ogg",100
Sample,21939,0,"m_028.ogg",100
Sample,22060,0,"m_033.ogg",100
Sample,22303,0,"s_033.ogg",100
Sample,22424,0,"s_028.ogg",100
Sample,22666,0,"m_028.ogg",100
Sample,22787,0,"m_033.ogg",100
Sample,23030,0,"s_033.ogg",100
Sample,23151,0,"s_028.ogg",100
Sample,23393,0,"m_033.ogg",100
Sample,23515,0,"m_036.ogg",100
Sample,23757,0,"s_036.ogg",100
Sample,23878,0,"s_033.ogg",100
Sample,24121,0,"m_026.ogg",100
Sample,24242,0,"m_031.ogg",100
Sample,24484,0,"s_031.ogg",100
Sample,24606,0,"s_026.ogg",100
Sample,24848,0,"m_028.ogg",100
Sample,24969,0,"m_033.ogg",100
Sample,25212,0,"s_033.ogg",100
Sample,25333,0,"s_028.ogg",100
Sample,25575,0,"m_028.ogg",100
Sample,25696,0,"m_033.ogg",100
Sample,25939,0,"s_033.ogg",100
Sample,26060,0,"s_028.ogg",100
Sample,26303,0,"m_033.ogg",100
Sample,26424,0,"m_036.ogg",100
Sample,26666,0,"s_036.ogg",100
Sample,26787,0,"s_033.ogg",100
Sample,27030,0,"m_026.ogg",100
Sample,27151,0,"m_031.ogg",100
Sample,27393,0,"s_031.ogg",100
Sample,27515,0,"s_026.ogg",100
Sample,27757,0,"m_028.ogg",100
Sample,27878,0,"m_033.ogg",100
Sample,28121,0,"s_033.ogg",100
Sample,28242,0,"s_028.ogg",100
Sample,28484,0,"m_028.ogg",100
Sample,28606,0,"m_033.ogg",100
Sample,28848,0,"s_033.ogg",100
Sample,28969,0,"s_028.ogg",100
Sample,29212,0,"m_030.ogg",100
Sample,29333,0,"m_033.ogg",100
Sample,29575,0,"m_033.ogg",100
Sample,29696,0,"m_030.ogg",100
Sample,29939,0,"m_030.ogg",100
Sample,30060,0,"m_033.ogg",100
Sample,30303,0,"s_033.ogg",100
Sample,30424,0,"s_030.ogg",100
Sample,30636,0,"m_063.ogg",100
Sample,30727,0,"m_054.ogg",100
Sample,30818,0,"m_057.ogg",100
Sample,31000,0,"m_062.ogg",100
Sample,31090,0,"s_054.ogg",100
Sample,31181,0,"s_057.ogg",100
Sample,31363,0,"m_062.ogg",100
Sample,31454,0,"m_054.ogg",100
Sample,31545,0,"m_057.ogg",100
Sample,31727,0,"m_061.ogg",100
Sample,31818,0,"s_054.ogg",100
Sample,31909,0,"s_057.ogg",100
Sample,32090,0,"m_061.ogg",100
Sample,32181,0,"m_054.ogg",100
Sample,32272,0,"m_057.ogg",100
Sample,32454,0,"m_060.ogg",100
Sample,32545,0,"m_054.ogg",100
Sample,32636,0,"m_057.ogg",100
Sample,32818,0,"m_060.ogg",100
Sample,32909,0,"m_054.ogg",100
Sample,33000,0,"m_057.ogg",100
Sample,33181,0,"m_060.ogg",100
Sample,33272,0,"s_054.ogg",100
Sample,33363,0,"s_057.ogg",100
Sample,33545,0,"m_063.ogg",100
Sample,33636,0,"m_054.ogg",100
Sample,33727,0,"m_057.ogg",100
Sample,33909,0,"s_062.ogg",100
Sample,34000,0,"s_054.ogg",100
Sample,34090,0,"s_057.ogg",100
Sample,34272,0,"m_062.ogg",100
Sample,34363,0,"m_054.ogg",100
Sample,34454,0,"m_057.ogg",100
Sample,34636,0,"s_061.ogg",100
Sample,34727,0,"s_054.ogg",100
Sample,34818,0,"s_057.ogg",100
Sample,35000,0,"m_061.ogg",100
Sample,35090,0,"m_054.ogg",100
Sample,35181,0,"m_057.ogg",100
Sample,35363,0,"m_060.ogg",100
Sample,35454,0,"m_054.ogg",100
Sample,35545,0,"m_057.ogg",100
Sample,35727,0,"m_060.ogg",100
Sample,35818,0,"m_054.ogg",100
Sample,35909,0,"m_057.ogg",100
Sample,36090,0,"s_059.ogg",100
Sample,36181,0,"s_054.ogg",100
Sample,36272,0,"s_057.ogg",100
Sample,36484,0,"m_035.ogg",100
Sample,36606,0,"m_040.ogg",100
Sample,36727,0,"m_043.ogg",100
Sample,36848,0,"s_040.ogg",100
Sample,36969,0,"s_035.ogg",100
Sample,37212,0,"m_035.ogg",100
Sample,37333,0,"m_040.ogg",100
Sample,37454,0,"m_043.ogg",100
Sample,37575,0,"s_040.ogg",100
Sample,37696,0,"s_035.ogg",100
Sample,37939,0,"m_035.ogg",100
Sample,38060,0,"m_040.ogg",100
Sample,38181,0,"m_043.ogg",100
Sample,38303,0,"s_040.ogg",100
Sample,38424,0,"s_035.ogg",100
Sample,38666,0,"m_035.ogg",100
Sample,38787,0,"m_040.ogg",100
Sample,38909,0,"m_043.ogg",100
Sample,39030,0,"s_040.ogg",100
Sample,39151,0,"s_035.ogg",100
Sample,39393,0,"m_036.ogg",100
Sample,39515,0,"m_040.ogg",100
Sample,39636,0,"m_045.ogg",100
Sample,39757,0,"s_040.ogg",100
Sample,39878,0,"s_036.ogg",100
Sample,40121,0,"m_040.ogg",100
Sample,40242,0,"m_042.ogg",100
Sample,40363,0,"m_048.ogg",100
Sample,40484,0,"s_042.ogg",100
Sample,40606,0,"s_040.ogg",100
Sample,40848,0,"m_030.ogg",100
Sample,40969,0,"m_033.ogg",100
Sample,41090,0,"m_039.ogg",100
Sample,41212,0,"m_033.ogg",100
Sample,41333,0,"m_030.ogg",100
Sample,41575,0,"m_030.ogg",100
Sample,41696,0,"m_033.ogg",100
Sample,41818,0,"m_039.ogg",100
Sample,41939,0,"s_033.ogg",100
Sample,42060,0,"s_030.ogg",100
Sample,42303,0,"m_035.ogg",100
Sample,42424,0,"m_040.ogg",100
Sample,42545,0,"m_043.ogg",100
Sample,42666,0,"s_040.ogg",100
Sample,42787,0,"s_035.ogg",100
Sample,43030,0,"m_035.ogg",100
Sample,43151,0,"m_040.ogg",100
Sample,43272,0,"m_043.ogg",100
Sample,43393,0,"s_040.ogg",100
Sample,43515,0,"s_035.ogg",100
Sample,43757,0,"m_040.ogg",100
Sample,43878,0,"m_042.ogg",100
Sample,44000,0,"m_048.ogg",100
Sample,44121,0,"s_042.ogg",100
Sample,44242,0,"s_040.ogg",100
Sample,44484,0,"m_040.ogg",100
Sample,44606,0,"m_044.ogg",100
Sample,44727,0,"m_050.ogg",100
Sample,44848,0,"s_044.ogg",100
Sample,44969,0,"s_040.ogg",100
Sample,45212,0,"m_040.ogg",100
Sample,45333,0,"m_045.ogg",100
Sample,45454,0,"m_048.ogg",100
Sample,45575,0,"s_045.ogg",100
Sample,45696,0,"s_040.ogg",100
Sample,45939,0,"m_040.ogg",100
Sample,46060,0,"m_044.ogg",100
Sample,46181,0,"m_050.ogg",100
Sample,46303,0,"s_044.ogg",100
Sample,46424,0,"s_040.ogg",100
Sample,46666,0,"m_040.ogg",100
Sample,46787,0,"m_045.ogg",100
Sample,46909,0,"m_048.ogg",100
Sample,47030,0,"s_045.ogg",100
Sample,47151,0,"s_040.ogg",100
Sample,47393,0,"m_033.ogg",100
Sample,47515,0,"m_035.ogg",100
Sample,47636,0,"m_042.ogg",100
Sample,47757,0,"s_035.ogg",100
Sample,47878,0,"s_033.ogg",100
Sample,48121,0,"m_035.ogg",100
Sample,48242,0,"m_040.ogg",100
Sample,48363,0,"m_043.ogg",100
Sample,48484,0,"s_040.ogg",100
Sample,48606,0,"s_035.ogg",100
Sample,48848,0,"m_035.ogg",100
Sample,48969,0,"m_039.ogg",100
Sample,49090,0,"m_045.ogg",100
Sample,49212,0,"s_039.ogg",100
Sample,49333,0,"s_035.ogg",100
Sample,49575,0,"m_035.ogg",100
Sample,49696,0,"m_040.ogg",100
Sample,49818,0,"m_043.ogg",100
Sample,49939,0,"s_040.ogg",100
Sample,50060,0,"s_035.ogg",100
Sample,50303,0,"m_040.ogg",100
Sample,50424,0,"m_042.ogg",100
Sample,50545,0,"m_048.ogg",100
Sample,50666,0,"s_042.ogg",100
Sample,50787,0,"s_040.ogg",100
Sample,50909,0,"m_035.ogg",100
Sample,50909,0,"s_059.ogg",100
Sample,51636,0,"l_034.ogg",100
Sample,51666,0,"l_040.ogg",100
Sample,51696,0,"l_043.ogg",100
Sample,51727,0,"l_048.ogg",100
Sample,54181,0,"m_043.ogg",100
Sample,54545,0,"m_040.ogg",100
Sample,54909,0,"m_035.ogg",100
Sample,55272,0,"m_031.ogg",100
Sample,55636,0,"m_028.ogg",100
Sample,56000,0,"m_023.ogg",100
Sample,56363,0,"m_019.ogg",100
Sample,56727,0,"m_016.ogg",100
Sample,57090,0,"m_011.ogg",100
Sample,57454,0,"m_011.ogg",100
Sample,57818,0,"m_012.ogg",100
Sample,58181,0,"m_011.ogg",100
Sample,58545,0,"m_010.ogg",100
Sample,58909,0,"m_011.ogg",100
Sample,62836,0,"m_016.ogg",100

[TimingPoints]
0,363.636363636366,4,2,0,100,1,0
59636.364,400,4,2,0,100,1,0
59636.364,-90.9090909090909,4,2,0,100,0,0
101236.364,363.636363636366,4,2,0,100,1,0

[HitObjects]
230,192,1454,5,0,0:0:0:0:l_023.ogg
281,192,1454,1,0,0:0:0:0:l_035.ogg
25,192,4363,1,0,0:0:0:0:l_016.ogg
332,192,4363,1,0,0:0:0:0:m_028.ogg
384,192,4484,1,0,0:0:0:0:m_035.ogg
435,192,4606,1,0,0:0:0:0:m_040.ogg
486,192,4727,1,0,0:0:0:0:m_043.ogg
435,192,4848,1,0,0:0:0:0:m_040.ogg
384,192,4969,1,0,0:0:0:0:m_035.ogg
76,192,5090,1,0,0:0:0:0:m_028.ogg
128,192,5212,1,0,0:0:0:0:m_035.ogg
179,192,5333,1,0,0:0:0:0:m_040.ogg
230,192,5454,1,0,0:0:0:0:m_043.ogg
179,192,5575,1,0,0:0:0:0:m_040.ogg
128,192,5696,1,0,0:0:0:0:m_035.ogg
332,192,5818,1,0,0:0:0:0:m_028.ogg
384,192,5939,1,0,0:0:0:0:m_035.ogg
435,192,6060,1,0,0:0:0:0:m_040.ogg
486,192,6181,1,0,0:0:0:0:m_043.ogg
435,192,6303,1,0,0:0:0:0:m_040.ogg
384,192,6424,1,0,0:0:0:0:m_035.ogg
76,192,6545,1,0,0:0:0:0:m_028.ogg
128,192,6666,1,0,0:0:0:0:m_035.ogg
179,192,6787,1,0,0:0:0:0:m_040.ogg
230,192,6909,1,0,0:0:0:0:m_043.ogg
179,192,7030,1,0,0:0:0:0:s_040.ogg
128,192,7151,1,0,0:0:0:0:s_035.ogg
25,192,7272,1,0,0:0:0:0:m_028.ogg
332,192,7363,1,0,0:0:0:0:s_047.ogg
384,192,7454,1,0,0:0:0:0:m_048.ogg
332,192,7545,1,0,0:0:0:0:s_047.ogg
281,192,7636,1,0,0:0:0:0:m_046.ogg
332,192,7727,1,0,0:0:0:0:s_047.ogg
384,192,7818,1,0,0:0:0:0:s_052.ogg
486,192,7909,1,0,0:0:0:0:s_055.ogg
230,192,8000,1,0,0:0:0:0:m_031.ogg
435,192,8000,1,0,0:0:0:0:s_054.ogg
384,192,8090,1,0,0:0:0:0:s_052.ogg
435,192,8181,1,0,0:0:0:0:m_054.ogg
384,192,8272,1,0,0:0:0:0:s_052.ogg
332,192,8363,1,0,0:0:0:0:m_051.ogg
384,192,8454,1,0,0:0:0:0:s_052.ogg
435,192,8545,1,0,0:0:0:0:s_055.ogg
486,192,8636,1,0,0:0:0:0:s_059.ogg
281,192,8727,1,0,0:0:0:0:m_028.ogg
76,192,8818,1,0,0:0:0:0:s_047.ogg
128,192,8909,1,0,0:0:0:0:m_048.ogg
76,192,9000,1,0,0:0:0:0:s_047.ogg
25,192,9090,1,0,0:0:0:0:m_046.ogg
76,192,9181,1,0,0:0:0:0:s_047.ogg
128,192,9272,1,0,0:0:0:0:s_052.ogg
230,192,9363,1,0,0:0:0:0:s_055.ogg
179,192,9454,1,0,0:0:0:0:s_054.ogg
486,192,9454,1,0,0:0:0:0:m_031.ogg
128,192,9545,1,0,0:0:0:0:s_052.ogg
179,192,9636,1,0,0:0:0:0:m_054.ogg
128,192,9727,1,0,0:0:0:0:s_052.ogg
76,192,9818,1,0,0:0:0:0:m_051.ogg
128,192,9909,1,0,0:0:0:0:s_052.ogg
179,192,10000,1,0,0:0:0:0:s_055.ogg
230,192,10090,1,0,0:0:0:0:s_059.ogg
281,192,10181,1,0,0:0:0:0:m_030.ogg
25,192,10272,1,0,0:0:0:0:m_048.ogg
76,192,10363,1,0,0:0:0:0:m_052.ogg
128,192,10454,1,0,0:0:0:0:m_054.ogg
179,192,10545,1,0,0:0:0:0:m_057.ogg
230,192,10636,1,0,0:0:0:0:s_060.ogg
281,192,10727,1,0,0:0:0:0:s_064.ogg
332,192,10818,1,0,0:0:0:0:s_066.ogg
25,192,10909,1,0,0:0:0:0:m_033.ogg
486,192,10909,1,0,0:0:0:0:m_074.ogg
435,192,11000,1,0,0:0:0:0:m_072.ogg
384,192,11090,1,0,0:0:0:0:m_071.ogg
332,192,11181,1,0,0:0:0:0:m_069.ogg
281,192,11272,1,0,0:0:0:0:m_067.ogg
230,192,11363,1,0,0:0:0:0:s_066.ogg
486,192,11454,1,0,0:0:0:0:s_069.ogg
435,192,11545,1,0,0:0:0:0:s_064.ogg
128,192,11636,1,0,0:0:0:0:m_023.ogg
384,192,11636,1,0,0:0:0:0:m_063.ogg
486,192,11727,1,0,0:0:0:0:m_066.ogg
332,192,11818,1,0,0:0:0:0:m_060.ogg
281,192,11909,1,0,0:0:0:0:m_059.ogg
230,192,12000,1,0,0:0:0:0:m_057.ogg
332,192,12090,1,0,0:0:0:0:m_060.ogg
179,192,12181,1,0,0:0:0:0:m_055.ogg
128,192,12272,1,0,0:0:0:0:m_054.ogg
230,192,12363,1,0,0:0:0:0:m_057.ogg
384,192,12363,1,0,0:0:0:0:m_023.ogg
76,192,12454,1,0,0:0:0:0:m_052.ogg
25,192,12545,1,0,0:0:0:0:m_051.ogg
128,192,12636,1,0,0:0:0:0:m_054.ogg
332,192,12727,1,0,0:0:0:0:m_048.ogg
281,192,12818,1,0,0:0:0:0:s_047.ogg
486,192,12909,1,0,0:0:0:0:s_050.ogg
435,192,13000,1,0,0:0:0:0:m_048.ogg
25,192,13090,1,0,0:0:0:0:m_028.ogg
332,192,13181,1,0,0:0:0:0:s_047.ogg
384,192,13272,1,0,0:0:0:0:m_048.ogg
332,192,13363,1,0,0:0:0:0:s_047.ogg
281,192,13454,1,0,0:0:0:0:m_046.ogg
332,192,13545,1,0,0:0:0:0:s_047.ogg
384,192,13636,1,0,0:0:0:0:s_052.ogg
486,192,13727,1,0,0:0:0:0:s_055.ogg
230,192,13818,1,0,0:0:0:0:m_031.ogg
435,192,13818,1,0,0:0:0:0:s_054.ogg
384,192,13909,1,0,0:0:0:0:s_052.ogg
435,192,14000,1,0,0:0:0:0:m_054.ogg
384,192,14090,1,0,0:0:0:0:s_052.ogg
332,192,14181,1,0,0:0:0:0:m_051.ogg
384,192,14272,1,0,0:0:0:0:s_052.ogg
435,192,14363,1,0,0:0:0:0:s_055.ogg
486,192,14454,1,0,0:0:0:0:s_059.ogg
281,192,14545,1,0,0:0:0:0:m_028.ogg
76,192,14636,1,0,0:0:0:0:s_047.ogg
128,192,14727,1,0,0:0:0:0:m_049.ogg
76,192,14818,1,0,0:0:0:0:s_047.ogg
25,192,14909,1,0,0:0:0:0:m_046.ogg
76,192,15000,1,0,0:0:0:0:s_047.ogg
128,192,15090,1,0,0:0:0:0:s_052.ogg
230,192,15181,1,0,0:0:0:0:s_055.ogg
179,192,15272,1,0,0:0:0:0:s_054.ogg
486,192,15272,1,0,0:0:0:0:m_031.ogg
128,192,15363,1,0,0:0:0:0:s_052.ogg
179,192,15454,1,0,0:0:0:0:m_054.ogg
128,192,15545,1,0,0:0:0:0:s_052.ogg
76,192,15636,1,0,0:0:0:0:m_051.ogg
128,192,15727,1,0,0:0:0:0:s_052.ogg
179,192,15818,1,0,0:0:0:0:s_055.ogg
230,192,15909,1,0,0:0:0:0:s_059.ogg
25,192,16000,1,0,0:0:0:0:m_030.ogg
384,192,16000,1,0,0:0:0:0:s_054.ogg
435,192,16090,1,0,0:0:0:0:m_055.ogg
384,192,16181,1,0,0:0:0:0:s_054.ogg
332,192,16272,1,0,0:0:0:0:m_053.ogg
384,192,16363,1,0,0:0:0:0:m_054.ogg
230,192,16454,1,0,0:0:0:0:s_062.ogg
179,192,16545,1,0,0:0:0:0:s_061.ogg
128,192,16636,1,0,0:0:0:0:s_059.ogg
76,192,16727,1,0,0:0:0:0:m_058.ogg
281,192,16727,1,0,0:0:0:0:m_030.ogg
486,192,16818,1,0,0:0:0:0:m_067.ogg
435,192,16909,1,0,0:0:0:0:m_066.ogg
384,192,17000,1,0,0:0:0:0:m_064.ogg
332,192,17090,1,0,0:0:0:0:m_062.ogg
281,192,17181,1,0,0:0:0:0:s_061.ogg
230,192,17272,1,0,0:0:0:0:s_059.ogg
179,192,17363,1,0,0:0:0:0:s_058.ogg
25,192,17454,1,0,0:0:0:0:m_023.ogg
435,192,17454,1,0,0:0:0:0:m_061.ogg
332,192,17545,1,0,0:0:0:0:m_059.ogg
486,192,17636,1,0,0:0:0:0:m_062.ogg
179,192,17727,1,0,0:0:0:0:m_053.ogg
384,192,17818,1,0,0:0:0:0:m_055.ogg
230,192,17909,1,0,0:0:0:0:m_054.ogg
435,192,18000,1,0,0:0:0:0:m_059.ogg
128,192,18090,1,0,0:0:0:0:m_049.ogg
25,192,18181,1,0,0:0:0:0:m_023.ogg
332,192,18181,1,0,0:0:0:0:m_052.ogg
179,192,18272,1,0,0:0:0:0:m_050.ogg
384,192,18363,1,0,0:0:0:0:m_054.ogg
76,192,18454,1,0,0:0:0:0:m_046.ogg
281,192,18545,1,0,0:0:0:0:m_049.ogg
128,192,18636,1,0,0:0:0:0:s_047.ogg
25,192,18727,1,0,0:0:0:0:s_046.ogg
332,192,18818,1,0,0:0:0:0:s_047.ogg
230,192,18909,1,0,0:0:0:0:m_024.ogg
486,192,18909,1,0,0:0:0:0:m_047.ogg
128,192,19000,1,0,0:0:0:0:m_059.ogg
25,192,19090,1,0,0:0:0:0:m_051.ogg
76,192,19181,1,0,0:0:0:0:m_052.ogg
179,192,19272,1,0,0:0:0:0:m_036.ogg
435,192,19272,1,0,0:0:0:0:m_045.ogg
230,192,19363,1,0,0:0:0:0:s_057.ogg
25,192,19454,1,0,0:0:0:0:s_051.ogg
76,192,19545,1,0,0:0:0:0:s_052.ogg
128,192,19636,1,0,0:0:0:0:m_024.ogg
332,192,19636,1,0,0:0:0:0:m_044.ogg
230,192,19727,1,0,0:0:0:0:m_056.ogg
25,192,19818,1,0,0:0:0:0:m_051.ogg
76,192,19909,1,0,0:0:0:0:m_052.ogg
179,192,20000,1,0,0:0:0:0:m_036.ogg
384,192,20000,1,0,0:0:0:0:m_045.ogg
230,192,20090,1,0,0:0:0:0:s_057.ogg
76,192,20181,1,0,0:0:0:0:s_051.ogg
128,192,20272,1,0,0:0:0:0:s_052.ogg
25,192,20363,1,0,0:0:0:0:m_040.ogg
281,192,20363,1,0,0:0:0:0:m_026.ogg
486,192,20454,1,0,0:0:0:0:m_052.ogg
384,192,20545,1,0,0:0:0:0:m_045.ogg
435,192,20636,1,0,0:0:0:0:m_048.ogg
76,192,20727,1,0,0:0:0:0:m_042.ogg
332,192,20727,1,0,0:0:0:0:m_038.ogg
486,192,20818,1,0,0:0:0:0:s_054.ogg
281,192,20909,1,0,0:0:0:0:s_045.ogg
435,192,21000,1,0,0:0:0:0:s_048.ogg
128,192,21090,1,0,0:0:0:0:m_043.ogg
384,192,21090,1,0,0:0:0:0:m_019.ogg
486,192,21181,1,0,0:0:0:0:m_055.ogg
281,192,21272,1,0,0:0:0:0:s_047.ogg
332,192,21363,1,0,0:0:0:0:m_050.ogg
179,192,21454,1,0,0:0:0:0:m_047.ogg
435,192,21454,1,0,0:0:0:0:m_035.ogg
384,192,21545,1,0,0:0:0:0:s_059.ogg
281,192,21636,1,0,0:0:0:0:s_050.ogg
332,192,21727,1,0,0:0:0:0:s_055.ogg
230,192,21818,1,0,0:0:0:0:m_024.ogg
486,192,21818,1,0,0:0:0:0:m_047.ogg
128,192,21909,1,0,0:0:0:0:m_059.ogg
25,192,22000,1,0,0:0:0:0:m_051.ogg
76,192,22090,1,0,0:0:0:0:m_052.ogg
179,192,22181,1,0,0:0:0:0:m_036.ogg
435,192,22181,1,0,0:0:0:0:m_045.ogg
230,192,22272,1,0,0:0:0:0:s_057.ogg
25,192,22363,1,0,0:0:0:0:s_051.ogg
76,192,22454,1,0,0:0:0:0:s_052.ogg
128,192,22545,1,0,0:0:0:0:m_024.ogg
332,192,22545,1,0,0:0:0:0:m_044.ogg
230,192,22636,1,0,0:0:0:0:m_056.ogg
25,192,22727,1,0,0:0:0:0:m_051.ogg
76,192,22818,1,0,0:0:0:0:m_052.ogg
179,192,22909,1,0,0:0:0:0:m_036.ogg
384,192,22909,1,0,0:0:0:0:m_045.ogg
230,192,23000,1,0,0:0:0:0:s_057.ogg
76,192,23090,1,0,0:0:0:0:s_051.ogg
128,192,23181,1,0,0:0:0:0:s_052.ogg
25,192,23272,1,0,0:0:0:0:m_044.ogg
281,192,23272,1,0,0:0:0:0:m_026.ogg
486,192,23363,1,0,0:0:0:0:m_056.ogg
384,192,23454,1,0,0:0:0:0:m_050.ogg
435,192,23545,1,0,0:0:0:0:m_054.ogg
76,192,23636,1,0,0:0:0:0:m_045.ogg
332,192,23636,1,0,0:0:0:0:m_038.ogg
486,192,23727,1,0,0:0:0:0:s_057.ogg
281,192,23818,1,0,0:0:0:0:s_050.ogg
435,192,23909,1,0,0:0:0:0:s_054.ogg
179,192,24000,1,0,0:0:0:0:m_048.ogg
384,192,24000,1,0,0:0:0:0:m_019.ogg
486,192,24090,1,0,0:0:0:0:m_060.ogg
281,192,24181,1,0,0:0:0:0:m_050.ogg
435,192,24272,1,0,0:0:0:0:m_055.ogg
128,192,24363,1,0,0:0:0:0:m_047.ogg
332,192,24363,1,0,0:0:0:0:m_035.ogg
486,192,24454,1,0,0:0:0:0:s_059.ogg
384,192,24545,1,0,0:0:0:0:s_050.ogg
435,192,24636,1,0,0:0:0:0:s_055.ogg
230,192,24727,1,0,0:0:0:0:m_024.ogg
486,192,24727,1,0,0:0:0:0:m_047.ogg
128,192,24818,1,0,0:0:0:0:m_059.ogg
25,192,24909,1,0,0:0:0:0:m_051.ogg
76,192,25000,1,0,0:0:0:0:m_052.ogg
179,192,25090,1,0,0:0:0:0:m_036.ogg
435,192,25090,1,0,0:0:0:0:m_045.ogg
230,192,25181,1,0,0:0:0:0:m_057.ogg
25,192,25272,1,0,0:0:0:0:s_051.ogg
76,192,25363,1,0,0:0:0:0:s_052.ogg
128,192,25454,1,0,0:0:0:0:m_024.ogg
332,192,25454,1,0,0:0:0:0:m_044.ogg
230,192,25545,1,0,0:0:0:0:m_056.ogg
25,192,25636,1,0,0:0:0:0:m_051.ogg
76,192,25727,1,0,0:0:0:0:m_052.ogg
179,192,25818,1,0,0:0:0:0:m_036.ogg
384,192,25818,1,0,0:0:0:0:m_045.ogg
230,192,25909,1,0,0:0:0:0:m_057.ogg
76,192,26000,1,0,0:0:0:0:s_051.ogg
128,192,26090,1,0,0:0:0:0:s_052.ogg
25,192,26181,1,0,0:0:0:0:m_040.ogg
281,192,26181,1,0,0:0:0:0:m_026.ogg
486,192,26272,1,0,0:0:0:0:m_052.ogg
384,192,26363,1,0,0:0:0:0:m_045.ogg
435,192,26454,1,0,0:0:0:0:m_048.ogg
76,192,26545,1,0,0:0:0:0:m_042.ogg
332,192,26545,1,0,0:0:0:0:m_038.ogg
486,192,26636,1,0,0:0:0:0:m_054.ogg
281,192,26727,1,0,0:0:0:0:s_045.ogg
435,192,26818,1,0,0:0:0:0:s_048.ogg
128,192,26909,1,0,0:0:0:0:m_043.ogg
384,192,26909,1,0,0:0:0:0:m_019.ogg
486,192,27000,1,0,0:0:0:0:m_055.ogg
281,192,27090,1,0,0:0:0:0:s_047.ogg
332,192,27181,1,0,0:0:0:0:m_050.ogg
179,192,27272,1,0,0:0:0:0:m_047.ogg
435,192,27272,1,0,0:0:0:0:m_035.ogg
384,192,27363,1,0,0:0:0:0:m_059.ogg
281,192,27454,1,0,0:0:0:0:s_050.ogg
332,192,27545,1,0,0:0:0:0:s_055.ogg
179,192,27636,1,0,0:0:0:0:m_024.ogg
435,192,27636,1,0,0:0:0:0:m_047.ogg
230,192,27727,1,0,0:0:0:0:m_059.ogg
25,192,27818,1,0,0:0:0:0:m_051.ogg
76,192,27909,1,0,0:0:0:0:m_052.ogg
128,192,28000,1,0,0:0:0:0:m_036.ogg
384,192,28000,1,0,0:0:0:0:m_045.ogg
179,192,28090,1,0,0:0:0:0:m_057.ogg
25,192,28181,1,0,0:0:0:0:s_051.ogg
76,192,28272,1,0,0:0:0:0:s_052.ogg
230,192,28363,1,0,0:0:0:0:m_024.ogg
486,192,28363,1,0,0:0:0:0:m_054.ogg
128,192,28454,1,0,0:0:0:0:m_066.ogg
25,192,28545,1,0,0:0:0:0:m_057.ogg
76,192,28636,1,0,0:0:0:0:m_060.ogg
179,192,28727,1,0,0:0:0:0:m_036.ogg
435,192,28727,1,0,0:0:0:0:m_052.ogg
128,192,28818,1,0,0:0:0:0:m_064.ogg
25,192,28909,1,0,0:0:0:0:s_057.ogg
76,192,29000,1,0,0:0:0:0:s_060.ogg
179,192,29090,1,0,0:0:0:0:m_052.ogg
486,192,29090,1,0,0:0:0:0:m_023.ogg
384,192,29181,1,0,0:0:0:0:m_064.ogg
281,192,29272,1,0,0:0:0:0:m_054.ogg
332,192,29363,1,0,0:0:0:0:m_057.ogg
128,192,29454,1,0,0:0:0:0:m_051.ogg
435,192,29454,1,0,0:0:0:0:m_039.ogg
384,192,29545,1,0,0:0:0:0:m_063.ogg
281,192,29636,1,0,0:0:0:0:m_054.ogg
332,192,29727,1,0,0:0:0:0:m_057.ogg
128,192,29818,1,0,0:0:0:0:m_051.ogg
435,192,29818,1,0,0:0:0:0:m_023.ogg
384,192,29909,1,0,0:0:0:0:m_063.ogg
281,192,30000,1,0,0:0:0:0:m_054.ogg
332,192,30090,1,0,0:0:0:0:m_057.ogg
128,192,30181,1,0,0:0:0:0:m_051.ogg
435,192,30181,1,0,0:0:0:0:m_039.ogg
384,192,30272,1,0,0:0:0:0:m_063.ogg
281,192,30363,1,0,0:0:0:0:s_054.ogg
332,192,30454,1,0,0:0:0:0:s_057.ogg
25,192,30545,1,0,0:0:0:0:m_024.ogg
486,192,30545,1,0,0:0:0:0:m_051.ogg
128,192,30666,1,0,0:0:0:0:m_030.ogg
179,192,30787,1,0,0:0:0:0:m_033.ogg
230,192,30909,1,0,0:0:0:0:m_038.ogg
435,192,30909,1,0,0:0:0:0:m_050.ogg
179,192,31030,1,0,0:0:0:0:s_033.ogg
128,192,31151,1,0,0:0:0:0:s_030.ogg
76,192,31272,1,0,0:0:0:0:m_025.ogg
435,192,31272,1,0,0:0:0:0:m_050.ogg
128,192,31393,1,0,0:0:0:0:m_030.ogg
179,192,31515,1,0,0:0:0:0:m_033.ogg
230,192,31636,1,0,0:0:0:0:m_037.ogg
384,192,31636,1,0,0:0:0:0:m_049.ogg
179,192,31757,1,0,0:0:0:0:s_033.ogg
128,192,31878,1,0,0:0:0:0:s_030.ogg
25,192,32000,1,0,0:0:0:0:m_027.ogg
384,192,32000,1,0,0:0:0:0:m_049.ogg
76,192,32121,1,0,0:0:0:0:m_030.ogg
128,192,32242,1,0,0:0:0:0:m_033.ogg
230,192,32363,1,0,0:0:0:0:m_036.ogg
332,192,32363,1,0,0:0:0:0:m_048.ogg
179,192,32484,1,0,0:0:0:0:m_033.ogg
128,192,32606,1,0,0:0:0:0:m_030.ogg
25,192,32727,1,0,0:0:0:0:m_027.ogg
332,192,32727,1,0,0:0:0:0:m_048.ogg
76,192,32848,1,0,0:0:0:0:m_030.ogg
128,192,32969,1,0,0:0:0:0:m_033.ogg
230,192,33090,1,0,0:0:0:0:m_036.ogg
332,192,33090,1,0,0:0:0:0:m_048.ogg
179,192,33212,1,0,0:0:0:0:s_033.ogg
128,192,33333,1,0,0:0:0:0:s_030.ogg
230,192,33454,1,0,0:0:0:0:m_051.ogg
281,192,33454,1,0,0:0:0:0:m_024.ogg
332,192,33575,1,0,0:0:0:0:m_030.ogg
384,192,33696,1,0,0:0:0:0:m_033.ogg
179,192,33818,1,0,0:0:0:0:m_050.ogg
435,192,33818,1,0,0:0:0:0:m_038.ogg
384,192,33939,1,0,0:0:0:0:s_033.ogg
332,192,34060,1,0,0:0:0:0:s_030.ogg
179,192,34181,1,0,0:0:0:0:m_050.ogg
281,192,34181,1,0,0:0:0:0:m_025.ogg
384,192,34303,1,0,0:0:0:0:m_030.ogg
435,192,34424,1,0,0:0:0:0:m_033.ogg
128,192,34545,1,0,0:0:0:0:m_049.ogg
486,192,34545,1,0,0:0:0:0:m_037.ogg
435,192,34666,1,0,0:0:0:0:s_033.ogg
384,192,34787,1,0,0:0:0:0:s_030.ogg
128,192,34909,1,0,0:0:0:0:m_049.ogg
281,192,34909,1,0,0:0:0:0:m_027.ogg
332,192,35030,1,0,0:0:0:0:m_030.ogg
435,192,35151,1,0,0:0:0:0:m_033.ogg
76,192,35272,1,0,0:0:0:0:m_048.ogg
486,192,35272,1,0,0:0:0:0:m_036.ogg
435,192,35393,1,0,0:0:0:0:m_033.ogg
332,192,35515,1,0,0:0:0:0:m_030.ogg
76,192,35636,1,0,0:0:0:0:m_048.ogg
281,192,35636,1,0,0:0:0:0:m_027.ogg
332,192,35757,1,0,0:0:0:0:m_030.ogg
384,192,35878,1,0,0:0:0:0:m_033.ogg
25,192,36000,1,0,0:0:0:0:m_047.ogg
486,192,36000,1,0,0:0:0:0:m_035.ogg
435,192,36121,1,0,0:0:0:0:s_033.ogg
384,192,36242,1,0,0:0:0:0:s_030.ogg
281,192,36363,1,0,0:0:0:0:m_028.ogg
76,192,36454,1,0,0:0:0:0:s_047.ogg
128,192,36545,1,0,0:0:0:0:m_048.ogg
76,192,36636,1,0,0:0:0:0:s_047.ogg
25,192,36727,1,0,0:0:0:0:m_046.ogg
76,192,36818,1,0,0:0:0:0:s_047.ogg
128,192,36909,1,0,0:0:0:0:s_052.ogg
230,192,37000,1,0,0:0:0:0:s_055.ogg
179,192,37090,1,0,0:0:0:0:s_054.ogg
332,192,37090,1,0,0:0:0:0:m_031.ogg
128,192,37181,1,0,0:0:0:0:s_052.ogg
179,192,37272,1,0,0:0:0:0:m_054.ogg
128,192,37363,1,0,0:0:0:0:s_052.ogg
76,192,37454,1,0,0:0:0:0:m_051.ogg
128,192,37545,1,0,0:0:0:0:s_052.ogg
179,192,37636,1,0,0:0:0:0:s_055.ogg
230,192,37727,1,0,0:0:0:0:s_059.ogg
25,192,37818,1,0,0:0:0:0:m_028.ogg
332,192,37909,1,0,0:0:0:0:s_047.ogg
384,192,38000,1,0,0:0:0:0:m_048.ogg
332,192,38090,1,0,0:0:0:0:s_047.ogg
281,192,38181,1,0,0:0:0:0:m_046.ogg
332,192,38272,1,0,0:0:0:0:s_047.ogg
384,192,38363,1,0,0:0:0:0:s_052.ogg
486,192,38454,1,0,0:0:0:0:s_055.ogg
76,192,38545,1,0,0:0:0:0:m_031.ogg
435,192,38545,1,0,0:0:0:0:s_054.ogg
384,192,38636,1,0,0:0:0:0:s_052.ogg
435,192,38727,1,0,0:0:0:0:m_054.ogg
384,192,38818,1,0,0:0:0:0:s_052.ogg
332,192,38909,1,0,0:0:0:0:m_051.ogg
384,192,39000,1,0,0:0:0:0:s_052.ogg
435,192,39090,1,0,0:0:0:0:s_055.ogg
486,192,39181,1,0,0:0:0:0:s_059.ogg
281,192,39272,1,0,0:0:0:0:m_030.ogg
25,192,39363,1,0,0:0:0:0:m_048.ogg
76,192,39454,1,0,0:0:0:0:m_052.ogg
128,192,39545,1,0,0:0:0:0:m_054.ogg
179,192,39636,1,0,0:0:0:0:m_057.ogg
230,192,39727,1,0,0:0:0:0:s_060.ogg
281,192,39818,1,0,0:0:0:0:s_064.ogg
332,192,39909,1,0,0:0:0:0:s_066.ogg
25,192,40000,1,0,0:0:0:0:m_074.ogg
486,192,40000,1,0,0:0:0:0:m_033.ogg
435,192,40090,1,0,0:0:0:0:m_072.ogg
384,192,40181,1,0,0:0:0:0:m_071.ogg
332,192,40272,1,0,0:0:0:0:m_069.ogg
281,192,40363,1,0,0:0:0:0:m_067.ogg
230,192,40454,1,0,0:0:0:0:s_066.ogg
486,192,40545,1,0,0:0:0:0:s_069.ogg
435,192,40636,1,0,0:0:0:0:s_064.ogg
76,192,40727,1,0,0:0:0:0:m_023.ogg
384,192,40727,1,0,0:0:0:0:m_063.ogg
486,192,40818,1,0,0:0:0:0:m_066.ogg
332,192,40909,1,0,0:0:0:0:m_060.ogg
281,192,41000,1,0,0:0:0:0:m_059.ogg
230,192,41090,1,0,0:0:0:0:m_057.ogg
332,192,41181,1,0,0:0:0:0:m_060.ogg
179,192,41272,1,0,0:0:0:0:m_055.ogg
128,192,41363,1,0,0:0:0:0:m_054.ogg
230,192,41454,1,0,0:0:0:0:m_023.ogg
435,192,41454,1,0,0:0:0:0:m_057.ogg
76,192,41545,1,0,0:0:0:0:m_052.ogg
25,192,41636,1,0,0:0:0:0:m_051.ogg
128,192,41727,1,0,0:0:0:0:m_054.ogg
332,192,41818,1,0,0:0:0:0:m_048.ogg
281,192,41909,1,0,0:0:0:0:s_047.ogg
486,192,42000,1,0,0:0:0:0:s_050.ogg
435,192,42090,1,0,0:0:0:0:m_048.ogg
281,192,42181,1,0,0:0:0:0:m_028.ogg
76,192,42272,1,0,0:0:0:0:s_047.ogg
128,192,42363,1,0,0:0:0:0:m_048.ogg
76,192,42454,1,0,0:0:0:0:s_047.ogg
25,192,42545,1,0,0:0:0:0:m_046.ogg
76,192,42636,1,0,0:0:0:0:s_047.ogg
128,192,42727,1,0,0:0:0:0:s_052.ogg
230,192,42818,1,0,0:0:0:0:s_055.ogg
179,192,42909,1,0,0:0:0:0:s_054.ogg
332,192,42909,1,0,0:0:0:0:m_031.ogg
128,192,43000,1,0,0:0:0:0:s_052.ogg
179,192,43090,1,0,0:0:0:0:m_054.ogg
128,192,43181,1,0,0:0:0:0:s_052.ogg
76,192,43272,1,0,0:0:0:0:m_051.ogg
128,192,43363,1,0,0:0:0:0:s_052.ogg
179,192,43454,1,0,0:0:0:0:s_055.ogg
230,192,43545,1,0,0:0:0:0:s_059.ogg
25,192,43636,1,0,0:0:0:0:m_033.ogg
384,192,43636,1,0,0:0:0:0:s_055.ogg
332,192,43727,1,0,0:0:0:0:s_054.ogg
384,192,43818,1,0,0:0:0:0:m_055.ogg
332,192,43909,1,0,0:0:0:0:s_054.ogg
281,192,44000,1,0,0:0:0:0:m_053.ogg
332,192,44090,1,0,0:0:0:0:s_054.ogg
384,192,44181,1,0,0:0:0:0:s_057.ogg
486,192,44272,1,0,0:0:0:0:s_060.ogg
76,192,44363,1,0,0:0:0:0:m_035.ogg
435,192,44363,1,0,0:0:0:0:s_057.ogg
384,192,44454,1,0,0:0:0:0:s_056.ogg
435,192,44545,1,0,0:0:0:0:m_057.ogg
384,192,44636,1,0,0:0:0:0:s_056.ogg
332,192,44727,1,0,0:0:0:0:m_055.ogg
384,192,44818,1,0,0:0:0:0:s_056.ogg
435,192,44909,1,0,0:0:0:0:s_059.ogg
486,192,45000,1,0,0:0:0:0:s_064.ogg
332,192,45090,1,0,0:0:0:0:m_036.ogg
76,192,45181,1,0,0:0:0:0:s_052.ogg
128,192,45272,1,0,0:0:0:0:m_053.ogg
76,192,45363,1,0,0:0:0:0:s_052.ogg
25,192,45454,1,0,0:0:0:0:m_051.ogg
76,192,45545,1,0,0:0:0:0:s_052.ogg
128,192,45636,1,0,0:0:0:0:s_057.ogg
179,192,45727,1,0,0:0:0:0:s_060.ogg
128,192,45818,1,0,0:0:0:0:s_057.ogg
281,192,45818,1,0,0:0:0:0:m_035.ogg
76,192,45909,1,0,0:0:0:0:s_056.ogg
128,192,46000,1,0,0:0:0:0:m_057.ogg
76,192,46090,1,0,0:0:0:0:s_056.ogg
25,192,46181,1,0,0:0:0:0:m_055.ogg
76,192,46272,1,0,0:0:0:0:s_056.ogg
128,192,46363,1,0,0:0:0:0:s_059.ogg
230,192,46454,1,0,0:0:0:0:s_064.ogg
76,192,46545,1,0,0:0:0:0:m_036.ogg
435,192,46545,1,0,0:0:0:0:s_059.ogg
384,192,46636,1,0,0:0:0:0:s_057.ogg
435,192,46727,1,0,0:0:0:0:m_059.ogg
384,192,46818,1,0,0:0:0:0:s_057.ogg
332,192,46909,1,0,0:0:0:0:m_056.ogg
384,192,47000,1,0,0:0:0:0:s_057.ogg
435,192,47090,1,0,0:0:0:0:s_060.ogg
486,192,47181,1,0,0:0:0:0:s_064.ogg
25,192,47272,1,0,0:0:0:0:m_027.ogg
435,192,47272,1,0,0:0:0:0:s_060.ogg
384,192,47363,1,0,0:0:0:0:s_059.ogg
435,192,47454,1,0,0:0:0:0:m_060.ogg
384,192,47545,1,0,0:0:0:0:s_059.ogg
332,192,47636,1,0,0:0:0:0:m_058.ogg
384,192,47727,1,0,0:0:0:0:s_059.ogg
435,192,47818,1,0,0:0:0:0:s_063.ogg
486,192,47909,1,0,0:0:0:0:s_066.ogg
128,192,48000,1,0,0:0:0:0:s_059.ogg
281,192,48000,1,0,0:0:0:0:m_028.ogg
179,192,48090,1,0,0:0:0:0:m_060.ogg
128,192,48181,1,0,0:0:0:0:s_059.ogg
76,192,48272,1,0,0:0:0:0:m_058.ogg
128,192,48363,1,0,0:0:0:0:m_059.ogg
179,192,48454,1,0,0:0:0:0:s_067.ogg
486,192,48545,1,0,0:0:0:0:s_066.ogg
435,192,48636,1,0,0:0:0:0:s_065.ogg
25,192,48727,1,0,0:0:0:0:m_030.ogg
384,192,48727,1,0,0:0:0:0:m_064.ogg
332,192,48818,1,0,0:0:0:0:m_063.ogg
281,192,48909,1,0,0:0:0:0:m_062.ogg
230,192,49000,1,0,0:0:0:0:m_061.ogg
179,192,49090,1,0,0:0:0:0:m_060.ogg
128,192,49181,1,0,0:0:0:0:s_059.ogg
76,192,49272,1,0,0:0:0:0:s_058.ogg
25,192,49363,1,0,0:0:0:0:s_057.ogg
230,192,49454,1,0,0:0:0:0:m_031.ogg
384,192,49454,1,0,0:0:0:0:s_055.ogg
435,192,49545,1,0,0:0:0:0:m_057.ogg
384,192,49636,1,0,0:0:0:0:s_055.ogg
332,192,49727,1,0,0:0:0:0:m_054.ogg
384,192,49818,1,0,0:0:0:0:m_055.ogg
435,192,49909,1,0,0:0:0:0:s_067.ogg
230,192,50000,1,0,0:0:0:0:s_066.ogg
179,192,50090,1,0,0:0:0:0:s_065.ogg
128,192,50181,1,0,0:0:0:0:m_064.ogg
281,192,50181,1,0,0:0:0:0:m_033.ogg
76,192,50272,1,0,0:0:0:0:m_063.ogg
25,192,50363,1,0,0:0:0:0:m_062.ogg
486,192,50454,1,0,0:0:0:0:m_061.ogg
435,192,50545,1,0,0:0:0:0:m_060.ogg
384,192,50636,1,0,0:0:0:0:s_059.ogg
332,192,50727,1,0,0:0:0:0:s_058.ogg
281,192,50818,1,0,0:0:0:0:s_057.ogg
76,192,50909,1,0,0:0:0:0:m_040.ogg
128,192,50909,1,0,0:0:0:0:m_043.ogg
179,192,50909,1,0,0:0:0:0:m_047.ogg
486,192,51090,1,0,0:0:0:0:s_071.ogg
435,192,51181,1,0,0:0:0:0:s_070.ogg
384,192,51272,1,0,0:0:0:0:s_069.ogg
332,192,51363,1,0,0:0:0:0:s_068.ogg
281,192,51454,1,0,0:0:0:0:s_067.ogg
230,192,51545,1,0,0:0:0:0:s_066.ogg
179,192,51636,1,0,0:0:0:0:m_065.ogg
128,192,51727,1,0,0:0:0:0:m_064.ogg
76,192,51818,1,0,0:0:0:0:m_063.ogg
25,192,51909,1,0,0:0:0:0:m_062.ogg
486,192,52000,1,0,0:0:0:0:m_061.ogg
435,192,52090,1,0,0:0:0:0:m_060.ogg
384,192,52181,1,0,0:0:0:0:m_059.ogg
332,192,52272,1,0,0:0:0:0:m_058.ogg
281,192,52363,1,0,0:0:0:0:m_057.ogg
230,192,52454,1,0,0:0:0:0:m_056.ogg
179,192,52545,1,0,0:0:0:0:m_055.ogg
128,192,52636,1,0,0:0:0:0:s_054.ogg
76,192,52727,1,0,0:0:0:0:s_053.ogg
25,192,52818,1,0,0:0:0:0:s_052.ogg
486,192,52909,1,0,0:0:0:0:s_051.ogg
435,192,53000,1,0,0:0:0:0:s_050.ogg
384,192,53090,1,0,0:0:0:0:s_049.ogg
332,192,53181,1,0,0:0:0:0:s_048.ogg
281,192,53272,1,0,0:0:0:0:s_047.ogg
230,192,53363,1,0,0:0:0:0:s_046.ogg
179,192,53454,1,0,0:0:0:0:s_045.ogg
128,192,53545,1,0,0:0:0:0:s_043.ogg
76,192,53636,1,0,0:0:0:0:s_042.ogg
25,192,53727,1,0,0:0:0:0:s_040.ogg
332,192,53818,1,0,0:0:0:0:l_023.ogg
384,192,53818,1,0,0:0:0:0:m_035.ogg
435,192,53818,1,0,0:0:0:0:l_011.ogg
179,192,54181,1,0,0:0:0:0:m_055.ogg
435,192,54181,1,0,0:0:0:0:l_072.ogg
281,192,54272,1,0,0:0:0:0:m_071.ogg
486,192,54363,1,0,0:0:0:0:l_079.ogg
332,192,54454,1,0,0:0:0:0:s_067.ogg
128,192,54545,1,0,0:0:0:0:m_052.ogg
384,192,54545,1,0,0:0:0:0:l_069.ogg
230,192,54636,1,0,0:0:0:0:m_067.ogg
435,192,54727,1,0,0:0:0:0:l_076.ogg
281,192,54818,1,0,0:0:0:0:s_064.ogg
76,192,54909,1,0,0:0:0:0:m_047.ogg
332,192,54909,1,0,0:0:0:0:l_066.ogg
179,192,55000,1,0,0:0:0:0:m_064.ogg
384,192,55090,1,0,0:0:0:0:l_071.ogg
230,192,55181,1,0,0:0:0:0:s_059.ogg
25,192,55272,1,0,0:0:0:0:m_043.ogg
281,192,55272,1,0,0:0:0:0:l_060.ogg
128,192,55363,1,0,0:0:0:0:m_059.ogg
332,192,55454,1,0,0:0:0:0:m_067.ogg
179,192,55545,1,0,0:0:0:0:s_055.ogg
230,192,55636,1,0,0:0:0:0:m_057.ogg
486,192,55636,1,0,0:0:0:0:m_040.ogg
76,192,55727,1,0,0:0:0:0:m_055.ogg
281,192,55818,1,0,0:0:0:0:m_064.ogg
128,192,55909,1,0,0:0:0:0:s_052.ogg
179,192,56000,1,0,0:0:0:0:m_054.ogg
435,192,56000,1,0,0:0:0:0:m_035.ogg
25,192,56090,1,0,0:0:0:0:m_052.ogg
230,192,56181,1,0,0:0:0:0:m_059.ogg
76,192,56272,1,0,0:0:0:0:s_047.ogg
128,192,56363,1,0,0:0:0:0:m_048.ogg
384,192,56363,1,0,0:0:0:0:m_031.ogg
486,192,56454,1,0,0:0:0:0:m_047.ogg
179,192,56545,1,0,0:0:0:0:s_055.ogg
25,192,56636,1,0,0:0:0:0:s_043.ogg
76,192,56727,1,0,0:0:0:0:s_045.ogg
332,192,56727,1,0,0:0:0:0:m_028.ogg
435,192,56818,1,0,0:0:0:0:s_043.ogg
128,192,56909,1,0,0:0:0:0:s_052.ogg
486,192,57000,1,0,0:0:0:0:s_040.ogg
179,192,57090,1,0,0:0:0:0:m_042.ogg
281,192,57090,1,0,0:0:0:0:m_023.ogg
76,192,57181,1,0,0:0:0:0:m_040.ogg
230,192,57272,1,0,0:0:0:0:m_047.ogg
25,192,57363,1,0,0:0:0:0:m_035.ogg
179,192,57454,1,0,0:0:0:0:m_042.ogg
281,192,57454,1,0,0:0:0:0:m_023.ogg
76,192,57545,1,0,0:0:0:0:s_040.ogg
230,192,57636,1,0,0:0:0:0:s_047.ogg
25,192,57727,1,0,0:0:0:0:s_035.ogg
179,192,57818,1,0,0:0:0:0:m_042.ogg
332,192,57818,1,0,0:0:0:0:m_024.ogg
76,192,57909,1,0,0:0:0:0:s_040.ogg
230,192,58000,1,0,0:0:0:0:s_048.ogg
128,192,58090,1,0,0:0:0:0:s_036.ogg
76,192,58181,1,0,0:0:0:0:m_023.ogg
435,192,58181,1,0,0:0:0:0:m_042.ogg
332,192,58272,1,0,0:0:0:0:s_040.ogg
486,192,58363,1,0,0:0:0:0:s_047.ogg
281,192,58454,1,0,0:0:0:0:s_035.ogg
25,192,58545,1,0,0:0:0:0:m_022.ogg
435,192,58545,1,0,0:0:0:0:m_042.ogg
332,192,58636,1,0,0:0:0:0:s_040.ogg
384,192,58727,1,0,0:0:0:0:s_046.ogg
281,192,58818,1,0,0:0:0:0:s_034.ogg
76,192,58909,1,0,0:0:0:0:m_023.ogg
435,192,58909,1,0,0:0:0:0:m_042.ogg
332,192,59000,1,0,0:0:0:0:m_040.ogg
486,192,59090,1,0,0:0:0:0:s_047.ogg
281,192,59181,1,0,0:0:0:0:s_035.ogg
435,192,59272,1,0,0:0:0:0:s_042.ogg
332,192,59363,1,0,0:0:0:0:s_039.ogg
486,192,59454,1,0,0:0:0:0:s_047.ogg
281,192,59545,1,0,0:0:0:0:s_035.ogg
76,192,59636,1,0,0:0:0:0:l_016.ogg
128,192,59769,1,0,0:0:0:0:m_023.ogg
179,192,59903,1,0,0:0:0:0:m_028.ogg
230,192,60036,1,0,0:0:0:0:m_032.ogg
281,192,60169,1,0,0:0:0:0:m_035.ogg
332,192,60303,1,0,0:0:0:0:m_040.ogg
435,192,60436,1,0,0:0:0:0:l_044.ogg
384,192,60569,1,0,0:0:0:0:m_040.ogg
332,192,60703,1,0,0:0:0:0:m_035.ogg
281,192,60836,1,0,0:0:0:0:m_032.ogg
230,192,60969,1,0,0:0:0:0:m_028.ogg
179,192,61103,1,0,0:0:0:0:m_023.ogg
76,192,61236,1,0,0:0:0:0:m_016.ogg
128,192,61369,1,0,0:0:0:0:m_023.ogg
179,192,61503,1,0,0:0:0:0:m_028.ogg
230,192,61636,1,0,0:0:0:0:m_032.ogg
281,192,61769,1,0,0:0:0:0:m_035.ogg
332,192,61903,1,0,0:0:0:0:m_040.ogg
435,192,62036,1,0,0:0:0:0:m_044.ogg
384,192,62169,1,0,0:0:0:0:m_040.ogg
332,192,62303,1,0,0:0:0:0:m_035.ogg
281,192,62436,1,0,0:0:0:0:m_032.ogg
230,192,62569,1,0,0:0:0:0:s_028.ogg
179,192,62703,1,0,0:0:0:0:s_023.ogg
76,192,62836,1,0,0:0:0:0:m_023.ogg
332,192,62836,1,0,0:0:0:0:m_047.ogg
128,192,62969,1,0,0:0:0:0:m_035.ogg
179,192,63103,1,0,0:0:0:0:m_039.ogg
230,192,63236,1,0,0:0:0:0:m_042.ogg
179,192,63369,1,0,0:0:0:0:m_039.ogg
128,192,63503,1,0,0:0:0:0:m_035.ogg
25,192,63636,1,0,0:0:0:0:m_028.ogg
486,192,63636,1,0,0:0:0:0:s_049.ogg
435,192,63686,1,0,0:0:0:0:m_051.ogg
384,192,63736,1,0,0:0:0:0:m_049.ogg
76,192,63769,1,0,0:0:0:0:m_035.ogg
281,192,63836,1,0,0:0:0:0:s_047.ogg
128,192,63903,1,0,0:0:0:0:s_039.ogg
179,192,64036,1,0,0:0:0:0:s_045.ogg
332,192,64036,1,0,0:0:0:0:s_052.ogg
128,192,64169,1,0,0:0:0:0:s_039.ogg
384,192,64236,1,0,0:0:0:0:s_054.ogg
76,192,64303,1,0,0:0:0:0:s_035.ogg
25,192,64436,1,0,0:0:0:0:m_028.ogg
435,192,64436,1,0,0:0:0:0:m_056.ogg
128,192,64569,1,0,0:0:0:0:m_035.ogg
179,192,64703,1,0,0:0:0:0:m_040.ogg
230,192,64836,1,0,0:0:0:0:m_044.ogg
179,192,64969,1,0,0:0:0:0:m_040.ogg
128,192,65103,1,0,0:0:0:0:m_035.ogg
25,192,65236,1,0,0:0:0:0:m_028.ogg
486,192,65236,1,0,0:0:0:0:m_059.ogg
76,192,65369,1,0,0:0:0:0:m_035.ogg
128,192,65503,1,0,0:0:0:0:m_044.ogg
230,192,65636,1,0,0:0:0:0:m_047.ogg
179,192,65769,1,0,0:0:0:0:s_044.ogg
128,192,65903,1,0,0:0:0:0:s_035.ogg
230,192,66036,1,0,0:0:0:0:m_045.ogg
435,192,66036,128,0,66436:0:0:0:0:m_057.ogg
76,192,66169,1,0,0:0:0:0:s_042.ogg
25,192,66303,1,0,0:0:0:0:s_035.ogg
179,192,66436,1,0,0:0:0:0:m_044.ogg
384,192,66436,128,0,66836:0:0:0:0:m_056.ogg
76,192,66569,1,0,0:0:0:0:s_040.ogg
25,192,66703,1,0,0:0:0:0:s_035.ogg
128,192,66836,1,0,0:0:0:0:m_042.ogg
332,192,66836,128,0,67236:0:0:0:0:m_054.ogg
76,192,66969,1,0,0:0:0:0:s_039.ogg
25,192,67103,1,0,0:0:0:0:s_035.ogg
179,192,67236,1,0,0:0:0:0:m_040.ogg
384,192,67236,128,0,67536:0:0:0:0:m_056.ogg
76,192,67369,1,0,0:0:0:0:s_035.ogg
25,192,67503,1,0,0:0:0:0:s_032.ogg
332,192,67536,1,0,0:0:0:0:s_052.ogg
76,192,67636,1,0,0:0:0:0:m_023.ogg
281,192,67636,1,0,0:0:0:0:m_047.ogg
128,192,67769,1,0,0:0:0:0:m_030.ogg
179,192,67903,1,0,0:0:0:0:m_035.ogg
230,192,68036,1,0,0:0:0:0:m_039.ogg
179,192,68169,1,0,0:0:0:0:s_035.ogg
128,192,68303,1,0,0:0:0:0:s_030.ogg
25,192,68436,1,0,0:0:0:0:m_021.ogg
332,192,68436,1,0,0:0:0:0:l_049.ogg
128,192,68569,1,0,0:0:0:0:m_033.ogg
179,192,68703,1,0,0:0:0:0:m_037.ogg
230,192,68836,1,0,0:0:0:0:m_040.ogg
179,192,68969,1,0,0:0:0:0:s_037.ogg
128,192,69103,1,0,0:0:0:0:s_033.ogg
25,192,69236,1,0,0:0:0:0:m_025.ogg
76,192,69369,1,0,0:0:0:0:m_032.ogg
128,192,69503,1,0,0:0:0:0:m_037.ogg
179,192,69636,1,0,0:0:0:0:m_041.ogg
128,192,69769,1,0,0:0:0:0:s_037.ogg
76,192,69903,1,0,0:0:0:0:s_032.ogg
25,192,70036,1,0,0:0:0:0:m_025.ogg
486,192,70036,1,0,0:0:0:0:s_050.ogg
435,192,70086,1,0,0:0:0:0:m_052.ogg
384,192,70136,1,0,0:0:0:0:m_050.ogg
76,192,70169,1,0,0:0:0:0:m_037.ogg
332,192,70236,1,0,0:0:0:0:m_049.ogg
128,192,70303,1,0,0:0:0:0:m_041.ogg
230,192,70436,1,0,0:0:0:0:m_047.ogg
384,192,70436,1,0,0:0:0:0:m_054.ogg
179,192,70569,1,0,0:0:0:0:s_041.ogg
435,192,70636,1,0,0:0:0:0:s_056.ogg
128,192,70703,1,0,0:0:0:0:s_037.ogg
25,192,70836,1,0,0:0:0:0:m_030.ogg
486,192,70836,128,0,71236:0:0:0:0:m_057.ogg
230,192,70969,1,0,0:0:0:0:s_045.ogg
179,192,71103,1,0,0:0:0:0:s_037.ogg
76,192,71236,1,0,0:0:0:0:m_032.ogg
435,192,71236,128,0,71636:0:0:0:0:m_056.ogg
230,192,71369,1,0,0:0:0:0:s_044.ogg
179,192,71503,1,0,0:0:0:0:s_036.ogg
128,192,71636,1,0,0:0:0:0:m_033.ogg
384,192,71636,128,0,72036:0:0:0:0:m_054.ogg
230,192,71769,1,0,0:0:0:0:s_042.ogg
179,192,71903,1,0,0:0:0:0:s_037.ogg
76,192,72036,1,0,0:0:0:0:m_035.ogg
435,192,72036,128,0,72436:0:0:0:0:m_056.ogg
230,192,72169,1,0,0:0:0:0:s_045.ogg
179,192,72303,1,0,0:0:0:0:s_039.ogg
25,192,72436,1,0,0:0:0:0:m_028.ogg
332,192,72436,1,0,0:0:0:0:m_052.ogg
128,192,72569,1,0,0:0:0:0:m_035.ogg
179,192,72703,1,0,0:0:0:0:m_040.ogg
230,192,72836,1,0,0:0:0:0:m_044.ogg
179,192,72969,1,0,0:0:0:0:s_040.ogg
281,192,73036,1,0,0:0:0:0:s_051.ogg
332,192,73086,1,0,0:0:0:0:s_052.ogg
128,192,73103,1,0,0:0:0:0:s_035.ogg
384,192,73136,1,0,0:0:0:0:s_054.ogg
435,192,73186,1,0,0:0:0:0:s_052.ogg
76,192,73236,1,0,0:0:0:0:m_030.ogg
486,192,73236,1,0,0:0:0:0:m_056.ogg
128,192,73369,1,0,0:0:0:0:m_034.ogg
179,192,73503,1,0,0:0:0:0:m_040.ogg
230,192,73636,1,0,0:0:0:0:m_042.ogg
179,192,73769,1,0,0:0:0:0:s_040.ogg
435,192,73836,1,0,0:0:0:0:s_054.ogg
128,192,73903,1,0,0:0:0:0:s_034.ogg
25,192,74036,1,0,0:0:0:0:m_023.ogg
435,192,74036,1,0,0:0:0:0:l_054.ogg
76,192,74169,1,0,0:0:0:0:m_030.ogg
128,192,74303,1,0,0:0:0:0:m_035.ogg
230,192,74436,1,0,0:0:0:0:m_039.ogg
128,192,74569,1,0,0:0:0:0:s_035.ogg
76,192,74703,1,0,0:0:0:0:s_030.ogg
25,192,74836,1,0,0:0:0:0:m_023.ogg
76,192,74969,1,0,0:0:0:0:m_030.ogg
128,192,75103,1,0,0:0:0:0:m_033.ogg
179,192,75236,1,0,0:0:0:0:m_037.ogg
128,192,75369,1,0,0:0:0:0:s_033.ogg
76,192,75503,1,0,0:0:0:0:s_030.ogg
25,192,75636,1,0,0:0:0:0:m_023.ogg
384,192,75636,1,0,0:0:0:0:m_047.ogg
128,192,75769,1,0,0:0:0:0:m_035.ogg
179,192,75903,1,0,0:0:0:0:m_039.ogg
230,192,76036,1,0,0:0:0:0:m_042.ogg
179,192,76169,1,0,0:0:0:0:m_039.ogg
128,192,76303,1,0,0:0:0:0:m_035.ogg
76,192,76436,1,0,0:0:0:0:m_023.ogg
486,192,76436,1,0,0:0:0:0:s_049.ogg
435,192,76486,1,0,0:0:0:0:m_051.ogg
384,192,76536,1,0,0:0:0:0:m_049.ogg
128,192,76569,1,0,0:0:0:0:m_035.ogg
281,192,76636,1,0,0:0:0:0:s_047.ogg
179,192,76703,1,0,0:0:0:0:s_039.ogg
230,192,76836,1,0,0:0:0:0:s_045.ogg
332,192,76836,1,0,0:0:0:0:s_052.ogg
179,192,76969,1,0,0:0:0:0:s_039.ogg
384,192,77036,1,0,0:0:0:0:s_054.ogg
128,192,77103,1,0,0:0:0:0:s_035.ogg
25,192,77236,1,0,0:0:0:0:m_028.ogg
435,192,77236,1,0,0:0:0:0:m_056.ogg
76,192,77369,1,0,0:0:0:0:m_035.ogg
128,192,77503,1,0,0:0:0:0:m_040.ogg
230,192,77636,1,0,0:0:0:0:m_044.ogg
128,192,77769,1,0,0:0:0:0:m_040.ogg
76,192,77903,1,0,0:0:0:0:m_035.ogg
25,192,78036,1,0,0:0:0:0:m_028.ogg
486,192,78036,1,0,0:0:0:0:m_059.ogg
76,192,78169,1,0,0:0:0:0:m_035.ogg
128,192,78303,1,0,0:0:0:0:m_044.ogg
230,192,78436,1,0,0:0:0:0:m_047.ogg
179,192,78569,1,0,0:0:0:0:s_044.ogg
128,192,78703,1,0,0:0:0:0:s_035.ogg
230,192,78836,1,0,0:0:0:0:m_045.ogg
435,192,78836,128,0,79236:0:0:0:0:m_057.ogg
76,192,78969,1,0,0:0:0:0:s_042.ogg
25,192,79103,1,0,0:0:0:0:s_035.ogg
179,192,79236,1,0,0:0:0:0:m_044.ogg
384,192,79236,128,0,79636:0:0:0:0:m_056.ogg
76,192,79369,1,0,0:0:0:0:s_040.ogg
25,192,79503,1,0,0:0:0:0:s_035.ogg
128,192,79636,1,0,0:0:0:0:m_042.ogg
332,192,79636,1,0,0:0:0:0:s_054.ogg
230,192,79769,1,0,0:0:0:0:s_039.ogg
486,192,79836,1,0,0:0:0:0:s_056.ogg
435,192,79886,1,0,0:0:0:0:s_054.ogg
179,192,79903,1,0,0:0:0:0:s_035.ogg
281,192,79936,1,0,0:0:0:0:s_052.ogg
332,192,79986,1,0,0:0:0:0:s_054.ogg
76,192,80036,1,0,0:0:0:0:m_040.ogg
384,192,80036,128,0,80336:0:0:0:0:m_056.ogg
230,192,80169,1,0,0:0:0:0:s_035.ogg
179,192,80303,1,0,0:0:0:0:s_032.ogg
332,192,80336,1,0,0:0:0:0:s_052.ogg
25,192,80436,1,0,0:0:0:0:m_023.ogg
281,192,80436,1,0,0:0:0:0:m_047.ogg
76,192,80569,1,0,0:0:0:0:m_030.ogg
128,192,80703,1,0,0:0:0:0:m_035.ogg
179,192,80836,1,0,0:0:0:0:m_039.ogg
128,192,80969,1,0,0:0:0:0:s_035.ogg
76,192,81103,1,0,0:0:0:0:s_030.ogg
25,192,81236,1,0,0:0:0:0:m_021.ogg
384,192,81236,1,0,0:0:0:0:l_049.ogg
128,192,81369,1,0,0:0:0:0:m_033.ogg
179,192,81503,1,0,0:0:0:0:m_037.ogg
230,192,81636,1,0,0:0:0:0:m_040.ogg
179,192,81769,1,0,0:0:0:0:s_037.ogg
128,192,81903,1,0,0:0:0:0:s_033.ogg
76,192,82036,1,0,0:0:0:0:m_025.ogg
128,192,82169,1,0,0:0:0:0:m_032.ogg
179,192,82303,1,0,0:0:0:0:m_037.ogg
230,192,82436,1,0,0:0:0:0:m_041.ogg
179,192,82569,1,0,0:0:0:0:s_037.ogg
128,192,82703,1,0,0:0:0:0:s_032.ogg
25,192,82836,1,0,0:0:0:0:m_025.ogg
384,192,82836,1,0,0:0:0:0:s_050.ogg
435,192,82886,1,0,0:0:0:0:m_052.ogg
486,192,82936,1,0,0:0:0:0:m_050.ogg
76,192,82969,1,0,0:0:0:0:m_037.ogg
332,192,83036,1,0,0:0:0:0:m_049.ogg
128,192,83103,1,0,0:0:0:0:m_041.ogg
230,192,83236,1,0,0:0:0:0:m_047.ogg
384,192,83236,1,0,0:0:0:0:m_054.ogg
179,192,83369,1,0,0:0:0:0:s_041.ogg
435,192,83436,1,0,0:0:0:0:s_056.ogg
128,192,83503,1,0,0:0:0:0:s_037.ogg
25,192,83636,1,0,0:0:0:0:m_030.ogg
486,192,83636,128,0,84036:0:0:0:0:m_057.ogg
230,192,83769,1,0,0:0:0:0:s_045.ogg
179,192,83903,1,0,0:0:0:0:s_037.ogg
76,192,84036,1,0,0:0:0:0:m_032.ogg
435,192,84036,128,0,84436:0:0:0:0:m_056.ogg
230,192,84169,1,0,0:0:0:0:s_044.ogg
179,192,84303,1,0,0:0:0:0:s_036.ogg
128,192,84436,1,0,0:0:0:0:m_033.ogg
384,192,84436,128,0,84836:0:0:0:0:m_054.ogg
76,192,84569,1,0,0:0:0:0:s_042.ogg
25,192,84703,1,0,0:0:0:0:s_037.ogg
179,192,84836,1,0,0:0:0:0:m_035.ogg
435,192,84836,128,0,85236:0:0:0:0:m_056.ogg
76,192,84969,1,0,0:0:0:0:s_045.ogg
25,192,85103,1,0,0:0:0:0:s_039.ogg
76,192,85236,1,0,0:0:0:0:m_028.ogg
332,192,85236,1,0,0:0:0:0:m_052.ogg
128,192,85369,1,0,0:0:0:0:m_035.ogg
179,192,85503,1,0,0:0:0:0:m_040.ogg
230,192,85636,1,0,0:0:0:0:m_044.ogg
179,192,85769,1,0,0:0:0:0:s_040.ogg
281,192,85836,1,0,0:0:0:0:s_046.ogg
332,192,85886,1,0,0:0:0:0:s_047.ogg
128,192,85903,1,0,0:0:0:0:s_035.ogg
384,192,85936,1,0,0:0:0:0:s_049.ogg
435,192,85986,1,0,0:0:0:0:s_047.ogg
25,192,86036,1,0,0:0:0:0:m_028.ogg
486,192,86036,1,0,0:0:0:0:m_056.ogg
128,192,86169,1,0,0:0:0:0:m_035.ogg
179,192,86303,1,0,0:0:0:0:m_039.ogg
230,192,86436,1,0,0:0:0:0:m_045.ogg
128,192,86569,1,0,0:0:0:0:s_039.ogg
435,192,86636,1,0,0:0:0:0:s_054.ogg
76,192,86703,1,0,0:0:0:0:s_035.ogg
25,192,86836,1,0,0:0:0:0:m_028.ogg
435,192,86836,1,0,0:0:0:0:m_054.ogg
76,192,86969,1,0,0:0:0:0:m_035.ogg
128,192,87103,1,0,0:0:0:0:m_039.ogg
230,192,87236,1,0,0:0:0:0:m_045.ogg
179,192,87369,1,0,0:0:0:0:s_039.ogg
128,192,87503,1,0,0:0:0:0:s_035.ogg
25,192,87636,1,0,0:0:0:0:m_028.ogg
384,192,87636,1,0,0:0:0:0:m_052.ogg
76,192,87769,1,0,0:0:0:0:m_035.ogg
128,192,87903,1,0,0:0:0:0:m_040.ogg
179,192,88036,1,0,0:0:0:0:m_044.ogg
128,192,88169,1,0,0:0:0:0:s_040.ogg
486,192,88236,1,0,0:0:0:0:s_059.ogg
76,192,88303,1,0,0:0:0:0:s_035.ogg
25,192,88436,1,0,0:0:0:0:m_023.ogg
435,192,88436,1,0,0:0:0:0:m_047.ogg
128,192,88569,1,0,0:0:0:0:m_030.ogg
179,192,88703,1,0,0:0:0:0:m_035.ogg
230,192,88836,1,0,0:0:0:0:m_039.ogg
179,192,88969,1,0,0:0:0:0:s_035.ogg
128,192,89103,1,0,0:0:0:0:s_030.ogg
76,192,89236,1,0,0:0:0:0:m_023.ogg
486,192,89236,1,0,0:0:0:0:s_049.ogg
435,192,89286,1,0,0:0:0:0:m_051.ogg
384,192,89336,1,0,0:0:0:0:m_049.ogg
128,192,89369,1,0,0:0:0:0:m_030.ogg
179,192,89503,1,0,0:0:0:0:m_034.ogg
332,192,89536,1,0,0:0:0:0:m_048.ogg
230,192,89636,1,0,0:0:0:0:m_040.ogg
384,192,89636,1,0,0:0:0:0:m_049.ogg
179,192,89769,1,0,0:0:0:0:s_034.ogg
128,192,89903,1,0,0:0:0:0:s_030.ogg
435,192,89936,1,0,0:0:0:0:s_051.ogg
25,192,90036,1,0,0:0:0:0:m_023.ogg
281,192,90036,1,0,0:0:0:0:m_047.ogg
76,192,90169,1,0,0:0:0:0:m_030.ogg
128,192,90303,1,0,0:0:0:0:m_035.ogg
179,192,90436,1,0,0:0:0:0:m_039.ogg
486,192,90436,1,0,0:0:0:0:m_063.ogg
128,192,90569,1,0,0:0:0:0:s_035.ogg
76,192,90703,1,0,0:0:0:0:s_030.ogg
25,192,90836,1,0,0:0:0:0:m_028.ogg
486,192,90936,1,0,0:0:0:0:m_061.ogg
76,192,90969,1,0,0:0:0:0:m_035.ogg
435,192,91036,1,0,0:0:0:0:m_059.ogg
128,192,91103,1,0,0:0:0:0:m_040.ogg
384,192,91136,1,0,0:0:0:0:m_055.ogg
230,192,91236,1,0,0:0:0:0:m_043.ogg
332,192,91236,1,0,0:0:0:0:m_052.ogg
281,192,91336,1,0,0:0:0:0:s_049.ogg
179,192,91369,1,0,0:0:0:0:s_040.ogg
128,192,91503,1,0,0:0:0:0:s_035.ogg
435,192,91536,1,0,0:0:0:0:s_059.ogg
25,192,91636,1,0,0:0:0:0:m_018.ogg
332,192,91636,1,0,0:0:0:0:m_042.ogg
128,192,91769,1,0,0:0:0:0:m_030.ogg
179,192,91903,1,0,0:0:0:0:m_035.ogg
230,192,92036,1,0,0:0:0:0:m_039.ogg
179,192,92169,1,0,0:0:0:0:s_035.ogg
128,192,92303,1,0,0:0:0:0:s_030.ogg
76,192,92436,1,0,0:0:0:0:m_018.ogg
435,192,92436,1,0,0:0:0:0:m_051.ogg
384,192,92486,1,0,0:0:0:0:m_049.ogg
128,192,92569,1,0,0:0:0:0:m_030.ogg
179,192,92703,1,0,0:0:0:0:m_034.ogg
332,192,92736,1,0,0:0:0:0:m_048.ogg
230,192,92836,1,0,0:0:0:0:m_040.ogg
384,192,92836,1,0,0:0:0:0:m_049.ogg
179,192,92969,1,0,0:0:0:0:s_034.ogg
128,192,93103,1,0,0:0:0:0:s_030.ogg
486,192,93136,1,0,0:0:0:0:s_054.ogg
25,192,93236,1,0,0:0:0:0:m_023.ogg
281,192,93236,1,0,0:0:0:0:m_047.ogg
76,192,93369,1,0,0:0:0:0:m_030.ogg
128,192,93503,1,0,0:0:0:0:m_035.ogg
179,192,93636,1,0,0:0:0:0:m_039.ogg
128,192,93769,1,0,0:0:0:0:s_035.ogg
76,192,93903,1,0,0:0:0:0:s_030.ogg
25,192,94036,1,0,0:0:0:0:m_021.ogg
384,192,94036,1,0,0:0:0:0:l_049.ogg
76,192,94169,1,0,0:0:0:0:m_033.ogg
128,192,94303,1,0,0:0:0:0:m_037.ogg
230,192,94436,1,0,0:0:0:0:m_040.ogg
128,192,94569,1,0,0:0:0:0:s_037.ogg
76,192,94703,1,0,0:0:0:0:s_033.ogg
25,192,94836,1,0,0:0:0:0:m_025.ogg
128,192,94969,1,0,0:0:0:0:m_032.ogg
179,192,95103,1,0,0:0:0:0:m_037.ogg
230,192,95236,1,0,0:0:0:0:m_041.ogg
179,192,95369,1,0,0:0:0:0:s_037.ogg
128,192,95503,1,0,0:0:0:0:s_032.ogg
25,192,95636,1,0,0:0:0:0:m_025.ogg
384,192,95636,1,0,0:0:0:0:s_050.ogg
435,192,95686,1,0,0:0:0:0:m_052.ogg
486,192,95736,1,0,0:0:0:0:m_050.ogg
76,192,95769,1,0,0:0:0:0:m_037.ogg
281,192,95836,1,0,0:0:0:0:m_049.ogg
128,192,95903,1,0,0:0:0:0:m_041.ogg
230,192,96036,1,0,0:0:0:0:m_047.ogg
332,192,96036,1,0,0:0:0:0:m_054.ogg
179,192,96169,1,0,0:0:0:0:s_041.ogg
384,192,96236,1,0,0:0:0:0:s_056.ogg
128,192,96303,1,0,0:0:0:0:s_037.ogg
25,192,96436,1,0,0:0:0:0:m_030.ogg
486,192,96436,128,0,96836:0:0:0:0:m_057.ogg
179,192,96569,1,0,0:0:0:0:s_045.ogg
128,192,96703,1,0,0:0:0:0:s_037.ogg
76,192,96836,1,0,0:0:0:0:m_032.ogg
435,192,96836,128,0,97236:0:0:0:0:m_056.ogg
230,192,96969,1,0,0:0:0:0:s_044.ogg
179,192,97103,1,0,0:0:0:0:s_036.ogg
128,192,97236,1,0,0:0:0:0:m_033.ogg
384,192,97236,128,0,97636:0:0:0:0:m_054.ogg
76,192,97369,1,0,0:0:0:0:s_042.ogg
25,192,97503,1,0,0:0:0:0:s_037.ogg
179,192,97636,1,0,0:0:0:0:m_035.ogg
435,192,97636,128,0,98036:0:0:0:0:m_056.ogg
128,192,97769,1,0,0:0:0:0:s_045.ogg
76,192,97903,1,0,0:0:0:0:s_039.ogg
25,192,98036,1,0,0:0:0:0:m_028.ogg
332,192,98036,1,0,0:0:0:0:m_052.ogg
76,192,98169,1,0,0:0:0:0:m_035.ogg
128,192,98303,1,0,0:0:0:0:m_040.ogg
230,192,98436,1,0,0:0:0:0:m_044.ogg
179,192,98569,1,0,0:0:0:0:s_040.ogg
281,192,98636,1,0,0:0:0:0:s_046.ogg
332,192,98686,1,0,0:0:0:0:s_047.ogg
128,192,98703,1,0,0:0:0:0:s_035.ogg
384,192,98736,1,0,0:0:0:0:s_049.ogg
435,192,98786,1,0,0:0:0:0:s_047.ogg
76,192,98836,1,0,0:0:0:0:m_028.ogg
486,192,98836,1,0,0:0:0:0:m_056.ogg
128,192,98969,1,0,0:0:0:0:m_035.ogg
179,192,99103,1,0,0:0:0:0:m_039.ogg
230,192,99236,1,0,0:0:0:0:m_045.ogg
179,192,99369,1,0,0:0:0:0:s_039.ogg
435,192,99436,1,0,0:0:0:0:s_054.ogg
128,192,99503,1,0,0:0:0:0:s_035.ogg
76,192,99636,1,0,0:0:0:0:m_028.ogg
435,192,99636,1,0,0:0:0:0:l_054.ogg
128,192,99769,1,0,0:0:0:0:m_035.ogg
179,192,99903,1,0,0:0:0:0:m_039.ogg
230,192,100036,1,0,0:0:0:0:m_045.ogg
179,192,100169,1,0,0:0:0:0:s_039.ogg
128,192,100303,1,0,0:0:0:0:s_035.ogg
76,192,100436,1,0,0:0:0:0:m_028.ogg
128,192,100569,1,0,0:0:0:0:m_035.ogg
179,192,100703,1,0,0:0:0:0:m_039.ogg
230,192,100836,1,0,0:0:0:0:m_045.ogg
179,192,100969,1,0,0:0:0:0:s_039.ogg
128,192,101103,1,0,0:0:0:0:s_035.ogg
25,192,101236,1,0,0:0:0:0:m_016.ogg
435,192,101236,1,0,0:0:0:0:m_042.ogg
384,192,101327,1,0,0:0:0:0:m_040.ogg
179,192,101418,1,0,0:0:0:0:m_031.ogg
486,192,101418,1,0,0:0:0:0:m_047.ogg
281,192,101509,1,0,0:0:0:0:m_035.ogg
128,192,101600,1,0,0:0:0:0:m_028.ogg
435,192,101600,1,0,0:0:0:0:m_048.ogg
384,192,101690,1,0,0:0:0:0:s_047.ogg
76,192,101781,1,0,0:0:0:0:s_023.ogg
486,192,101781,1,0,0:0:0:0:m_055.ogg
332,192,101872,1,0,0:0:0:0:s_043.ogg
25,192,101963,1,0,0:0:0:0:m_016.ogg
435,192,101963,1,0,0:0:0:0:m_048.ogg
384,192,102054,1,0,0:0:0:0:m_047.ogg
230,192,102145,1,0,0:0:0:0:m_033.ogg
486,192,102145,1,0,0:0:0:0:m_055.ogg
332,192,102236,1,0,0:0:0:0:m_043.ogg
179,192,102327,1,0,0:0:0:0:m_027.ogg
435,192,102327,1,0,0:0:0:0:m_048.ogg
384,192,102418,1,0,0:0:0:0:s_047.ogg
128,192,102509,1,0,0:0:0:0:s_023.ogg
486,192,102509,1,0,0:0:0:0:m_054.ogg
281,192,102600,1,0,0:0:0:0:s_042.ogg
25,192,102690,1,0,0:0:0:0:m_016.ogg
435,192,102690,1,0,0:0:0:0:m_048.ogg
384,192,102781,1,0,0:0:0:0:m_047.ogg
179,192,102872,1,0,0:0:0:0:m_031.ogg
486,192,102872,1,0,0:0:0:0:m_054.ogg
281,192,102963,1,0,0:0:0:0:m_042.ogg
128,192,103054,1,0,0:0:0:0:m_028.ogg
435,192,103054,1,0,0:0:0:0:m_048.ogg
384,192,103145,1,0,0:0:0:0:s_047.ogg
76,192,103236,1,0,0:0:0:0:s_023.ogg
486,192,103236,1,0,0:0:0:0:m_052.ogg
332,192,103327,1,0,0:0:0:0:s_040.ogg
25,192,103418,1,0,0:0:0:0:m_016.ogg
384,192,103418,1,0,0:0:0:0:m_042.ogg
332,192,103509,1,0,0:0:0:0:m_040.ogg
230,192,103600,1,0,0:0:0:0:m_033.ogg
435,192,103600,1,0,0:0:0:0:m_047.ogg
281,192,103690,1,0,0:0:0:0:m_035.ogg
179,192,103781,1,0,0:0:0:0:m_027.ogg
384,192,103781,1,0,0:0:0:0:m_042.ogg
332,192,103872,1,0,0:0:0:0:s_040.ogg
128,192,103963,1,0,0:0:0:0:s_023.ogg
486,192,103963,1,0,0:0:0:0:m_047.ogg
384,192,104054,1,0,0:0:0:0:s_035.ogg
128,192,104145,1,0,0:0:0:0:m_042.ogg
281,192,104145,1,0,0:0:0:0:m_016.ogg
76,192,104236,1,0,0:0:0:0:m_040.ogg
230,192,104327,1,0,0:0:0:0:m_047.ogg
435,192,104327,1,0,0:0:0:0:m_031.ogg
25,192,104418,1,0,0:0:0:0:m_035.ogg
179,192,104509,1,0,0:0:0:0:m_048.ogg
384,192,104509,1,0,0:0:0:0:m_028.ogg
128,192,104600,1,0,0:0:0:0:s_047.ogg
230,192,104690,1,0,0:0:0:0:m_055.ogg
332,192,104690,1,0,0:0:0:0:s_023.ogg
25,192,104781,1,0,0:0:0:0:s_043.ogg
179,192,104872,1,0,0:0:0:0:m_048.ogg
281,192,104872,1,0,0:0:0:0:m_016.ogg
128,192,104963,1,0,0:0:0:0:m_047.ogg
230,192,105054,1,0,0:0:0:0:m_055.ogg
486,192,105054,1,0,0:0:0:0:m_033.ogg
25,192,105145,1,0,0:0:0:0:m_043.ogg
179,192,105236,1,0,0:0:0:0:m_048.ogg
435,192,105236,1,0,0:0:0:0:m_027.ogg
128,192,105327,1,0,0:0:0:0:s_047.ogg
230,192,105418,1,0,0:0:0:0:m_054.ogg
384,192,105418,1,0,0:0:0:0:s_023.ogg
76,192,105509,1,0,0:0:0:0:s_042.ogg
179,192,105600,1,0,0:0:0:0:m_048.ogg
281,192,105600,1,0,0:0:0:0:m_016.ogg
128,192,105690,1,0,0:0:0:0:m_047.ogg
230,192,105781,1,0,0:0:0:0:m_054.ogg
435,192,105781,1,0,0:0:0:0:m_031.ogg
76,192,105872,1,0,0:0:0:0:m_042.ogg
179,192,105963,1,0,0:0:0:0:m_048.ogg
384,192,105963,1,0,0:0:0:0:m_028.ogg
128,192,106054,1,0,0:0:0:0:s_047.ogg
230,192,106145,1,0,0:0:0:0:m_052.ogg
332,192,106145,1,0,0:0:0:0:s_023.ogg
76,192,106236,1,0,0:0:0:0:s_040.ogg
128,192,106327,1,0,0:0:0:0:m_042.ogg
281,192,106327,1,0,0:0:0:0:m_016.ogg
76,192,106418,1,0,0:0:0:0:m_040.ogg
179,192,106509,1,0,0:0:0:0:m_047.ogg
486,192,106509,1,0,0:0:0:0:m_033.ogg
25,192,106600,1,0,0:0:0:0:m_035.ogg
128,192,106690,1,0,0:0:0:0:m_042.ogg
435,192,106690,1,0,0:0:0:0:m_027.ogg
76,192,106781,1,0,0:0:0:0:s_040.ogg
230,192,106872,1,0,0:0:0:0:m_047.ogg
384,192,106872,1,0,0:0:0:0:s_023.ogg
128,192,106963,1,0,0:0:0:0:s_035.ogg
25,192,107054,1,0,0:0:0:0:m_016.ogg
384,192,107054,1,0,0:0:0:0:m_042.ogg
332,192,107145,1,0,0:0:0:0:m_040.ogg
179,192,107236,1,0,0:0:0:0:m_031.ogg
486,192,107236,1,0,0:0:0:0:m_047.ogg
281,192,107327,1,0,0:0:0:0:m_035.ogg
128,192,107418,1,0,0:0:0:0:m_028.ogg
435,192,107418,1,0,0:0:0:0:m_048.ogg
384,192,107509,1,0,0:0:0:0:m_047.ogg
76,192,107600,1,0,0:0:0:0:m_023.ogg
486,192,107600,1,0,0:0:0:0:m_055.ogg
281,192,107690,1,0,0:0:0:0:s_043.ogg
25,192,107781,1,0,0:0:0:0:m_016.ogg
384,192,107781,1,0,0:0:0:0:m_045.ogg
332,192,107872,1,0,0:0:0:0:m_043.ogg
230,192,107963,1,0,0:0:0:0:m_035.ogg
486,192,107963,1,0,0:0:0:0:m_052.ogg
281,192,108054,1,0,0:0:0:0:m_040.ogg
179,192,108145,1,0,0:0:0:0:m_028.ogg
435,192,108145,1,0,0:0:0:0:m_048.ogg
384,192,108236,1,0,0:0:0:0:s_047.ogg
128,192,108327,1,0,0:0:0:0:s_023.ogg
486,192,108327,1,0,0:0:0:0:m_055.ogg
281,192,108418,1,0,0:0:0:0:s_043.ogg
25,192,108509,1,0,0:0:0:0:m_016.ogg
435,192,108509,1,0,0:0:0:0:m_042.ogg
332,192,108600,1,0,0:0:0:0:m_040.ogg
179,192,108690,1,0,0:0:0:0:m_031.ogg
486,192,108690,1,0,0:0:0:0:m_047.ogg
281,192,108781,1,0,0:0:0:0:m_035.ogg
128,192,108872,1,0,0:0:0:0:m_028.ogg
435,192,108872,1,0,0:0:0:0:m_048.ogg
384,192,108963,1,0,0:0:0:0:m_047.ogg
76,192,109054,1,0,0:0:0:0:m_023.ogg
486,192,109054,1,0,0:0:0:0:m_055.ogg
332,192,109145,1,0,0:0:0:0:s_043.ogg
25,192,109236,1,0,0:0:0:0:m_016.ogg
384,192,109236,1,0,0:0:0:0:m_045.ogg
332,192,109327,1,0,0:0:0:0:m_043.ogg
230,192,109418,1,0,0:0:0:0:m_035.ogg
486,192,109418,1,0,0:0:0:0:m_052.ogg
281,192,109509,1,0,0:0:0:0:m_040.ogg
179,192,109600,1,0,0:0:0:0:m_028.ogg
435,192,109600,1,0,0:0:0:0:m_048.ogg
384,192,109690,1,0,0:0:0:0:s_047.ogg
128,192,109781,1,0,0:0:0:0:s_023.ogg
486,192,109781,1,0,0:0:0:0:m_055.ogg
332,192,109872,1,0,0:0:0:0:s_043.ogg
128,192,109963,1,0,0:0:0:0:m_045.ogg
281,192,109963,1,0,0:0:0:0:m_016.ogg
76,192,110054,1,0,0:0:0:0:m_043.ogg
230,192,110145,1,0,0:0:0:0:m_052.ogg
435,192,110145,1,0,0:0:0:0:m_031.ogg
25,192,110236,1,0,0:0:0:0:m_040.ogg
179,192,110327,1,0,0:0:0:0:m_048.ogg
384,192,110327,1,0,0:0:0:0:m_028.ogg
128,192,110418,1,0,0:0:0:0:s_047.ogg
230,192,110509,1,0,0:0:0:0:s_052.ogg
332,192,110509,1,0,0:0:0:0:s_023.ogg
25,192,110600,1,0,0:0:0:0:s_040.ogg
128,192,110690,1,0,0:0:0:0:m_045.ogg
281,192,110690,1,0,0:0:0:0:m_016.ogg
76,192,110781,1,0,0:0:0:0:m_043.ogg
230,192,110872,1,0,0:0:0:0:m_052.ogg
435,192,110872,1,0,0:0:0:0:m_031.ogg
25,192,110963,1,0,0:0:0:0:m_040.ogg
179,192,111054,1,0,0:0:0:0:m_048.ogg
384,192,111054,1,0,0:0:0:0:m_028.ogg
128,192,111145,1,0,0:0:0:0:s_047.ogg
230,192,111236,1,0,0:0:0:0:s_052.ogg
332,192,111236,1,0,0:0:0:0:s_023.ogg
25,192,111327,1,0,0:0:0:0:s_040.ogg
128,192,111418,1,0,0:0:0:0:m_045.ogg
281,192,111418,1,0,0:0:0:0:m_016.ogg
76,192,111509,1,0,0:0:0:0:m_043.ogg
230,192,111600,1,0,0:0:0:0:m_052.ogg
435,192,111600,1,0,0:0:0:0:m_031.ogg
25,192,111690,1,0,0:0:0:0:m_040.ogg
179,192,111781,1,0,0:0:0:0:m_048.ogg
384,192,111781,1,0,0:0:0:0:m_028.ogg
128,192,111872,1,0,0:0:0:0:m_047.ogg
230,192,111963,1,0,0:0:0:0:m_052.ogg
332,192,111963,1,0,0:0:0:0:m_023.ogg
25,192,112054,1,0,0:0:0:0:m_040.ogg
128,192,112145,1,0,0:0:0:0:m_045.ogg
281,192,112145,1,0,0:0:0:0:m_016.ogg
76,192,112236,1,0,0:0:0:0:m_043.ogg
230,192,112327,1,0,0:0:0:0:m_052.ogg
435,192,112327,1,0,0:0:0:0:m_031.ogg
25,192,112418,1,0,0:0:0:0:m_040.ogg
179,192,112509,1,0,0:0:0:0:m_048.ogg
384,192,112509,1,0,0:0:0:0:m_028.ogg
128,192,112600,1,0,0:0:0:0:s_047.ogg
230,192,112690,1,0,0:0:0:0:s_052.ogg
332,192,112690,1,0,0:0:0:0:s_023.ogg
76,192,112781,1,0,0:0:0:0:s_040.ogg
25,192,112872,1,0,0:0:0:0:l_016.ogg
384,192,112872,1,0,0:0:0:0:m_042.ogg
332,192,112963,1,0,0:0:0:0:m_040.ogg
435,192,113054,1,0,0:0:0:0:m_047.ogg
281,192,113145,1,0,0:0:0:0:m_035.ogg
384,192,113236,1,0,0:0:0:0:m_042.ogg
332,192,113327,1,0,0:0:0:0:m_040.ogg
435,192,113418,1,0,0:0:0:0:m_047.ogg
281,192,113509,1,0,0:0:0:0:m_035.ogg
384,192,113600,1,0,0:0:0:0:m_042.ogg
332,192,113690,1,0,0:0:0:0:m_040.ogg
435,192,113781,1,0,0:0:0:0:m_047.ogg
281,192,113872,1,0,0:0:0:0:m_035.ogg
384,192,113963,1,0,0:0:0:0:m_042.ogg
332,192,114054,1,0,0:0:0:0:m_040.ogg
435,192,114145,1,0,0:0:0:0:m_047.ogg
281,192,114236,1,0,0:0:0:0:m_035.ogg
384,192,114327,1,0,0:0:0:0:m_042.ogg
332,192,114418,1,0,0:0:0:0:m_040.ogg
435,192,114509,1,0,0:0:0:0:m_047.ogg
281,192,114600,1,0,0:0:0:0:m_035.ogg
384,192,114690,1,0,0:0:0:0:m_042.ogg
332,192,114781,1,0,0:0:0:0:m_040.ogg
435,192,114872,1,0,0:0:0:0:m_047.ogg
281,192,114963,1,0,0:0:0:0:m_035.ogg
384,192,115054,1,0,0:0:0:0:m_042.ogg
332,192,115145,1,0,0:0:0:0:m_040.ogg
435,192,115236,1,0,0:0:0:0:m_047.ogg
281,192,115327,1,0,0:0:0:0:m_035.ogg
384,192,115418,1,0,0:0:0:0:m_042.ogg
332,192,115509,1,0,0:0:0:0:s_040.ogg
435,192,115600,1,0,0:0:0:0:s_047.ogg
281,192,115690,1,0,0:0:0:0:s_035.ogg
179,192,115781,1,0,0:0:0:0:m_042.ogg
384,192,115781,1,0,0:0:0:0:l_016.ogg
486,192,115781,1,0,0:0:0:0:l_023.ogg
128,192,115872,1,0,0:0:0:0:m_040.ogg
230,192,115963,1,0,0:0:0:0:m_047.ogg
76,192,116054,1,0,0:0:0:0:m_035.ogg
179,192,116145,1,0,0:0:0:0:m_042.ogg
128,192,116236,1,0,0:0:0:0:m_040.ogg
230,192,116327,1,0,0:0:0:0:m_047.ogg
76,192,116418,1,0,0:0:0:0:m_035.ogg
179,192,116509,1,0,0:0:0:0:m_042.ogg
128,192,116600,1,0,0:0:0:0:m_040.ogg
230,192,116690,1,0,0:0:0:0:m_047.ogg
76,192,116781,1,0,0:0:0:0:m_035.ogg
179,192,116872,1,0,0:0:0:0:m_042.ogg
128,192,116963,1,0,0:0:0:0:s_040.ogg
230,192,117054,1,0,0:0:0:0:s_047.ogg
76,192,117145,1,0,0:0:0:0:m_035.ogg
179,192,117236,1,0,0:0:0:0:m_042.ogg
435,192,117236,1,0,0:0:0:0:m_025.ogg
128,192,117327,1,0,0:0:0:0:m_040.ogg
230,192,117418,1,0,0:0:0:0:m_047.ogg
76,192,117509,1,0,0:0:0:0:m_035.ogg
179,192,117600,1,0,0:0:0:0:m_042.ogg
332,192,117600,1,0,0:0:0:0:m_023.ogg
128,192,117690,1,0,0:0:0:0:m_040.ogg
230,192,117781,1,0,0:0:0:0:m_047.ogg
76,192,117872,1,0,0:0:0:0:m_035.ogg
179,192,117963,1,0,0:0:0:0:m_042.ogg
384,192,117963,1,0,0:0:0:0:m_028.ogg
128,192,118054,1,0,0:0:0:0:m_040.ogg
230,192,118145,1,0,0:0:0:0:m_047.ogg
76,192,118236,1,0,0:0:0:0:m_035.ogg
179,192,118327,1,0,0:0:0:0:m_042.ogg
435,192,118327,1,0,0:0:0:0:m_030.ogg
128,192,118418,1,0,0:0:0:0:s_040.ogg
230,192,118509,1,0,0:0:0:0:s_047.ogg
76,192,118600,1,0,0:0:0:0:s_035.ogg
25,192,118690,1,0,0:0:0:0:l_032.ogg
384,192,118690,1,0,0:0:0:0:m_042.ogg
332,192,118781,1,0,0:0:0:0:m_040.ogg
435,192,118872,1,0,0:0:0:0:m_047.ogg
281,192,118963,1,0,0:0:0:0:m_035.ogg
384,192,119054,1,0,0:0:0:0:m_042.ogg
332,192,119145,1,0,0:0:0:0:m_040.ogg
435,192,119236,1,0,0:0:0:0:m_047.ogg
281,192,119327,1,0,0:0:0:0:m_035.ogg
384,192,119418,1,0,0:0:0:0:m_042.ogg
332,192,119509,1,0,0:0:0:0:m_040.ogg
435,192,119600,1,0,0:0:0:0:m_047.ogg
281,192,119690,1,0,0:0:0:0:m_035.ogg
384,192,119781,1,0,0:0:0:0:m_042.ogg
332,192,119872,1,0,0:0:0:0:s_040.ogg
435,192,119963,1,0,0:0:0:0:s_047.ogg
281,192,120054,1,0,0:0:0:0:s_035.ogg
230,192,120145,1,0,0:0:0:0:l_035.ogg
384,192,120145,1,0,0:0:0:0:m_042.ogg
332,192,120236,1,0,0:0:0:0:m_040.ogg
435,192,120327,1,0,0:0:0:0:m_047.ogg
281,192,120418,1,0,0:0:0:0:m_035.ogg
384,192,120509,1,0,0:0:0:0:m_042.ogg
332,192,120600,1,0,0:0:0:0:m_040.ogg
435,192,120690,1,0,0:0:0:0:m_047.ogg
281,192,120781,1,0,0:0:0:0:m_035.ogg
384,192,120872,1,0,0:0:0:0:m_042.ogg
332,192,120963,1,0,0:0:0:0:m_040.ogg
435,192,121054,1,0,0:0:0:0:m_047.ogg
281,192,121145,1,0,0:0:0:0:m_035.ogg
384,192,121236,1,0,0:0:0:0:m_042.ogg
332,192,121327,1,0,0:0:0:0:s_040.ogg
435,192,121418,1,0,0:0:0:0:s_047.ogg
281,192,121509,1,0,0:0:0:0:s_035.ogg
179,192,121600,1,0,0:0:0:0:m_042.ogg
486,192,121600,1,0,0:0:0:0:l_033.ogg
128,192,121690,1,0,0:0:0:0:m_040.ogg
230,192,121781,1,0,0:0:0:0:m_047.ogg
76,192,121872,1,0,0:0:0:0:m_035.ogg
179,192,121963,1,0,0:0:0:0:m_042.ogg
128,192,122054,1,0,0:0:0:0:m_040.ogg
230,192,122145,1,0,0:0:0:0:m_047.ogg
76,192,122236,1,0,0:0:0:0:m_035.ogg
179,192,122327,1,0,0:0:0:0:m_042.ogg
384,192,122327,1,0,0:0:0:0:l_032.ogg
128,192,122418,1,0,0:0:0:0:m_040.ogg
230,192,122509,1,0,0:0:0:0:m_047.ogg
76,192,122600,1,0,0:0:0:0:m_035.ogg
179,192,122690,1,0,0:0:0:0:m_042.ogg
128,192,122781,1,0,0:0:0:0:m_040.ogg
230,192,122872,1,0,0:0:0:0:m_047.ogg
76,192,122963,1,0,0:0:0:0:m_035.ogg
179,192,123054,1,0,0:0:0:0:m_042.ogg
281,192,123054,1,0,0:0:0:0:m_030.ogg
128,192,123145,1,0,0:0:0:0:m_040.ogg
230,192,123236,1,0,0:0:0:0:m_047.ogg
76,192,123327,1,0,0:0:0:0:m_035.ogg
179,192,123418,1,0,0:0:0:0:m_042.ogg
128,192,123509,1,0,0:0:0:0:m_040.ogg
230,192,123600,1,0,0:0:0:0:m_047.ogg
76,192,123690,1,0,0:0:0:0:m_035.ogg
179,192,123781,1,0,0:0:0:0:m_042.ogg
435,192,123781,1,0,0:0:0:0:m_032.ogg
128,192,123872,1,0,0:0:0:0:m_040.ogg
230,192,123963,1,0,0:0:0:0:m_047.ogg
76,192,124054,1,0,0:0:0:0:m_035.ogg
179,192,124145,1,0,0:0:0:0:m_042.ogg
332,192,124145,1,0,0:0:0:0:m_028.ogg
128,192,124236,1,0,0:0:0:0:s_040.ogg
230,192,124327,1,0,0:0:0:0:s_047.ogg
76,192,124418,1,0,0:0:0:0:s_035.ogg
25,192,124509,1,0,0:0:0:0:l_023.ogg
384,192,124509,1,0,0:0:0:0:m_042.ogg
332,192,124600,1,0,0:0:0:0:m_040.ogg
486,192,124690,1,0,0:0:0:0:m_047.ogg
281,192,124781,1,0,0:0:0:0:m_032.ogg
384,192,124872,1,0,0:0:0:0:m_042.ogg
332,192,124963,1,0,0:0:0:0:m_040.ogg
486,192,125054,1,0,0:0:0:0:m_047.ogg
281,192,125145,1,0,0:0:0:0:m_032.ogg
384,192,125236,1,0,0:0:0:0:m_042.ogg
332,192,125327,1,0,0:0:0:0:m_040.ogg
486,192,125418,1,0,0:0:0:0:m_047.ogg
281,192,125509,1,0,0:0:0:0:m_032.ogg
384,192,125600,1,0,0:0:0:0:m_042.ogg
332,192,125690,1,0,0:0:0:0:s_040.ogg
486,192,125781,1,0,0:0:0:0:s_047.ogg
281,192,125872,1,0,0:0:0:0:s_032.ogg
230,192,125963,1,0,0:0:0:0:l_011.ogg
435,192,125963,1,0,0:0:0:0:m_044.ogg
384,192,126054,1,0,0:0:0:0:m_042.ogg
486,192,126145,1,0,0:0:0:0:m_047.ogg
281,192,126236,1,0,0:0:0:0:m_035.ogg
435,192,126327,1,0,0:0:0:0:m_044.ogg
384,192,126418,1,0,0:0:0:0:m_042.ogg
486,192,126509,1,0,0:0:0:0:m_047.ogg
281,192,126600,1,0,0:0:0:0:m_035.ogg
435,192,126690,1,0,0:0:0:0:m_044.ogg
384,192,126781,1,0,0:0:0:0:m_042.ogg
486,192,126872,1,0,0:0:0:0:m_047.ogg
281,192,126963,1,0,0:0:0:0:m_035.ogg
435,192,127054,1,0,0:0:0:0:m_044.ogg
384,192,127145,1,0,0:0:0:0:s_042.ogg
486,192,127236,1,0,0:0:0:0:s_047.ogg
281,192,127327,1,0,0:0:0:0:s_035.ogg
76,192,127418,1,0,0:0:0:0:l_016.ogg
179,192,127463,1,0,0:0:0:0:l_023.ogg
332,192,127509,1,0,0:0:0:0:l_033.ogg
384,192,127554,1,0,0:0:0:0:l_035.ogg
435,192,127600,1,0,0:0:0:0:l_039.ogg
486,192,127645,1,0,0:0:0:0:l_042.ogg
25,192,128872,1,0,0:0:0:0:l_016.ogg
128,192,128918,1,0,0:0:0:0:l_023.ogg
281,192,128963,1,0,0:0:0:0:l_028.ogg
332,192,129009,1,0,0:0:0:0:l_032.ogg
384,192,129054,1,0,0:0:0:0:l_035.ogg
435,192,129100,1,0,0:0:0:0:l_040.ogg
