osu file format v14

[General]
AudioFilename: virtual
AudioLeadIn: 0
PreviewTime: 0
Countdown: 0
SampleSet: None
StackLeniency: 0.7
Mode: 3
LetterboxInBreaks: 0
SpecialStyle: 0
WidescreenStoryboard: 1

[Editor]
DistanceSpacing: 0.8
BeatDivisor: 4
GridSize: 32
TimelineZoom: 1.800006

[Metadata]
Title:Piano Beatmap Set
TitleUnicode:Piano Beatmap Set
Artist:Collection
ArtistUnicode:Collection
Creator:CircusGalop
Version:Chopin Nocturne - 7K Full
Source:BMS
Tags:
BeatmapID:1328716
BeatmapSetID:332673

[Difficulty]
HPDrainRate:9
CircleSize:7
OverallDifficulty:5
ApproachRate:5
SliderMultiplier:1.4
SliderTickRate:1

[Events]
//Background and Video events
0,0,"CircusGalop.jpg",0,0
//Break Periods
//Storyboard Layer 0 (Background)
//Storyboard Layer 1 (Fail)
//Storyboard Layer 2 (Pass)
//Storyboard Layer 3 (Foreground)
//Storyboard Sound Samples

[TimingPoints]
0,533.333333333338,4,2,0,100,1,0

[HitObjects]
329,192,1066,5,0,0:0:0:0:m_049.ogg
36,192,1600,1,0,0:0:0:0:m_018.ogg
475,192,1600,128,0,3600:0:0:0:0:m_058.ogg
109,192,2133,1,0,0:0:0:0:m_034.ogg
182,192,2133,1,0,0:0:0:0:m_042.ogg
109,192,2666,1,0,0:0:0:0:m_046.ogg
182,192,2666,1,0,0:0:0:0:m_042.ogg
256,192,2666,1,0,0:0:0:0:m_037.ogg
36,192,3200,1,0,0:0:0:0:m_030.ogg
109,192,3733,1,0,0:0:0:0:m_035.ogg
182,192,3733,1,0,0:0:0:0:m_041.ogg
402,192,3733,1,0,0:0:0:0:m_056.ogg
109,192,4266,1,0,0:0:0:0:m_047.ogg
182,192,4266,1,0,0:0:0:0:m_041.ogg
256,192,4266,1,0,0:0:0:0:m_038.ogg
475,192,4266,1,0,0:0:0:0:m_058.ogg
36,192,4800,1,0,0:0:0:0:m_018.ogg
402,192,4800,128,0,6266:0:0:0:0:m_056.ogg
109,192,5333,1,0,0:0:0:0:m_042.ogg
182,192,5333,1,0,0:0:0:0:m_034.ogg
109,192,5866,1,0,0:0:0:0:m_046.ogg
182,192,5866,1,0,0:0:0:0:m_037.ogg
256,192,5866,1,0,0:0:0:0:m_042.ogg
36,192,6400,1,0,0:0:0:0:m_017.ogg
329,192,6400,128,0,7333:0:0:0:0:m_054.ogg
109,192,6933,1,0,0:0:0:0:m_034.ogg
182,192,6933,1,0,0:0:0:0:m_042.ogg
109,192,7466,1,0,0:0:0:0:m_046.ogg
182,192,7466,1,0,0:0:0:0:m_037.ogg
256,192,7466,1,0,0:0:0:0:m_042.ogg
402,192,7466,1,0,0:0:0:0:m_049.ogg
36,192,8000,1,0,0:0:0:0:m_015.ogg
475,192,8000,128,0,8933:0:0:0:0:m_058.ogg
109,192,8533,1,0,0:0:0:0:m_043.ogg
182,192,8533,1,0,0:0:0:0:m_034.ogg
109,192,9066,1,0,0:0:0:0:m_046.ogg
182,192,9066,1,0,0:0:0:0:m_043.ogg
256,192,9066,1,0,0:0:0:0:m_037.ogg
402,192,9066,1,0,0:0:0:0:s_051.ogg
475,192,9177,1,0,0:0:0:0:s_052.ogg
402,192,9277,1,0,0:0:0:0:s_051.ogg
329,192,9388,1,0,0:0:0:0:s_050.ogg
402,192,9500,1,0,0:0:0:0:s_051.ogg
36,192,9600,1,0,0:0:0:0:m_027.ogg
475,192,9600,128,0,10533:0:0:0:0:m_063.ogg
109,192,10133,1,0,0:0:0:0:m_043.ogg
182,192,10133,1,0,0:0:0:0:m_034.ogg
109,192,10666,1,0,0:0:0:0:m_049.ogg
182,192,10666,1,0,0:0:0:0:m_039.ogg
256,192,10666,1,0,0:0:0:0:m_043.ogg
402,192,10666,1,0,0:0:0:0:m_058.ogg
36,192,11200,1,0,0:0:0:0:m_020.ogg
475,192,11200,128,0,12666:0:0:0:0:m_061.ogg
109,192,11733,1,0,0:0:0:0:m_040.ogg
182,192,11733,1,0,0:0:0:0:m_032.ogg
109,192,12266,1,0,0:0:0:0:m_040.ogg
182,192,12266,1,0,0:0:0:0:m_037.ogg
256,192,12266,1,0,0:0:0:0:m_043.ogg
36,192,12800,1,0,0:0:0:0:m_020.ogg
402,192,12800,128,0,13733:0:0:0:0:m_059.ogg
109,192,13333,1,0,0:0:0:0:m_032.ogg
182,192,13333,1,0,0:0:0:0:m_039.ogg
109,192,13866,1,0,0:0:0:0:m_039.ogg
182,192,13866,1,0,0:0:0:0:m_044.ogg
256,192,13866,1,0,0:0:0:0:m_035.ogg
402,192,13866,1,0,0:0:0:0:m_058.ogg
36,192,14400,1,0,0:0:0:0:m_025.ogg
329,192,14400,128,0,15866:0:0:0:0:m_056.ogg
109,192,14933,1,0,0:0:0:0:m_041.ogg
182,192,14933,1,0,0:0:0:0:m_032.ogg
109,192,15466,1,0,0:0:0:0:m_041.ogg
182,192,15466,1,0,0:0:0:0:m_047.ogg
256,192,15466,1,0,0:0:0:0:m_037.ogg
36,192,16000,1,0,0:0:0:0:m_026.ogg
402,192,16000,128,0,16933:0:0:0:0:m_058.ogg
109,192,16533,1,0,0:0:0:0:m_044.ogg
182,192,16533,1,0,0:0:0:0:m_034.ogg
109,192,17066,1,0,0:0:0:0:m_044.ogg
182,192,17066,1,0,0:0:0:0:m_046.ogg
256,192,17066,1,0,0:0:0:0:m_041.ogg
329,192,17066,1,0,0:0:0:0:m_053.ogg
36,192,17600,1,0,0:0:0:0:m_027.ogg
402,192,17600,128,0,19066:0:0:0:0:m_054.ogg
109,192,18133,1,0,0:0:0:0:m_042.ogg
182,192,18133,1,0,0:0:0:0:m_034.ogg
109,192,18666,1,0,0:0:0:0:m_042.ogg
182,192,18666,1,0,0:0:0:0:m_046.ogg
256,192,18666,1,0,0:0:0:0:m_039.ogg
36,192,19200,1,0,0:0:0:0:m_024.ogg
329,192,19200,128,0,20666:0:0:0:0:m_051.ogg
109,192,19733,1,0,0:0:0:0:m_042.ogg
182,192,19733,1,0,0:0:0:0:m_033.ogg
109,192,20266,1,0,0:0:0:0:m_042.ogg
182,192,20266,1,0,0:0:0:0:m_045.ogg
256,192,20266,1,0,0:0:0:0:m_039.ogg
36,192,20800,1,0,0:0:0:0:m_025.ogg
329,192,20800,1,0,0:0:0:0:m_049.ogg
109,192,21333,1,0,0:0:0:0:m_042.ogg
182,192,21333,1,0,0:0:0:0:m_032.ogg
475,192,21333,1,0,0:0:0:0:m_065.ogg
109,192,21866,1,0,0:0:0:0:m_042.ogg
182,192,21866,1,0,0:0:0:0:m_047.ogg
256,192,21866,1,0,0:0:0:0:m_037.ogg
402,192,21866,1,0,0:0:0:0:m_063.ogg
36,192,22400,1,0,0:0:0:0:m_013.ogg
475,192,22400,1,0,0:0:0:0:m_061.ogg
402,192,22666,1,0,0:0:0:0:m_059.ogg
109,192,22933,1,0,0:0:0:0:m_041.ogg
182,192,22933,1,0,0:0:0:0:m_032.ogg
329,192,22933,1,0,0:0:0:0:m_058.ogg
475,192,23200,1,0,0:0:0:0:m_059.ogg
109,192,23466,1,0,0:0:0:0:m_037.ogg
256,192,23466,1,0,0:0:0:0:m_047.ogg
329,192,23466,1,0,0:0:0:0:m_051.ogg
402,192,23733,1,0,0:0:0:0:m_053.ogg
36,192,24000,1,0,0:0:0:0:m_018.ogg
475,192,24000,128,0,25600:0:0:0:0:m_054.ogg
109,192,24533,1,0,0:0:0:0:m_042.ogg
182,192,24533,1,0,0:0:0:0:m_034.ogg
109,192,25066,1,0,0:0:0:0:m_042.ogg
182,192,25066,1,0,0:0:0:0:m_046.ogg
256,192,25066,1,0,0:0:0:0:m_037.ogg
36,192,25600,1,0,0:0:0:0:m_030.ogg
109,192,26133,1,0,0:0:0:0:m_042.ogg
182,192,26133,1,0,0:0:0:0:m_034.ogg
109,192,26666,1,0,0:0:0:0:m_037.ogg
256,192,26666,1,0,0:0:0:0:m_046.ogg
329,192,26666,1,0,0:0:0:0:m_049.ogg
36,192,27200,1,0,0:0:0:0:m_018.ogg
475,192,27200,128,0,28666:0:0:0:0:m_058.ogg
109,192,27733,1,0,0:0:0:0:m_034.ogg
182,192,27733,1,0,0:0:0:0:m_042.ogg
109,192,28266,1,0,0:0:0:0:m_046.ogg
182,192,28266,1,0,0:0:0:0:m_037.ogg
256,192,28266,1,0,0:0:0:0:m_042.ogg
36,192,28800,1,0,0:0:0:0:m_030.ogg
402,192,28800,1,0,0:0:0:0:m_056.ogg
475,192,29066,1,0,0:0:0:0:m_058.ogg
109,192,29333,1,0,0:0:0:0:m_035.ogg
182,192,29333,1,0,0:0:0:0:m_041.ogg
402,192,29333,1,0,0:0:0:0:s_056.ogg
475,192,29422,1,0,0:0:0:0:s_058.ogg
402,192,29511,1,0,0:0:0:0:s_056.ogg
329,192,29600,1,0,0:0:0:0:m_055.ogg
109,192,29866,1,0,0:0:0:0:m_047.ogg
182,192,29866,1,0,0:0:0:0:m_038.ogg
256,192,29866,1,0,0:0:0:0:m_041.ogg
402,192,29866,1,0,0:0:0:0:m_056.ogg
475,192,30133,1,0,0:0:0:0:m_058.ogg
36,192,30400,1,0,0:0:0:0:m_018.ogg
402,192,30400,1,0,0:0:0:0:m_056.ogg
109,192,30933,1,0,0:0:0:0:m_034.ogg
182,192,30933,1,0,0:0:0:0:m_042.ogg
329,192,30933,128,0,32133:0:0:0:0:m_054.ogg
109,192,31466,1,0,0:0:0:0:m_037.ogg
182,192,31466,1,0,0:0:0:0:m_046.ogg
256,192,31466,1,0,0:0:0:0:m_042.ogg
36,192,32000,1,0,0:0:0:0:m_017.ogg
475,192,32266,1,0,0:0:0:0:m_056.ogg
109,192,32533,1,0,0:0:0:0:m_034.ogg
182,192,32533,1,0,0:0:0:0:m_042.ogg
402,192,32533,1,0,0:0:0:0:s_054.ogg
475,192,32622,1,0,0:0:0:0:s_056.ogg
402,192,32711,1,0,0:0:0:0:s_054.ogg
329,192,32800,1,0,0:0:0:0:m_053.ogg
109,192,33066,1,0,0:0:0:0:m_049.ogg
182,192,33066,1,0,0:0:0:0:m_037.ogg
256,192,33066,1,0,0:0:0:0:m_042.ogg
329,192,33066,1,0,0:0:0:0:m_054.ogg
475,192,33066,1,0,0:0:0:0:m_046.ogg
402,192,33333,1,0,0:0:0:0:m_056.ogg
36,192,33600,1,0,0:0:0:0:m_015.ogg
475,192,33600,1,0,0:0:0:0:m_058.ogg
329,192,33866,1,0,0:0:0:0:m_050.ogg
109,192,34133,1,0,0:0:0:0:m_043.ogg
182,192,34133,1,0,0:0:0:0:m_034.ogg
402,192,34133,1,0,0:0:0:0:m_051.ogg
475,192,34400,1,0,0:0:0:0:m_052.ogg
109,192,34666,1,0,0:0:0:0:m_037.ogg
182,192,34666,1,0,0:0:0:0:m_046.ogg
256,192,34666,1,0,0:0:0:0:m_043.ogg
329,192,34666,1,0,0:0:0:0:m_051.ogg
402,192,34933,1,0,0:0:0:0:m_056.ogg
36,192,35200,1,0,0:0:0:0:m_027.ogg
329,192,35200,1,0,0:0:0:0:m_055.ogg
475,192,35466,1,0,0:0:0:0:m_059.ogg
109,192,35733,1,0,0:0:0:0:m_043.ogg
182,192,35733,1,0,0:0:0:0:m_034.ogg
329,192,35733,1,0,0:0:0:0:m_058.ogg
475,192,36000,1,0,0:0:0:0:m_064.ogg
109,192,36266,1,0,0:0:0:0:m_049.ogg
182,192,36266,1,0,0:0:0:0:m_043.ogg
256,192,36266,1,0,0:0:0:0:m_039.ogg
402,192,36266,1,0,0:0:0:0:m_063.ogg
329,192,36533,1,0,0:0:0:0:m_058.ogg
36,192,36800,1,0,0:0:0:0:m_020.ogg
475,192,36800,128,0,38266:0:0:0:0:m_061.ogg
109,192,37333,1,0,0:0:0:0:m_032.ogg
182,192,37333,1,0,0:0:0:0:m_040.ogg
109,192,37866,1,0,0:0:0:0:m_040.ogg
182,192,37866,1,0,0:0:0:0:m_037.ogg
256,192,37866,1,0,0:0:0:0:m_043.ogg
36,192,38400,1,0,0:0:0:0:m_020.ogg
402,192,38400,128,0,39333:0:0:0:0:m_059.ogg
109,192,38933,1,0,0:0:0:0:m_039.ogg
182,192,38933,1,0,0:0:0:0:m_032.ogg
109,192,39466,1,0,0:0:0:0:m_044.ogg
182,192,39466,1,0,0:0:0:0:m_035.ogg
256,192,39466,1,0,0:0:0:0:m_039.ogg
329,192,39466,1,0,0:0:0:0:m_058.ogg
36,192,40000,1,0,0:0:0:0:m_025.ogg
329,192,40000,1,0,0:0:0:0:s_056.ogg
475,192,40088,1,0,0:0:0:0:s_058.ogg
329,192,40177,1,0,0:0:0:0:s_056.ogg
475,192,40266,1,0,0:0:0:0:s_058.ogg
329,192,40355,1,0,0:0:0:0:s_056.ogg
475,192,40444,1,0,0:0:0:0:s_058.ogg
109,192,40533,1,0,0:0:0:0:m_041.ogg
182,192,40533,1,0,0:0:0:0:m_032.ogg
329,192,40533,1,0,0:0:0:0:s_056.ogg
475,192,40622,1,0,0:0:0:0:s_058.ogg
329,192,40711,1,0,0:0:0:0:s_056.ogg
475,192,40800,1,0,0:0:0:0:s_058.ogg
329,192,40888,1,0,0:0:0:0:s_056.ogg
475,192,40977,1,0,0:0:0:0:s_058.ogg
109,192,41066,1,0,0:0:0:0:m_047.ogg
182,192,41066,1,0,0:0:0:0:m_041.ogg
256,192,41066,1,0,0:0:0:0:m_037.ogg
329,192,41066,1,0,0:0:0:0:s_056.ogg
475,192,41155,1,0,0:0:0:0:s_058.ogg
329,192,41244,1,0,0:0:0:0:s_056.ogg
475,192,41333,1,0,0:0:0:0:s_058.ogg
329,192,41422,1,0,0:0:0:0:s_055.ogg
402,192,41511,1,0,0:0:0:0:s_056.ogg
36,192,41600,1,0,0:0:0:0:m_026.ogg
475,192,41600,1,0,0:0:0:0:m_058.ogg
109,192,42133,1,0,0:0:0:0:m_044.ogg
182,192,42133,1,0,0:0:0:0:m_034.ogg
475,192,42133,1,0,0:0:0:0:m_058.ogg
109,192,42666,1,0,0:0:0:0:m_046.ogg
182,192,42666,1,0,0:0:0:0:m_041.ogg
256,192,42666,1,0,0:0:0:0:m_044.ogg
402,192,42666,1,0,0:0:0:0:m_053.ogg
36,192,43200,1,0,0:0:0:0:m_027.ogg
475,192,43200,128,0,44666:0:0:0:0:m_054.ogg
109,192,43733,1,0,0:0:0:0:m_042.ogg
182,192,43733,1,0,0:0:0:0:m_034.ogg
109,192,44266,1,0,0:0:0:0:m_046.ogg
182,192,44266,1,0,0:0:0:0:m_039.ogg
256,192,44266,1,0,0:0:0:0:m_042.ogg
36,192,44800,1,0,0:0:0:0:m_024.ogg
329,192,44800,128,0,46266:0:0:0:0:m_051.ogg
109,192,45333,1,0,0:0:0:0:m_042.ogg
182,192,45333,1,0,0:0:0:0:m_033.ogg
109,192,45866,1,0,0:0:0:0:m_045.ogg
182,192,45866,1,0,0:0:0:0:m_039.ogg
256,192,45866,1,0,0:0:0:0:m_042.ogg
36,192,46400,1,0,0:0:0:0:m_025.ogg
402,192,46400,1,0,0:0:0:0:m_049.ogg
109,192,46933,1,0,0:0:0:0:m_042.ogg
182,192,46933,1,0,0:0:0:0:m_032.ogg
475,192,46933,1,0,0:0:0:0:m_065.ogg
109,192,47466,1,0,0:0:0:0:m_047.ogg
182,192,47466,1,0,0:0:0:0:m_037.ogg
256,192,47466,1,0,0:0:0:0:m_042.ogg
402,192,47466,1,0,0:0:0:0:m_063.ogg
36,192,48000,1,0,0:0:0:0:m_013.ogg
475,192,48000,1,0,0:0:0:0:m_061.ogg
402,192,48266,1,0,0:0:0:0:m_059.ogg
109,192,48533,1,0,0:0:0:0:m_041.ogg
182,192,48533,1,0,0:0:0:0:m_032.ogg
329,192,48533,1,0,0:0:0:0:m_058.ogg
402,192,48800,1,0,0:0:0:0:s_059.ogg
402,192,48977,1,0,0:0:0:0:s_059.ogg
109,192,49066,1,0,0:0:0:0:m_047.ogg
256,192,49066,1,0,0:0:0:0:m_037.ogg
329,192,49066,1,0,0:0:0:0:m_051.ogg
402,192,49333,1,0,0:0:0:0:m_053.ogg
36,192,49600,1,0,0:0:0:0:m_018.ogg
475,192,49600,128,0,51600:0:0:0:0:m_054.ogg
109,192,50133,1,0,0:0:0:0:m_042.ogg
182,192,50133,1,0,0:0:0:0:m_034.ogg
109,192,50666,1,0,0:0:0:0:m_046.ogg
182,192,50666,1,0,0:0:0:0:m_042.ogg
256,192,50666,1,0,0:0:0:0:m_037.ogg
36,192,51200,1,0,0:0:0:0:m_030.ogg
109,192,51733,1,0,0:0:0:0:m_042.ogg
182,192,51733,1,0,0:0:0:0:m_034.ogg
329,192,51733,1,0,0:0:0:0:m_053.ogg
109,192,52266,1,0,0:0:0:0:m_046.ogg
256,192,52266,1,0,0:0:0:0:m_037.ogg
402,192,52266,1,0,0:0:0:0:m_054.ogg
36,192,52800,1,0,0:0:0:0:m_025.ogg
475,192,52800,128,0,54266:0:0:0:0:m_056.ogg
109,192,53333,1,0,0:0:0:0:m_032.ogg
182,192,53333,1,0,0:0:0:0:m_041.ogg
109,192,53866,1,0,0:0:0:0:m_037.ogg
182,192,53866,1,0,0:0:0:0:m_044.ogg
256,192,53866,1,0,0:0:0:0:m_041.ogg
36,192,54400,1,0,0:0:0:0:m_025.ogg
329,192,54400,128,0,55333:0:0:0:0:m_058.ogg
109,192,54933,1,0,0:0:0:0:m_041.ogg
182,192,54933,1,0,0:0:0:0:m_032.ogg
109,192,55466,1,0,0:0:0:0:m_037.ogg
182,192,55466,1,0,0:0:0:0:m_044.ogg
256,192,55466,1,0,0:0:0:0:m_041.ogg
402,192,55466,1,0,0:0:0:0:m_056.ogg
36,192,56000,1,0,0:0:0:0:m_024.ogg
402,192,56000,128,0,57466:0:0:0:0:m_056.ogg
109,192,56533,1,0,0:0:0:0:m_039.ogg
182,192,56533,1,0,0:0:0:0:m_032.ogg
109,192,57066,1,0,0:0:0:0:m_039.ogg
256,192,57066,1,0,0:0:0:0:m_044.ogg
36,192,57600,1,0,0:0:0:0:m_024.ogg
329,192,57600,128,0,59066:0:0:0:0:m_051.ogg
109,192,58133,1,0,0:0:0:0:m_039.ogg
182,192,58133,1,0,0:0:0:0:m_032.ogg
109,192,58666,1,0,0:0:0:0:m_044.ogg
256,192,58666,1,0,0:0:0:0:m_039.ogg
36,192,59200,1,0,0:0:0:0:m_023.ogg
475,192,59200,1,0,0:0:0:0:m_054.ogg
109,192,59733,1,0,0:0:0:0:m_039.ogg
182,192,59733,1,0,0:0:0:0:m_030.ogg
475,192,59733,1,0,0:0:0:0:m_054.ogg
109,192,60266,1,0,0:0:0:0:m_042.ogg
182,192,60266,1,0,0:0:0:0:m_035.ogg
256,192,60266,1,0,0:0:0:0:m_039.ogg
475,192,60266,1,0,0:0:0:0:m_054.ogg
36,192,60800,1,0,0:0:0:0:m_011.ogg
475,192,60800,1,0,0:0:0:0:m_054.ogg
109,192,61333,1,0,0:0:0:0:m_038.ogg
182,192,61333,1,0,0:0:0:0:m_030.ogg
329,192,61333,1,0,0:0:0:0:m_053.ogg
402,192,61600,1,0,0:0:0:0:m_054.ogg
109,192,61866,1,0,0:0:0:0:m_035.ogg
182,192,61866,1,0,0:0:0:0:m_038.ogg
256,192,61866,1,0,0:0:0:0:m_042.ogg
475,192,61866,1,0,0:0:0:0:m_056.ogg
402,192,62266,1,0,0:0:0:0:s_054.ogg
36,192,62400,1,0,0:0:0:0:m_018.ogg
402,192,62400,128,0,63866:0:0:0:0:m_054.ogg
109,192,62933,1,0,0:0:0:0:m_042.ogg
182,192,62933,1,0,0:0:0:0:m_034.ogg
109,192,63466,1,0,0:0:0:0:m_046.ogg
182,192,63466,1,0,0:0:0:0:m_037.ogg
256,192,63466,1,0,0:0:0:0:m_042.ogg
36,192,64000,1,0,0:0:0:0:m_030.ogg
329,192,64000,128,0,65466:0:0:0:0:m_049.ogg
109,192,64533,1,0,0:0:0:0:m_042.ogg
182,192,64533,1,0,0:0:0:0:m_034.ogg
109,192,65066,1,0,0:0:0:0:m_046.ogg
182,192,65066,1,0,0:0:0:0:m_037.ogg
256,192,65066,1,0,0:0:0:0:m_042.ogg
36,192,65600,1,0,0:0:0:0:m_019.ogg
475,192,65600,128,0,67066:0:0:0:0:m_061.ogg
109,192,66133,1,0,0:0:0:0:m_040.ogg
182,192,66133,1,0,0:0:0:0:m_031.ogg
109,192,66666,1,0,0:0:0:0:m_046.ogg
182,192,66666,1,0,0:0:0:0:m_037.ogg
256,192,66666,1,0,0:0:0:0:m_040.ogg
36,192,67200,1,0,0:0:0:0:m_019.ogg
402,192,67200,128,0,68133:0:0:0:0:m_060.ogg
109,192,67733,1,0,0:0:0:0:m_039.ogg
182,192,67733,1,0,0:0:0:0:m_031.ogg
109,192,68266,1,0,0:0:0:0:m_046.ogg
182,192,68266,1,0,0:0:0:0:m_037.ogg
256,192,68266,1,0,0:0:0:0:m_039.ogg
475,192,68266,1,0,0:0:0:0:m_058.ogg
36,192,68800,1,0,0:0:0:0:m_020.ogg
402,192,68800,128,0,70266:0:0:0:0:m_048.ogg
329,192,68800,128,0,70266:0:0:0:0:m_056.ogg
109,192,69333,1,0,0:0:0:0:m_042.ogg
182,192,69333,1,0,0:0:0:0:m_032.ogg
109,192,69866,1,0,0:0:0:0:m_048.ogg
182,192,69866,1,0,0:0:0:0:m_039.ogg
256,192,69866,1,0,0:0:0:0:m_042.ogg
36,192,70400,1,0,0:0:0:0:m_022.ogg
475,192,70400,128,0,71866:0:0:0:0:m_049.ogg
329,192,70400,128,0,71866:0:0:0:0:m_053.ogg
109,192,70933,1,0,0:0:0:0:m_041.ogg
182,192,70933,1,0,0:0:0:0:m_034.ogg
109,192,71466,1,0,0:0:0:0:m_046.ogg
182,192,71466,1,0,0:0:0:0:m_037.ogg
256,192,71466,1,0,0:0:0:0:m_041.ogg
36,192,72000,1,0,0:0:0:0:m_015.ogg
475,192,72000,128,0,73466:0:0:0:0:m_054.ogg
402,192,72000,128,0,73466:0:0:0:0:m_046.ogg
109,192,72533,1,0,0:0:0:0:m_042.ogg
182,192,72533,1,0,0:0:0:0:m_034.ogg
109,192,73066,1,0,0:0:0:0:m_046.ogg
182,192,73066,1,0,0:0:0:0:m_039.ogg
256,192,73066,1,0,0:0:0:0:m_042.ogg
36,192,73600,1,0,0:0:0:0:m_020.ogg
329,192,73600,1,0,0:0:0:0:m_048.ogg
475,192,73600,1,0,0:0:0:0:m_053.ogg
109,192,74133,1,0,0:0:0:0:m_042.ogg
182,192,74133,1,0,0:0:0:0:m_032.ogg
329,192,74133,1,0,0:0:0:0:m_048.ogg
402,192,74133,1,0,0:0:0:0:m_051.ogg
109,192,74666,1,0,0:0:0:0:m_044.ogg
182,192,74666,1,0,0:0:0:0:m_039.ogg
256,192,74666,1,0,0:0:0:0:m_042.ogg
329,192,74666,1,0,0:0:0:0:m_048.ogg
475,192,74666,1,0,0:0:0:0:m_053.ogg
36,192,75200,1,0,0:0:0:0:m_041.ogg
256,192,75200,1,0,0:0:0:0:m_037.ogg
329,192,75200,1,0,0:0:0:0:m_049.ogg
402,192,75200,1,0,0:0:0:0:m_044.ogg
36,192,75733,1,0,0:0:0:0:m_042.ogg
182,192,75733,1,0,0:0:0:0:m_036.ogg
402,192,75733,1,0,0:0:0:0:m_050.ogg
475,192,75733,1,0,0:0:0:0:m_045.ogg
36,192,76266,1,0,0:0:0:0:m_043.ogg
109,192,76266,1,0,0:0:0:0:m_035.ogg
402,192,76266,1,0,0:0:0:0:m_050.ogg
36,192,76800,1,0,0:0:0:0:m_043.ogg
182,192,76800,1,0,0:0:0:0:m_034.ogg
329,192,76800,1,0,0:0:0:0:m_049.ogg
475,192,76800,1,0,0:0:0:0:m_051.ogg
36,192,77333,1,0,0:0:0:0:m_042.ogg
109,192,77333,1,0,0:0:0:0:m_044.ogg
182,192,77333,1,0,0:0:0:0:m_039.ogg
256,192,77333,1,0,0:0:0:0:m_032.ogg
329,192,77333,1,0,0:0:0:0:m_051.ogg
402,192,77333,1,0,0:0:0:0:m_048.ogg
109,192,77866,1,0,0:0:0:0:m_044.ogg
182,192,77866,1,0,0:0:0:0:m_037.ogg
402,192,77866,1,0,0:0:0:0:m_053.ogg
475,192,77866,1,0,0:0:0:0:m_047.ogg
36,192,78400,1,0,0:0:0:0:m_018.ogg
256,192,78400,1,0,0:0:0:0:s_046.ogg
329,192,78488,1,0,0:0:0:0:s_049.ogg
402,192,78577,1,0,0:0:0:0:s_054.ogg
475,192,78666,128,0,79333:0:0:0:0:m_058.ogg
109,192,78933,1,0,0:0:0:0:m_034.ogg
182,192,78933,1,0,0:0:0:0:m_042.ogg
109,192,79466,1,0,0:0:0:0:m_046.ogg
182,192,79466,1,0,0:0:0:0:m_042.ogg
256,192,79466,1,0,0:0:0:0:m_037.ogg
329,192,79466,1,0,0:0:0:0:m_048.ogg
402,192,79733,1,0,0:0:0:0:m_049.ogg
36,192,80000,1,0,0:0:0:0:m_030.ogg
475,192,80000,1,0,0:0:0:0:m_050.ogg
329,192,80266,1,0,0:0:0:0:m_049.ogg
109,192,80533,1,0,0:0:0:0:m_041.ogg
182,192,80533,1,0,0:0:0:0:m_035.ogg
402,192,80533,1,0,0:0:0:0:m_052.ogg
475,192,80800,1,0,0:0:0:0:m_053.ogg
109,192,81066,1,0,0:0:0:0:m_041.ogg
182,192,81066,1,0,0:0:0:0:m_038.ogg
256,192,81066,1,0,0:0:0:0:m_047.ogg
329,192,81066,1,0,0:0:0:0:m_058.ogg
402,192,81466,1,0,0:0:0:0:s_056.ogg
36,192,81600,1,0,0:0:0:0:m_030.ogg
402,192,81600,128,0,82533:0:0:0:0:m_056.ogg
109,192,82133,1,0,0:0:0:0:m_034.ogg
182,192,82133,1,0,0:0:0:0:m_042.ogg
109,192,82666,1,0,0:0:0:0:m_046.ogg
182,192,82666,1,0,0:0:0:0:m_037.ogg
256,192,82666,1,0,0:0:0:0:m_042.ogg
329,192,82666,128,0,83333:0:0:0:0:m_054.ogg
36,192,83200,1,0,0:0:0:0:m_029.ogg
475,192,83466,1,0,0:0:0:0:m_056.ogg
109,192,83733,1,0,0:0:0:0:m_034.ogg
182,192,83733,1,0,0:0:0:0:m_042.ogg
402,192,83733,1,0,0:0:0:0:s_054.ogg
475,192,83822,1,0,0:0:0:0:s_056.ogg
402,192,83911,1,0,0:0:0:0:s_054.ogg
329,192,84000,1,0,0:0:0:0:m_053.ogg
109,192,84266,1,0,0:0:0:0:m_049.ogg
182,192,84266,1,0,0:0:0:0:m_037.ogg
256,192,84266,1,0,0:0:0:0:m_042.ogg
329,192,84266,1,0,0:0:0:0:m_054.ogg
475,192,84266,1,0,0:0:0:0:m_046.ogg
402,192,84533,1,0,0:0:0:0:m_056.ogg
36,192,84800,1,0,0:0:0:0:m_015.ogg
475,192,84800,1,0,0:0:0:0:m_058.ogg
329,192,85066,1,0,0:0:0:0:m_050.ogg
109,192,85333,1,0,0:0:0:0:m_043.ogg
182,192,85333,1,0,0:0:0:0:m_034.ogg
402,192,85333,1,0,0:0:0:0:m_051.ogg
475,192,85600,1,0,0:0:0:0:m_052.ogg
109,192,85866,1,0,0:0:0:0:m_046.ogg
182,192,85866,1,0,0:0:0:0:m_043.ogg
256,192,85866,1,0,0:0:0:0:m_037.ogg
329,192,85866,1,0,0:0:0:0:m_051.ogg
402,192,86133,1,0,0:0:0:0:m_056.ogg
36,192,86400,1,0,0:0:0:0:m_027.ogg
329,192,86400,1,0,0:0:0:0:m_055.ogg
475,192,86666,1,0,0:0:0:0:m_059.ogg
109,192,86933,1,0,0:0:0:0:m_043.ogg
182,192,86933,1,0,0:0:0:0:m_034.ogg
402,192,86933,1,0,0:0:0:0:m_058.ogg
475,192,87200,1,0,0:0:0:0:m_064.ogg
109,192,87466,1,0,0:0:0:0:m_049.ogg
182,192,87466,1,0,0:0:0:0:m_043.ogg
256,192,87466,1,0,0:0:0:0:m_039.ogg
402,192,87466,1,0,0:0:0:0:m_063.ogg
329,192,87733,1,0,0:0:0:0:m_058.ogg
36,192,88000,1,0,0:0:0:0:m_020.ogg
475,192,88000,128,0,89466:0:0:0:0:m_061.ogg
109,192,88533,1,0,0:0:0:0:m_040.ogg
182,192,88533,1,0,0:0:0:0:m_032.ogg
109,192,89066,1,0,0:0:0:0:m_040.ogg
182,192,89066,1,0,0:0:0:0:m_037.ogg
256,192,89066,1,0,0:0:0:0:m_043.ogg
36,192,89600,1,0,0:0:0:0:m_020.ogg
402,192,89600,128,0,90533:0:0:0:0:m_059.ogg
109,192,90133,1,0,0:0:0:0:m_032.ogg
182,192,90133,1,0,0:0:0:0:m_039.ogg
109,192,90666,1,0,0:0:0:0:m_044.ogg
182,192,90666,1,0,0:0:0:0:m_035.ogg
256,192,90666,1,0,0:0:0:0:m_039.ogg
329,192,90666,1,0,0:0:0:0:m_058.ogg
36,192,91200,1,0,0:0:0:0:m_025.ogg
402,192,91200,1,0,0:0:0:0:s_056.ogg
475,192,91288,1,0,0:0:0:0:s_058.ogg
402,192,91377,1,0,0:0:0:0:s_056.ogg
475,192,91466,1,0,0:0:0:0:s_058.ogg
402,192,91555,1,0,0:0:0:0:s_056.ogg
475,192,91644,1,0,0:0:0:0:s_058.ogg
109,192,91733,1,0,0:0:0:0:m_041.ogg
182,192,91733,1,0,0:0:0:0:m_032.ogg
402,192,91733,1,0,0:0:0:0:s_056.ogg
475,192,91822,1,0,0:0:0:0:s_058.ogg
402,192,91911,1,0,0:0:0:0:s_056.ogg
475,192,92000,1,0,0:0:0:0:s_058.ogg
402,192,92088,1,0,0:0:0:0:s_056.ogg
475,192,92177,1,0,0:0:0:0:s_058.ogg
109,192,92266,1,0,0:0:0:0:m_047.ogg
182,192,92266,1,0,0:0:0:0:m_041.ogg
256,192,92266,1,0,0:0:0:0:m_037.ogg
402,192,92266,1,0,0:0:0:0:s_056.ogg
475,192,92355,1,0,0:0:0:0:s_058.ogg
402,192,92444,1,0,0:0:0:0:s_056.ogg
475,192,92533,1,0,0:0:0:0:s_058.ogg
329,192,92622,1,0,0:0:0:0:s_055.ogg
402,192,92711,1,0,0:0:0:0:s_056.ogg
36,192,92800,1,0,0:0:0:0:m_026.ogg
475,192,92800,1,0,0:0:0:0:m_058.ogg
109,192,93333,1,0,0:0:0:0:m_044.ogg
182,192,93333,1,0,0:0:0:0:m_034.ogg
475,192,93333,1,0,0:0:0:0:m_058.ogg
109,192,93866,1,0,0:0:0:0:m_046.ogg
182,192,93866,1,0,0:0:0:0:m_041.ogg
256,192,93866,1,0,0:0:0:0:m_044.ogg
329,192,93866,1,0,0:0:0:0:m_053.ogg
36,192,94400,1,0,0:0:0:0:m_027.ogg
475,192,94400,128,0,95866:0:0:0:0:m_054.ogg
109,192,94933,1,0,0:0:0:0:m_042.ogg
182,192,94933,1,0,0:0:0:0:m_034.ogg
109,192,95466,1,0,0:0:0:0:m_046.ogg
182,192,95466,1,0,0:0:0:0:m_039.ogg
256,192,95466,1,0,0:0:0:0:m_042.ogg
36,192,96000,1,0,0:0:0:0:m_024.ogg
402,192,96000,128,0,97466:0:0:0:0:m_051.ogg
109,192,96533,1,0,0:0:0:0:m_042.ogg
182,192,96533,1,0,0:0:0:0:m_033.ogg
109,192,97066,1,0,0:0:0:0:m_045.ogg
182,192,97066,1,0,0:0:0:0:m_039.ogg
256,192,97066,1,0,0:0:0:0:m_042.ogg
36,192,97600,1,0,0:0:0:0:m_025.ogg
329,192,97600,1,0,0:0:0:0:m_049.ogg
109,192,98133,1,0,0:0:0:0:m_042.ogg
182,192,98133,1,0,0:0:0:0:m_032.ogg
475,192,98133,1,0,0:0:0:0:m_065.ogg
109,192,98666,1,0,0:0:0:0:m_037.ogg
182,192,98666,1,0,0:0:0:0:m_042.ogg
256,192,98666,1,0,0:0:0:0:m_047.ogg
402,192,98666,1,0,0:0:0:0:m_064.ogg
36,192,99200,1,0,0:0:0:0:m_013.ogg
475,192,99200,1,0,0:0:0:0:s_063.ogg
402,192,99333,1,0,0:0:0:0:s_062.ogg
329,192,99466,1,0,0:0:0:0:s_061.ogg
256,192,99600,1,0,0:0:0:0:s_060.ogg
109,192,99733,1,0,0:0:0:0:m_041.ogg
182,192,99733,1,0,0:0:0:0:m_032.ogg
475,192,99733,1,0,0:0:0:0:s_059.ogg
402,192,99866,1,0,0:0:0:0:s_056.ogg
329,192,100000,1,0,0:0:0:0:s_053.ogg
256,192,100133,1,0,0:0:0:0:s_050.ogg
36,192,100266,1,0,0:0:0:0:m_041.ogg
109,192,100266,1,0,0:0:0:0:m_037.ogg
182,192,100266,1,0,0:0:0:0:m_047.ogg
329,192,100266,1,0,0:0:0:0:s_049.ogg
402,192,100366,1,0,0:0:0:0:s_053.ogg
475,192,100488,1,0,0:0:0:0:s_058.ogg
402,192,100588,1,0,0:0:0:0:s_056.ogg
329,192,100700,1,0,0:0:0:0:s_054.ogg
36,192,100800,1,0,0:0:0:0:m_018.ogg
329,192,100800,128,0,102800:0:0:0:0:m_054.ogg
109,192,101333,1,0,0:0:0:0:m_042.ogg
182,192,101333,1,0,0:0:0:0:m_034.ogg
109,192,101866,1,0,0:0:0:0:m_042.ogg
182,192,101866,1,0,0:0:0:0:m_037.ogg
256,192,101866,1,0,0:0:0:0:m_046.ogg
36,192,102400,1,0,0:0:0:0:m_030.ogg
109,192,102933,1,0,0:0:0:0:m_042.ogg
182,192,102933,1,0,0:0:0:0:m_034.ogg
329,192,102933,1,0,0:0:0:0:m_053.ogg
109,192,103466,1,0,0:0:0:0:m_046.ogg
256,192,103466,1,0,0:0:0:0:m_037.ogg
402,192,103466,1,0,0:0:0:0:m_054.ogg
36,192,104000,1,0,0:0:0:0:m_025.ogg
475,192,104000,128,0,105466:0:0:0:0:m_056.ogg
109,192,104533,1,0,0:0:0:0:m_032.ogg
182,192,104533,1,0,0:0:0:0:m_041.ogg
109,192,105066,1,0,0:0:0:0:m_037.ogg
182,192,105066,1,0,0:0:0:0:m_044.ogg
256,192,105066,1,0,0:0:0:0:m_041.ogg
36,192,105600,1,0,0:0:0:0:m_025.ogg
329,192,105600,128,0,106533:0:0:0:0:m_058.ogg
109,192,106133,1,0,0:0:0:0:m_041.ogg
182,192,106133,1,0,0:0:0:0:m_032.ogg
109,192,106666,1,0,0:0:0:0:m_044.ogg
182,192,106666,1,0,0:0:0:0:m_037.ogg
256,192,106666,1,0,0:0:0:0:m_041.ogg
402,192,106666,1,0,0:0:0:0:m_056.ogg
36,192,107200,1,0,0:0:0:0:m_024.ogg
402,192,107200,128,0,108666:0:0:0:0:m_056.ogg
109,192,107733,1,0,0:0:0:0:m_039.ogg
182,192,107733,1,0,0:0:0:0:m_032.ogg
109,192,108266,1,0,0:0:0:0:m_044.ogg
256,192,108266,1,0,0:0:0:0:m_039.ogg
36,192,108800,1,0,0:0:0:0:m_024.ogg
329,192,108800,128,0,110266:0:0:0:0:m_051.ogg
109,192,109333,1,0,0:0:0:0:m_039.ogg
182,192,109333,1,0,0:0:0:0:m_032.ogg
109,192,109866,1,0,0:0:0:0:m_044.ogg
256,192,109866,1,0,0:0:0:0:m_039.ogg
36,192,110400,1,0,0:0:0:0:m_023.ogg
475,192,110400,128,0,110666:0:0:0:0:m_054.ogg
475,192,110800,128,0,111066:0:0:0:0:m_054.ogg
109,192,110933,1,0,0:0:0:0:m_039.ogg
182,192,110933,1,0,0:0:0:0:m_030.ogg
475,192,111200,128,0,111466:0:0:0:0:m_054.ogg
109,192,111466,1,0,0:0:0:0:m_042.ogg
182,192,111466,1,0,0:0:0:0:m_039.ogg
256,192,111466,1,0,0:0:0:0:m_035.ogg
475,192,111600,128,0,111866:0:0:0:0:m_054.ogg
36,192,112000,1,0,0:0:0:0:m_011.ogg
475,192,112000,128,0,112400:0:0:0:0:m_054.ogg
109,192,112533,1,0,0:0:0:0:m_038.ogg
182,192,112533,1,0,0:0:0:0:m_030.ogg
329,192,112533,1,0,0:0:0:0:m_053.ogg
402,192,112800,1,0,0:0:0:0:m_054.ogg
109,192,113066,1,0,0:0:0:0:m_035.ogg
182,192,113066,1,0,0:0:0:0:m_038.ogg
256,192,113066,1,0,0:0:0:0:m_042.ogg
475,192,113066,1,0,0:0:0:0:m_056.ogg
402,192,113466,1,0,0:0:0:0:s_054.ogg
36,192,113600,1,0,0:0:0:0:m_018.ogg
402,192,113600,128,0,115066:0:0:0:0:m_054.ogg
109,192,114133,1,0,0:0:0:0:m_034.ogg
182,192,114133,1,0,0:0:0:0:m_042.ogg
109,192,114666,1,0,0:0:0:0:m_046.ogg
182,192,114666,1,0,0:0:0:0:m_037.ogg
256,192,114666,1,0,0:0:0:0:m_042.ogg
36,192,115200,1,0,0:0:0:0:m_030.ogg
329,192,115200,128,0,116666:0:0:0:0:m_049.ogg
109,192,115733,1,0,0:0:0:0:m_042.ogg
182,192,115733,1,0,0:0:0:0:m_034.ogg
109,192,116266,1,0,0:0:0:0:m_046.ogg
182,192,116266,1,0,0:0:0:0:m_037.ogg
256,192,116266,1,0,0:0:0:0:m_042.ogg
36,192,116800,1,0,0:0:0:0:m_019.ogg
475,192,116800,128,0,118266:0:0:0:0:m_061.ogg
109,192,117333,1,0,0:0:0:0:m_040.ogg
182,192,117333,1,0,0:0:0:0:m_031.ogg
109,192,117866,1,0,0:0:0:0:m_046.ogg
182,192,117866,1,0,0:0:0:0:m_037.ogg
256,192,117866,1,0,0:0:0:0:m_040.ogg
36,192,118400,1,0,0:0:0:0:m_019.ogg
402,192,118400,128,0,119333:0:0:0:0:m_060.ogg
109,192,118933,1,0,0:0:0:0:m_039.ogg
182,192,118933,1,0,0:0:0:0:m_031.ogg
109,192,119466,1,0,0:0:0:0:m_046.ogg
182,192,119466,1,0,0:0:0:0:m_037.ogg
256,192,119466,1,0,0:0:0:0:m_039.ogg
329,192,119466,1,0,0:0:0:0:m_058.ogg
36,192,120000,1,0,0:0:0:0:m_020.ogg
475,192,120000,128,0,121466:0:0:0:0:m_048.ogg
329,192,120000,128,0,121466:0:0:0:0:m_056.ogg
109,192,120533,1,0,0:0:0:0:m_042.ogg
182,192,120533,1,0,0:0:0:0:m_032.ogg
109,192,121066,1,0,0:0:0:0:m_048.ogg
182,192,121066,1,0,0:0:0:0:m_039.ogg
256,192,121066,1,0,0:0:0:0:m_042.ogg
36,192,121600,1,0,0:0:0:0:m_022.ogg
402,192,121600,128,0,123066:0:0:0:0:m_049.ogg
329,192,121600,128,0,123066:0:0:0:0:m_053.ogg
109,192,122133,1,0,0:0:0:0:m_041.ogg
182,192,122133,1,0,0:0:0:0:m_034.ogg
109,192,122666,1,0,0:0:0:0:m_046.ogg
182,192,122666,1,0,0:0:0:0:m_037.ogg
256,192,122666,1,0,0:0:0:0:m_041.ogg
36,192,123200,1,0,0:0:0:0:m_015.ogg
475,192,123200,128,0,124666:0:0:0:0:m_046.ogg
402,192,123200,128,0,124666:0:0:0:0:m_054.ogg
109,192,123733,1,0,0:0:0:0:m_042.ogg
182,192,123733,1,0,0:0:0:0:m_034.ogg
109,192,124266,1,0,0:0:0:0:m_046.ogg
182,192,124266,1,0,0:0:0:0:m_039.ogg
256,192,124266,1,0,0:0:0:0:m_042.ogg
36,192,124800,1,0,0:0:0:0:m_020.ogg
329,192,124800,1,0,0:0:0:0:m_048.ogg
475,192,124800,1,0,0:0:0:0:m_053.ogg
109,192,125333,1,0,0:0:0:0:m_042.ogg
182,192,125333,1,0,0:0:0:0:m_032.ogg
329,192,125333,1,0,0:0:0:0:m_048.ogg
402,192,125333,1,0,0:0:0:0:m_051.ogg
109,192,125866,1,0,0:0:0:0:m_044.ogg
182,192,125866,1,0,0:0:0:0:m_039.ogg
256,192,125866,1,0,0:0:0:0:m_042.ogg
329,192,125866,1,0,0:0:0:0:m_048.ogg
475,192,125866,1,0,0:0:0:0:m_053.ogg
36,192,126400,1,0,0:0:0:0:m_041.ogg
256,192,126400,1,0,0:0:0:0:m_037.ogg
329,192,126400,1,0,0:0:0:0:m_049.ogg
402,192,126400,1,0,0:0:0:0:m_044.ogg
36,192,126933,1,0,0:0:0:0:m_042.ogg
182,192,126933,1,0,0:0:0:0:m_036.ogg
402,192,126933,1,0,0:0:0:0:m_050.ogg
475,192,126933,1,0,0:0:0:0:m_045.ogg
36,192,127466,1,0,0:0:0:0:m_043.ogg
109,192,127466,1,0,0:0:0:0:m_035.ogg
402,192,127466,1,0,0:0:0:0:m_050.ogg
36,192,128000,1,0,0:0:0:0:m_043.ogg
182,192,128000,1,0,0:0:0:0:m_034.ogg
329,192,128000,1,0,0:0:0:0:m_051.ogg
475,192,128000,1,0,0:0:0:0:m_049.ogg
36,192,128533,1,0,0:0:0:0:m_042.ogg
109,192,128533,1,0,0:0:0:0:m_044.ogg
182,192,128533,1,0,0:0:0:0:m_039.ogg
256,192,128533,1,0,0:0:0:0:m_032.ogg
329,192,128533,1,0,0:0:0:0:m_051.ogg
402,192,128533,1,0,0:0:0:0:m_048.ogg
109,192,129066,1,0,0:0:0:0:m_044.ogg
182,192,129066,1,0,0:0:0:0:m_037.ogg
402,192,129066,1,0,0:0:0:0:m_053.ogg
475,192,129066,1,0,0:0:0:0:m_047.ogg
36,192,129600,1,0,0:0:0:0:m_018.ogg
256,192,129600,1,0,0:0:0:0:s_046.ogg
329,192,129688,1,0,0:0:0:0:s_049.ogg
402,192,129777,1,0,0:0:0:0:s_054.ogg
475,192,129866,128,0,130533:0:0:0:0:m_058.ogg
109,192,130133,1,0,0:0:0:0:m_034.ogg
182,192,130133,1,0,0:0:0:0:m_042.ogg
109,192,130666,1,0,0:0:0:0:m_046.ogg
182,192,130666,1,0,0:0:0:0:m_042.ogg
256,192,130666,1,0,0:0:0:0:m_037.ogg
329,192,130666,1,0,0:0:0:0:m_048.ogg
402,192,130933,1,0,0:0:0:0:m_049.ogg
36,192,131200,1,0,0:0:0:0:m_030.ogg
475,192,131200,1,0,0:0:0:0:m_050.ogg
402,192,131466,1,0,0:0:0:0:m_049.ogg
109,192,131733,1,0,0:0:0:0:m_035.ogg
182,192,131733,1,0,0:0:0:0:m_041.ogg
329,192,131733,1,0,0:0:0:0:m_052.ogg
402,192,132000,1,0,0:0:0:0:m_053.ogg
109,192,132266,1,0,0:0:0:0:m_041.ogg
182,192,132266,1,0,0:0:0:0:m_038.ogg
256,192,132266,1,0,0:0:0:0:m_047.ogg
475,192,132266,1,0,0:0:0:0:m_058.ogg
402,192,132666,1,0,0:0:0:0:s_056.ogg
36,192,132800,1,0,0:0:0:0:m_030.ogg
402,192,132800,128,0,133733:0:0:0:0:m_056.ogg
109,192,133333,1,0,0:0:0:0:m_034.ogg
182,192,133333,1,0,0:0:0:0:m_042.ogg
109,192,133866,1,0,0:0:0:0:m_046.ogg
182,192,133866,1,0,0:0:0:0:m_037.ogg
256,192,133866,1,0,0:0:0:0:m_042.ogg
329,192,133866,128,0,134533:0:0:0:0:m_054.ogg
36,192,134400,1,0,0:0:0:0:m_029.ogg
475,192,134666,1,0,0:0:0:0:m_056.ogg
109,192,134933,1,0,0:0:0:0:m_034.ogg
182,192,134933,1,0,0:0:0:0:m_042.ogg
402,192,134933,1,0,0:0:0:0:s_054.ogg
475,192,135022,1,0,0:0:0:0:s_056.ogg
402,192,135111,1,0,0:0:0:0:s_054.ogg
329,192,135200,1,0,0:0:0:0:m_053.ogg
109,192,135466,1,0,0:0:0:0:m_049.ogg
182,192,135466,1,0,0:0:0:0:m_037.ogg
256,192,135466,1,0,0:0:0:0:m_042.ogg
329,192,135466,1,0,0:0:0:0:m_054.ogg
475,192,135466,1,0,0:0:0:0:m_046.ogg
402,192,135733,1,0,0:0:0:0:m_056.ogg
36,192,136000,1,0,0:0:0:0:m_015.ogg
475,192,136000,1,0,0:0:0:0:m_058.ogg
329,192,136266,1,0,0:0:0:0:m_050.ogg
109,192,136533,1,0,0:0:0:0:m_034.ogg
182,192,136533,1,0,0:0:0:0:m_043.ogg
402,192,136533,1,0,0:0:0:0:m_051.ogg
475,192,136800,1,0,0:0:0:0:m_052.ogg
109,192,137066,1,0,0:0:0:0:m_046.ogg
182,192,137066,1,0,0:0:0:0:m_043.ogg
256,192,137066,1,0,0:0:0:0:m_037.ogg
329,192,137066,1,0,0:0:0:0:m_051.ogg
402,192,137333,1,0,0:0:0:0:m_056.ogg
36,192,137600,1,0,0:0:0:0:m_027.ogg
329,192,137600,1,0,0:0:0:0:m_055.ogg
475,192,137866,1,0,0:0:0:0:m_059.ogg
109,192,138133,1,0,0:0:0:0:m_043.ogg
182,192,138133,1,0,0:0:0:0:m_034.ogg
402,192,138133,1,0,0:0:0:0:m_058.ogg
475,192,138400,1,0,0:0:0:0:m_064.ogg
109,192,138666,1,0,0:0:0:0:m_039.ogg
182,192,138666,1,0,0:0:0:0:m_049.ogg
256,192,138666,1,0,0:0:0:0:m_043.ogg
402,192,138666,1,0,0:0:0:0:m_063.ogg
329,192,138933,1,0,0:0:0:0:m_058.ogg
329,192,139133,1,0,0:0:0:0:s_058.ogg
36,192,139200,1,0,0:0:0:0:m_020.ogg
402,192,139200,128,0,140666:0:0:0:0:m_061.ogg
109,192,139733,1,0,0:0:0:0:m_040.ogg
182,192,139733,1,0,0:0:0:0:m_032.ogg
109,192,140266,1,0,0:0:0:0:m_040.ogg
182,192,140266,1,0,0:0:0:0:m_037.ogg
256,192,140266,1,0,0:0:0:0:m_043.ogg
36,192,140800,1,0,0:0:0:0:m_020.ogg
329,192,140800,128,0,141733:0:0:0:0:m_059.ogg
109,192,141333,1,0,0:0:0:0:m_039.ogg
182,192,141333,1,0,0:0:0:0:m_032.ogg
109,192,141866,1,0,0:0:0:0:m_044.ogg
182,192,141866,1,0,0:0:0:0:m_035.ogg
256,192,141866,1,0,0:0:0:0:m_039.ogg
475,192,141866,1,0,0:0:0:0:m_058.ogg
36,192,142400,1,0,0:0:0:0:m_025.ogg
329,192,142400,1,0,0:0:0:0:s_056.ogg
402,192,142488,1,0,0:0:0:0:s_058.ogg
329,192,142577,1,0,0:0:0:0:s_056.ogg
402,192,142666,1,0,0:0:0:0:s_058.ogg
329,192,142755,1,0,0:0:0:0:s_056.ogg
402,192,142844,1,0,0:0:0:0:s_058.ogg
109,192,142933,1,0,0:0:0:0:m_041.ogg
182,192,142933,1,0,0:0:0:0:m_032.ogg
329,192,142933,1,0,0:0:0:0:s_056.ogg
402,192,143022,1,0,0:0:0:0:s_058.ogg
329,192,143111,1,0,0:0:0:0:s_056.ogg
402,192,143200,1,0,0:0:0:0:s_058.ogg
329,192,143288,1,0,0:0:0:0:s_056.ogg
402,192,143377,1,0,0:0:0:0:s_058.ogg
109,192,143466,1,0,0:0:0:0:m_047.ogg
182,192,143466,1,0,0:0:0:0:m_041.ogg
256,192,143466,1,0,0:0:0:0:m_037.ogg
329,192,143466,1,0,0:0:0:0:s_056.ogg
402,192,143555,1,0,0:0:0:0:s_058.ogg
329,192,143644,1,0,0:0:0:0:s_056.ogg
402,192,143733,1,0,0:0:0:0:s_058.ogg
475,192,143822,1,0,0:0:0:0:s_055.ogg
329,192,143911,1,0,0:0:0:0:s_056.ogg
36,192,144000,1,0,0:0:0:0:m_026.ogg
402,192,144000,1,0,0:0:0:0:m_058.ogg
109,192,144533,1,0,0:0:0:0:m_044.ogg
182,192,144533,1,0,0:0:0:0:m_034.ogg
402,192,144533,1,0,0:0:0:0:m_058.ogg
109,192,145066,1,0,0:0:0:0:m_041.ogg
182,192,145066,1,0,0:0:0:0:m_044.ogg
256,192,145066,1,0,0:0:0:0:m_046.ogg
329,192,145066,1,0,0:0:0:0:m_053.ogg
36,192,145600,1,0,0:0:0:0:m_027.ogg
475,192,145600,128,0,147066:0:0:0:0:m_054.ogg
109,192,146133,1,0,0:0:0:0:m_042.ogg
182,192,146133,1,0,0:0:0:0:m_034.ogg
109,192,146666,1,0,0:0:0:0:m_046.ogg
182,192,146666,1,0,0:0:0:0:m_039.ogg
256,192,146666,1,0,0:0:0:0:m_042.ogg
36,192,147200,1,0,0:0:0:0:m_024.ogg
402,192,147200,128,0,148666:0:0:0:0:m_051.ogg
109,192,147733,1,0,0:0:0:0:m_042.ogg
182,192,147733,1,0,0:0:0:0:m_033.ogg
109,192,148266,1,0,0:0:0:0:m_045.ogg
182,192,148266,1,0,0:0:0:0:m_039.ogg
256,192,148266,1,0,0:0:0:0:m_042.ogg
36,192,148800,1,0,0:0:0:0:m_025.ogg
329,192,148800,1,0,0:0:0:0:m_049.ogg
475,192,149066,1,0,0:0:0:0:m_065.ogg
109,192,149333,1,0,0:0:0:0:m_042.ogg
182,192,149333,1,0,0:0:0:0:m_032.ogg
402,192,149600,1,0,0:0:0:0:m_064.ogg
109,192,149866,1,0,0:0:0:0:m_037.ogg
182,192,149866,1,0,0:0:0:0:m_042.ogg
256,192,149866,1,0,0:0:0:0:m_047.ogg
329,192,149866,1,0,0:0:0:0:m_063.ogg
475,192,150266,1,0,0:0:0:0:s_062.ogg
36,192,150400,1,0,0:0:0:0:m_013.ogg
402,192,150400,1,0,0:0:0:0:m_061.ogg
329,192,150666,1,0,0:0:0:0:m_060.ogg
109,192,150933,1,0,0:0:0:0:m_041.ogg
182,192,150933,1,0,0:0:0:0:m_032.ogg
256,192,150933,1,0,0:0:0:0:s_059.ogg
329,192,151033,1,0,0:0:0:0:s_048.ogg
402,192,151133,1,0,0:0:0:0:s_049.ogg
475,192,151244,1,0,0:0:0:0:s_050.ogg
256,192,151344,1,0,0:0:0:0:s_051.ogg
36,192,151466,1,0,0:0:0:0:m_047.ogg
109,192,151466,1,0,0:0:0:0:m_041.ogg
182,192,151466,1,0,0:0:0:0:m_037.ogg
329,192,151466,1,0,0:0:0:0:s_052.ogg
402,192,151566,1,0,0:0:0:0:s_053.ogg
475,192,151688,1,0,0:0:0:0:s_058.ogg
402,192,151788,1,0,0:0:0:0:s_056.ogg
329,192,151900,1,0,0:0:0:0:s_054.ogg
36,192,152000,1,0,0:0:0:0:m_018.ogg
329,192,152000,128,0,155066:0:0:0:0:l_054.ogg
109,192,152533,1,0,0:0:0:0:m_042.ogg
182,192,152533,1,0,0:0:0:0:m_034.ogg
109,192,153066,1,0,0:0:0:0:m_046.ogg
182,192,153066,1,0,0:0:0:0:m_042.ogg
256,192,153066,1,0,0:0:0:0:m_037.ogg
36,192,153600,1,0,0:0:0:0:m_030.ogg
109,192,154133,1,0,0:0:0:0:m_042.ogg
182,192,154133,1,0,0:0:0:0:m_034.ogg
109,192,154666,1,0,0:0:0:0:m_046.ogg
256,192,154666,1,0,0:0:0:0:m_037.ogg
36,192,155200,1,0,0:0:0:0:m_018.ogg
329,192,155200,128,0,156666:0:0:0:0:m_054.ogg
109,192,155733,1,0,0:0:0:0:m_042.ogg
182,192,155733,1,0,0:0:0:0:m_035.ogg
256,192,155733,1,0,0:0:0:0:m_038.ogg
109,192,156266,1,0,0:0:0:0:m_047.ogg
182,192,156266,1,0,0:0:0:0:m_038.ogg
256,192,156266,1,0,0:0:0:0:m_042.ogg
36,192,156800,1,0,0:0:0:0:m_030.ogg
402,192,156800,1,0,0:0:0:0:m_056.ogg
109,192,157333,1,0,0:0:0:0:m_038.ogg
182,192,157333,1,0,0:0:0:0:m_035.ogg
256,192,157333,1,0,0:0:0:0:m_042.ogg
329,192,157333,1,0,0:0:0:0:m_054.ogg
109,192,157866,1,0,0:0:0:0:m_047.ogg
182,192,157866,1,0,0:0:0:0:m_038.ogg
256,192,157866,1,0,0:0:0:0:m_042.ogg
402,192,157866,1,0,0:0:0:0:m_056.ogg
36,192,158400,1,0,0:0:0:0:m_018.ogg
475,192,158400,128,0,161466:0:0:0:0:l_058.ogg
109,192,158933,1,0,0:0:0:0:m_042.ogg
182,192,158933,1,0,0:0:0:0:m_034.ogg
109,192,159466,1,0,0:0:0:0:m_046.ogg
182,192,159466,1,0,0:0:0:0:m_037.ogg
256,192,159466,1,0,0:0:0:0:m_042.ogg
36,192,160000,1,0,0:0:0:0:m_030.ogg
109,192,160533,1,0,0:0:0:0:m_042.ogg
182,192,160533,1,0,0:0:0:0:m_034.ogg
109,192,161066,1,0,0:0:0:0:m_046.ogg
182,192,161066,1,0,0:0:0:0:m_037.ogg
256,192,161066,1,0,0:0:0:0:m_042.ogg
36,192,161600,1,0,0:0:0:0:m_018.ogg
329,192,161600,128,0,163333:0:0:0:0:m_054.ogg
109,192,162133,1,0,0:0:0:0:m_038.ogg
182,192,162133,1,0,0:0:0:0:m_042.ogg
256,192,162133,1,0,0:0:0:0:m_035.ogg
109,192,162666,1,0,0:0:0:0:m_042.ogg
182,192,162666,1,0,0:0:0:0:m_038.ogg
256,192,162666,1,0,0:0:0:0:m_047.ogg
36,192,163200,1,0,0:0:0:0:m_030.ogg
402,192,163466,1,0,0:0:0:0:m_056.ogg
109,192,163733,1,0,0:0:0:0:m_038.ogg
182,192,163733,1,0,0:0:0:0:m_042.ogg
256,192,163733,1,0,0:0:0:0:m_035.ogg
329,192,163733,1,0,0:0:0:0:m_054.ogg
402,192,164000,1,0,0:0:0:0:m_056.ogg
109,192,164266,1,0,0:0:0:0:m_047.ogg
182,192,164266,1,0,0:0:0:0:m_042.ogg
256,192,164266,1,0,0:0:0:0:m_038.ogg
329,192,164266,1,0,0:0:0:0:m_054.ogg
402,192,164533,1,0,0:0:0:0:m_056.ogg
36,192,164800,1,0,0:0:0:0:m_018.ogg
475,192,164800,128,0,165733:0:0:0:0:m_058.ogg
109,192,165333,1,0,0:0:0:0:m_042.ogg
182,192,165333,1,0,0:0:0:0:m_034.ogg
109,192,165866,1,0,0:0:0:0:m_046.ogg
182,192,165866,1,0,0:0:0:0:m_037.ogg
256,192,165866,1,0,0:0:0:0:m_042.ogg
402,192,165866,1,0,0:0:0:0:s_054.ogg
475,192,165977,1,0,0:0:0:0:s_056.ogg
402,192,166077,1,0,0:0:0:0:s_054.ogg
329,192,166188,1,0,0:0:0:0:s_053.ogg
402,192,166300,1,0,0:0:0:0:s_054.ogg
36,192,166400,1,0,0:0:0:0:m_030.ogg
475,192,166400,1,0,0:0:0:0:m_066.ogg
109,192,166933,1,0,0:0:0:0:m_042.ogg
182,192,166933,1,0,0:0:0:0:m_034.ogg
402,192,166933,1,0,0:0:0:0:m_065.ogg
109,192,167466,1,0,0:0:0:0:m_046.ogg
182,192,167466,1,0,0:0:0:0:m_042.ogg
256,192,167466,1,0,0:0:0:0:m_037.ogg
329,192,167466,1,0,0:0:0:0:m_063.ogg
36,192,168000,1,0,0:0:0:0:m_030.ogg
329,192,168000,128,0,168933:0:0:0:0:m_061.ogg
109,192,168533,1,0,0:0:0:0:m_041.ogg
182,192,168533,1,0,0:0:0:0:m_032.ogg
109,192,169066,1,0,0:0:0:0:m_037.ogg
256,192,169066,1,0,0:0:0:0:m_047.ogg
402,192,169066,1,0,0:0:0:0:m_060.ogg
36,192,169600,1,0,0:0:0:0:m_030.ogg
329,192,169600,1,0,0:0:0:0:m_059.ogg
109,192,170133,1,0,0:0:0:0:m_041.ogg
182,192,170133,1,0,0:0:0:0:m_032.ogg
256,192,170133,1,0,0:0:0:0:m_051.ogg
109,192,170666,1,0,0:0:0:0:m_047.ogg
256,192,170666,1,0,0:0:0:0:m_037.ogg
329,192,170666,1,0,0:0:0:0:m_053.ogg
36,192,171200,1,0,0:0:0:0:m_030.ogg
402,192,171200,1,0,0:0:0:0:m_054.ogg
109,192,171733,1,0,0:0:0:0:m_034.ogg
182,192,171733,1,0,0:0:0:0:m_042.ogg
475,192,171733,1,0,0:0:0:0:m_056.ogg
329,192,172000,1,0,0:0:0:0:s_054.ogg
402,192,172088,1,0,0:0:0:0:s_056.ogg
329,192,172177,1,0,0:0:0:0:s_054.ogg
109,192,172266,1,0,0:0:0:0:m_046.ogg
182,192,172266,1,0,0:0:0:0:m_037.ogg
256,192,172266,1,0,0:0:0:0:m_053.ogg
329,192,172533,1,0,0:0:0:0:m_054.ogg
329,192,172733,1,0,0:0:0:0:s_054.ogg
36,192,172800,1,0,0:0:0:0:m_024.ogg
475,192,172800,1,0,0:0:0:0:m_070.ogg
109,192,173333,1,0,0:0:0:0:m_042.ogg
182,192,173333,1,0,0:0:0:0:m_032.ogg
402,192,173333,1,0,0:0:0:0:m_068.ogg
329,192,173600,1,0,0:0:0:0:m_066.ogg
109,192,173866,1,0,0:0:0:0:m_044.ogg
182,192,173866,1,0,0:0:0:0:m_042.ogg
256,192,173866,1,0,0:0:0:0:m_039.ogg
475,192,173866,1,0,0:0:0:0:m_065.ogg
402,192,174133,1,0,0:0:0:0:m_063.ogg
36,192,174400,1,0,0:0:0:0:m_025.ogg
329,192,174400,1,0,0:0:0:0:m_062.ogg
109,192,174933,1,0,0:0:0:0:m_042.ogg
182,192,174933,1,0,0:0:0:0:m_032.ogg
475,192,174933,1,0,0:0:0:0:m_061.ogg
109,192,175466,1,0,0:0:0:0:m_047.ogg
182,192,175466,1,0,0:0:0:0:m_037.ogg
256,192,175466,1,0,0:0:0:0:m_042.ogg
402,192,175466,1,0,0:0:0:0:m_060.ogg
36,192,176000,1,0,0:0:0:0:m_013.ogg
402,192,176000,1,0,0:0:0:0:m_060.ogg
329,192,176266,1,0,0:0:0:0:m_059.ogg
109,192,176533,1,0,0:0:0:0:m_032.ogg
182,192,176533,1,0,0:0:0:0:m_041.ogg
329,192,176533,1,0,0:0:0:0:m_059.ogg
475,192,176800,1,0,0:0:0:0:m_058.ogg
109,192,177066,1,0,0:0:0:0:m_037.ogg
182,192,177066,1,0,0:0:0:0:m_041.ogg
256,192,177066,1,0,0:0:0:0:m_047.ogg
475,192,177066,1,0,0:0:0:0:m_058.ogg
402,192,177466,1,0,0:0:0:0:s_056.ogg
36,192,177600,1,0,0:0:0:0:m_018.ogg
329,192,177600,128,0,180666:0:0:0:0:l_054.ogg
109,192,178133,1,0,0:0:0:0:m_042.ogg
182,192,178133,1,0,0:0:0:0:m_034.ogg
109,192,178666,1,0,0:0:0:0:m_046.ogg
182,192,178666,1,0,0:0:0:0:m_042.ogg
256,192,178666,1,0,0:0:0:0:m_037.ogg
36,192,179200,1,0,0:0:0:0:m_030.ogg
109,192,179733,1,0,0:0:0:0:m_042.ogg
182,192,179733,1,0,0:0:0:0:m_034.ogg
109,192,180266,1,0,0:0:0:0:m_046.ogg
182,192,180266,1,0,0:0:0:0:m_042.ogg
256,192,180266,1,0,0:0:0:0:m_037.ogg
36,192,180800,1,0,0:0:0:0:m_011.ogg
329,192,180800,128,0,182400:0:0:0:0:m_054.ogg
36,192,181333,1,0,0:0:0:0:m_035.ogg
109,192,181333,1,0,0:0:0:0:m_038.ogg
182,192,181333,1,0,0:0:0:0:m_030.ogg
36,192,181866,1,0,0:0:0:0:m_042.ogg
109,192,181866,1,0,0:0:0:0:m_038.ogg
256,192,181866,1,0,0:0:0:0:m_035.ogg
36,192,182400,1,0,0:0:0:0:m_047.ogg
182,192,182400,1,0,0:0:0:0:m_038.ogg
256,192,182400,1,0,0:0:0:0:m_042.ogg
402,192,182577,1,0,0:0:0:0:m_056.ogg
329,192,182800,1,0,0:0:0:0:m_054.ogg
36,192,182933,1,0,0:0:0:0:m_035.ogg
109,192,182933,1,0,0:0:0:0:m_038.ogg
256,192,182933,1,0,0:0:0:0:m_042.ogg
402,192,183000,1,0,0:0:0:0:m_056.ogg
329,192,183200,1,0,0:0:0:0:m_054.ogg
402,192,183400,1,0,0:0:0:0:m_056.ogg
36,192,183466,1,0,0:0:0:0:m_038.ogg
109,192,183466,1,0,0:0:0:0:m_035.ogg
182,192,183466,1,0,0:0:0:0:m_030.ogg
329,192,183600,1,0,0:0:0:0:m_054.ogg
402,192,183800,1,0,0:0:0:0:m_056.ogg
36,192,184000,1,0,0:0:0:0:m_018.ogg
475,192,184000,128,0,185600:0:0:0:0:m_058.ogg
109,192,184533,1,0,0:0:0:0:m_042.ogg
182,192,184533,1,0,0:0:0:0:m_034.ogg
109,192,185066,1,0,0:0:0:0:m_042.ogg
182,192,185066,1,0,0:0:0:0:m_037.ogg
256,192,185066,1,0,0:0:0:0:m_046.ogg
36,192,185600,1,0,0:0:0:0:m_030.ogg
109,192,186133,1,0,0:0:0:0:m_042.ogg
182,192,186133,1,0,0:0:0:0:m_034.ogg
109,192,186666,1,0,0:0:0:0:m_037.ogg
256,192,186666,1,0,0:0:0:0:m_046.ogg
36,192,187200,1,0,0:0:0:0:m_011.ogg
475,192,187200,1,0,0:0:0:0:m_054.ogg
36,192,187733,1,0,0:0:0:0:m_035.ogg
109,192,187733,1,0,0:0:0:0:m_038.ogg
182,192,187733,1,0,0:0:0:0:m_030.ogg
402,192,187733,1,0,0:0:0:0:m_047.ogg
475,192,188000,1,0,0:0:0:0:m_049.ogg
36,192,188266,1,0,0:0:0:0:m_035.ogg
182,192,188266,1,0,0:0:0:0:m_038.ogg
256,192,188266,1,0,0:0:0:0:m_042.ogg
402,192,188266,1,0,0:0:0:0:s_047.ogg
475,192,188355,1,0,0:0:0:0:s_049.ogg
402,192,188444,1,0,0:0:0:0:s_047.ogg
329,192,188533,1,0,0:0:0:0:m_046.ogg
36,192,188800,1,0,0:0:0:0:m_030.ogg
109,192,188800,1,0,0:0:0:0:m_035.ogg
256,192,188800,1,0,0:0:0:0:m_038.ogg
402,192,188800,1,0,0:0:0:0:m_047.ogg
475,192,189066,1,0,0:0:0:0:m_050.ogg
36,192,189333,1,0,0:0:0:0:m_042.ogg
182,192,189333,1,0,0:0:0:0:m_035.ogg
256,192,189333,1,0,0:0:0:0:m_038.ogg
329,192,189333,1,0,0:0:0:0:m_054.ogg
402,192,189600,1,0,0:0:0:0:m_059.ogg
36,192,189866,1,0,0:0:0:0:m_038.ogg
109,192,189866,1,0,0:0:0:0:m_035.ogg
182,192,189866,1,0,0:0:0:0:m_030.ogg
475,192,189866,1,0,0:0:0:0:m_066.ogg
402,192,190266,1,0,0:0:0:0:s_068.ogg
36,192,190400,1,0,0:0:0:0:m_018.ogg
475,192,190400,1,0,0:0:0:0:m_070.ogg
109,192,190933,1,0,0:0:0:0:m_042.ogg
182,192,190933,1,0,0:0:0:0:m_034.ogg
329,192,190933,1,0,0:0:0:0:m_066.ogg
109,192,191466,1,0,0:0:0:0:m_046.ogg
182,192,191466,1,0,0:0:0:0:m_042.ogg
256,192,191466,1,0,0:0:0:0:m_037.ogg
475,192,191466,128,0,192400:0:0:0:0:m_078.ogg
402,192,191466,128,0,192400:0:0:0:0:m_066.ogg
36,192,192000,1,0,0:0:0:0:m_024.ogg
109,192,192533,1,0,0:0:0:0:m_042.ogg
182,192,192533,1,0,0:0:0:0:m_032.ogg
329,192,192533,1,0,0:0:0:0:m_077.ogg
475,192,192533,1,0,0:0:0:0:m_065.ogg
109,192,193066,1,0,0:0:0:0:m_044.ogg
182,192,193066,1,0,0:0:0:0:m_039.ogg
256,192,193066,1,0,0:0:0:0:m_042.ogg
329,192,193066,1,0,0:0:0:0:m_075.ogg
402,192,193066,1,0,0:0:0:0:m_063.ogg
36,192,193600,1,0,0:0:0:0:m_025.ogg
402,192,193600,1,0,0:0:0:0:m_062.ogg
475,192,193600,1,0,0:0:0:0:m_074.ogg
109,192,194133,1,0,0:0:0:0:m_042.ogg
182,192,194133,1,0,0:0:0:0:m_032.ogg
256,192,194133,1,0,0:0:0:0:m_037.ogg
329,192,194133,1,0,0:0:0:0:m_073.ogg
475,192,194133,1,0,0:0:0:0:m_061.ogg
109,192,194666,1,0,0:0:0:0:m_047.ogg
182,192,194666,1,0,0:0:0:0:m_037.ogg
256,192,194666,1,0,0:0:0:0:m_042.ogg
329,192,194666,1,0,0:0:0:0:m_072.ogg
402,192,194666,1,0,0:0:0:0:m_060.ogg
36,192,195200,1,0,0:0:0:0:m_026.ogg
402,192,195200,1,0,0:0:0:0:m_059.ogg
475,192,195200,1,0,0:0:0:0:m_071.ogg
109,192,195733,1,0,0:0:0:0:m_044.ogg
182,192,195733,1,0,0:0:0:0:m_034.ogg
329,192,195733,1,0,0:0:0:0:m_070.ogg
475,192,195733,1,0,0:0:0:0:m_058.ogg
109,192,196266,1,0,0:0:0:0:m_046.ogg
182,192,196266,1,0,0:0:0:0:m_041.ogg
256,192,196266,1,0,0:0:0:0:m_044.ogg
329,192,196266,1,0,0:0:0:0:m_053.ogg
402,192,196266,1,0,0:0:0:0:m_065.ogg
36,192,196800,1,0,0:0:0:0:m_027.ogg
329,192,196800,1,0,0:0:0:0:m_054.ogg
475,192,196800,1,0,0:0:0:0:m_066.ogg
109,192,197333,1,0,0:0:0:0:m_042.ogg
182,192,197333,1,0,0:0:0:0:m_034.ogg
475,192,197333,128,0,198800:0:0:0:0:m_066.ogg
402,192,197333,128,0,198800:0:0:0:0:m_078.ogg
109,192,197866,1,0,0:0:0:0:m_046.ogg
256,192,197866,1,0,0:0:0:0:m_039.ogg
36,192,198400,1,0,0:0:0:0:m_024.ogg
109,192,198933,1,0,0:0:0:0:m_042.ogg
182,192,198933,1,0,0:0:0:0:m_039.ogg
256,192,198933,1,0,0:0:0:0:m_032.ogg
329,192,198933,1,0,0:0:0:0:m_068.ogg
402,192,198933,1,0,0:0:0:0:m_056.ogg
109,192,199466,1,0,0:0:0:0:m_044.ogg
182,192,199466,1,0,0:0:0:0:m_042.ogg
256,192,199466,1,0,0:0:0:0:m_039.ogg
329,192,199466,1,0,0:0:0:0:m_075.ogg
475,192,199466,1,0,0:0:0:0:m_063.ogg
256,192,200000,1,0,0:0:0:0:l_062.ogg
402,192,200000,1,0,0:0:0:0:l_074.ogg
475,192,200000,1,0,0:0:0:0:l_013.ogg
36,192,200266,1,0,0:0:0:0:m_025.ogg
109,192,200533,1,0,0:0:0:0:m_032.ogg
182,192,200800,1,0,0:0:0:0:m_035.ogg
256,192,201066,1,0,0:0:0:0:m_041.ogg
329,192,201333,1,0,0:0:0:0:m_037.ogg
402,192,201600,1,0,0:0:0:0:m_044.ogg
475,192,201866,1,0,0:0:0:0:m_047.ogg
36,192,202133,1,0,0:0:0:0:l_049.ogg
182,192,202133,1,0,0:0:0:0:l_061.ogg
256,192,202133,1,0,0:0:0:0:l_073.ogg
402,192,204266,1,0,0:0:0:0:s_074.ogg
329,192,204400,1,0,0:0:0:0:s_073.ogg
475,192,204533,1,0,0:0:0:0:s_075.ogg
256,192,204666,1,0,0:0:0:0:s_072.ogg
402,192,204800,1,0,0:0:0:0:s_074.ogg
329,192,204933,1,0,0:0:0:0:s_073.ogg
475,192,205066,1,0,0:0:0:0:s_075.ogg
256,192,205200,1,0,0:0:0:0:s_072.ogg
402,192,205333,1,0,0:0:0:0:s_074.ogg
329,192,205466,1,0,0:0:0:0:s_073.ogg
475,192,205600,1,0,0:0:0:0:s_075.ogg
256,192,205733,1,0,0:0:0:0:s_072.ogg
402,192,205866,1,0,0:0:0:0:s_074.ogg
329,192,206000,1,0,0:0:0:0:s_073.ogg
475,192,206133,1,0,0:0:0:0:s_075.ogg
256,192,206266,1,0,0:0:0:0:s_072.ogg
402,192,206400,1,0,0:0:0:0:s_074.ogg
329,192,206533,1,0,0:0:0:0:s_073.ogg
475,192,206666,1,0,0:0:0:0:s_075.ogg
256,192,206800,1,0,0:0:0:0:s_072.ogg
402,192,206933,1,0,0:0:0:0:s_074.ogg
329,192,207066,1,0,0:0:0:0:s_073.ogg
475,192,207200,1,0,0:0:0:0:s_075.ogg
256,192,207333,1,0,0:0:0:0:s_072.ogg
402,192,207466,1,0,0:0:0:0:s_074.ogg
329,192,207600,1,0,0:0:0:0:s_073.ogg
475,192,207733,1,0,0:0:0:0:s_075.ogg
256,192,207866,1,0,0:0:0:0:s_072.ogg
402,192,208000,1,0,0:0:0:0:s_074.ogg
329,192,208133,1,0,0:0:0:0:s_073.ogg
475,192,208266,1,0,0:0:0:0:s_075.ogg
256,192,208400,1,0,0:0:0:0:s_072.ogg
402,192,208533,1,0,0:0:0:0:s_074.ogg
329,192,208666,1,0,0:0:0:0:s_073.ogg
475,192,208800,1,0,0:0:0:0:s_075.ogg
256,192,208933,1,0,0:0:0:0:s_072.ogg
402,192,209066,1,0,0:0:0:0:s_074.ogg
329,192,209200,1,0,0:0:0:0:s_073.ogg
475,192,209333,1,0,0:0:0:0:s_075.ogg
256,192,209466,1,0,0:0:0:0:s_072.ogg
402,192,209600,1,0,0:0:0:0:s_074.ogg
329,192,209733,1,0,0:0:0:0:s_073.ogg
475,192,209866,1,0,0:0:0:0:s_075.ogg
256,192,210000,1,0,0:0:0:0:s_072.ogg
402,192,210133,1,0,0:0:0:0:s_074.ogg
329,192,210266,1,0,0:0:0:0:s_073.ogg
475,192,210400,1,0,0:0:0:0:s_075.ogg
256,192,210533,1,0,0:0:0:0:s_072.ogg
402,192,210666,1,0,0:0:0:0:s_074.ogg
329,192,210866,1,0,0:0:0:0:s_073.ogg
475,192,211066,1,0,0:0:0:0:s_077.ogg
402,192,211266,1,0,0:0:0:0:s_075.ogg
329,192,211466,1,0,0:0:0:0:s_073.ogg
256,192,211733,1,0,0:0:0:0:s_072.ogg
182,192,212000,1,0,0:0:0:0:s_071.ogg
109,192,212266,1,0,0:0:0:0:s_070.ogg
36,192,212533,1,0,0:0:0:0:s_068.ogg
182,192,212866,1,0,0:0:0:0:s_065.ogg
329,192,213200,1,0,0:0:0:0:s_066.ogg
256,192,213533,1,0,0:0:0:0:s_063.ogg
182,192,213866,1,0,0:0:0:0:s_061.ogg
109,192,214266,1,0,0:0:0:0:s_059.ogg
36,192,214666,1,0,0:0:0:0:s_051.ogg
109,192,215066,1,0,0:0:0:0:s_053.ogg
182,192,215466,1,0,0:0:0:0:m_046.ogg
256,192,215466,1,0,0:0:0:0:m_018.ogg
475,192,215466,1,0,0:0:0:0:m_054.ogg
182,192,216000,1,0,0:0:0:0:m_037.ogg
329,192,216000,1,0,0:0:0:0:m_049.ogg
36,192,216533,1,0,0:0:0:0:m_025.ogg
475,192,216533,1,0,0:0:0:0:m_058.ogg
109,192,217066,1,0,0:0:0:0:m_030.ogg
256,192,217066,1,0,0:0:0:0:m_046.ogg
402,192,217066,1,0,0:0:0:0:m_054.ogg
182,192,217600,1,0,0:0:0:0:m_037.ogg
329,192,217600,1,0,0:0:0:0:m_049.ogg
36,192,218133,1,0,0:0:0:0:m_025.ogg
475,192,218133,1,0,0:0:0:0:m_058.ogg
109,192,218666,1,0,0:0:0:0:m_018.ogg
256,192,218666,1,0,0:0:0:0:m_046.ogg
402,192,218666,1,0,0:0:0:0:m_054.ogg
182,192,219200,1,0,0:0:0:0:m_037.ogg
329,192,219200,1,0,0:0:0:0:m_049.ogg
36,192,219733,1,0,0:0:0:0:m_025.ogg
475,192,219733,1,0,0:0:0:0:m_058.ogg
109,192,220266,1,0,0:0:0:0:m_030.ogg
256,192,220266,1,0,0:0:0:0:m_046.ogg
402,192,220266,1,0,0:0:0:0:m_054.ogg
182,192,220800,1,0,0:0:0:0:l_037.ogg
329,192,220800,1,0,0:0:0:0:m_049.ogg
36,192,221333,1,0,0:0:0:0:m_025.ogg
475,192,221333,1,0,0:0:0:0:m_058.ogg
109,192,221866,1,0,0:0:0:0:m_030.ogg
256,192,221866,1,0,0:0:0:0:m_046.ogg
329,192,221866,1,0,0:0:0:0:m_054.ogg
182,192,223466,1,0,0:0:0:0:m_049.ogg
256,192,223466,1,0,0:0:0:0:m_042.ogg
402,192,223466,1,0,0:0:0:0:m_058.ogg
475,192,223466,1,0,0:0:0:0:m_066.ogg
36,192,225066,1,0,0:0:0:0:l_025.ogg
109,192,225066,1,0,0:0:0:0:l_034.ogg
256,192,225066,1,0,0:0:0:0:l_042.ogg
329,192,225066,1,0,0:0:0:0:l_018.ogg
