osu file format v14

[General]
AudioFilename: virtual
AudioLeadIn: 0
PreviewTime: 0
Countdown: 0
SampleSet: Soft
StackLeniency: 0.7
Mode: 3
LetterboxInBreaks: 0
SpecialStyle: 0
WidescreenStoryboard: 1

[Editor]
DistanceSpacing: 0.8
BeatDivisor: 1
GridSize: 32
TimelineZoom: 0.6

[Metadata]
Title:Piano Beatmap Set
TitleUnicode:Piano Beatmap Set
Artist:Collection
ArtistUnicode:Collection
Creator:CircusGalop
Version:Canon - 10K BG
Source:BMS
Tags:
BeatmapID:1317194
BeatmapSetID:332673

[Difficulty]
HPDrainRate:0
CircleSize:10
OverallDifficulty:5
ApproachRate:5
SliderMultiplier:1.4
SliderTickRate:1

[Events]
//Background and Video events
0,0,"CircusGalop.jpg",0,0
//Break Periods
//Storyboard Layer 0 (Background)
//Storyboard Layer 1 (Fail)
//Storyboard Layer 2 (Pass)
//Storyboard Layer 3 (Foreground)
//Storyboard Sound Samples
Sample,4800,0,"l_041.ogg",100
Sample,4800,0,"l_029.ogg",100
Sample,4800,0,"l_053.ogg",100
Sample,4800,0,"l_057.ogg",100
Sample,4800,0,"l_036.ogg",100
Sample,6000,0,"l_024.ogg",100
Sample,6000,0,"l_055.ogg",100
Sample,6000,0,"l_043.ogg",100
Sample,6000,0,"l_052.ogg",100
Sample,6000,0,"l_048.ogg",100
Sample,7200,0,"l_041.ogg",100
Sample,7200,0,"l_026.ogg",100
Sample,7200,0,"l_053.ogg",100
Sample,7200,0,"l_050.ogg",100
Sample,8400,0,"l_036.ogg",100
Sample,8400,0,"l_040.ogg",100
Sample,8400,0,"l_052.ogg",100
Sample,8400,0,"l_021.ogg",100
Sample,8400,0,"l_048.ogg",100
Sample,9600,0,"l_041.ogg",100
Sample,9600,0,"l_022.ogg",100
Sample,9600,0,"l_050.ogg",100
Sample,9600,0,"l_046.ogg",100
Sample,10800,0,"l_045.ogg",100
Sample,10800,0,"l_041.ogg",100
Sample,10800,0,"l_048.ogg",100
Sample,10800,0,"l_017.ogg",100
Sample,12000,0,"l_038.ogg",100
Sample,12000,0,"l_050.ogg",100
Sample,12000,0,"l_041.ogg",100
Sample,12000,0,"l_046.ogg",100
Sample,13200,0,"l_024.ogg",100
Sample,13200,0,"l_036.ogg",100
Sample,13200,0,"l_043.ogg",100
Sample,13200,0,"l_040.ogg",100
Sample,14400,0,"l_053.ogg",100
Sample,14400,0,"l_029.ogg",100
Sample,14400,0,"l_045.ogg",100
Sample,14400,0,"l_036.ogg",100
Sample,14400,0,"l_057.ogg",100
Sample,15000,0,"m_045.ogg",100
Sample,15600,0,"l_024.ogg",100
Sample,15600,0,"l_048.ogg",100
Sample,15600,0,"l_040.ogg",100
Sample,15600,0,"l_052.ogg",100
Sample,15600,0,"l_043.ogg",100
Sample,16200,0,"m_046.ogg",100
Sample,16800,0,"l_045.ogg",100
Sample,16800,0,"l_050.ogg",100
Sample,16800,0,"l_041.ogg",100
Sample,16800,0,"l_026.ogg",100
Sample,17400,0,"m_041.ogg",100
Sample,18000,0,"l_021.ogg",100
Sample,18000,0,"l_045.ogg",100
Sample,18000,0,"l_040.ogg",100
Sample,18000,0,"l_048.ogg",100
Sample,18000,0,"l_036.ogg",100
Sample,18600,0,"m_043.ogg",100
Sample,19200,0,"l_041.ogg",100
Sample,19200,0,"l_038.ogg",100
Sample,19200,0,"l_046.ogg",100
Sample,19200,0,"l_022.ogg",100
Sample,19800,0,"m_038.ogg",100
Sample,20400,0,"l_045.ogg",100
Sample,20400,0,"l_041.ogg",100
Sample,20400,0,"l_017.ogg",100
Sample,20400,0,"l_036.ogg",100
Sample,21000,0,"m_048.ogg",100
Sample,21600,0,"l_041.ogg",100
Sample,21600,0,"l_046.ogg",100
Sample,21600,0,"l_038.ogg",100
Sample,21600,0,"l_022.ogg",100
Sample,22200,0,"m_050.ogg",100
Sample,22800,0,"l_043.ogg",100
Sample,22800,0,"l_052.ogg",100
Sample,22800,0,"l_024.ogg",100
Sample,22800,0,"l_040.ogg",100
Sample,22800,0,"l_036.ogg",100
Sample,23400,0,"m_046.ogg",100
Sample,24000,0,"l_045.ogg",100
Sample,24000,0,"l_029.ogg",100
Sample,24000,0,"l_036.ogg",100
Sample,24000,0,"m_053.ogg",100
Sample,24300,0,"m_052.ogg",100
Sample,24600,0,"m_045.ogg",100
Sample,24600,0,"m_053.ogg",100
Sample,24900,0,"m_041.ogg",100
Sample,25200,0,"l_043.ogg",100
Sample,25200,0,"l_040.ogg",100
Sample,25200,0,"l_024.ogg",100
Sample,25500,0,"m_048.ogg",100
Sample,25800,0,"m_043.ogg",100
Sample,25800,0,"m_046.ogg",100
Sample,26100,0,"m_045.ogg",100
Sample,26400,0,"l_045.ogg",100
Sample,26400,0,"m_053.ogg",100
Sample,26400,0,"l_041.ogg",100
Sample,26700,0,"m_053.ogg",100
Sample,27000,0,"m_041.ogg",100
Sample,27000,0,"m_057.ogg",100
Sample,27300,0,"m_050.ogg",100
Sample,27600,0,"l_045.ogg",100
Sample,27600,0,"m_052.ogg",100
Sample,27600,0,"m_060.ogg",100
Sample,27600,0,"l_036.ogg",100
Sample,27600,0,"l_040.ogg",100
Sample,27900,0,"m_057.ogg",100
Sample,28200,0,"m_048.ogg",100
Sample,28200,0,"m_043.ogg",100
Sample,28500,0,"m_062.ogg",100
Sample,28800,0,"l_041.ogg",100
Sample,28800,0,"l_038.ogg",100
Sample,28800,0,"m_058.ogg",100
Sample,28800,0,"l_022.ogg",100
Sample,29100,0,"m_057.ogg",100
Sample,29400,0,"m_055.ogg",100
Sample,29400,0,"m_046.ogg",100
Sample,29700,0,"m_058.ogg",100
Sample,30000,0,"l_045.ogg",100
Sample,30000,0,"m_048.ogg",100
Sample,30000,0,"m_057.ogg",100
Sample,30000,0,"l_036.ogg",100
Sample,30000,0,"l_017.ogg",100
Sample,30300,0,"m_055.ogg",100
Sample,30600,0,"m_053.ogg",100
Sample,30600,0,"m_045.ogg",100
Sample,30900,0,"m_052.ogg",100
Sample,31200,0,"l_050.ogg",100
Sample,31200,0,"l_041.ogg",100
Sample,31200,0,"l_043.ogg",100
Sample,31200,0,"m_046.ogg",100
Sample,31500,0,"m_048.ogg",100
Sample,31800,0,"m_050.ogg",100
Sample,31800,0,"m_053.ogg",100
Sample,32100,0,"m_045.ogg",100
Sample,32400,0,"l_024.ogg",100
Sample,32400,0,"l_040.ogg",100
Sample,32400,0,"s_053.ogg",100
Sample,32400,0,"l_048.ogg",100
Sample,32475,0,"s_055.ogg",100
Sample,32550,0,"s_053.ogg",100
Sample,32625,0,"s_055.ogg",100
Sample,32700,0,"m_046.ogg",100
Sample,32700,0,"s_053.ogg",100
Sample,32775,0,"s_055.ogg",100
Sample,32850,0,"s_053.ogg",100
Sample,32925,0,"s_055.ogg",100
Sample,33000,0,"m_046.ogg",100
Sample,33000,0,"m_045.ogg",100
Sample,33000,0,"s_053.ogg",100
Sample,33075,0,"s_055.ogg",100
Sample,33150,0,"s_053.ogg",100
Sample,33200,0,"s_055.ogg",100
Sample,33300,0,"m_052.ogg",100
Sample,33300,0,"m_043.ogg",100
Sample,33600,0,"l_045.ogg",100
Sample,33600,0,"l_041.ogg",100
Sample,33600,0,"l_036.ogg",100
Sample,33600,0,"l_029.ogg",100
Sample,33900,0,"m_043.ogg",100
Sample,34200,0,"m_053.ogg",100
Sample,34200,0,"m_057.ogg",100
Sample,34500,0,"m_046.ogg",100
Sample,34800,0,"l_024.ogg",100
Sample,34800,0,"l_052.ogg",100
Sample,34800,0,"l_040.ogg",100
Sample,34800,0,"l_055.ogg",100
Sample,34800,0,"l_048.ogg",100
Sample,35100,0,"m_043.ogg",100
Sample,35400,0,"m_048.ogg",100
Sample,35700,0,"m_046.ogg",100
Sample,36000,0,"l_045.ogg",100
Sample,36000,0,"l_041.ogg",100
Sample,36300,0,"m_050.ogg",100
Sample,36600,0,"m_050.ogg",100
Sample,36600,0,"m_053.ogg",100
Sample,36900,0,"m_046.ogg",100
Sample,37200,0,"l_048.ogg",100
Sample,37200,0,"l_041.ogg",100
Sample,37200,0,"l_021.ogg",100
Sample,37200,0,"l_057.ogg",100
Sample,37500,0,"m_046.ogg",100
Sample,37800,0,"m_045.ogg",100
Sample,38100,0,"m_043.ogg",100
Sample,38400,0,"l_062.ogg",100
Sample,38400,0,"l_022.ogg",100
Sample,38400,0,"l_050.ogg",100
Sample,38400,0,"l_041.ogg",100
Sample,38400,0,"l_053.ogg",100
Sample,38700,0,"m_038.ogg",100
Sample,39000,0,"m_050.ogg",100
Sample,39300,0,"m_052.ogg",100
Sample,39600,0,"l_041.ogg",100
Sample,39600,0,"l_048.ogg",100
Sample,39600,0,"l_045.ogg",100
Sample,39600,0,"l_017.ogg",100
Sample,39600,0,"l_060.ogg",100
Sample,39900,0,"m_052.ogg",100
Sample,40200,0,"m_053.ogg",100
Sample,40200,0,"m_050.ogg",100
Sample,40500,0,"m_048.ogg",100
Sample,40800,0,"l_043.ogg",100
Sample,40800,0,"l_050.ogg",100
Sample,40800,0,"m_053.ogg",100
Sample,40800,0,"l_041.ogg",100
Sample,40800,0,"l_022.ogg",100
Sample,40800,0,"l_062.ogg",100
Sample,41100,0,"m_045.ogg",100
Sample,41400,0,"m_043.ogg",100
Sample,41700,0,"m_050.ogg",100
Sample,42000,0,"l_040.ogg",100
Sample,42000,0,"m_055.ogg",100
Sample,42000,0,"l_048.ogg",100
Sample,42000,0,"l_064.ogg",100
Sample,42000,0,"l_043.ogg",100
Sample,42300,0,"m_050.ogg",100
Sample,42600,0,"m_048.ogg",100
Sample,42900,0,"m_046.ogg",100
Sample,43200,0,"l_041.ogg",100
Sample,43200,0,"l_029.ogg",100
Sample,43200,0,"m_060.ogg",100
Sample,43200,0,"m_065.ogg",100
Sample,43200,0,"l_045.ogg",100
Sample,43500,0,"m_057.ogg",100
Sample,43650,0,"m_058.ogg",100
Sample,43800,0,"m_060.ogg",100
Sample,43800,0,"m_053.ogg",100
Sample,43800,0,"m_057.ogg",100
Sample,44100,0,"m_057.ogg",100
Sample,44250,0,"m_058.ogg",100
Sample,44400,0,"l_024.ogg",100
Sample,44400,0,"s_060.ogg",100
Sample,44400,0,"l_043.ogg",100
Sample,44400,0,"l_055.ogg",100
Sample,44400,0,"l_048.ogg",100
Sample,44550,0,"m_048.ogg",100
Sample,44700,0,"m_050.ogg",100
Sample,44850,0,"m_052.ogg",100
Sample,45000,0,"m_053.ogg",100
Sample,45150,0,"m_055.ogg",100
Sample,45300,0,"m_057.ogg",100
Sample,45450,0,"m_058.ogg",100
Sample,45600,0,"l_026.ogg",100
Sample,45600,0,"m_057.ogg",100
Sample,45600,0,"l_050.ogg",100
Sample,45600,0,"l_041.ogg",100
Sample,45900,0,"m_053.ogg",100
Sample,46050,0,"m_055.ogg",100
Sample,46200,0,"m_050.ogg",100
Sample,46200,0,"m_053.ogg",100
Sample,46200,0,"m_057.ogg",100
Sample,46500,0,"m_045.ogg",100
Sample,46650,0,"m_046.ogg",100
Sample,46800,0,"l_041.ogg",100
Sample,46800,0,"l_021.ogg",100
Sample,46800,0,"l_053.ogg",100
Sample,46800,0,"l_057.ogg",100
Sample,46950,0,"m_050.ogg",100
Sample,47100,0,"m_048.ogg",100
Sample,47250,0,"m_046.ogg",100
Sample,47400,0,"m_048.ogg",100
Sample,47550,0,"m_045.ogg",100
Sample,47700,0,"m_046.ogg",100
Sample,47850,0,"m_048.ogg",100
Sample,48000,0,"l_062.ogg",100
Sample,48000,0,"l_022.ogg",100
Sample,48000,0,"l_053.ogg",100
Sample,48000,0,"l_046.ogg",100
Sample,48000,0,"l_041.ogg",100
Sample,48300,0,"m_050.ogg",100
Sample,48450,0,"m_048.ogg",100
Sample,48600,0,"m_046.ogg",100
Sample,48900,0,"m_045.ogg",100
Sample,49050,0,"m_043.ogg",100
Sample,49200,0,"l_045.ogg",100
Sample,49200,0,"l_048.ogg",100
Sample,49200,0,"l_017.ogg",100
Sample,49200,0,"l_060.ogg",100
Sample,49350,0,"m_043.ogg",100
Sample,49500,0,"m_041.ogg",100
Sample,49650,0,"m_043.ogg",100
Sample,49800,0,"m_053.ogg",100
Sample,49800,0,"m_045.ogg",100
Sample,49950,0,"m_046.ogg",100
Sample,50100,0,"m_048.ogg",100
Sample,50250,0,"m_050.ogg",100
Sample,50400,0,"l_050.ogg",100
Sample,50400,0,"m_053.ogg",100
Sample,50400,0,"l_022.ogg",100
Sample,50400,0,"l_041.ogg",100
Sample,50400,0,"l_062.ogg",100
Sample,50700,0,"m_050.ogg",100
Sample,50850,0,"m_048.ogg",100
Sample,51000,0,"m_058.ogg",100
Sample,51000,0,"m_050.ogg",100
Sample,51300,0,"m_052.ogg",100
Sample,51450,0,"m_053.ogg",100
Sample,51600,0,"l_024.ogg",100
Sample,51600,0,"l_064.ogg",100
Sample,51600,0,"m_055.ogg",100
Sample,51600,0,"l_040.ogg",100
Sample,51600,0,"l_043.ogg",100
Sample,51750,0,"m_050.ogg",100
Sample,51900,0,"m_052.ogg",100
Sample,52050,0,"m_053.ogg",100
Sample,52200,0,"m_055.ogg",100
Sample,52200,0,"m_060.ogg",100
Sample,52350,0,"m_057.ogg",100
Sample,52500,0,"m_058.ogg",100
Sample,52650,0,"m_060.ogg",100
Sample,52800,0,"m_057.ogg",100
Sample,52800,0,"l_045.ogg",100
Sample,52800,0,"l_041.ogg",100
Sample,52800,0,"l_036.ogg",100
Sample,52800,0,"m_060.ogg",100
Sample,52800,0,"m_053.ogg",100
Sample,53100,0,"m_057.ogg",100
Sample,53100,0,"m_053.ogg",100
Sample,53250,0,"m_055.ogg",100
Sample,53250,0,"m_058.ogg",100
Sample,53400,0,"m_060.ogg",100
Sample,53400,0,"m_057.ogg",100
Sample,53700,0,"m_057.ogg",100
Sample,53700,0,"m_055.ogg",100
Sample,53850,0,"m_058.ogg",100
Sample,53850,0,"m_053.ogg",100
Sample,54000,0,"l_048.ogg",100
Sample,54000,0,"l_024.ogg",100
Sample,54000,0,"m_052.ogg",100
Sample,54000,0,"s_060.ogg",100
Sample,54000,0,"l_043.ogg",100
Sample,54000,0,"m_055.ogg",100
Sample,54150,0,"m_052.ogg",100
Sample,54150,0,"m_048.ogg",100
Sample,54300,0,"m_053.ogg",100
Sample,54300,0,"m_050.ogg",100
Sample,54450,0,"m_055.ogg",100
Sample,54450,0,"m_052.ogg",100
Sample,54600,0,"m_057.ogg",100
Sample,54600,0,"m_053.ogg",100
Sample,54750,0,"m_055.ogg",100
Sample,54900,0,"m_057.ogg",100
Sample,54900,0,"m_053.ogg",100
Sample,55050,0,"m_058.ogg",100
Sample,55050,0,"m_052.ogg",100
Sample,55200,0,"l_045.ogg",100
Sample,55200,0,"m_057.ogg",100
Sample,55200,0,"l_041.ogg",100
Sample,55200,0,"m_050.ogg",100
Sample,55200,0,"l_026.ogg",100
Sample,55500,0,"m_050.ogg",100
Sample,55500,0,"m_053.ogg",100
Sample,55650,0,"m_055.ogg",100
Sample,55650,0,"m_052.ogg",100
Sample,55800,0,"m_057.ogg",100
Sample,55800,0,"m_053.ogg",100
Sample,56100,0,"m_041.ogg",100
Sample,56100,0,"m_045.ogg",100
Sample,56250,0,"m_043.ogg",100
Sample,56250,0,"m_046.ogg",100
Sample,56400,0,"l_021.ogg",100
Sample,56400,0,"l_036.ogg",100
Sample,56400,0,"m_053.ogg",100
Sample,56400,0,"m_045.ogg",100
Sample,56400,0,"l_041.ogg",100
Sample,56550,0,"m_046.ogg",100
Sample,56550,0,"m_050.ogg",100
Sample,56700,0,"m_048.ogg",100
Sample,56700,0,"m_045.ogg",100
Sample,56850,0,"m_046.ogg",100
Sample,56850,0,"m_043.ogg",100
Sample,57000,0,"m_045.ogg",100
Sample,57000,0,"m_048.ogg",100
Sample,57150,0,"m_053.ogg",100
Sample,57150,0,"m_045.ogg",100
Sample,57300,0,"m_046.ogg",100
Sample,57300,0,"m_052.ogg",100
Sample,57450,0,"m_048.ogg",100
Sample,57450,0,"m_053.ogg",100
Sample,57600,0,"l_046.ogg",100
Sample,57600,0,"l_038.ogg",100
Sample,57600,0,"l_022.ogg",100
Sample,57600,0,"m_050.ogg",100
Sample,57900,0,"m_050.ogg",100
Sample,57900,0,"m_053.ogg",100
Sample,58050,0,"m_048.ogg",100
Sample,58050,0,"m_052.ogg",100
Sample,58200,0,"m_050.ogg",100
Sample,58200,0,"m_046.ogg",100
Sample,58500,0,"m_045.ogg",100
Sample,58500,0,"m_048.ogg",100
Sample,58650,0,"m_043.ogg",100
Sample,58650,0,"m_046.ogg",100
Sample,58800,0,"l_041.ogg",100
Sample,58800,0,"m_048.ogg",100
Sample,58800,0,"l_036.ogg",100
Sample,58800,0,"l_017.ogg",100
Sample,58950,0,"m_043.ogg",100
Sample,58950,0,"m_046.ogg",100
Sample,59100,0,"m_041.ogg",100
Sample,59100,0,"m_045.ogg",100
Sample,59250,0,"m_043.ogg",100
Sample,59250,0,"m_046.ogg",100
Sample,59400,0,"m_048.ogg",100
Sample,59400,0,"m_045.ogg",100
Sample,59550,0,"m_050.ogg",100
Sample,59550,0,"m_046.ogg",100
Sample,59700,0,"m_048.ogg",100
Sample,59700,0,"m_052.ogg",100
Sample,59850,0,"m_053.ogg",100
Sample,59850,0,"m_050.ogg",100
Sample,60000,0,"l_022.ogg",100
Sample,60000,0,"m_046.ogg",100
Sample,60000,0,"l_038.ogg",100
Sample,60000,0,"l_043.ogg",100
Sample,60000,0,"l_041.ogg",100
Sample,60300,0,"m_053.ogg",100
Sample,60300,0,"m_050.ogg",100
Sample,60450,0,"m_048.ogg",100
Sample,60450,0,"m_052.ogg",100
Sample,60600,0,"m_050.ogg",100
Sample,60600,0,"m_053.ogg",100
Sample,60900,0,"m_052.ogg",100
Sample,61050,0,"m_053.ogg",100
Sample,61050,0,"m_050.ogg",100
Sample,61200,0,"m_052.ogg",100
Sample,61200,0,"l_040.ogg",100
Sample,61200,0,"m_048.ogg",100
Sample,61200,0,"l_036.ogg",100
Sample,61200,0,"l_024.ogg",100
Sample,61350,0,"m_053.ogg",100
Sample,61350,0,"m_050.ogg",100
Sample,61500,0,"m_055.ogg",100
Sample,61500,0,"m_052.ogg",100
Sample,61650,0,"m_053.ogg",100
Sample,61800,0,"m_055.ogg",100
Sample,61800,0,"m_052.ogg",100
Sample,61950,0,"m_057.ogg",100
Sample,61950,0,"m_053.ogg",100
Sample,62100,0,"m_058.ogg",100
Sample,62100,0,"m_050.ogg",100
Sample,62250,0,"m_052.ogg",100
Sample,62250,0,"m_060.ogg",100
Sample,62400,0,"l_036.ogg",100
Sample,62400,0,"m_057.ogg",100
Sample,62400,0,"l_045.ogg",100
Sample,62400,0,"l_029.ogg",100
Sample,62700,0,"m_045.ogg",100
Sample,62700,0,"m_053.ogg",100
Sample,62700,0,"m_048.ogg",100
Sample,63000,0,"m_055.ogg",100
Sample,63000,0,"m_048.ogg",100
Sample,63000,0,"m_046.ogg",100
Sample,63300,0,"m_045.ogg",100
Sample,63300,0,"m_048.ogg",100
Sample,63300,0,"m_053.ogg",100
Sample,63600,0,"m_052.ogg",100
Sample,63600,0,"l_048.ogg",100
Sample,63600,0,"l_040.ogg",100
Sample,63600,0,"l_024.ogg",100
Sample,63900,0,"m_048.ogg",100
Sample,63900,0,"m_040.ogg",100
Sample,63900,0,"m_055.ogg",100
Sample,64200,0,"m_048.ogg",100
Sample,64200,0,"m_041.ogg",100
Sample,64200,0,"m_057.ogg",100
Sample,64500,0,"m_055.ogg",100
Sample,64500,0,"m_048.ogg",100
Sample,64500,0,"m_040.ogg",100
Sample,64800,0,"l_038.ogg",100
Sample,64800,0,"l_045.ogg",100
Sample,64800,0,"m_053.ogg",100
Sample,64800,0,"l_026.ogg",100
Sample,65100,0,"m_050.ogg",100
Sample,65100,0,"m_045.ogg",100
Sample,65400,0,"m_048.ogg",100
Sample,65400,0,"m_041.ogg",100
Sample,65400,0,"m_045.ogg",100
Sample,65700,0,"m_045.ogg",100
Sample,65700,0,"m_050.ogg",100
Sample,66000,0,"m_052.ogg",100
Sample,66000,0,"l_021.ogg",100
Sample,66000,0,"m_048.ogg",100
Sample,66000,0,"l_045.ogg",100
Sample,66000,0,"l_036.ogg",100
Sample,66300,0,"m_036.ogg",100
Sample,66300,0,"m_045.ogg",100
Sample,66300,0,"m_040.ogg",100
Sample,66600,0,"m_048.ogg",100
Sample,66600,0,"m_034.ogg",100
Sample,66600,0,"m_045.ogg",100
Sample,66900,0,"m_048.ogg",100
Sample,66900,0,"m_043.ogg",100
Sample,66900,0,"m_036.ogg",100
Sample,67200,0,"l_022.ogg",100
Sample,67200,0,"l_041.ogg",100
Sample,67200,0,"m_046.ogg",100
Sample,67500,0,"m_050.ogg",100
Sample,67500,0,"m_046.ogg",100
Sample,67500,0,"m_053.ogg",100
Sample,67800,0,"m_046.ogg",100
Sample,67800,0,"m_052.ogg",100
Sample,67800,0,"m_055.ogg",100
Sample,68100,0,"m_053.ogg",100
Sample,68100,0,"m_058.ogg",100
Sample,68100,0,"m_050.ogg",100
Sample,68400,0,"l_036.ogg",100
Sample,68400,0,"m_053.ogg",100
Sample,68400,0,"m_057.ogg",100
Sample,68400,0,"l_045.ogg",100
Sample,68400,0,"l_017.ogg",100
Sample,68400,0,"m_048.ogg",100
Sample,68700,0,"m_036.ogg",100
Sample,68700,0,"m_053.ogg",100
Sample,68700,0,"m_045.ogg",100
Sample,69000,0,"m_053.ogg",100
Sample,69000,0,"m_048.ogg",100
Sample,69000,0,"m_034.ogg",100
Sample,69300,0,"m_053.ogg",100
Sample,69300,0,"m_036.ogg",100
Sample,69300,0,"m_057.ogg",100
Sample,69600,0,"l_038.ogg",100
Sample,69600,0,"m_053.ogg",100
Sample,69600,0,"l_022.ogg",100
Sample,69600,0,"l_041.ogg",100
Sample,69900,0,"m_050.ogg",100
Sample,69900,0,"m_058.ogg",100
Sample,69900,0,"m_053.ogg",100
Sample,70200,0,"m_057.ogg",100
Sample,70200,0,"m_050.ogg",100
Sample,70200,0,"m_048.ogg",100
Sample,70500,0,"m_058.ogg",100
Sample,70500,0,"m_050.ogg",100
Sample,70800,0,"m_055.ogg",100
Sample,70800,0,"m_052.ogg",100
Sample,70800,0,"m_048.ogg",100
Sample,70800,0,"l_024.ogg",100
Sample,70800,0,"l_036.ogg",100
Sample,70800,0,"l_043.ogg",100
Sample,71100,0,"m_040.ogg",100
Sample,71100,0,"m_048.ogg",100
Sample,71400,0,"m_046.ogg",100
Sample,71400,0,"m_055.ogg",100
Sample,71400,0,"m_038.ogg",100
Sample,71700,0,"m_052.ogg",100
Sample,71700,0,"m_040.ogg",100
Sample,71700,0,"m_048.ogg",100
Sample,72000,0,"l_029.ogg",100
Sample,72000,0,"l_041.ogg",100
Sample,72000,0,"m_053.ogg",100
Sample,72000,0,"l_048.ogg",100
Sample,72300,0,"m_057.ogg",100
Sample,72300,0,"m_041.ogg",100
Sample,72300,0,"m_053.ogg",100
Sample,72450,0,"m_043.ogg",100
Sample,72450,0,"m_052.ogg",100
Sample,72600,0,"m_045.ogg",100
Sample,72600,0,"m_057.ogg",100
Sample,72600,0,"m_053.ogg",100
Sample,72900,0,"m_041.ogg",100
Sample,72900,0,"m_057.ogg",100
Sample,72900,0,"m_045.ogg",100
Sample,73200,0,"l_024.ogg",100
Sample,73200,0,"l_043.ogg",100
Sample,73200,0,"m_055.ogg",100
Sample,73200,0,"m_040.ogg",100
Sample,73200,0,"l_052.ogg",100
Sample,73500,0,"m_055.ogg",100
Sample,73500,0,"m_052.ogg",100
Sample,73500,0,"m_048.ogg",100
Sample,73650,0,"m_053.ogg",100
Sample,73650,0,"m_050.ogg",100
Sample,73800,0,"m_052.ogg",100
Sample,73800,0,"m_055.ogg",100
Sample,74100,0,"m_048.ogg",100
Sample,74100,0,"m_055.ogg",100
Sample,74100,0,"m_052.ogg",100
Sample,74400,0,"l_041.ogg",100
Sample,74400,0,"l_045.ogg",100
Sample,74400,0,"m_053.ogg",100
Sample,74400,0,"l_026.ogg",100
Sample,74700,0,"m_053.ogg",100
Sample,74700,0,"m_038.ogg",100
Sample,74850,0,"m_040.ogg",100
Sample,74850,0,"m_055.ogg",100
Sample,75000,0,"m_041.ogg",100
Sample,75000,0,"m_057.ogg",100
Sample,75000,0,"m_053.ogg",100
Sample,75300,0,"m_038.ogg",100
Sample,75300,0,"m_053.ogg",100
Sample,75600,0,"m_060.ogg",100
Sample,75600,0,"l_021.ogg",100
Sample,75600,0,"l_040.ogg",100
Sample,75600,0,"l_048.ogg",100
Sample,75600,0,"m_057.ogg",100
Sample,75900,0,"m_048.ogg",100
Sample,75900,0,"m_060.ogg",100
Sample,75900,0,"m_057.ogg",100
Sample,76050,0,"m_055.ogg",100
Sample,76050,0,"m_046.ogg",100
Sample,76200,0,"m_060.ogg",100
Sample,76200,0,"m_053.ogg",100
Sample,76200,0,"m_045.ogg",100
Sample,76500,0,"m_060.ogg",100
Sample,76500,0,"m_052.ogg",100
Sample,76500,0,"m_043.ogg",100
Sample,76800,0,"l_022.ogg",100
Sample,76800,0,"m_041.ogg",100
Sample,76800,0,"m_038.ogg",100
Sample,76800,0,"m_062.ogg",100
Sample,77100,0,"m_046.ogg",100
Sample,77100,0,"m_050.ogg",100
Sample,77100,0,"m_062.ogg",100
Sample,77250,0,"m_048.ogg",100
Sample,77250,0,"m_045.ogg",100
Sample,77400,0,"m_040.ogg",100
Sample,77400,0,"m_050.ogg",100
Sample,77400,0,"m_043.ogg",100
Sample,77400,0,"m_062.ogg",100
Sample,77700,0,"m_052.ogg",100
Sample,77700,0,"m_062.ogg",100
Sample,77700,0,"m_046.ogg",100
Sample,78000,0,"m_053.ogg",100
Sample,78000,0,"m_060.ogg",100
Sample,78000,0,"l_017.ogg",100
Sample,78000,0,"l_041.ogg",100
Sample,78000,0,"l_048.ogg",100
Sample,78300,0,"m_041.ogg",100
Sample,78300,0,"m_060.ogg",100
Sample,78300,0,"m_057.ogg",100
Sample,78450,0,"m_043.ogg",100
Sample,78450,0,"m_055.ogg",100
Sample,78600,0,"m_060.ogg",100
Sample,78600,0,"m_053.ogg",100
Sample,78600,0,"m_045.ogg",100
Sample,78900,0,"m_057.ogg",100
Sample,78900,0,"m_060.ogg",100
Sample,78900,0,"m_048.ogg",100
Sample,79200,0,"l_041.ogg",100
Sample,79200,0,"m_062.ogg",100
Sample,79200,0,"l_022.ogg",100
Sample,79200,0,"m_058.ogg",100
Sample,79200,0,"l_046.ogg",100
Sample,79500,0,"m_062.ogg",100
Sample,79500,0,"m_053.ogg",100
Sample,79500,0,"m_050.ogg",100
Sample,79650,0,"m_052.ogg",100
Sample,79650,0,"m_048.ogg",100
Sample,79800,0,"m_050.ogg",100
Sample,79800,0,"m_062.ogg",100
Sample,79800,0,"m_046.ogg",100
Sample,80100,0,"m_062.ogg",100
Sample,80100,0,"m_050.ogg",100
Sample,80100,0,"m_045.ogg",100
Sample,80400,0,"m_064.ogg",100
Sample,80400,0,"l_024.ogg",100
Sample,80400,0,"l_043.ogg",100
Sample,80400,0,"l_040.ogg",100
Sample,80700,0,"m_052.ogg",100
Sample,80700,0,"m_043.ogg",100
Sample,80700,0,"m_048.ogg",100
Sample,80850,0,"m_046.ogg",100
Sample,81000,0,"m_048.ogg",100
Sample,81000,0,"m_052.ogg",100
Sample,81000,0,"m_045.ogg",100
Sample,81300,0,"m_052.ogg",100
Sample,81300,0,"m_048.ogg",100
Sample,81300,0,"m_043.ogg",100
Sample,81600,0,"l_029.ogg",100
Sample,81600,0,"l_048.ogg",100
Sample,81600,0,"l_045.ogg",100
Sample,82200,0,"m_053.ogg",100
Sample,82500,0,"m_060.ogg",100
Sample,82500,0,"m_057.ogg",100
Sample,82800,0,"m_045.ogg",100
Sample,82800,0,"m_040.ogg",100
Sample,82800,0,"m_057.ogg",100
Sample,82800,0,"l_052.ogg",100
Sample,82800,0,"m_060.ogg",100
Sample,83100,0,"m_058.ogg",100
Sample,83100,0,"m_062.ogg",100
Sample,83400,0,"m_060.ogg",100
Sample,83400,0,"m_057.ogg",100
Sample,83700,0,"m_046.ogg",100
Sample,83700,0,"m_043.ogg",100
Sample,83700,0,"m_055.ogg",100
Sample,83700,0,"m_058.ogg",100
Sample,84000,0,"m_057.ogg",100
Sample,84000,0,"l_026.ogg",100
Sample,84000,0,"l_050.ogg",100
Sample,84000,0,"l_041.ogg",100
Sample,84000,0,"m_053.ogg",100
Sample,84900,0,"m_057.ogg",100
Sample,84900,0,"m_053.ogg",100
Sample,85200,0,"m_053.ogg",100
Sample,85200,0,"m_045.ogg",100
Sample,85200,0,"m_041.ogg",100
Sample,85200,0,"l_048.ogg",100
Sample,85200,0,"m_057.ogg",100
Sample,85500,0,"m_055.ogg",100
Sample,85500,0,"m_058.ogg",100
Sample,85800,0,"m_057.ogg",100
Sample,85800,0,"m_053.ogg",100
Sample,86100,0,"m_043.ogg",100
Sample,86100,0,"m_055.ogg",100
Sample,86100,0,"m_040.ogg",100
Sample,86100,0,"m_052.ogg",100
Sample,86400,0,"m_053.ogg",100
Sample,86400,0,"l_046.ogg",100
Sample,86400,0,"l_022.ogg",100
Sample,86400,0,"l_050.ogg",100
Sample,86400,0,"l_038.ogg",100
Sample,86700,0,"m_051.ogg",100
Sample,87000,0,"m_050.ogg",100
Sample,87300,0,"m_043.ogg",100
Sample,87300,0,"m_051.ogg",100
Sample,87600,0,"l_045.ogg",100
Sample,87600,0,"l_017.ogg",100
Sample,87600,0,"m_048.ogg",100
Sample,87600,0,"l_036.ogg",100
Sample,87600,0,"l_053.ogg",100
Sample,88500,0,"m_048.ogg",100
Sample,88800,0,"l_050.ogg",100
Sample,88800,0,"m_053.ogg",100
Sample,88800,0,"l_038.ogg",100
Sample,88800,0,"l_041.ogg",100
Sample,88800,0,"l_022.ogg",100
Sample,89100,0,"m_051.ogg",100
Sample,89400,0,"m_050.ogg",100
Sample,89400,0,"m_053.ogg",100
Sample,89700,0,"m_051.ogg",100
Sample,90000,0,"l_040.ogg",100
Sample,90000,0,"l_024.ogg",100
Sample,90000,0,"m_052.ogg",100
Sample,90000,0,"l_036.ogg",100
Sample,90000,0,"m_048.ogg",100
Sample,90900,0,"m_048.ogg",100
Sample,90900,0,"m_052.ogg",100
Sample,90900,0,"m_043.ogg",100
Sample,91200,0,"l_029.ogg",100
Sample,91200,0,"m_036.ogg",100
Sample,91200,0,"m_045.ogg",100
Sample,91200,0,"m_041.ogg",100
Sample,91200,0,"l_060.ogg",100
Sample,91800,0,"m_053.ogg",100
Sample,91800,0,"l_057.ogg",100
Sample,91800,0,"m_041.ogg",100
Sample,91800,0,"l_048.ogg",100
Sample,92400,0,"m_048.ogg",100
Sample,92400,0,"l_024.ogg",100
Sample,92400,0,"m_040.ogg",100
Sample,93000,0,"m_046.ogg",100
Sample,93000,0,"m_043.ogg",100
Sample,93000,0,"m_052.ogg",100
Sample,93300,0,"m_046.ogg",100
Sample,93600,0,"l_026.ogg",100
Sample,93600,0,"l_050.ogg",100
Sample,93600,0,"l_041.ogg",100
Sample,93600,0,"l_045.ogg",100
Sample,94200,0,"m_038.ogg",100
Sample,94800,0,"m_036.ogg",100
Sample,94800,0,"l_048.ogg",100
Sample,94800,0,"l_021.ogg",100
Sample,94800,0,"m_057.ogg",100
Sample,95400,0,"m_048.ogg",100
Sample,95700,0,"m_055.ogg",100
Sample,96000,0,"l_046.ogg",100
Sample,96000,0,"l_041.ogg",100
Sample,96000,0,"l_050.ogg",100
Sample,96000,0,"l_053.ogg",100
Sample,96000,0,"l_022.ogg",100
Sample,97200,0,"l_045.ogg",100
Sample,97200,0,"m_057.ogg",100
Sample,97200,0,"m_065.ogg",100
Sample,97200,0,"l_017.ogg",100
Sample,97200,0,"l_048.ogg",100
Sample,97800,0,"m_053.ogg",100
Sample,97800,0,"m_045.ogg",100
Sample,98400,0,"l_062.ogg",100
Sample,98400,0,"l_041.ogg",100
Sample,98400,0,"l_022.ogg",100
Sample,98400,0,"l_043.ogg",100
Sample,98400,0,"l_050.ogg",100
Sample,99600,0,"l_043.ogg",100
Sample,99600,0,"l_048.ogg",100
Sample,99600,0,"l_040.ogg",100
Sample,99600,0,"l_024.ogg",100
Sample,99600,0,"l_060.ogg",100
Sample,100800,0,"l_048.ogg",100
Sample,100800,0,"l_017.ogg",100
Sample,100800,0,"l_029.ogg",100
Sample,100800,0,"l_057.ogg",100
Sample,100825,0,"l_024.ogg",100
Sample,100850,0,"l_033.ogg",100
Sample,100875,0,"l_036.ogg",100
Sample,100900,0,"l_041.ogg",100
Sample,100925,0,"l_045.ogg",100
Sample,100950,0,"l_048.ogg",100

[TimingPoints]
0,600.000000000006,4,2,0,100,1,0

[HitObjects]
486,192,4800,5,0,0:0:0:0:l_045.ogg
435,192,6000,1,0,0:0:0:0:l_040.ogg
384,192,7200,1,0,0:0:0:0:l_045.ogg
332,192,8400,1,0,0:0:0:0:l_045.ogg
25,192,9600,1,0,0:0:0:0:l_038.ogg
76,192,10800,1,0,0:0:0:0:l_036.ogg
128,192,12000,1,0,0:0:0:0:l_022.ogg
179,192,13200,1,0,0:0:0:0:l_052.ogg
435,192,14400,1,0,0:0:0:0:l_041.ogg
230,192,15600,1,0,0:0:0:0:l_055.ogg
384,192,16800,1,0,0:0:0:0:l_053.ogg
179,192,18000,1,0,0:0:0:0:l_052.ogg
281,192,19200,1,0,0:0:0:0:l_050.ogg
76,192,20400,1,0,0:0:0:0:l_048.ogg
332,192,21600,1,0,0:0:0:0:l_050.ogg
128,192,22800,1,0,0:0:0:0:m_048.ogg
384,192,24000,1,0,0:0:0:0:l_041.ogg
435,192,24600,1,0,0:0:0:0:m_041.ogg
486,192,25200,1,0,0:0:0:0:l_048.ogg
25,192,25800,1,0,0:0:0:0:m_052.ogg
76,192,26400,1,0,0:0:0:0:l_026.ogg
128,192,27000,1,0,0:0:0:0:m_052.ogg
179,192,27600,1,0,0:0:0:0:l_021.ogg
230,192,28200,1,0,0:0:0:0:m_060.ogg
486,192,28800,1,0,0:0:0:0:l_050.ogg
435,192,29400,1,0,0:0:0:0:m_038.ogg
384,192,30000,1,0,0:0:0:0:l_041.ogg
332,192,30600,1,0,0:0:0:0:m_048.ogg
281,192,31200,1,0,0:0:0:0:l_022.ogg
230,192,31800,1,0,0:0:0:0:m_046.ogg
179,192,32400,128,0,33300:0:0:0:0:l_043.ogg
486,192,33600,1,0,0:0:0:0:m_065.ogg
435,192,34200,1,0,0:0:0:0:m_045.ogg
384,192,34800,1,0,0:0:0:0:l_043.ogg
25,192,36000,1,0,0:0:0:0:l_026.ogg
76,192,36600,1,0,0:0:0:0:m_048.ogg
128,192,37200,1,0,0:0:0:0:l_053.ogg
332,192,38400,1,0,0:0:0:0:l_046.ogg
179,192,39600,1,0,0:0:0:0:m_053.ogg
332,192,40800,1,0,0:0:0:0:m_046.ogg
179,192,41400,1,0,0:0:0:0:m_058.ogg
281,192,42000,1,0,0:0:0:0:l_024.ogg
230,192,42600,1,0,0:0:0:0:m_060.ogg
384,192,43200,1,0,0:0:0:0:l_048.ogg
128,192,44400,1,0,0:0:0:0:l_052.ogg
486,192,45600,1,0,0:0:0:0:l_045.ogg
25,192,46800,1,0,0:0:0:0:l_048.ogg
435,192,48000,1,0,0:0:0:0:l_050.ogg
76,192,49200,1,0,0:0:0:0:l_041.ogg
332,192,50400,1,0,0:0:0:0:l_046.ogg
179,192,51600,1,0,0:0:0:0:l_048.ogg
384,192,52800,1,0,0:0:0:0:l_029.ogg
128,192,54000,1,0,0:0:0:0:l_040.ogg
281,192,55200,1,0,0:0:0:0:m_053.ogg
230,192,56400,1,0,0:0:0:0:l_048.ogg
435,192,57600,1,0,0:0:0:0:l_041.ogg
76,192,58800,1,0,0:0:0:0:l_045.ogg
332,192,60000,1,0,0:0:0:0:m_050.ogg
179,192,61200,1,0,0:0:0:0:l_043.ogg
486,192,62400,128,0,63600:0:0:0:0:l_041.ogg
230,192,63600,128,0,64800:0:0:0:0:l_043.ogg
435,192,64800,128,0,66000:0:0:0:0:l_041.ogg
179,192,66000,128,0,67200:0:0:0:0:l_040.ogg
384,192,67200,128,0,68400:0:0:0:0:l_038.ogg
128,192,68400,128,0,69600:0:0:0:0:l_041.ogg
332,192,69600,128,0,70800:0:0:0:0:l_046.ogg
76,192,70800,128,0,72000:0:0:0:0:l_040.ogg
435,192,72000,128,0,73200:0:0:0:0:l_045.ogg
179,192,73200,128,0,74400:0:0:0:0:l_048.ogg
384,192,74400,128,0,75600:0:0:0:0:l_050.ogg
128,192,75600,128,0,76800:0:0:0:0:l_045.ogg
332,192,76800,128,0,78000:0:0:0:0:l_050.ogg
76,192,78000,128,0,79200:0:0:0:0:l_045.ogg
281,192,79200,128,0,80400:0:0:0:0:l_050.ogg
25,192,80400,128,0,81600:0:0:0:0:l_048.ogg
435,192,81600,1,0,0:0:0:0:l_041.ogg
332,192,82800,1,0,0:0:0:0:l_024.ogg
230,192,84000,1,0,0:0:0:0:l_045.ogg
128,192,85200,1,0,0:0:0:0:l_021.ogg
384,192,86400,1,0,0:0:0:0:l_041.ogg
281,192,87600,1,0,0:0:0:0:l_041.ogg
179,192,88800,1,0,0:0:0:0:l_046.ogg
76,192,90000,1,0,0:0:0:0:l_043.ogg
486,192,91200,1,0,0:0:0:0:m_053.ogg
230,192,91800,1,0,0:0:0:0:l_045.ogg
435,192,92400,1,0,0:0:0:0:l_052.ogg
179,192,93000,1,0,0:0:0:0:m_055.ogg
384,192,93600,1,0,0:0:0:0:m_053.ogg
128,192,94200,1,0,0:0:0:0:l_065.ogg
332,192,94800,1,0,0:0:0:0:l_041.ogg
76,192,95400,1,0,0:0:0:0:m_063.ogg
435,192,96000,1,0,0:0:0:0:l_062.ogg
179,192,96600,1,0,0:0:0:0:m_058.ogg
384,192,97200,1,0,0:0:0:0:l_041.ogg
128,192,97800,1,0,0:0:0:0:m_060.ogg
332,192,98400,1,0,0:0:0:0:l_053.ogg
76,192,99000,1,0,0:0:0:0:m_050.ogg
281,192,99600,1,0,0:0:0:0:l_052.ogg
25,192,100200,1,0,0:0:0:0:m_055.ogg
486,192,100800,128,0,105600:0:0:0:0:l_053.ogg
