osu file format v14

[General]
AudioFilename: virtual
AudioLeadIn: 0
PreviewTime: 0
Countdown: 0
SampleSet: None
StackLeniency: 0.7
Mode: 3
LetterboxInBreaks: 0
SpecialStyle: 0
WidescreenStoryboard: 1

[Editor]
DistanceSpacing: 0.8
BeatDivisor: 16
GridSize: 32
TimelineZoom: 3.400005

[Metadata]
Title:Circus Galop Practice
TitleUnicode:Circus Galop Practice
Artist:Collection
ArtistUnicode:Collection
Creator:CircusGalop
Version:Canon - 10K EX LN
Source:BMS
Tags:
BeatmapID:2036507
BeatmapSetID:971589

[Difficulty]
HPDrainRate:9
CircleSize:10
OverallDifficulty:5
ApproachRate:5
SliderMultiplier:1.4
SliderTickRate:1

[Events]
//Background and Video events
0,0,"CircusGalop.jpg",0,0
//Break Periods
//Storyboard Layer 0 (Background)
//Storyboard Layer 1 (Fail)
//Storyboard Layer 2 (Pass)
//Storyboard Layer 3 (Foreground)
//Storyboard Sound Samples

[TimingPoints]
0,600.000000000006,4,2,0,100,1,0

[HitObjects]
486,192,4800,128,0,5925:0:0:0:0:l_036.ogg
435,192,4800,128,0,5925:0:0:0:0:l_041.ogg
384,192,4800,128,0,7125:0:0:0:0:l_045.ogg
179,192,4800,128,0,5925:0:0:0:0:l_029.ogg
128,192,4800,128,0,5925:0:0:0:0:l_057.ogg
76,192,4800,128,0,8325:0:0:0:0:l_053.ogg
128,192,6000,128,0,7125:0:0:0:0:l_052.ogg
179,192,6000,128,0,8325:0:0:0:0:l_055.ogg
230,192,6000,128,0,7125:0:0:0:0:l_024.ogg
332,192,6000,128,0,7125:0:0:0:0:l_040.ogg
486,192,6000,128,0,7125:0:0:0:0:l_048.ogg
435,192,6000,128,0,8325:0:0:0:0:l_043.ogg
384,192,7200,128,0,8325:0:0:0:0:l_045.ogg
332,192,7200,128,0,8325:0:0:0:0:l_026.ogg
230,192,7200,128,0,13125:0:0:0:0:l_053.ogg
128,192,7200,128,0,8325:0:0:0:0:l_050.ogg
486,192,7200,128,0,15525:0:0:0:0:l_041.ogg
435,192,8400,128,0,9525:0:0:0:0:l_040.ogg
384,192,8400,128,0,9525:0:0:0:0:l_036.ogg
332,192,8400,128,0,10725:0:0:0:0:l_045.ogg
179,192,8400,128,0,9525:0:0:0:0:l_021.ogg
128,192,8400,128,0,10725:0:0:0:0:l_052.ogg
76,192,8400,128,0,13125:0:0:0:0:l_048.ogg
435,192,9600,128,0,10725:0:0:0:0:l_041.ogg
281,192,9600,128,0,10725:0:0:0:0:l_038.ogg
25,192,9600,128,0,10725:0:0:0:0:l_050.ogg
384,192,9600,128,0,11925:0:0:0:0:l_022.ogg
179,192,9600,128,0,11925:0:0:0:0:l_046.ogg
25,192,10800,128,0,11925:0:0:0:0:l_045.ogg
128,192,10800,128,0,14325:0:0:0:0:l_048.ogg
281,192,10800,128,0,11925:0:0:0:0:l_036.ogg
435,192,10800,128,0,11925:0:0:0:0:l_017.ogg
332,192,10800,128,0,13125:0:0:0:0:l_041.ogg
435,192,12000,128,0,13125:0:0:0:0:l_038.ogg
384,192,12000,128,0,13125:0:0:0:0:l_041.ogg
281,192,12000,128,0,14325:0:0:0:0:l_022.ogg
179,192,12000,128,0,14325:0:0:0:0:l_046.ogg
25,192,12000,128,0,19125:0:0:0:0:l_050.ogg
435,192,13200,128,0,14325:0:0:0:0:l_040.ogg
332,192,13200,128,0,14325:0:0:0:0:l_024.ogg
230,192,13200,128,0,14325:0:0:0:0:l_052.ogg
76,192,13200,128,0,15525:0:0:0:0:l_043.ogg
384,192,13200,128,0,14925:0:0:0:0:l_036.ogg
435,192,14400,128,0,16125:0:0:0:0:l_041.ogg
332,192,14400,128,0,15525:0:0:0:0:l_057.ogg
281,192,14400,128,0,15525:0:0:0:0:l_053.ogg
230,192,14400,128,0,15525:0:0:0:0:l_045.ogg
179,192,14400,128,0,15525:0:0:0:0:l_036.ogg
128,192,14400,128,0,16725:0:0:0:0:l_029.ogg
384,192,15000,128,0,16725:0:0:0:0:m_045.ogg
76,192,15600,128,0,16725:0:0:0:0:l_024.ogg
486,192,15600,128,0,17925:0:0:0:0:l_055.ogg
332,192,15600,128,0,17325:0:0:0:0:l_052.ogg
281,192,15600,128,0,16725:0:0:0:0:l_043.ogg
230,192,15600,128,0,16725:0:0:0:0:l_040.ogg
179,192,15600,128,0,17925:0:0:0:0:l_048.ogg
435,192,16200,128,0,17925:0:0:0:0:m_046.ogg
128,192,16800,128,0,17925:0:0:0:0:l_041.ogg
76,192,16800,128,0,17925:0:0:0:0:l_026.ogg
281,192,16800,128,0,17925:0:0:0:0:l_045.ogg
384,192,16800,128,0,18525:0:0:0:0:l_053.ogg
230,192,16800,128,0,23925:0:0:0:0:l_050.ogg
332,192,17400,128,0,19125:0:0:0:0:m_041.ogg
486,192,18000,128,0,19125:0:0:0:0:l_048.ogg
435,192,18000,128,0,20925:0:0:0:0:l_052.ogg
281,192,18000,128,0,19725:0:0:0:0:l_036.ogg
179,192,18000,128,0,19125:0:0:0:0:l_045.ogg
128,192,18000,128,0,19125:0:0:0:0:l_040.ogg
76,192,18000,128,0,20325:0:0:0:0:l_021.ogg
384,192,18600,128,0,21525:0:0:0:0:m_043.ogg
486,192,19200,128,0,20325:0:0:0:0:l_041.ogg
332,192,19200,128,0,20325:0:0:0:0:l_050.ogg
179,192,19200,128,0,20325:0:0:0:0:l_046.ogg
25,192,19200,128,0,20325:0:0:0:0:l_022.ogg
128,192,19200,128,0,21525:0:0:0:0:l_038.ogg
281,192,19800,128,0,21525:0:0:0:0:m_038.ogg
179,192,20400,128,0,21525:0:0:0:0:l_041.ogg
25,192,20400,128,0,21525:0:0:0:0:l_017.ogg
76,192,20400,128,0,22725:0:0:0:0:l_036.ogg
332,192,20400,128,0,22725:0:0:0:0:l_048.ogg
486,192,20400,128,0,22125:0:0:0:0:l_045.ogg
435,192,21000,128,0,22725:0:0:0:0:m_048.ogg
128,192,21600,128,0,22725:0:0:0:0:l_022.ogg
179,192,21600,128,0,22725:0:0:0:0:l_038.ogg
384,192,21600,128,0,23325:0:0:0:0:l_050.ogg
281,192,21600,128,0,22725:0:0:0:0:l_041.ogg
25,192,21600,128,0,23925:0:0:0:0:l_046.ogg
486,192,22200,128,0,23925:0:0:0:0:m_050.ogg
435,192,22800,128,0,24225:0:0:0:0:m_048.ogg
332,192,22800,128,0,23925:0:0:0:0:l_040.ogg
281,192,22800,128,0,24825:0:0:0:0:l_036.ogg
179,192,22800,128,0,24525:0:0:0:0:l_024.ogg
128,192,22800,128,0,23925:0:0:0:0:l_043.ogg
76,192,22800,128,0,24525:0:0:0:0:l_052.ogg
384,192,23400,128,0,25725:0:0:0:0:m_046.ogg
486,192,24000,128,0,24525:0:0:0:0:m_053.ogg
332,192,24000,128,0,25125:0:0:0:0:l_036.ogg
230,192,24000,128,0,25125:0:0:0:0:l_029.ogg
128,192,24000,128,0,25125:0:0:0:0:l_041.ogg
25,192,24000,128,0,25725:0:0:0:0:l_045.ogg
435,192,24300,128,0,25125:0:0:0:0:m_052.ogg
486,192,24600,128,0,26325:0:0:0:0:m_045.ogg
179,192,24600,128,0,25725:0:0:0:0:m_041.ogg
76,192,24600,128,0,26325:0:0:0:0:m_053.ogg
281,192,24900,128,0,26325:0:0:0:0:m_041.ogg
230,192,25200,128,0,26325:0:0:0:0:l_040.ogg
128,192,25200,128,0,26925:0:0:0:0:l_048.ogg
332,192,25200,128,0,26025:0:0:0:0:l_043.ogg
435,192,25200,128,0,25425:0:0:0:0:l_024.ogg
435,192,25500,128,0,27525:0:0:0:0:m_048.ogg
384,192,25800,128,0,26625:0:0:0:0:m_046.ogg
179,192,25800,128,0,27525:0:0:0:0:m_052.ogg
25,192,25800,128,0,26925:0:0:0:0:m_043.ogg
332,192,26100,128,0,26925:0:0:0:0:m_045.ogg
486,192,26400,128,0,27525:0:0:0:0:l_045.ogg
76,192,26400,128,0,27525:0:0:0:0:l_026.ogg
281,192,26400,128,0,27225:0:0:0:0:m_053.ogg
230,192,26400,128,0,27525:0:0:0:0:l_041.ogg
384,192,26700,128,0,27825:0:0:0:0:m_053.ogg
332,192,27000,128,0,27525:0:0:0:0:m_041.ogg
128,192,27000,128,0,28125:0:0:0:0:m_057.ogg
25,192,27000,128,0,28125:0:0:0:0:m_052.ogg
281,192,27300,128,0,29325:0:0:0:0:m_050.ogg
76,192,27600,128,0,28725:0:0:0:0:l_021.ogg
179,192,27600,128,0,29025:0:0:0:0:l_040.ogg
230,192,27600,128,0,28725:0:0:0:0:m_052.ogg
332,192,27600,128,0,28725:0:0:0:0:m_060.ogg
435,192,27600,128,0,28125:0:0:0:0:l_045.ogg
486,192,27600,128,0,28425:0:0:0:0:l_036.ogg
384,192,27900,128,0,28725:0:0:0:0:m_057.ogg
435,192,28200,128,0,28725:0:0:0:0:m_043.ogg
128,192,28200,128,0,29325:0:0:0:0:m_048.ogg
25,192,28200,128,0,29925:0:0:0:0:m_060.ogg
486,192,28500,128,0,30525:0:0:0:0:m_062.ogg
435,192,28800,128,0,29925:0:0:0:0:l_041.ogg
384,192,28800,128,0,29325:0:0:0:0:l_038.ogg
332,192,28800,128,0,29925:0:0:0:0:l_022.ogg
230,192,28800,128,0,29625:0:0:0:0:m_058.ogg
76,192,28800,128,0,29925:0:0:0:0:l_050.ogg
179,192,29100,128,0,29925:0:0:0:0:m_057.ogg
128,192,29400,128,0,30225:0:0:0:0:m_038.ogg
384,192,29400,128,0,30525:0:0:0:0:m_046.ogg
281,192,29400,128,0,29925:0:0:0:0:m_055.ogg
230,192,29700,128,0,31125:0:0:0:0:m_058.ogg
281,192,30000,128,0,31125:0:0:0:0:l_045.ogg
332,192,30000,128,0,31125:0:0:0:0:l_017.ogg
435,192,30000,128,0,31125:0:0:0:0:l_036.ogg
179,192,30000,128,0,31425:0:0:0:0:m_048.ogg
76,192,30000,128,0,30525:0:0:0:0:m_057.ogg
25,192,30000,128,0,30825:0:0:0:0:l_041.ogg
128,192,30300,128,0,31125:0:0:0:0:m_055.ogg
76,192,30600,128,0,32025:0:0:0:0:m_048.ogg
384,192,30600,128,0,31725:0:0:0:0:m_053.ogg
486,192,30600,128,0,31725:0:0:0:0:m_045.ogg
25,192,30900,128,0,32325:0:0:0:0:m_052.ogg
435,192,31200,128,0,32400:0:0:0:0:l_050.ogg
332,192,31200,128,0,32325:0:0:0:0:l_041.ogg
281,192,31200,128,0,33225:0:0:0:0:l_022.ogg
230,192,31200,128,0,32325:0:0:0:0:m_046.ogg
128,192,31200,128,0,31725:0:0:0:0:l_043.ogg
179,192,31500,128,0,32325:0:0:0:0:m_048.ogg
128,192,31800,128,0,32625:0:0:0:0:m_050.ogg
384,192,31800,128,0,32325:0:0:0:0:m_046.ogg
486,192,31800,128,0,33525:0:0:0:0:m_053.ogg
76,192,32100,128,0,32925:0:0:0:0:m_045.ogg
384,192,32400,128,0,33825:0:0:0:0:l_043.ogg
332,192,32400,128,0,32475:0:0:0:0:s_053.ogg
230,192,32400,128,0,32925:0:0:0:0:l_040.ogg
179,192,32400,128,0,33525:0:0:0:0:l_048.ogg
25,192,32400,128,0,33225:0:0:0:0:l_024.ogg
435,192,32475,128,0,32550:0:0:0:0:s_055.ogg
332,192,32550,128,0,32625:0:0:0:0:s_053.ogg
435,192,32625,128,0,32700:0:0:0:0:s_055.ogg
332,192,32700,128,0,32775:0:0:0:0:s_053.ogg
128,192,32700,128,0,33525:0:0:0:0:m_046.ogg
435,192,32775,128,0,32850:0:0:0:0:s_055.ogg
332,192,32850,128,0,32925:0:0:0:0:s_053.ogg
435,192,32925,128,0,33000:0:0:0:0:s_055.ogg
332,192,33000,128,0,33075:0:0:0:0:s_053.ogg
230,192,33000,128,0,33525:0:0:0:0:m_045.ogg
76,192,33000,128,0,34125:0:0:0:0:m_046.ogg
435,192,33075,128,0,33125:0:0:0:0:s_055.ogg
332,192,33150,128,0,33525:0:0:0:0:s_053.ogg
435,192,33200,128,0,34125:0:0:0:0:s_055.ogg
281,192,33300,128,0,35025:0:0:0:0:m_043.ogg
25,192,33300,128,0,34125:0:0:0:0:m_052.ogg
486,192,33600,128,0,34425:0:0:0:0:l_029.ogg
332,192,33600,128,0,34725:0:0:0:0:m_065.ogg
230,192,33600,128,0,34725:0:0:0:0:l_041.ogg
179,192,33600,128,0,34725:0:0:0:0:l_045.ogg
128,192,33600,128,0,34725:0:0:0:0:l_036.ogg
384,192,33900,128,0,34725:0:0:0:0:m_043.ogg
435,192,34200,128,0,34725:0:0:0:0:m_045.ogg
76,192,34200,128,0,36525:0:0:0:0:m_057.ogg
25,192,34200,128,0,35925:0:0:0:0:m_053.ogg
486,192,34500,128,0,36225:0:0:0:0:m_046.ogg
128,192,34800,128,0,35925:0:0:0:0:l_024.ogg
435,192,34800,128,0,36525:0:0:0:0:l_055.ogg
384,192,34800,128,0,35325:0:0:0:0:l_052.ogg
332,192,34800,128,0,35625:0:0:0:0:l_048.ogg
230,192,34800,128,0,37125:0:0:0:0:l_043.ogg
179,192,34800,128,0,36525:0:0:0:0:l_040.ogg
281,192,35100,128,0,35925:0:0:0:0:m_043.ogg
384,192,35400,128,0,36825:0:0:0:0:m_048.ogg
332,192,35700,128,0,37725:0:0:0:0:m_046.ogg
281,192,36000,128,0,37125:0:0:0:0:l_026.ogg
128,192,36000,128,0,37125:0:0:0:0:l_041.ogg
25,192,36000,128,0,38625:0:0:0:0:l_045.ogg
486,192,36300,128,0,38325:0:0:0:0:m_050.ogg
76,192,36600,128,0,38325:0:0:0:0:m_050.ogg
179,192,36600,128,0,37125:0:0:0:0:m_053.ogg
435,192,36600,128,0,37125:0:0:0:0:m_048.ogg
384,192,36900,128,0,37425:0:0:0:0:m_046.ogg
435,192,37200,128,0,38325:0:0:0:0:l_053.ogg
281,192,37200,128,0,38025:0:0:0:0:l_048.ogg
230,192,37200,128,0,38325:0:0:0:0:l_041.ogg
179,192,37200,128,0,38325:0:0:0:0:l_021.ogg
128,192,37200,128,0,38925:0:0:0:0:l_057.ogg
384,192,37500,128,0,38325:0:0:0:0:m_046.ogg
332,192,37800,128,0,39525:0:0:0:0:m_045.ogg
281,192,38100,128,0,40725:0:0:0:0:m_043.ogg
486,192,38400,128,0,40725:0:0:0:0:l_041.ogg
435,192,38400,128,0,39525:0:0:0:0:l_022.ogg
384,192,38400,128,0,39525:0:0:0:0:l_062.ogg
230,192,38400,128,0,39525:0:0:0:0:l_050.ogg
179,192,38400,128,0,39225:0:0:0:0:l_046.ogg
76,192,38400,128,0,39525:0:0:0:0:l_053.ogg
25,192,38700,128,0,39525:0:0:0:0:m_038.ogg
128,192,39000,128,0,40125:0:0:0:0:m_050.ogg
179,192,39300,128,0,39825:0:0:0:0:m_052.ogg
76,192,39600,128,0,40425:0:0:0:0:l_048.ogg
25,192,39600,128,0,41325:0:0:0:0:l_041.ogg
230,192,39600,128,0,40725:0:0:0:0:m_053.ogg
332,192,39600,128,0,40125:0:0:0:0:l_017.ogg
384,192,39600,128,0,40725:0:0:0:0:l_045.ogg
435,192,39600,128,0,40725:0:0:0:0:l_060.ogg
179,192,39900,128,0,40725:0:0:0:0:m_052.ogg
128,192,40200,128,0,40725:0:0:0:0:m_050.ogg
332,192,40200,128,0,41325:0:0:0:0:m_053.ogg
76,192,40500,128,0,41025:0:0:0:0:m_048.ogg
486,192,40800,128,0,41925:0:0:0:0:l_062.ogg
435,192,40800,128,0,41925:0:0:0:0:l_041.ogg
384,192,40800,128,0,42525:0:0:0:0:l_022.ogg
281,192,40800,128,0,41925:0:0:0:0:m_053.ogg
230,192,40800,128,0,41625:0:0:0:0:l_043.ogg
179,192,40800,128,0,41925:0:0:0:0:l_050.ogg
128,192,40800,128,0,41925:0:0:0:0:m_046.ogg
76,192,41100,128,0,41925:0:0:0:0:m_045.ogg
332,192,41400,128,0,43425:0:0:0:0:m_058.ogg
25,192,41400,128,0,43125:0:0:0:0:m_043.ogg
230,192,41700,128,0,42225:0:0:0:0:m_050.ogg
486,192,42000,128,0,43125:0:0:0:0:l_064.ogg
435,192,42000,128,0,43125:0:0:0:0:l_043.ogg
281,192,42000,128,0,43125:0:0:0:0:l_024.ogg
179,192,42000,128,0,42525:0:0:0:0:m_055.ogg
128,192,42000,128,0,42825:0:0:0:0:l_048.ogg
76,192,42000,128,0,43125:0:0:0:0:l_040.ogg
230,192,42300,128,0,43125:0:0:0:0:m_050.ogg
384,192,42600,128,0,43575:0:0:0:0:m_060.ogg
179,192,42600,128,0,43725:0:0:0:0:m_048.ogg
128,192,42900,128,0,43725:0:0:0:0:m_046.ogg
435,192,43200,128,0,43725:0:0:0:0:l_029.ogg
486,192,43200,128,0,44325:0:0:0:0:m_065.ogg
281,192,43200,128,0,44475:0:0:0:0:m_060.ogg
230,192,43200,128,0,44325:0:0:0:0:l_045.ogg
76,192,43200,128,0,44325:0:0:0:0:l_048.ogg
25,192,43200,128,0,44325:0:0:0:0:l_041.ogg
332,192,43500,128,0,44025:0:0:0:0:m_057.ogg
384,192,43650,128,0,44175:0:0:0:0:m_058.ogg
435,192,43800,128,0,44325:0:0:0:0:m_057.ogg
128,192,43800,128,0,44325:0:0:0:0:m_060.ogg
179,192,43800,128,0,45525:0:0:0:0:m_053.ogg
332,192,44100,128,0,44625:0:0:0:0:m_057.ogg
384,192,44250,128,0,44775:0:0:0:0:m_058.ogg
435,192,44400,128,0,44925:0:0:0:0:s_060.ogg
486,192,44400,128,0,45075:0:0:0:0:l_048.ogg
128,192,44400,128,0,46125:0:0:0:0:l_043.ogg
76,192,44400,128,0,45525:0:0:0:0:l_052.ogg
25,192,44400,128,0,45525:0:0:0:0:l_055.ogg
230,192,44400,128,0,46725:0:0:0:0:l_024.ogg
281,192,44550,128,0,45225:0:0:0:0:m_048.ogg
332,192,44700,128,0,45525:0:0:0:0:m_050.ogg
384,192,44850,128,0,45375:0:0:0:0:m_052.ogg
435,192,45000,128,0,45525:0:0:0:0:m_053.ogg
486,192,45150,128,0,46875:0:0:0:0:m_055.ogg
281,192,45300,128,0,45825:0:0:0:0:m_057.ogg
384,192,45450,128,0,46125:0:0:0:0:m_058.ogg
332,192,45600,128,0,45975:0:0:0:0:m_057.ogg
435,192,45600,128,0,46725:0:0:0:0:l_041.ogg
179,192,45600,128,0,46725:0:0:0:0:l_050.ogg
76,192,45600,128,0,46125:0:0:0:0:l_045.ogg
25,192,45600,128,0,47925:0:0:0:0:l_026.ogg
281,192,45900,128,0,46725:0:0:0:0:m_053.ogg
332,192,46050,128,0,46425:0:0:0:0:m_055.ogg
384,192,46200,128,0,46575:0:0:0:0:m_053.ogg
128,192,46200,128,0,46725:0:0:0:0:m_050.ogg
76,192,46200,128,0,47925:0:0:0:0:m_057.ogg
332,192,46500,128,0,47625:0:0:0:0:m_045.ogg
384,192,46650,128,0,47175:0:0:0:0:m_046.ogg
128,192,46800,128,0,47925:0:0:0:0:l_048.ogg
435,192,46800,128,0,47025:0:0:0:0:l_057.ogg
281,192,46800,128,0,47475:0:0:0:0:l_021.ogg
230,192,46800,128,0,48225:0:0:0:0:l_041.ogg
179,192,46800,128,0,48375:0:0:0:0:l_053.ogg
486,192,46950,128,0,47925:0:0:0:0:m_050.ogg
435,192,47100,128,0,47325:0:0:0:0:m_048.ogg
384,192,47250,128,0,47775:0:0:0:0:m_046.ogg
435,192,47400,128,0,47925:0:0:0:0:m_048.ogg
281,192,47550,128,0,47925:0:0:0:0:m_045.ogg
332,192,47700,128,0,49125:0:0:0:0:m_046.ogg
384,192,47850,128,0,49125:0:0:0:0:m_048.ogg
435,192,48000,128,0,49125:0:0:0:0:l_022.ogg
281,192,48000,128,0,49125:0:0:0:0:l_053.ogg
128,192,48000,128,0,48525:0:0:0:0:l_041.ogg
76,192,48000,128,0,48825:0:0:0:0:l_050.ogg
25,192,48000,128,0,48975:0:0:0:0:l_062.ogg
486,192,48000,128,0,50325:0:0:0:0:l_046.ogg
230,192,48300,128,0,49125:0:0:0:0:m_050.ogg
179,192,48450,128,0,50025:0:0:0:0:m_048.ogg
128,192,48600,128,0,49275:0:0:0:0:m_046.ogg
76,192,48900,128,0,49425:0:0:0:0:m_045.ogg
25,192,49050,128,0,49575:0:0:0:0:m_043.ogg
435,192,49200,128,0,50325:0:0:0:0:l_045.ogg
384,192,49200,128,0,50325:0:0:0:0:l_048.ogg
332,192,49200,128,0,49725:0:0:0:0:l_017.ogg
281,192,49200,128,0,50325:0:0:0:0:l_060.ogg
230,192,49200,128,0,50175:0:0:0:0:l_041.ogg
128,192,49350,128,0,49875:0:0:0:0:m_043.ogg
76,192,49500,128,0,49725:0:0:0:0:m_041.ogg
25,192,49650,128,0,50325:0:0:0:0:m_043.ogg
76,192,49800,128,0,50325:0:0:0:0:m_053.ogg
332,192,49800,128,0,51525:0:0:0:0:m_045.ogg
128,192,49950,128,0,50625:0:0:0:0:m_046.ogg
179,192,50100,128,0,51225:0:0:0:0:m_048.ogg
230,192,50250,128,0,51375:0:0:0:0:m_050.ogg
281,192,50400,128,0,51525:0:0:0:0:l_062.ogg
384,192,50400,128,0,50925:0:0:0:0:l_022.ogg
435,192,50400,128,0,51525:0:0:0:0:l_046.ogg
486,192,50400,128,0,51525:0:0:0:0:l_041.ogg
76,192,50400,128,0,50775:0:0:0:0:l_050.ogg
25,192,50400,128,0,51525:0:0:0:0:m_053.ogg
128,192,50700,128,0,50925:0:0:0:0:m_050.ogg
76,192,50850,128,0,51525:0:0:0:0:m_048.ogg
128,192,51000,128,0,51675:0:0:0:0:m_058.ogg
384,192,51000,128,0,53025:0:0:0:0:m_050.ogg
179,192,51300,128,0,51825:0:0:0:0:m_052.ogg
230,192,51450,128,0,51975:0:0:0:0:m_053.ogg
486,192,51600,128,0,52725:0:0:0:0:l_048.ogg
435,192,51600,128,0,52125:0:0:0:0:l_024.ogg
332,192,51600,128,0,52725:0:0:0:0:l_064.ogg
281,192,51600,128,0,53025:0:0:0:0:l_043.ogg
25,192,51600,128,0,52725:0:0:0:0:m_055.ogg
76,192,51600,128,0,52125:0:0:0:0:l_040.ogg
128,192,51750,128,0,52275:0:0:0:0:m_050.ogg
179,192,51900,128,0,52425:0:0:0:0:m_052.ogg
230,192,52050,128,0,52575:0:0:0:0:m_053.ogg
435,192,52200,128,0,52725:0:0:0:0:m_055.ogg
76,192,52200,128,0,52725:0:0:0:0:m_060.ogg
128,192,52350,128,0,52725:0:0:0:0:m_057.ogg
179,192,52500,128,0,52725:0:0:0:0:m_058.ogg
230,192,52650,128,0,53925:0:0:0:0:m_060.ogg
179,192,52800,128,0,53925:0:0:0:0:l_045.ogg
128,192,52800,128,0,53925:0:0:0:0:l_036.ogg
76,192,52800,128,0,53925:0:0:0:0:l_041.ogg
25,192,52800,128,0,53925:0:0:0:0:l_029.ogg
435,192,52800,128,0,53175:0:0:0:0:m_060.ogg
486,192,52800,128,0,53325:0:0:0:0:m_053.ogg
332,192,52800,128,0,53175:0:0:0:0:m_057.ogg
384,192,53100,128,0,53325:0:0:0:0:m_053.ogg
281,192,53100,128,0,53625:0:0:0:0:m_057.ogg
332,192,53250,128,0,53775:0:0:0:0:m_058.ogg
435,192,53250,128,0,53775:0:0:0:0:m_055.ogg
384,192,53400,128,0,53625:0:0:0:0:m_057.ogg
486,192,53400,128,0,53925:0:0:0:0:m_060.ogg
281,192,53700,128,0,54075:0:0:0:0:m_057.ogg
384,192,53700,128,0,53925:0:0:0:0:m_055.ogg
332,192,53850,128,0,54225:0:0:0:0:m_058.ogg
435,192,53850,128,0,54075:0:0:0:0:m_053.ogg
384,192,54000,128,0,54375:0:0:0:0:m_052.ogg
486,192,54000,128,0,54225:0:0:0:0:m_055.ogg
230,192,54000,128,0,55125:0:0:0:0:l_043.ogg
179,192,54000,128,0,55125:0:0:0:0:l_048.ogg
128,192,54000,128,0,55425:0:0:0:0:l_040.ogg
76,192,54000,128,0,55125:0:0:0:0:l_024.ogg
25,192,54000,128,0,55425:0:0:0:0:s_060.ogg
281,192,54150,128,0,54375:0:0:0:0:m_052.ogg
435,192,54150,128,0,54525:0:0:0:0:m_048.ogg
332,192,54300,128,0,54525:0:0:0:0:m_050.ogg
486,192,54300,128,0,54975:0:0:0:0:m_053.ogg
384,192,54450,128,0,54675:0:0:0:0:m_055.ogg
281,192,54450,128,0,54975:0:0:0:0:m_052.ogg
332,192,54600,128,0,54825:0:0:0:0:m_053.ogg
435,192,54600,128,0,54825:0:0:0:0:m_057.ogg
384,192,54750,128,0,55125:0:0:0:0:m_055.ogg
332,192,54900,128,0,55125:0:0:0:0:m_057.ogg
435,192,54900,128,0,55125:0:0:0:0:m_053.ogg
281,192,55050,128,0,56325:0:0:0:0:m_058.ogg
486,192,55050,128,0,56325:0:0:0:0:m_052.ogg
435,192,55200,128,0,56325:0:0:0:0:l_045.ogg
332,192,55200,128,0,56325:0:0:0:0:l_026.ogg
384,192,55200,128,0,57825:0:0:0:0:l_041.ogg
230,192,55200,128,0,55725:0:0:0:0:m_050.ogg
179,192,55200,128,0,55575:0:0:0:0:m_057.ogg
76,192,55200,128,0,55575:0:0:0:0:m_053.ogg
128,192,55500,128,0,55725:0:0:0:0:m_050.ogg
25,192,55500,128,0,56025:0:0:0:0:m_053.ogg
76,192,55650,128,0,56175:0:0:0:0:m_055.ogg
179,192,55650,128,0,56175:0:0:0:0:m_052.ogg
128,192,55800,128,0,56025:0:0:0:0:m_057.ogg
230,192,55800,128,0,56325:0:0:0:0:m_053.ogg
25,192,56100,128,0,56475:0:0:0:0:m_045.ogg
128,192,56100,128,0,56325:0:0:0:0:m_041.ogg
76,192,56250,128,0,56775:0:0:0:0:m_046.ogg
179,192,56250,128,0,56475:0:0:0:0:m_043.ogg
128,192,56400,128,0,56625:0:0:0:0:m_045.ogg
230,192,56400,128,0,56625:0:0:0:0:m_053.ogg
281,192,56400,128,0,57525:0:0:0:0:l_021.ogg
332,192,56400,128,0,57525:0:0:0:0:l_041.ogg
435,192,56400,128,0,57975:0:0:0:0:l_048.ogg
486,192,56400,128,0,57825:0:0:0:0:l_036.ogg
25,192,56550,128,0,57075:0:0:0:0:m_050.ogg
179,192,56550,128,0,56775:0:0:0:0:m_046.ogg
230,192,56700,128,0,56925:0:0:0:0:m_048.ogg
128,192,56700,128,0,56925:0:0:0:0:m_045.ogg
76,192,56850,128,0,57075:0:0:0:0:m_046.ogg
179,192,56850,128,0,57225:0:0:0:0:m_043.ogg
230,192,57000,128,0,57225:0:0:0:0:m_045.ogg
128,192,57000,128,0,57525:0:0:0:0:m_048.ogg
76,192,57150,128,0,57375:0:0:0:0:m_053.ogg
25,192,57150,128,0,57375:0:0:0:0:m_045.ogg
179,192,57300,128,0,57525:0:0:0:0:m_052.ogg
230,192,57300,128,0,57525:0:0:0:0:m_046.ogg
25,192,57450,128,0,59925:0:0:0:0:m_048.ogg
76,192,57450,128,0,58725:0:0:0:0:m_053.ogg
128,192,57600,128,0,58725:0:0:0:0:l_041.ogg
179,192,57600,128,0,58725:0:0:0:0:l_038.ogg
230,192,57600,128,0,60225:0:0:0:0:l_046.ogg
281,192,57600,128,0,58125:0:0:0:0:l_022.ogg
332,192,57600,128,0,57975:0:0:0:0:m_050.ogg
384,192,57900,128,0,58125:0:0:0:0:m_050.ogg
486,192,57900,128,0,58425:0:0:0:0:m_053.ogg
435,192,58050,128,0,58575:0:0:0:0:m_052.ogg
332,192,58050,128,0,58575:0:0:0:0:m_048.ogg
384,192,58200,128,0,58425:0:0:0:0:m_050.ogg
281,192,58200,128,0,59025:0:0:0:0:m_046.ogg
384,192,58500,128,0,58725:0:0:0:0:m_048.ogg
486,192,58500,128,0,58725:0:0:0:0:m_045.ogg
332,192,58650,128,0,58875:0:0:0:0:m_043.ogg
435,192,58650,128,0,58875:0:0:0:0:m_046.ogg
384,192,58800,128,0,59025:0:0:0:0:m_048.ogg
486,192,58800,128,0,59325:0:0:0:0:l_017.ogg
179,192,58800,128,0,59925:0:0:0:0:l_041.ogg
76,192,58800,128,0,59925:0:0:0:0:l_045.ogg
128,192,58800,128,0,60225:0:0:0:0:l_036.ogg
332,192,58950,128,0,59175:0:0:0:0:m_043.ogg
435,192,58950,128,0,59175:0:0:0:0:m_046.ogg
384,192,59100,128,0,59325:0:0:0:0:m_045.ogg
281,192,59100,128,0,59475:0:0:0:0:m_041.ogg
332,192,59250,128,0,59625:0:0:0:0:m_043.ogg
435,192,59250,128,0,59475:0:0:0:0:m_046.ogg
384,192,59400,128,0,59775:0:0:0:0:m_045.ogg
486,192,59400,128,0,59625:0:0:0:0:m_048.ogg
435,192,59550,128,0,59925:0:0:0:0:m_050.ogg
281,192,59550,128,0,59775:0:0:0:0:m_046.ogg
332,192,59700,128,0,59925:0:0:0:0:m_048.ogg
486,192,59700,128,0,59925:0:0:0:0:m_052.ogg
281,192,59850,128,0,61125:0:0:0:0:m_053.ogg
384,192,59850,128,0,61125:0:0:0:0:m_050.ogg
486,192,60000,128,0,61125:0:0:0:0:l_043.ogg
435,192,60000,128,0,61125:0:0:0:0:l_041.ogg
332,192,60000,128,0,62325:0:0:0:0:l_022.ogg
179,192,60000,128,0,60375:0:0:0:0:l_038.ogg
76,192,60000,128,0,60375:0:0:0:0:m_050.ogg
25,192,60000,128,0,61125:0:0:0:0:m_046.ogg
128,192,60300,128,0,60525:0:0:0:0:m_050.ogg
230,192,60300,128,0,60525:0:0:0:0:m_053.ogg
179,192,60450,128,0,60975:0:0:0:0:m_052.ogg
76,192,60450,128,0,60975:0:0:0:0:m_048.ogg
128,192,60600,128,0,60825:0:0:0:0:m_050.ogg
230,192,60600,128,0,61425:0:0:0:0:m_053.ogg
128,192,60900,128,0,61125:0:0:0:0:m_052.ogg
179,192,61050,128,0,61275:0:0:0:0:m_050.ogg
76,192,61050,128,0,61275:0:0:0:0:m_053.ogg
25,192,61200,128,0,61725:0:0:0:0:m_052.ogg
128,192,61200,128,0,61425:0:0:0:0:m_048.ogg
281,192,61200,128,0,62325:0:0:0:0:l_024.ogg
384,192,61200,128,0,62625:0:0:0:0:l_040.ogg
435,192,61200,128,0,62625:0:0:0:0:l_036.ogg
486,192,61200,128,0,62325:0:0:0:0:l_043.ogg
179,192,61350,128,0,61575:0:0:0:0:m_053.ogg
76,192,61350,128,0,61875:0:0:0:0:m_050.ogg
230,192,61500,128,0,62025:0:0:0:0:m_055.ogg
128,192,61500,128,0,61725:0:0:0:0:m_052.ogg
179,192,61650,128,0,61875:0:0:0:0:m_053.ogg
128,192,61800,128,0,62325:0:0:0:0:m_052.ogg
25,192,61800,128,0,62025:0:0:0:0:m_055.ogg
76,192,61950,128,0,62175:0:0:0:0:m_057.ogg
179,192,61950,128,0,62175:0:0:0:0:m_053.ogg
230,192,62100,128,0,62325:0:0:0:0:m_050.ogg
25,192,62100,128,0,63525:0:0:0:0:m_058.ogg
76,192,62250,128,0,63525:0:0:0:0:m_052.ogg
179,192,62250,128,0,65325:0:0:0:0:m_060.ogg
486,192,62400,128,0,62925:0:0:0:0:l_041.ogg
332,192,62400,128,0,62625:0:0:0:0:l_029.ogg
281,192,62400,128,0,63525:0:0:0:0:m_057.ogg
230,192,62400,128,0,65025:0:0:0:0:l_045.ogg
128,192,62400,128,0,64725:0:0:0:0:l_036.ogg
332,192,62700,128,0,63225:0:0:0:0:m_048.ogg
384,192,62700,128,0,62925:0:0:0:0:m_045.ogg
435,192,62700,128,0,62925:0:0:0:0:m_053.ogg
384,192,63000,128,0,63225:0:0:0:0:m_046.ogg
435,192,63000,128,0,63225:0:0:0:0:m_048.ogg
486,192,63000,128,0,64125:0:0:0:0:m_055.ogg
435,192,63300,128,0,63825:0:0:0:0:m_053.ogg
384,192,63300,128,0,63525:0:0:0:0:m_045.ogg
332,192,63300,128,0,63525:0:0:0:0:m_048.ogg
384,192,63600,128,0,63825:0:0:0:0:m_052.ogg
332,192,63600,128,0,64125:0:0:0:0:l_040.ogg
281,192,63600,128,0,63825:0:0:0:0:l_024.ogg
76,192,63600,128,0,65325:0:0:0:0:l_043.ogg
25,192,63600,128,0,64725:0:0:0:0:l_048.ogg
281,192,63900,128,0,64425:0:0:0:0:m_048.ogg
384,192,63900,128,0,64125:0:0:0:0:m_055.ogg
435,192,63900,128,0,64425:0:0:0:0:m_040.ogg
486,192,64200,128,0,64725:0:0:0:0:m_041.ogg
384,192,64200,128,0,64425:0:0:0:0:m_057.ogg
332,192,64200,128,0,64725:0:0:0:0:m_048.ogg
281,192,64500,128,0,64725:0:0:0:0:m_048.ogg
384,192,64500,128,0,65925:0:0:0:0:m_055.ogg
435,192,64500,128,0,65925:0:0:0:0:m_040.ogg
332,192,64800,128,0,65925:0:0:0:0:l_038.ogg
128,192,64800,128,0,65025:0:0:0:0:m_053.ogg
25,192,64800,128,0,66225:0:0:0:0:l_026.ogg
281,192,64800,128,0,67425:0:0:0:0:l_045.ogg
486,192,64800,128,0,67125:0:0:0:0:l_041.ogg
230,192,65100,128,0,65625:0:0:0:0:m_050.ogg
128,192,65100,128,0,65325:0:0:0:0:m_045.ogg
128,192,65400,128,0,65625:0:0:0:0:m_041.ogg
179,192,65400,128,0,65925:0:0:0:0:m_045.ogg
76,192,65400,128,0,66225:0:0:0:0:m_048.ogg
128,192,65700,128,0,65925:0:0:0:0:m_050.ogg
230,192,65700,128,0,65925:0:0:0:0:m_045.ogg
332,192,66000,128,0,67125:0:0:0:0:l_036.ogg
384,192,66000,128,0,67425:0:0:0:0:l_045.ogg
435,192,66000,128,0,67725:0:0:0:0:l_040.ogg
230,192,66000,128,0,66525:0:0:0:0:l_021.ogg
179,192,66000,128,0,66525:0:0:0:0:m_052.ogg
128,192,66000,128,0,66225:0:0:0:0:m_048.ogg
25,192,66300,128,0,66525:0:0:0:0:m_045.ogg
76,192,66300,128,0,66825:0:0:0:0:m_040.ogg
128,192,66300,128,0,67125:0:0:0:0:m_036.ogg
25,192,66600,128,0,66825:0:0:0:0:m_048.ogg
179,192,66600,128,0,66825:0:0:0:0:m_034.ogg
230,192,66600,128,0,67125:0:0:0:0:m_045.ogg
179,192,66900,128,0,68325:0:0:0:0:m_036.ogg
76,192,66900,128,0,68325:0:0:0:0:m_043.ogg
25,192,66900,128,0,68325:0:0:0:0:m_048.ogg
128,192,67200,128,0,68325:0:0:0:0:l_022.ogg
230,192,67200,128,0,69825:0:0:0:0:l_041.ogg
332,192,67200,128,0,67425:0:0:0:0:m_046.ogg
486,192,67200,128,0,68025:0:0:0:0:l_038.ogg
281,192,67500,128,0,67725:0:0:0:0:m_046.ogg
332,192,67500,128,0,67725:0:0:0:0:m_050.ogg
384,192,67500,128,0,68025:0:0:0:0:m_053.ogg
281,192,67800,128,0,68025:0:0:0:0:m_046.ogg
332,192,67800,128,0,68625:0:0:0:0:m_052.ogg
435,192,67800,128,0,68325:0:0:0:0:m_055.ogg
486,192,68100,128,0,68325:0:0:0:0:m_058.ogg
384,192,68100,128,0,68325:0:0:0:0:m_050.ogg
281,192,68100,128,0,68625:0:0:0:0:m_053.ogg
179,192,68400,128,0,69525:0:0:0:0:l_041.ogg
25,192,68400,128,0,69525:0:0:0:0:l_017.ogg
76,192,68400,128,0,69525:0:0:0:0:l_036.ogg
128,192,68400,128,0,70125:0:0:0:0:l_045.ogg
486,192,68400,128,0,69225:0:0:0:0:m_057.ogg
435,192,68400,128,0,68925:0:0:0:0:m_053.ogg
384,192,68400,128,0,68625:0:0:0:0:m_048.ogg
384,192,68700,128,0,68925:0:0:0:0:m_036.ogg
332,192,68700,128,0,68925:0:0:0:0:m_045.ogg
281,192,68700,128,0,69525:0:0:0:0:m_053.ogg
332,192,69000,128,0,69525:0:0:0:0:m_053.ogg
384,192,69000,128,0,69225:0:0:0:0:m_034.ogg
435,192,69000,128,0,69225:0:0:0:0:m_048.ogg
486,192,69300,128,0,70725:0:0:0:0:m_057.ogg
435,192,69300,128,0,70725:0:0:0:0:m_053.ogg
384,192,69300,128,0,70725:0:0:0:0:m_036.ogg
281,192,69600,128,0,70725:0:0:0:0:l_046.ogg
179,192,69600,128,0,69825:0:0:0:0:m_053.ogg
76,192,69600,128,0,69825:0:0:0:0:l_038.ogg
25,192,69600,128,0,70125:0:0:0:0:l_022.ogg
332,192,69600,128,0,71925:0:0:0:0:l_041.ogg
230,192,69900,128,0,70125:0:0:0:0:m_058.ogg
179,192,69900,128,0,70425:0:0:0:0:m_050.ogg
76,192,69900,128,0,70725:0:0:0:0:m_053.ogg
25,192,70200,128,0,70725:0:0:0:0:m_050.ogg
128,192,70200,128,0,70425:0:0:0:0:m_048.ogg
230,192,70200,128,0,70725:0:0:0:0:m_057.ogg
179,192,70500,128,0,71025:0:0:0:0:m_058.ogg
128,192,70500,128,0,71325:0:0:0:0:m_050.ogg
486,192,70800,128,0,72225:0:0:0:0:l_043.ogg
435,192,70800,128,0,72375:0:0:0:0:l_036.ogg
384,192,70800,128,0,71925:0:0:0:0:l_040.ogg
281,192,70800,128,0,72225:0:0:0:0:l_024.ogg
230,192,70800,128,0,71325:0:0:0:0:m_055.ogg
76,192,70800,128,0,71025:0:0:0:0:m_052.ogg
25,192,70800,128,0,71325:0:0:0:0:m_048.ogg
76,192,71100,128,0,71625:0:0:0:0:m_040.ogg
179,192,71100,128,0,71625:0:0:0:0:m_048.ogg
230,192,71400,128,0,71625:0:0:0:0:m_046.ogg
128,192,71400,128,0,71925:0:0:0:0:m_038.ogg
25,192,71400,128,0,71925:0:0:0:0:m_055.ogg
76,192,71700,128,0,71925:0:0:0:0:m_040.ogg
179,192,71700,128,0,72225:0:0:0:0:m_052.ogg
230,192,71700,128,0,73125:0:0:0:0:m_048.ogg
128,192,72000,128,0,73125:0:0:0:0:l_045.ogg
76,192,72000,128,0,73125:0:0:0:0:l_048.ogg
25,192,72000,128,0,73125:0:0:0:0:l_041.ogg
384,192,72000,128,0,72525:0:0:0:0:l_029.ogg
332,192,72000,128,0,72375:0:0:0:0:m_053.ogg
486,192,72300,128,0,72525:0:0:0:0:m_053.ogg
281,192,72300,128,0,72825:0:0:0:0:m_057.ogg
179,192,72300,128,0,72525:0:0:0:0:m_041.ogg
435,192,72450,128,0,73125:0:0:0:0:m_052.ogg
332,192,72450,128,0,72825:0:0:0:0:m_043.ogg
179,192,72600,128,0,72825:0:0:0:0:m_045.ogg
486,192,72600,128,0,73125:0:0:0:0:m_053.ogg
384,192,72600,128,0,73425:0:0:0:0:m_057.ogg
179,192,72900,128,0,74325:0:0:0:0:m_041.ogg
332,192,72900,128,0,73575:0:0:0:0:m_045.ogg
281,192,72900,128,0,73425:0:0:0:0:m_057.ogg
486,192,73200,128,0,73725:0:0:0:0:m_040.ogg
435,192,73200,128,0,73575:0:0:0:0:m_055.ogg
230,192,73200,128,0,75525:0:0:0:0:l_048.ogg
128,192,73200,128,0,73425:0:0:0:0:l_052.ogg
76,192,73200,128,0,74325:0:0:0:0:l_043.ogg
25,192,73200,128,0,74325:0:0:0:0:l_024.ogg
128,192,73500,128,0,74025:0:0:0:0:m_052.ogg
281,192,73500,128,0,74025:0:0:0:0:m_055.ogg
384,192,73500,128,0,73725:0:0:0:0:m_048.ogg
332,192,73650,128,0,74775:0:0:0:0:m_053.ogg
435,192,73650,128,0,74325:0:0:0:0:m_050.ogg
486,192,73800,128,0,74325:0:0:0:0:m_055.ogg
384,192,73800,128,0,74025:0:0:0:0:m_052.ogg
384,192,74100,128,0,74625:0:0:0:0:m_048.ogg
281,192,74100,128,0,74625:0:0:0:0:m_055.ogg
128,192,74100,128,0,75525:0:0:0:0:m_052.ogg
179,192,74400,128,0,75525:0:0:0:0:l_050.ogg
76,192,74400,128,0,74925:0:0:0:0:l_041.ogg
25,192,74400,128,0,75525:0:0:0:0:l_045.ogg
486,192,74400,128,0,74925:0:0:0:0:l_026.ogg
435,192,74400,128,0,74775:0:0:0:0:m_053.ogg
384,192,74700,128,0,74925:0:0:0:0:m_038.ogg
281,192,74700,128,0,75225:0:0:0:0:m_053.ogg
332,192,74850,128,0,75975:0:0:0:0:m_040.ogg
435,192,74850,128,0,75975:0:0:0:0:m_055.ogg
486,192,75000,128,0,75525:0:0:0:0:m_053.ogg
384,192,75000,128,0,75225:0:0:0:0:m_057.ogg
76,192,75000,128,0,76725:0:0:0:0:m_041.ogg
281,192,75300,128,0,75525:0:0:0:0:m_053.ogg
384,192,75300,128,0,75825:0:0:0:0:m_038.ogg
25,192,75600,128,0,76725:0:0:0:0:l_021.ogg
486,192,75600,128,0,75825:0:0:0:0:m_057.ogg
281,192,75600,128,0,76125:0:0:0:0:m_060.ogg
230,192,75600,128,0,75825:0:0:0:0:l_045.ogg
179,192,75600,128,0,77175:0:0:0:0:l_048.ogg
128,192,75600,128,0,77025:0:0:0:0:l_040.ogg
230,192,75900,128,0,76125:0:0:0:0:m_048.ogg
384,192,75900,128,0,76125:0:0:0:0:m_060.ogg
486,192,75900,128,0,76725:0:0:0:0:m_057.ogg
435,192,76050,128,0,76725:0:0:0:0:m_055.ogg
332,192,76050,128,0,76425:0:0:0:0:m_046.ogg
384,192,76200,128,0,76725:0:0:0:0:m_053.ogg
281,192,76200,128,0,76425:0:0:0:0:m_060.ogg
230,192,76200,128,0,76425:0:0:0:0:m_045.ogg
230,192,76500,128,0,77025:0:0:0:0:m_043.ogg
281,192,76500,128,0,77925:0:0:0:0:m_060.ogg
332,192,76500,128,0,77925:0:0:0:0:m_052.ogg
76,192,76800,128,0,77175:0:0:0:0:m_062.ogg
25,192,76800,128,0,77325:0:0:0:0:m_041.ogg
384,192,76800,128,0,77025:0:0:0:0:m_038.ogg
435,192,76800,128,0,77325:0:0:0:0:l_022.ogg
486,192,76800,128,0,77925:0:0:0:0:l_050.ogg
384,192,77100,128,0,77325:0:0:0:0:m_046.ogg
230,192,77100,128,0,77325:0:0:0:0:m_050.ogg
128,192,77100,128,0,77925:0:0:0:0:m_062.ogg
76,192,77250,128,0,77625:0:0:0:0:m_045.ogg
179,192,77250,128,0,77625:0:0:0:0:m_048.ogg
435,192,77400,128,0,77925:0:0:0:0:m_040.ogg
384,192,77400,128,0,77625:0:0:0:0:m_062.ogg
25,192,77400,128,0,78225:0:0:0:0:m_043.ogg
230,192,77400,128,0,78225:0:0:0:0:m_050.ogg
76,192,77700,128,0,77925:0:0:0:0:m_062.ogg
179,192,77700,128,0,78375:0:0:0:0:m_052.ogg
384,192,77700,128,0,79125:0:0:0:0:m_046.ogg
128,192,78000,128,0,78525:0:0:0:0:m_053.ogg
76,192,78000,128,0,78375:0:0:0:0:m_060.ogg
435,192,78000,128,0,79125:0:0:0:0:l_048.ogg
486,192,78000,128,0,79125:0:0:0:0:l_041.ogg
332,192,78000,128,0,78225:0:0:0:0:l_017.ogg
281,192,78000,128,0,79125:0:0:0:0:l_045.ogg
332,192,78300,128,0,78525:0:0:0:0:m_041.ogg
230,192,78300,128,0,78825:0:0:0:0:m_057.ogg
25,192,78300,128,0,78525:0:0:0:0:m_060.ogg
179,192,78450,128,0,79575:0:0:0:0:m_055.ogg
76,192,78450,128,0,79125:0:0:0:0:m_043.ogg
332,192,78600,128,0,78825:0:0:0:0:m_045.ogg
25,192,78600,128,0,79125:0:0:0:0:m_060.ogg
128,192,78600,128,0,78825:0:0:0:0:m_053.ogg
332,192,78900,128,0,80325:0:0:0:0:m_048.ogg
230,192,78900,128,0,79425:0:0:0:0:m_060.ogg
128,192,78900,128,0,79425:0:0:0:0:m_057.ogg
76,192,79200,128,0,79575:0:0:0:0:m_058.ogg
25,192,79200,128,0,79725:0:0:0:0:m_062.ogg
281,192,79200,128,0,80625:0:0:0:0:l_050.ogg
384,192,79200,128,0,79425:0:0:0:0:l_022.ogg
435,192,79200,128,0,80325:0:0:0:0:l_041.ogg
486,192,79200,128,0,80325:0:0:0:0:l_046.ogg
384,192,79500,128,0,79725:0:0:0:0:m_050.ogg
230,192,79500,128,0,80625:0:0:0:0:m_053.ogg
128,192,79500,128,0,79725:0:0:0:0:m_062.ogg
76,192,79650,128,0,80025:0:0:0:0:m_048.ogg
179,192,79650,128,0,80325:0:0:0:0:m_052.ogg
128,192,79800,128,0,80325:0:0:0:0:m_050.ogg
25,192,79800,128,0,80025:0:0:0:0:m_062.ogg
384,192,79800,128,0,80025:0:0:0:0:m_046.ogg
384,192,80100,128,0,81525:0:0:0:0:m_045.ogg
76,192,80100,128,0,80775:0:0:0:0:m_062.ogg
25,192,80100,128,0,80925:0:0:0:0:m_050.ogg
128,192,80400,128,0,80625:0:0:0:0:m_064.ogg
179,192,80400,128,0,80925:0:0:0:0:l_024.ogg
332,192,80400,128,0,82125:0:0:0:0:l_048.ogg
486,192,80400,128,0,81525:0:0:0:0:l_040.ogg
435,192,80400,128,0,82425:0:0:0:0:l_043.ogg
281,192,80700,128,0,80925:0:0:0:0:m_048.ogg
230,192,80700,128,0,81525:0:0:0:0:m_043.ogg
128,192,80700,128,0,81225:0:0:0:0:m_052.ogg
76,192,80850,128,0,81225:0:0:0:0:m_046.ogg
25,192,81000,128,0,81525:0:0:0:0:m_052.ogg
179,192,81000,128,0,82725:0:0:0:0:m_048.ogg
281,192,81000,128,0,81225:0:0:0:0:m_045.ogg
281,192,81300,128,0,82425:0:0:0:0:m_043.ogg
128,192,81300,128,0,82725:0:0:0:0:m_048.ogg
76,192,81300,128,0,82725:0:0:0:0:m_052.ogg
25,192,81600,128,0,82725:0:0:0:0:l_048.ogg
230,192,81600,128,0,83625:0:0:0:0:l_045.ogg
384,192,81600,128,0,83625:0:0:0:0:l_029.ogg
486,192,81600,128,0,83025:0:0:0:0:l_041.ogg
332,192,82200,128,0,83025:0:0:0:0:m_053.ogg
281,192,82500,128,0,82725:0:0:0:0:m_060.ogg
435,192,82500,128,0,82725:0:0:0:0:m_057.ogg
435,192,82800,128,0,83325:0:0:0:0:m_045.ogg
281,192,82800,128,0,83325:0:0:0:0:m_060.ogg
179,192,82800,128,0,83925:0:0:0:0:l_024.ogg
128,192,82800,128,0,83625:0:0:0:0:m_040.ogg
76,192,82800,128,0,83925:0:0:0:0:m_057.ogg
25,192,82800,128,0,83925:0:0:0:0:l_052.ogg
486,192,83100,128,0,83625:0:0:0:0:m_058.ogg
332,192,83100,128,0,83925:0:0:0:0:m_062.ogg
435,192,83400,128,0,83925:0:0:0:0:m_057.ogg
281,192,83400,128,0,83925:0:0:0:0:m_060.ogg
230,192,83700,128,0,85125:0:0:0:0:m_055.ogg
128,192,83700,128,0,85125:0:0:0:0:m_043.ogg
384,192,83700,128,0,85425:0:0:0:0:m_046.ogg
486,192,83700,128,0,85425:0:0:0:0:m_058.ogg
435,192,84000,128,0,84825:0:0:0:0:m_053.ogg
332,192,84000,128,0,84825:0:0:0:0:m_057.ogg
281,192,84000,128,0,86025:0:0:0:0:l_041.ogg
179,192,84000,128,0,85125:0:0:0:0:l_045.ogg
25,192,84000,128,0,85125:0:0:0:0:l_050.ogg
76,192,84000,128,0,86025:0:0:0:0:l_026.ogg
435,192,84900,128,0,85125:0:0:0:0:m_053.ogg
332,192,84900,128,0,85125:0:0:0:0:m_057.ogg
332,192,85200,128,0,85725:0:0:0:0:m_057.ogg
435,192,85200,128,0,85725:0:0:0:0:m_045.ogg
230,192,85200,128,0,86325:0:0:0:0:m_041.ogg
179,192,85200,128,0,86025:0:0:0:0:m_053.ogg
128,192,85200,128,0,86325:0:0:0:0:l_021.ogg
25,192,85200,128,0,86325:0:0:0:0:l_048.ogg
384,192,85500,128,0,86025:0:0:0:0:m_058.ogg
486,192,85500,128,0,86325:0:0:0:0:m_055.ogg
435,192,85800,128,0,86325:0:0:0:0:m_053.ogg
332,192,85800,128,0,86325:0:0:0:0:m_057.ogg
76,192,86100,128,0,86925:0:0:0:0:m_052.ogg
179,192,86100,128,0,86625:0:0:0:0:m_043.ogg
281,192,86100,128,0,87525:0:0:0:0:m_040.ogg
384,192,86100,128,0,87525:0:0:0:0:m_055.ogg
332,192,86400,128,0,87525:0:0:0:0:l_046.ogg
435,192,86400,128,0,87525:0:0:0:0:l_050.ogg
486,192,86400,128,0,88725:0:0:0:0:l_041.ogg
230,192,86400,128,0,87225:0:0:0:0:m_053.ogg
128,192,86400,128,0,87525:0:0:0:0:l_038.ogg
25,192,86400,128,0,87525:0:0:0:0:l_022.ogg
179,192,86700,128,0,87225:0:0:0:0:m_051.ogg
76,192,87000,128,0,88425:0:0:0:0:m_050.ogg
230,192,87300,128,0,88725:0:0:0:0:m_051.ogg
179,192,87300,128,0,88725:0:0:0:0:m_043.ogg
128,192,87600,128,0,88725:0:0:0:0:l_045.ogg
25,192,87600,128,0,89325:0:0:0:0:m_048.ogg
435,192,87600,128,0,88725:0:0:0:0:l_036.ogg
384,192,87600,128,0,88725:0:0:0:0:l_041.ogg
332,192,87600,128,0,89925:0:0:0:0:l_017.ogg
281,192,87600,128,0,89925:0:0:0:0:l_053.ogg
76,192,88500,128,0,89025:0:0:0:0:m_048.ogg
230,192,88800,128,0,89325:0:0:0:0:l_022.ogg
179,192,88800,128,0,89925:0:0:0:0:l_050.ogg
128,192,88800,128,0,89925:0:0:0:0:m_053.ogg
384,192,88800,128,0,89925:0:0:0:0:l_046.ogg
435,192,88800,128,0,91125:0:0:0:0:l_038.ogg
486,192,88800,128,0,91725:0:0:0:0:l_041.ogg
76,192,89100,128,0,89625:0:0:0:0:m_051.ogg
230,192,89400,128,0,91125:0:0:0:0:m_053.ogg
25,192,89400,128,0,89925:0:0:0:0:m_050.ogg
76,192,89700,128,0,91125:0:0:0:0:m_051.ogg
384,192,90000,128,0,90825:0:0:0:0:l_043.ogg
332,192,90000,128,0,90825:0:0:0:0:l_036.ogg
281,192,90000,128,0,90825:0:0:0:0:l_040.ogg
179,192,90000,128,0,91125:0:0:0:0:m_052.ogg
128,192,90000,128,0,91725:0:0:0:0:m_048.ogg
25,192,90000,128,0,91725:0:0:0:0:l_024.ogg
384,192,90900,128,0,91125:0:0:0:0:m_048.ogg
332,192,90900,128,0,91125:0:0:0:0:m_052.ogg
281,192,90900,128,0,91725:0:0:0:0:m_043.ogg
435,192,91200,128,0,91725:0:0:0:0:m_053.ogg
384,192,91200,128,0,92325:0:0:0:0:m_041.ogg
332,192,91200,128,0,92325:0:0:0:0:m_036.ogg
179,192,91200,128,0,92325:0:0:0:0:l_060.ogg
76,192,91200,128,0,92325:0:0:0:0:l_029.ogg
230,192,91200,128,0,93525:0:0:0:0:m_045.ogg
281,192,91800,128,0,93525:0:0:0:0:l_057.ogg
435,192,91800,128,0,92925:0:0:0:0:l_048.ogg
486,192,91800,128,0,92925:0:0:0:0:l_045.ogg
128,192,91800,128,0,92925:0:0:0:0:m_041.ogg
25,192,91800,128,0,92925:0:0:0:0:m_053.ogg
76,192,92400,128,0,93525:0:0:0:0:m_048.ogg
179,192,92400,128,0,93525:0:0:0:0:m_040.ogg
332,192,92400,128,0,93525:0:0:0:0:l_024.ogg
384,192,92400,128,0,93225:0:0:0:0:l_052.ogg
128,192,93000,128,0,97125:0:0:0:0:m_052.ogg
25,192,93000,128,0,94725:0:0:0:0:m_046.ogg
486,192,93000,128,0,94125:0:0:0:0:m_043.ogg
435,192,93000,128,0,95625:0:0:0:0:m_055.ogg
384,192,93300,128,0,94125:0:0:0:0:m_046.ogg
332,192,93600,128,0,94725:0:0:0:0:m_053.ogg
281,192,93600,128,0,94725:0:0:0:0:l_026.ogg
179,192,93600,128,0,94725:0:0:0:0:l_041.ogg
76,192,93600,128,0,94725:0:0:0:0:l_045.ogg
230,192,93600,128,0,95925:0:0:0:0:l_050.ogg
384,192,94200,128,0,95325:0:0:0:0:l_065.ogg
486,192,94200,128,0,95325:0:0:0:0:m_038.ogg
332,192,94800,128,0,95925:0:0:0:0:m_036.ogg
281,192,94800,128,0,95925:0:0:0:0:m_057.ogg
179,192,94800,128,0,96525:0:0:0:0:l_041.ogg
76,192,94800,128,0,95925:0:0:0:0:l_048.ogg
25,192,94800,128,0,95925:0:0:0:0:l_021.ogg
384,192,95400,128,0,95925:0:0:0:0:m_063.ogg
486,192,95400,128,0,97125:0:0:0:0:m_048.ogg
435,192,95700,128,0,97125:0:0:0:0:m_055.ogg
230,192,96000,128,0,97125:0:0:0:0:l_050.ogg
281,192,96000,128,0,97125:0:0:0:0:l_062.ogg
332,192,96000,128,0,97125:0:0:0:0:l_053.ogg
76,192,96000,128,0,97725:0:0:0:0:l_041.ogg
25,192,96000,128,0,98925:0:0:0:0:l_046.ogg
384,192,96000,128,0,98325:0:0:0:0:l_022.ogg
179,192,96600,128,0,97725:0:0:0:0:m_058.ogg
486,192,97200,128,0,98325:0:0:0:0:l_048.ogg
435,192,97200,128,0,97725:0:0:0:0:l_045.ogg
332,192,97200,128,0,98325:0:0:0:0:l_041.ogg
281,192,97200,128,0,99525:0:0:0:0:l_017.ogg
230,192,97200,128,0,98325:0:0:0:0:m_057.ogg
128,192,97200,128,0,100125:0:0:0:0:m_065.ogg
435,192,97800,128,0,98325:0:0:0:0:m_053.ogg
179,192,97800,128,0,99525:0:0:0:0:m_045.ogg
76,192,97800,128,0,98325:0:0:0:0:m_060.ogg
76,192,98400,128,0,99525:0:0:0:0:l_062.ogg
230,192,98400,128,0,100750:0:0:0:0:l_050.ogg
332,192,98400,128,0,99525:0:0:0:0:l_053.ogg
384,192,98400,128,0,99525:0:0:0:0:l_022.ogg
435,192,98400,128,0,99525:0:0:0:0:l_041.ogg
486,192,98400,128,0,100875:0:0:0:0:l_043.ogg
25,192,99000,128,0,100750:0:0:0:0:m_050.ogg
435,192,99600,128,0,100850:0:0:0:0:l_048.ogg
384,192,99600,128,0,100825:0:0:0:0:l_043.ogg
332,192,99600,128,0,100800:0:0:0:0:l_024.ogg
281,192,99600,128,0,100775:0:0:0:0:l_052.ogg
179,192,99600,128,0,100750:0:0:0:0:l_040.ogg
76,192,99600,128,0,100750:0:0:0:0:l_060.ogg
128,192,100200,128,0,100750:0:0:0:0:m_055.ogg
179,192,100800,128,0,105600:0:0:0:0:l_053.ogg
76,192,100800,128,0,105600:0:0:0:0:l_017.ogg
128,192,100800,128,0,105600:0:0:0:0:l_057.ogg
25,192,100800,128,0,105600:0:0:0:0:l_048.ogg
230,192,100800,128,0,100900:0:0:0:0:l_029.ogg
281,192,100825,128,0,105600:0:0:0:0:l_024.ogg
332,192,100850,128,0,105600:0:0:0:0:l_033.ogg
384,192,100875,128,0,105600:0:0:0:0:l_036.ogg
435,192,100900,128,0,105600:0:0:0:0:l_041.ogg
486,192,100925,128,0,105600:0:0:0:0:l_045.ogg
230,192,100950,128,0,105600:0:0:0:0:l_048.ogg
