osu file format v14

[General]
AudioFilename: audio.ogg
AudioLeadIn: 0
PreviewTime: 19824
Countdown: 0
SampleSet: Normal
StackLeniency: 0.7
Mode: 1
LetterboxInBreaks: 0
WidescreenStoryboard: 1

[Editor]
Bookmarks: 1980,11848,20319,34350,45711,55261,63495,77196,88340,97739,105860,113013,119405
DistanceSpacing: 1
BeatDivisor: 2
GridSize: 4
TimelineZoom: 1.360004

[Metadata]
Title:Acceleration Insanity
TitleUnicode:Acceleration Insanity
Artist:Collapsed Plug
ArtistUnicode:Collapsed Plug
Creator:Miyoi
Version:Kantan
Source:
Tags:Midnaait Reficul uone Electronic Instrumental RGMES2 LUNATIC RHYTHMGAME MUSIC ESSENTIAL 2 Physitaker BPM Increase
BeatmapID:3527500
BeatmapSetID:1716645

[Difficulty]
HPDrainRate:8
CircleSize:2
OverallDifficulty:3
ApproachRate:9
SliderMultiplier:1.4
SliderTickRate:1

[Events]
//Background and Video events
0,0,"b.jpg",0,-90
//Break Periods
//Storyboard Layer 0 (Background)
//Storyboard Layer 1 (Fail)
//Storyboard Layer 2 (Pass)
//Storyboard Layer 3 (Foreground)
//Storyboard Layer 4 (Overlay)
//Storyboard Sound Samples

[TimingPoints]
1980,1333.33333333333,4,1,0,80,1,0
1980,-50,4,1,0,80,0,0
2647,1318.68131868132,4,1,0,80,1,8
3306,1304.34782608696,4,1,0,80,1,8
3958,1290.32258064516,4,1,0,80,1,8
4603,1276.59574468085,4,1,0,80,1,8
4603,-51.0811878952122,4,1,0,80,0,8
5241,1263.15789473684,4,1,0,80,1,8
5873,1250,4,1,0,80,1,8
5873,-51.621908263132,4,1,0,80,0,8
6498,1237.11340206186,4,1,0,80,1,8
7117,1224.48979591837,4,1,0,80,1,0
7117,-52.1624882825742,4,1,0,80,0,0
7729,1212.12121212121,4,1,0,80,1,8
8335,1200,4,1,0,80,1,8
8935,1188.11881188119,4,1,0,80,1,8
9529,1176.47058823529,4,1,0,80,1,8
9529,-53.2437413648706,4,1,0,80,0,8
10117,1165.04854368932,4,1,0,80,1,8
10700,1153.84615384615,4,1,0,80,1,8
10700,-53.7837849740819,4,1,0,80,0,8
11277,1142.85714285714,4,1,0,80,1,8
11848,1132.07547169811,4,1,0,80,1,0
11848,-54.3237081204605,4,1,0,80,0,0
12414,1121.4953271028,4,1,0,80,1,8
12975,1111.11111111111,4,1,0,80,1,8
13531,1100.91743119266,4,1,0,80,1,8
14081,1090.90909090909,4,1,0,80,1,8
14081,-55.4017897736533,4,1,0,80,0,8
14626,1081.08108108108,4,1,0,80,1,8
15167,1071.42857142857,4,1,0,80,1,8
15167,-55.9400701654093,4,1,0,80,0,8
15703,1061.94690265487,4,1,0,80,1,8
15703,-56.2088675050746,4,1,0,80,0,8
16234,1052.63157894737,4,1,0,80,1,0
16234,-56.4776210835945,4,1,0,80,0,0
16760,1043.47826086957,4,1,0,80,1,8
17282,1034.48275862069,4,1,0,80,1,8
17282,-57.0146909738702,4,1,0,80,0,8
17799,1025.64102564103,4,1,0,80,1,8
18312,1016.94915254237,4,1,0,80,1,8
18312,-57.5510897456665,4,1,0,80,0,8
18820,1008.40336134454,4,1,0,80,1,8
18820,-57.8192173851874,4,1,0,80,0,8
19324,1000,4,1,0,80,1,8
19324,-58.0870477137421,4,1,0,80,0,8
19824,991.735537190083,4,1,0,80,1,8
20320,983.606557377049,4,1,0,80,1,0
20320,-58.6219243218469,4,1,0,80,0,0
20812,975.609756097561,4,1,0,80,1,8
21300,967.741935483871,4,1,0,80,1,8
21784,960,4,1,0,80,1,8
22264,952.380952380952,4,1,0,80,1,8
22264,-59.6892723060946,4,1,0,80,0,8
22740,944.88188976378,4,1,0,80,1,8
23212,937.5,4,1,0,80,1,8
23212,-60.2221468964582,4,1,0,80,0,8
23681,930.232558139535,4,1,0,80,1,8
23681,-60.4880348269433,4,1,0,80,0,8
24146,923.076923076923,4,1,0,80,1,0
24146,-60.7538770009845,4,1,0,80,0,0
24608,916.030534351145,4,1,0,80,1,8
25066,909.090909090909,4,1,0,80,1,8
25066,-61.2846443813413,4,1,0,80,0,8
25521,902.255639097744,4,1,0,80,1,8
25972,895.522388059702,4,1,0,80,1,8
25972,-61.8146254614994,4,1,0,80,0,8
26420,888.888888888889,4,1,0,80,1,8
26420,-61.6198534433603,4,1,0,80,0,8
26864,882.352941176471,4,1,0,80,1,8
26864,-62.3439916738301,4,1,0,80,0,8
27305,875.912408759124,4,1,0,80,1,8
27743,869.565217391304,4,1,0,80,1,0
27743,-62.8724706912124,4,1,0,80,0,0
28178,863.309352517986,4,1,0,80,1,8
28610,857.142857142857,4,1,0,80,1,8
29039,851.063829787234,4,1,0,80,1,8
29465,845.070422535211,4,1,0,80,1,8
29465,-63.9260767219499,4,1,0,80,0,8
29888,839.160839160839,4,1,0,80,1,8
30308,833.333333333333,4,1,0,80,1,8
30308,-64.4515035711099,4,1,0,80,0,8
30725,827.586206896552,4,1,0,80,1,8
30725,-64.2680732576674,4,1,0,80,0,8
31139,821.917808219178,4,1,0,80,1,0
31139,-65.2383301019307,4,1,0,80,0,8
31550,816.326530612245,4,1,0,80,1,8
31550,-65.2383301019307,4,1,0,80,0,8
31958,810.810810810811,4,1,0,80,1,8
31958,-65.5003252609813,4,1,0,80,0,8
32363,805.369127516779,4,1,0,80,1,8
32766,800,4,1,0,80,1,8
32766,-66.0235520080604,4,1,0,80,0,8
33166,794.701986754967,4,1,0,80,1,8
33166,-66.2848159138809,4,1,0,80,0,8
33563,789.473684210526,4,1,0,80,1,8
33563,-66.5460169178089,4,1,0,80,0,8
33958,784.313725490196,4,1,0,80,1,8
34350,779.220779220779,4,1,0,80,1,0
34350,-67.0673995200847,4,1,0,80,0,0
34740,774.193548387097,4,1,0,80,1,8
35127,769.230769230769,4,1,0,80,1,8
35512,764.331210191083,4,1,0,80,1,8
35894,759.493670886076,4,1,0,80,1,8
35894,-68.1073983279626,4,1,0,80,0,8
36274,754.716981132076,4,1,0,80,1,8
36651,750,4,1,0,80,1,8
36651,-68.6262477499589,4,1,0,80,0,8
37026,745.341614906832,4,1,0,80,1,8
37026,-68.8853217260257,4,1,0,80,0,8
37399,740.740740740741,4,1,0,80,1,0
37399,-69.1440292062493,4,1,0,80,0,0
37769,736.196319018405,4,1,0,80,1,8
38137,731.707317073171,4,1,0,80,1,8
38137,-69.6613029015262,4,1,0,80,0,8
38503,727.272727272727,4,1,0,80,1,8
38867,722.89156626506,4,1,0,80,1,8
38867,-70.1772671240372,4,1,0,80,0,8
39228,718.562874251497,4,1,0,80,1,8
39228,-70.4352443901362,4,1,0,80,0,8
39587,714.285714285714,4,1,0,80,1,8
39587,-70.6929322118443,4,1,0,80,0,8
39944,710.059171597633,4,1,0,80,1,8
40299,705.882352941177,4,1,0,80,1,0
40299,-71.2074872154873,4,1,0,80,0,0
40652,701.754385964912,4,1,0,80,1,8
41003,697.674418604651,4,1,0,80,1,8
41352,693.64161849711,4,1,0,80,1,8
41699,689.655172413793,4,1,0,80,1,8
41699,-72.2336413310932,4,1,0,80,0,8
42044,685.714285714286,4,1,0,80,1,8
42044,-72.4896306690906,4,1,0,80,0,8
42387,681.818181818182,4,1,0,80,1,8
42387,-72.7454226998044,4,1,0,80,0,8
42728,677.966101694915,4,1,0,80,1,8
43067,674.157303370787,4,1,0,80,1,0
43067,-73.2564586768052,4,1,0,80,0,0
43404,670.391061452514,4,1,0,80,1,8
43739,666.666666666667,4,1,0,80,1,8
43739,-73.7668358629006,4,1,0,80,0,8
44072,662.983425414365,4,1,0,80,1,8
44403,659.340659340659,4,1,0,80,1,8
44403,-74.2766391961251,4,1,0,80,0,8
44733,655.737704918033,4,1,0,80,1,8
44733,-74.5308864721329,4,1,0,80,0,8
45061,652.173913043478,4,1,0,80,1,8
45061,-74.7850201515484,4,1,0,80,0,8
45387,648.648648648649,4,1,0,80,1,8
45387,-75.0390504100895,4,1,0,80,0,8
45711,645.161290322581,4,1,0,80,1,0
45711,-75.2929873331842,4,1,0,80,0,0
46034,641.711229946524,4,1,0,80,1,8
46355,638.297872340426,4,1,0,80,1,8
46355,-75.7996841093254,4,1,0,80,0,8
46674,634.920634920635,4,1,0,80,1,8
46991,631.578947368421,4,1,0,80,1,8
47307,628.272251308901,4,1,0,80,1,8
47307,-76.1584328889597,4,1,0,80,0,8
47621,625,4,1,0,80,1,8
47621,-76.8114342249967,4,1,0,80,0,8
47934,621.761658031088,4,1,0,80,1,8
48245,618.556701030928,4,1,0,80,1,0
48245,-77.315691585042,4,1,0,80,0,0
48554,615.384615384615,4,1,0,80,1,8
48862,612.244897959184,4,1,0,80,1,8
48862,-77.4228674952019,4,1,0,80,0,8
49168,609.137055837564,4,1,0,80,1,8
49473,606.060606060606,4,1,0,80,1,8
49776,603.015075376884,4,1,0,80,1,8
49776,-78.5734628837199,4,1,0,80,0,8
50078,600,4,1,0,80,1,8
50078,-78.8242251664252,4,1,0,80,0,8
50378,597.014925373134,4,1,0,80,1,8
50677,594.059405940594,4,1,0,80,1,0
50677,-79.3254020806661,4,1,0,80,0,0
50974,591.133004926108,4,1,0,80,1,8
51270,588.235294117647,4,1,0,80,1,8
51564,585.365853658537,4,1,0,80,1,8
51564,-80.0759406845005,4,1,0,80,0,8
51857,582.52427184466,4,1,0,80,1,8
51857,-80.3256320240575,4,1,0,80,0,8
52148,579.710144927536,4,1,0,80,1,8
52438,576.923076923077,4,1,0,80,1,8
52438,-80.824807223549,4,1,0,80,0,8
52726,574.162679425837,4,1,0,80,1,8
53013,571.428571428572,4,1,0,80,1,0
53013,-81.3234357129569,4,1,0,80,0,0
53299,568.720379146919,4,1,0,80,1,8
53583,566.037735849057,4,1,0,80,1,8
53583,-81.8210921004539,4,1,0,80,0,8
53866,563.380281690141,4,1,0,80,1,8
54148,560.747663551402,4,1,0,80,1,8
54148,-82.3178302039456,4,1,0,80,0,8
54428,558.139534883721,4,1,0,80,1,8
54428,-82.5661752538005,4,1,0,80,0,8
54707,555.555555555556,4,1,0,80,1,8
54707,-82.8141896657104,4,1,0,80,0,8
54985,552.995391705069,4,1,0,80,1,8
55261,550.45871559633,4,1,0,80,1,0
55261,-83.3097385107858,4,1,0,80,0,0
55536,547.945205479452,4,1,0,80,1,8
55810,545.454545454546,4,1,0,80,1,8
56083,542.986425339367,4,1,0,80,1,8
56354,540.540540540541,4,1,0,80,1,8
56624,538.116591928251,4,1,0,80,1,8
56624,-84.5454601222634,4,1,0,80,0,8
56893,535.714285714286,4,1,0,80,1,8
56893,-84.7920301320013,4,1,0,80,0,8
57161,533.333333333333,4,1,0,80,1,8
57428,530.973451327434,4,1,0,80,1,0
57428,-85.2843481116835,4,1,0,80,0,0
57693,528.63436123348,4,1,0,80,1,8
57957,526.315789473684,4,1,0,80,1,8
58220,524.017467248908,4,1,0,80,1,8
58482,521.739130434783,4,1,0,80,1,8
58743,519.480519480519,4,1,0,80,1,8
58743,-86.5130873921662,4,1,0,80,0,8
59003,517.241379310345,4,1,0,80,1,8
59003,-86.7581042934154,4,1,0,80,0,8
59262,515.021459227468,4,1,0,80,1,8
59520,512.820512820513,4,1,0,80,1,0
59520,-87.2474494898977,4,1,0,80,0,0
59776,510.63829787234,4,1,0,80,1,8
59776,-87.4922875175412,4,1,0,80,0,8
60031,508.474576271186,4,1,0,80,1,8
60285,506.329113924051,4,1,0,80,1,8
60538,504.201680672269,4,1,0,80,1,8
60538,-88.2255356735844,4,1,0,80,0,8
60790,502.092050209205,4,1,0,80,1,8
61041,500,4,1,0,80,1,8
61041,-88.7133634773672,4,1,0,80,0,8
61291,497.92531120332,4,1,0,80,1,8
61540,495.867768595041,4,1,0,80,1,0
61540,-89.2004344373188,4,1,0,80,0,0
61788,493.827160493827,4,1,0,80,1,8
62035,491.803278688525,4,1,0,80,1,8
62281,489.795918367347,4,1,0,80,1,8
62526,487.804878048781,4,1,0,80,1,8
62526,-90.1724625547605,4,1,0,80,0,8
62770,485.82995951417,4,1,0,80,1,8
62770,-90.415057343346,4,1,0,80,0,8
63013,483.870967741936,4,1,0,80,1,8
63013,-90.6574967530483,4,1,0,80,0,8
63255,481.927710843374,4,1,0,80,1,8
63496,480,4,1,0,80,1,0
63496,-91.1419282209093,4,1,0,80,0,0
63736,478.08764940239,4,1,0,80,1,8
63975,476.190476190476,4,1,0,80,1,8
64213,474.308300395257,4,1,0,80,1,8
64450,472.44094488189,4,1,0,80,1,8
64450,-92.1091315613117,4,1,0,80,0,8
64686,470.588235294118,4,1,0,80,1,8
64921,468.75,4,1,0,80,1,8
65155,466.926070038911,4,1,0,80,1,8
65388,465.116279069767,4,1,0,80,1,0
65388,-93.0743651140369,4,1,0,80,0,0
65621,463.320463320463,4,1,0,80,1,8
65853,461.538461538462,4,1,0,80,1,8
65853,-93.5553006039164,4,1,0,80,0,8
66084,459.770114942529,4,1,0,80,1,8
66314,458.015267175573,4,1,0,80,1,8
66314,-94.0358447785862,4,1,0,80,0,8
66543,456.273764258555,4,1,0,80,1,8
66771,454.545454545455,4,1,0,80,1,8
66998,452.830188679245,4,1,0,80,1,8
67224,451.127819548872,4,1,0,80,1,0
67224,-94.9958972543536,4,1,0,80,0,0
67450,449.438202247191,4,1,0,80,1,8
67675,447.761194029851,4,1,0,80,1,8
67899,446.096654275093,4,1,0,80,1,8
68122,444.444444444444,4,1,0,80,1,8
68122,-95.9527039173706,4,1,0,80,0,8
68344,442.80442804428,4,1,0,80,1,8
68565,441.176470588235,4,1,0,80,1,8
68786,439.56043956044,4,1,0,80,1,8
69006,437.956204379562,4,1,0,80,1,0
69006,-96.9075496714271,4,1,0,80,0,0
69225,436.363636363636,4,1,0,80,1,8
69443,434.782608695652,4,1,0,80,1,8
69443,-97.3841821354908,4,1,0,80,0,8
69660,433.212996389892,4,1,0,80,1,8
69877,431.654676258993,4,1,0,80,1,8
69877,-97.8601509204996,4,1,0,80,0,8
70093,430.10752688172,4,1,0,80,1,8
70308,428.571428571429,4,1,0,80,1,8
70522,427.046263345196,4,1,0,80,1,8
70736,425.531914893617,4,1,0,80,1,0
70736,-98.8102079875674,4,1,0,80,0,0
70949,424.028268551237,4,1,0,80,1,8
71161,422.535211267606,4,1,0,80,1,8
71372,421.052631578947,4,1,0,80,1,8
71583,419.58041958042,4,1,0,80,1,8
71583,-99.4096663405104,4,1,0,80,0,8
71793,418.118466898955,4,1,0,80,1,8
72002,416.666666666667,4,1,0,80,1,8
72210,415.22491349481,4,1,0,80,1,8
72418,413.793103448276,4,1,0,80,1,0
72418,-100.703556433263,4,1,0,80,0,0
72625,412.371134020619,4,1,0,80,1,8
72831,410.958904109589,4,1,0,80,1,8
72831,-101.175638129365,4,1,0,80,0,8
73036,409.556313993174,4,1,0,80,1,8
73241,408.163265306122,4,1,0,80,1,8
73241,-101.64726936109,4,1,0,80,0,8
73445,406.779661016949,4,1,0,80,1,8
73648,405.405405405405,4,1,0,80,1,8
73851,404.040404040404,4,1,0,80,1,8
74053,402.684563758389,4,1,0,80,1,0
74053,-102.588740309191,4,1,0,80,0,0
74254,401.337792642141,4,1,0,80,1,8
74455,400,4,1,0,80,1,8
74655,398.671096345515,4,1,0,80,1,8
74854,397.350993377483,4,1,0,80,1,8
74854,-103.528161238659,4,1,0,80,0,8
75053,396.039603960396,4,1,0,80,1,8
75251,394.736842105263,4,1,0,80,1,8
75251,-103.996821001897,4,1,0,80,0,8
75448,393.44262295082,4,1,0,80,1,8
75645,392.156862745098,4,1,0,80,1,0
75645,-104.465173478465,4,1,0,80,0,0
75841,390.879478827362,4,1,0,80,1,8
76036,389.61038961039,4,1,0,80,1,8
76036,-104.933242578753,4,1,0,80,0,8
76231,388.349514563107,4,1,0,80,1,8
76425,387.096774193548,4,1,0,80,1,8
76619,385.852090032154,4,1,0,80,1,8
76812,384.615384615385,4,1,0,80,1,8
76812,-105.866973200802,4,1,0,80,0,8
77004,383.386581469649,4,1,0,80,1,8
77196,382.165605095541,4,1,0,80,1,1
77196,-106.333225475827,4,1,0,80,0,1
77387,380.952380952381,4,1,0,80,1,9
77577,379.746835443038,4,1,0,80,1,9
77767,378.548895899054,4,1,0,80,1,9
77956,377.358490566038,4,1,0,80,1,9
77956,-107.264612558018,4,1,0,80,0,9
78145,376.175548589342,4,1,0,80,1,9
78333,375,4,1,0,80,1,9
78333,-107.729234255465,4,1,0,80,0,9
78521,373.831775700935,4,1,0,80,1,9
78708,372.670807453416,4,1,0,80,1,1
78708,-108.193166099817,4,1,0,80,0,1
78894,371.517027863777,4,1,0,80,1,9
79080,370.37037037037,4,1,0,80,1,9
79265,369.230769230769,4,1,0,80,1,9
79450,368.098159509202,4,1,0,80,1,9
79450,-109.120153016867,4,1,0,80,0,9
79634,366.97247706422,4,1,0,80,1,9
79817,365.853658536585,4,1,0,80,1,9
79817,-109.58324940052,4,1,0,80,0,9
80000,364.741641337386,4,1,0,80,1,9
80182,363.636363636364,4,1,0,80,1,1
80182,-110.045733291757,4,1,0,80,0,1
80364,362.537764350453,4,1,0,80,1,9
80545,361.44578313253,4,1,0,80,1,9
80726,360.36036036036,4,1,0,80,1,9
80906,359.281437125749,4,1,0,80,1,9
80906,-110.968933751858,4,1,0,80,0,9
81086,358.208955223881,4,1,0,80,1,9
81265,357.142857142857,4,1,0,80,1,9
81265,-111.429684984664,4,1,0,80,0,9
81444,356.083086053412,4,1,0,80,1,9
81622,355.029585798817,4,1,0,80,1,1
81622,-111.889893059495,4,1,0,80,0,1
81800,353.982300884956,4,1,0,80,1,9
81977,352.941176470588,4,1,0,80,1,9
82153,351.906158357771,4,1,0,80,1,9
82329,350.877192982456,4,1,0,80,1,9
82329,-112.48003463005,4,1,0,80,0,9
82504,349.854227405248,4,1,0,80,1,9
82679,348.837209302326,4,1,0,80,1,9
82853,347.826086956522,4,1,0,80,1,9
83027,346.820809248555,4,1,0,80,1,1
83027,-113.72734916988,4,1,0,80,0,1
83200,345.821325648415,4,1,0,80,1,9
83373,344.827586206897,4,1,0,80,1,9
83545,343.839541547278,4,1,0,80,1,9
83717,342.857142857143,4,1,0,80,1,9
83888,341.880341880342,4,1,0,80,1,9
84059,340.909090909091,4,1,0,80,1,9
84059,-115.101006050561,4,1,0,80,0,9
84229,339.943342776204,4,1,0,80,1,9
84399,338.983050847458,4,1,0,80,1,1
84399,-115.558051947185,4,1,0,80,0,1
84568,338.028169014085,4,1,0,80,1,9
84737,337.078651685393,4,1,0,80,1,9
84906,336.134453781513,4,1,0,80,1,9
85074,335.195530726257,4,1,0,80,1,9
85074,-116.470398205545,4,1,0,80,0,9
85242,334.261838440111,4,1,0,80,1,9
85409,333.333333333333,4,1,0,80,1,9
85576,332.409972299169,4,1,0,80,1,9
85742,331.491712707182,4,1,0,80,1,1
85742,-117.380706617337,4,1,0,80,0,1
85908,330.578512396694,4,1,0,80,1,9
86073,329.67032967033,4,1,0,80,1,9
86073,-117.835351901291,4,1,0,80,0,9
86238,328.767123287671,4,1,0,80,1,9
86402,327.868852459016,4,1,0,80,1,9
86402,-118.289678155567,4,1,0,80,0,9
86566,326.975476839237,4,1,0,80,1,9
86729,326.086956521739,4,1,0,80,1,9
86892,325.20325203252,4,1,0,80,1,9
87055,324.324324324324,4,1,0,80,1,1
87055,-119.196844993141,4,1,0,80,0,1
87217,323.450134770889,4,1,0,80,1,9
87379,322.58064516129,4,1,0,80,1,9
87379,-119.649712723017,4,1,0,80,0,9
87540,321.71581769437,4,1,0,80,1,9
87701,320.855614973262,4,1,0,80,1,9
87701,-120.102318310749,4,1,0,80,0,9
87861,320,4,1,0,80,1,9
88021,319.148936170213,4,1,0,80,1,9
88181,318.302387267905,4,1,0,80,1,9
88340,317.460317460318,4,1,0,80,1,1
88340,-121.006207522634,4,1,0,80,0,1
88499,316.622691292876,4,1,0,80,1,9
88657,315.789473684211,4,1,0,80,1,9
88815,314.96062992126,4,1,0,80,1,9
88972,314.13612565445,4,1,0,80,1,9
89129,313.31592689295,4,1,0,80,1,9
89286,312.5,4,1,0,80,1,9
89286,-122.358932778459,4,1,0,80,0,9
89442,311.688311688312,4,1,0,80,1,9
89598,310.880829015544,4,1,0,80,1,1
89598,-122.80906389825,4,1,0,80,0,1
89753,310.077519379845,4,1,0,80,1,9
89908,309.278350515464,4,1,0,80,1,9
90063,308.483290488432,4,1,0,80,1,9
90217,307.692307692308,4,1,0,80,1,9
90217,-123.708236491589,4,1,0,80,0,9
90371,306.90537084399,4,1,0,80,1,9
90524,306.122448979592,4,1,0,80,1,9
90524,-124.157303067721,4,1,0,80,0,9
90677,305.343511450382,4,1,0,80,1,9
90830,304.568527918782,4,1,0,80,1,1
90830,-124.605637027161,4,1,0,80,0,1
90982,303.79746835443,4,1,0,80,1,9
91134,303.030303030303,4,1,0,80,1,9
91286,302.267002518892,4,1,0,80,1,9
91437,301.507537688442,4,1,0,80,1,9
91437,-125.501359336347,4,1,0,80,0,9
91588,300.751879699248,4,1,0,80,1,9
91738,300,4,1,0,80,1,9
91888,299.25187032419,4,1,0,80,1,9
92038,298.507462686567,4,1,0,80,1,1
92038,-126.395495855885,4,1,0,80,0,1
92187,297.766749379653,4,1,0,80,1,9
92336,297.029702970297,4,1,0,80,1,9
92336,-126.528793809691,4,1,0,80,0,9
92485,296.296296296296,4,1,0,80,1,9
92633,295.566502463054,4,1,0,80,1,9
92633,-127.288137674867,4,1,0,80,0,9
92781,294.840294840295,4,1,0,80,1,9
92928,294.117647058824,4,1,0,80,1,9
93075,293.398533007335,4,1,0,80,1,9
93222,292.682926829268,4,1,0,80,1,1
93222,-128.179374580339,4,1,0,80,0,1
93368,291.970802919708,4,1,0,80,1,9
93514,291.26213592233,4,1,0,80,1,9
93660,290.556900726392,4,1,0,80,1,9
93805,289.855072463768,4,1,0,80,1,9
93950,289.156626506024,4,1,0,80,1,9
94095,288.461538461538,4,1,0,80,1,9
94095,-129.513325485455,4,1,0,80,0,9
94239,287.769784172662,4,1,0,80,1,9
94383,287.081339712919,4,1,0,80,1,1
94383,-129.957367198107,4,1,0,80,0,1
94527,286.396181384248,4,1,0,80,1,9
94670,285.714285714286,4,1,0,80,1,9
94813,285.035629453682,4,1,0,80,1,9
94956,284.36018957346,4,1,0,80,1,9
94956,-130.843669416442,4,1,0,80,0,9
95098,283.687943262411,4,1,0,80,1,9
95240,283.018867924528,4,1,0,80,1,9
95382,282.352941176471,4,1,0,80,1,9
95523,281.69014084507,4,1,0,80,1,1
95523,-131.728903593594,4,1,0,80,0,1
95664,281.030444964871,4,1,0,80,1,9
95805,280.373831775701,4,1,0,80,1,9
95805,-132.170677186061,4,1,0,80,0,9
95945,279.72027972028,4,1,0,80,1,9
96085,279.06976744186,4,1,0,80,1,9
96085,-132.612526723291,4,1,0,80,0,9
96225,278.422273781903,4,1,0,80,1,9
96364,277.777777777778,4,1,0,80,1,9
96503,277.136258660508,4,1,0,80,1,9
96642,276.497695852535,4,1,0,80,1,1
96642,-133.494614107522,4,1,0,80,0,1
96780,275.862068965517,4,1,0,80,1,9
96918,275.229357798165,4,1,0,80,1,9
96918,-133.935499331072,4,1,0,80,0,9
97056,274.599542334096,4,1,0,80,1,9
97193,273.972602739726,4,1,0,80,1,9
97193,-134.375871982743,4,1,0,80,0,9
97330,273.348519362187,4,1,0,80,1,9
97467,272.727272727273,4,1,0,80,1,9
97603,272.108843537415,4,1,0,80,1,9
97739,271.493212669683,4,1,0,80,1,1
97739,-135.255746731045,4,1,0,80,0,1
97875,270.880361173815,4,1,0,80,1,9
98010,270.27027027027,4,1,0,80,1,9
98145,269.662921348315,4,1,0,80,1,9
98280,269.058295964126,4,1,0,80,1,9
98415,268.456375838926,4,1,0,80,1,9
98549,267.857142857143,4,1,0,80,1,9
98683,267.260579064588,4,1,0,80,1,9
98817,266.666666666667,4,1,0,80,1,1
98817,-137.010995883544,4,1,0,80,0,1
98950,266.075388026608,4,1,0,80,1,9
99083,265.486725663717,4,1,0,80,1,9
99216,264.900662251656,4,1,0,80,1,9
99348,264.31718061674,4,1,0,80,1,9
99348,-137.887149229465,4,1,0,80,0,9
99480,263.736263736264,4,1,0,80,1,9
99612,263.157894736842,4,1,0,80,1,9
99612,-138.324568215248,4,1,0,80,0,9
99744,262.582056892779,4,1,0,80,1,9
99875,262.008733624454,4,1,0,80,1,1
99875,-138.761559023262,4,1,0,80,0,1
100006,261.437908496732,4,1,0,80,1,9
100137,260.869565217391,4,1,0,80,1,9
100267,260.303687635575,4,1,0,80,1,9
100397,259.74025974026,4,1,0,80,1,9
100397,-139.634933577956,4,1,0,80,0,9
100527,259.179265658747,4,1,0,80,1,9
100657,258.620689655172,4,1,0,80,1,9
100786,258.064516129032,4,1,0,80,1,9
100915,257.510729613734,4,1,0,80,1,1
100915,-140.506691522359,4,1,0,80,0,1
101044,256.959314775161,4,1,0,80,1,9
101172,256.410256410256,4,1,0,80,1,9
101172,-140.942308313752,4,1,0,80,0,9
101300,255.863539445629,4,1,0,80,1,9
101428,255.31914893617,4,1,0,80,1,9
101428,-141.377544563971,4,1,0,80,0,9
101556,254.777070063694,4,1,0,80,1,9
101683,254.237288135593,4,1,0,80,1,9
101810,253.69978858351,4,1,0,80,1,9
101937,253.164556962025,4,1,0,80,1,1
101937,-142.246904834193,4,1,0,80,0,1
102064,252.631578947368,4,1,0,80,1,9
102190,252.100840336134,4,1,0,80,1,9
102316,251.572327044025,4,1,0,80,1,9
102442,251.046025104603,4,1,0,80,1,9
102568,250.521920668058,4,1,0,80,1,9
102693,250,4,1,0,80,1,9
102818,249.480249480249,4,1,0,80,1,9
102943,248.96265560166,4,1,0,80,1,1
102943,-143.981379725788,4,1,0,80,0,1
103067,248.447204968944,4,1,0,80,1,9
103191,247.933884297521,4,1,0,80,1,9
103315,247.422680412371,4,1,0,80,1,9
103439,246.913580246914,4,1,0,80,1,9
103439,-144.847270700462,4,1,0,80,0,9
103562,246.406570841889,4,1,0,80,1,9
103685,245.901639344262,4,1,0,80,1,9
103808,245.398773006135,4,1,0,80,1,9
103931,244.897959183673,4,1,0,80,1,1
103931,-145.71190305432,4,1,0,80,0,1
104053,244.399185336049,4,1,0,80,1,9
104175,243.90243902439,4,1,0,80,1,9
104175,-146.144097380323,4,1,0,80,0,9
104297,243.407707910751,4,1,0,80,1,9
104419,242.914979757085,4,1,0,80,1,9
104419,-146.575332427723,4,1,0,80,0,9
104540,242.424242424242,4,1,0,80,1,9
104661,241.935483870968,4,1,0,80,1,9
104782,241.448692152918,4,1,0,80,1,9
104903,240.963855421687,4,1,0,80,1,1
104903,-147.437613835085,4,1,0,80,0,1
105023,240.480961923848,4,1,0,80,1,9
105143,240,4,1,0,80,1,9
105143,-147.868676245106,4,1,0,80,0,9
105263,239.520958083832,4,1,0,80,1,9
105383,239.043824701195,4,1,0,80,1,9
105383,-148.298801681751,4,1,0,80,0,9
105503,238.568588469185,4,1,0,80,1,9
105622,238.095238095238,4,1,0,80,1,9
105741,237.623762376238,4,1,0,80,1,9
105860,237.154150197628,4,1,0,80,1,0
105860,-149.158275783295,4,1,0,80,0,0
105979,236.686390532544,4,1,0,80,1,8
106097,236.220472440945,4,1,0,80,1,8
106215,235.756385068762,4,1,0,80,1,8
106333,235.294117647059,4,1,0,80,1,8
106451,234.833659491194,4,1,0,80,1,8
106568,234.375,4,1,0,80,1,8
106685,233.918128654971,4,1,0,80,1,8
106802,233.463035019455,4,1,0,80,1,0
106802,-150.581450284819,4,1,0,80,0,8
106919,233.009708737864,4,1,0,80,1,8
107036,232.558139534884,4,1,0,80,1,8
107152,232.1083172147,4,1,0,80,1,8
107268,231.660231660232,4,1,0,80,1,8
107268,-151.730278679536,4,1,0,80,0,8
107384,231.21387283237,4,1,0,80,1,8
107500,230.769230769231,4,1,0,80,1,8
107500,-152.15760738199,4,1,0,80,0,8
107615,230.326295585413,4,1,0,80,1,8
107730,229.885057471264,4,1,0,80,1,0
107730,-152.585415033046,4,1,0,80,0,0
107845,229.445506692161,4,1,0,80,1,8
107960,229.007633587786,4,1,0,80,1,8
108075,228.571428571429,4,1,0,80,1,8
108189,228.136882129278,4,1,0,80,1,8
108189,-153.439076546698,4,1,0,80,0,8
108303,227.703984819734,4,1,0,80,1,8
108417,227.272727272727,4,1,0,80,1,8
108531,226.843100189036,4,1,0,80,1,8
108644,226.415094339623,4,1,0,80,1,0
108644,-154.291995095202,4,1,0,80,0,0
108757,225.988700564972,4,1,0,80,1,8
108870,225.563909774436,4,1,0,80,1,8
108870,-154.718191432187,4,1,0,80,0,8
108983,225.140712945591,4,1,0,80,1,8
109096,224.719101123596,4,1,0,80,1,8
109096,-155.143529837906,4,1,0,80,0,8
109208,224.299065420561,4,1,0,80,1,8
109320,223.880597014925,4,1,0,80,1,8
109432,223.463687150838,4,1,0,80,1,8
109544,223.048327137546,4,1,0,80,1,0
109544,-155.994416517153,4,1,0,80,0,0
109656,222.634508348794,4,1,0,80,1,8
109767,222.222222222222,4,1,0,80,1,8
109878,221.81146025878,4,1,0,80,1,8
109989,221.40221402214,4,1,0,80,1,8
110100,220.994475138122,4,1,0,80,1,8
110210,220.588235294118,4,1,0,80,1,8
110320,220.183486238532,4,1,0,80,1,8
110430,219.78021978022,4,1,0,80,1,0
110430,-157.693045563549,4,1,0,80,0,0
110540,219.378427787934,4,1,0,80,1,8
110650,218.978102189781,4,1,0,80,1,8
110759,218.579234972678,4,1,0,80,1,8
110868,218.181818181818,4,1,0,80,1,8
110868,-158.540875297093,4,1,0,80,0,8
110977,217.785843920145,4,1,0,80,1,8
111086,217.391304347826,4,1,0,80,1,8
111086,-158.964262433544,4,1,0,80,0,8
111195,216.998191681736,4,1,0,80,1,8
111303,216.606498194946,4,1,0,80,1,0
111303,-159.387538393086,4,1,0,80,0,0
111411,216.216216216216,4,1,0,80,1,8
111519,215.827338129496,4,1,0,80,1,8
111627,215.439856373429,4,1,0,80,1,8
111735,215.05376344086,4,1,0,80,1,8
111735,-160.233075094638,4,1,0,80,0,8
111843,214.669051878354,4,1,0,80,1,8
111950,214.285714285714,4,1,0,80,1,8
112057,213.903743315508,4,1,0,80,1,8
112164,213.523131672598,4,1,0,80,1,0
112164,-161.077525249196,4,1,0,80,0,0
112271,213.143872113677,4,1,0,80,1,8
112378,212.765957446809,4,1,0,80,1,8
112484,212.389380530973,4,1,0,80,1,8
112590,212.014134275618,4,1,0,80,1,8
112696,211.640211640212,4,1,0,80,1,8
112802,211.267605633803,4,1,0,80,1,8
112908,210.896309314587,4,1,0,80,1,8
113013,210.526315789474,4,1,0,80,1,0
113013,-162.763323382561,4,1,0,80,0,0
113118,210.15761821366,4,1,0,80,1,8
113223,209.79020979021,4,1,0,80,1,8
113328,209.424083769634,4,1,0,80,1,8
113433,209.059233449477,4,1,0,80,1,8
113433,-163.60474915797,4,1,0,80,0,8
113538,208.695652173913,4,1,0,80,1,8
113642,208.333333333333,4,1,0,80,1,8
113746,207.972270363951,4,1,0,80,1,8
113850,207.612456747405,4,1,0,80,1,0
113850,-164.445243996695,4,1,0,80,0,0
113954,207.253886010363,4,1,0,80,1,8
114058,206.896551724138,4,1,0,80,1,8
114161,206.540447504303,4,1,0,80,1,8
114264,206.185567010309,4,1,0,80,1,8
114264,-165.284845899232,4,1,0,80,0,8
114367,205.831903945112,4,1,0,80,1,8
114470,205.479452054795,4,1,0,80,1,8
114470,-165.704233690228,4,1,0,80,0,8
114573,205.128205128205,4,1,0,80,1,8
114676,204.778156996587,4,1,0,80,1,0
114676,-166.122870625067,4,1,0,80,0,0
114778,204.42930153322,4,1,0,80,1,8
114880,204.081632653061,4,1,0,80,1,8
114982,203.735144312394,4,1,0,80,1,8
115084,203.389830508475,4,1,0,80,1,8
115084,-166.960796930344,4,1,0,80,0,8
115186,203.045685279188,4,1,0,80,1,8
115288,202.702702702703,4,1,0,80,1,8
115389,202.360876897133,4,1,0,80,1,8
115490,202.020202020202,4,1,0,80,1,0
115490,-167.797215666746,4,1,0,80,0,0
115591,201.680672268908,4,1,0,80,1,8
115692,201.342281879195,4,1,0,80,1,8
115692,-168.215050910162,4,1,0,80,0,8
115793,201.005025125628,4,1,0,80,1,8
115894,200.66889632107,4,1,0,80,1,8
115894,-168.632156464947,4,1,0,80,0,8
115994,200.333889816361,4,1,0,80,1,8
116094,200,4,1,0,80,1,8
116194,199.667221297837,4,1,0,80,1,8
116294,199.335548172757,4,1,0,80,1,0
116294,-169.467111228101,4,1,0,80,0,0
116394,199.004975124378,4,1,0,80,1,8
116494,198.675496688742,4,1,0,80,1,8
116593,198.347107438017,4,1,0,80,1,8
116692,198.019801980198,4,1,0,80,1,8
116791,197.693574958814,4,1,0,80,1,8
116890,197.368421052632,4,1,0,80,1,8
116989,197.044334975369,4,1,0,80,1,8
117088,196.72131147541,4,1,0,80,1,0
117088,-171.132818902167,4,1,0,80,0,0
117186,196.399345335516,4,1,0,80,1,8
117284,196.078431372549,4,1,0,80,1,8
117382,195.758564437194,4,1,0,80,1,8
117480,195.439739413681,4,1,0,80,1,8
117578,195.121951219512,4,1,0,80,1,8
117676,194.805194805195,4,1,0,80,1,8
117773,194.489465153971,4,1,0,80,1,8
117870,194.174757281553,4,1,0,80,1,0
117870,-172.796076834608,4,1,0,80,0,0
117967,193.861066235864,4,1,0,80,1,8
118064,193.548387096774,4,1,0,80,1,8
118161,193.236714975845,4,1,0,80,1,8
118258,192.926045016077,4,1,0,80,1,8
118354,192.616372391653,4,1,0,80,1,8
118450,192.307692307692,4,1,0,80,1,8
118450,-174.04105830964,4,1,0,80,0,8
118546,192,4,1,0,80,1,8
118642,191.693290734824,4,1,0,80,1,0
118642,-175.283618373353,4,1,0,80,0,8
118738,191.387559808612,4,1,0,80,1,8
118834,191.082802547771,4,1,0,80,1,8
118930,190.779014308426,4,1,0,80,1,8
119025,190.47619047619,4,1,0,80,1,8
119025,-175.283618373353,4,1,0,80,0,8
119120,190.174326465927,4,1,0,80,1,8
119215,189.873417721519,4,1,0,80,1,8
119310,189.57345971564,4,1,0,80,1,8
119405,189.274447949527,4,1,0,80,1,0
119405,-176.111111111111,4,1,0,80,0,0

[HitObjects]
349,246,1980,5,0,0:0:0:0:
162,246,4603,1,0,0:0:0:0:
162,137,5873,1,8,0:0:0:0:
256,83,7117,1,0,0:0:0:0:
209,158,9529,1,8,0:0:0:0:
255,300,10700,1,8,0:0:0:0:
162,246,11848,5,4,0:0:0:0:
232,158,14081,1,0,0:0:0:0:
136,118,15167,1,8,0:0:0:0:
364,192,15703,1,8,0:0:0:0:
349,246,16234,1,0,0:0:0:0:
255,300,17282,1,8,0:0:0:0:
162,246,18312,1,0,0:0:0:0:
147,191,18820,1,0,0:0:0:0:
162,137,19324,1,0,0:0:0:0:
256,83,20320,5,4,0:0:0:0:
248,109,22264,1,0,0:0:0:0:
255,300,23212,1,8,0:0:0:0:
201,285,23681,1,8,0:0:0:0:
162,246,24146,1,0,0:0:0:0:
201,98,25066,1,8,0:0:0:0:
256,83,25972,1,0,0:0:0:0:
310,98,26420,1,0,0:0:0:0:
349,137,26864,1,8,0:0:0:0:
179,98,27743,1,0,0:0:0:0:
310,98,29465,1,0,0:0:0:0:
349,137,30308,1,0,0:0:0:0:
364,192,30725,1,8,0:0:0:0:
310,285,31550,1,8,0:0:0:0:
183,122,31958,1,0,0:0:0:0:
162,246,32766,1,8,0:0:0:0:
147,191,33166,1,8,0:0:0:0:
162,137,33563,1,8,0:0:0:0:
256,83,34350,5,4,0:0:0:0:
226,118,35894,1,0,0:0:0:0:
212,132,36651,1,8,0:0:0:0:
201,285,37026,1,8,0:0:0:0:
162,246,37399,1,0,0:0:0:0:
188,106,38137,1,8,0:0:0:0:
256,83,38867,1,0,0:0:0:0:
310,98,39228,1,8,0:0:0:0:
236,118,39587,1,0,0:0:0:0:
271,97,40299,1,0,0:0:0:0:
271,99,41699,1,0,0:0:0:0:
233,112,42044,1,0,0:0:0:0:
304,135,42387,1,8,0:0:0:0:
256,83,43067,1,4,0:0:0:0:
226,107,43739,1,8,0:0:0:0:
349,246,44403,1,0,0:0:0:0:
205,128,44733,1,0,0:0:0:0:
255,300,45061,1,8,0:0:0:0:
364,192,45387,1,8,0:0:0:0:
162,246,45711,5,4,0:0:0:0:
310,98,46355,1,0,0:0:0:0:
249,133,47307,1,0,0:0:0:0:
349,137,47621,1,0,0:0:0:0:
349,246,48245,1,8,0:0:0:0:
249,133,48862,1,8,0:0:0:0:
147,191,49776,1,8,0:0:0:0:
201,285,50078,1,8,0:0:0:0:
310,98,50677,1,0,0:0:0:0:
283,141,51564,1,0,0:0:0:0:
349,246,51857,1,0,0:0:0:0:
198,119,52438,1,0,0:0:0:0:
194,109,53013,1,8,0:0:0:0:
162,246,53583,1,8,0:0:0:0:
147,191,54148,1,8,0:0:0:0:
183,117,54428,1,8,0:0:0:0:
201,98,54707,1,8,0:0:0:0:
310,98,55261,5,4,0:0:0:0:
255,300,56624,1,0,0:0:0:0:
201,285,56893,1,0,0:0:0:0:
147,191,57428,1,8,0:0:0:0:
349,137,58743,1,8,0:0:0:0:
364,192,59003,1,8,0:0:0:0:
310,285,59520,1,0,0:0:0:0:
223,114,59776,1,0,0:0:0:0:
147,191,60538,1,8,0:0:0:0:
201,98,61041,1,0,0:0:0:0:
310,98,61540,1,8,0:0:0:0:
310,285,62526,1,0,0:0:0:0:
255,300,62770,1,0,0:0:0:0:
201,285,63013,1,0,0:0:0:0:
147,191,63496,5,4,0:0:0:0:
349,137,64450,1,8,0:0:0:0:
310,285,65388,1,0,0:0:0:0:
177,136,65853,1,0,0:0:0:0:
93,144,66314,1,0,0:0:0:0:
310,98,67224,1,12,0:0:0:0:
205,108,68122,1,0,0:0:0:0:
147,191,69006,1,8,0:0:0:0:
186,119,69443,1,8,0:0:0:0:
310,98,69877,1,8,0:0:0:0:
310,285,70736,1,4,0:0:0:0:
162,137,71583,1,8,0:0:0:0:
310,98,72418,1,0,0:0:0:0:
349,246,72831,1,0,0:0:0:0:
219,80,73241,1,8,0:0:0:0:
171,128,74053,1,4,0:0:0:0:
205,83,74854,1,8,0:0:0:0:
197,101,75251,1,8,0:0:0:0:
310,285,75645,1,0,0:0:0:0:
201,285,76036,1,12,0:0:0:0:
217,148,76812,1,12,0:0:0:0:
310,98,77196,5,4,0:0:0:0:
188,309,77956,1,0,0:0:0:0:
191,85,78333,1,8,0:0:0:0:
188,74,78708,1,0,0:0:0:0:
391,192,79450,1,8,0:0:0:0:
323,309,79817,1,8,0:0:0:0:
188,309,80182,1,0,0:0:0:0:
188,74,80906,1,0,0:0:0:0:
323,74,81265,1,0,0:0:0:0:
391,192,81622,1,8,0:0:0:0:
188,309,82329,1,8,0:0:0:0:
188,74,83027,1,4,0:0:0:0:
323,309,84059,1,8,0:0:0:0:
188,309,84399,1,0,0:0:0:0:
188,74,85074,1,0,0:0:0:0:
391,192,85742,1,0,0:0:0:0:
323,74,86073,1,8,0:0:0:0:
120,191,86402,1,0,0:0:0:0:
188,74,87055,1,8,0:0:0:0:
323,74,87379,1,0,0:0:0:0:
391,192,87701,1,8,0:0:0:0:
188,309,88340,5,4,0:0:0:0:
323,74,89286,1,0,0:0:0:0:
391,192,89598,1,8,0:0:0:0:
188,309,90217,1,8,0:0:0:0:
120,191,90524,1,8,0:0:0:0:
188,74,90830,1,0,0:0:0:0:
373,124,91437,1,8,0:0:0:0:
188,309,92038,1,0,0:0:0:0:
138,124,92336,1,0,0:0:0:0:
188,74,92633,1,8,0:0:0:0:
391,192,93222,1,4,0:0:0:0:
120,191,94095,1,8,0:0:0:0:
188,74,94383,1,0,0:0:0:0:
391,192,94956,1,0,0:0:0:0:
188,309,95523,1,8,0:0:0:0:
120,191,95805,1,8,0:0:0:0:
188,74,96085,1,8,0:0:0:0:
337,332,96642,1,0,0:0:0:0:
231,117,96918,1,0,0:0:0:0:
174,332,97193,1,0,0:0:0:0:
222,93,97739,1,4,0:0:0:0:
174,332,98817,1,8,0:0:0:0:
174,51,99348,1,0,0:0:0:0:
337,51,99612,1,0,0:0:0:0:
237,81,99875,1,8,0:0:0:0:
174,332,100397,1,8,0:0:0:0:
174,51,100915,1,0,0:0:0:0:
337,51,101172,1,8,0:0:0:0:
418,192,101428,1,8,0:0:0:0:
174,332,101937,1,0,0:0:0:0:
418,192,102943,1,8,0:0:0:0:
174,332,103439,1,0,0:0:0:0:
174,51,103931,1,8,0:0:0:0:
115,110,104175,1,0,0:0:0:0:
396,110,104419,1,0,0:0:0:0:
174,332,104903,1,8,0:0:0:0:
93,191,105143,1,8,0:0:0:0:
174,51,105383,1,0,0:0:0:0:
418,192,105860,5,12,0:0:0:0:
147,98,106802,1,0,0:0:0:0:
418,192,107268,1,8,0:0:0:0:
174,332,107500,1,8,0:0:0:0:
115,110,107730,1,0,0:0:0:0:
174,51,108189,1,8,0:0:0:0:
418,192,108644,1,0,0:0:0:0:
184,142,108870,1,0,0:0:0:0:
174,332,109096,1,12,0:0:0:0:
174,51,109544,1,4,0:0:0:0:
93,191,110430,1,0,0:0:0:0:
174,51,110868,1,8,0:0:0:0:
337,51,111086,1,8,0:0:0:0:
396,110,111303,1,0,0:0:0:0:
195,297,111735,1,8,0:0:0:0:
195,86,112164,1,4,0:0:0:0:
195,297,113013,5,4,0:0:0:0:
242,100,113433,1,8,0:0:0:0:
361,131,113850,1,0,0:0:0:0:
195,297,114264,1,8,0:0:0:0:
134,191,114470,1,8,0:0:0:0:
195,86,114676,1,0,0:0:0:0:
377,192,115084,1,8,0:0:0:0:
195,297,115490,1,0,0:0:0:0:
231,86,115692,1,0,0:0:0:0:
195,86,115894,1,12,0:0:0:0:
377,192,116294,1,4,0:0:0:0:
195,86,117088,1,4,0:0:0:0:
195,297,117870,1,12,0:0:0:0:
316,86,118450,1,12,0:0:0:0:
195,297,119025,1,4,0:0:0:0:
195,86,119405,1,12,0:0:0:0:
