osu file format v14

[General]
AudioFilename: audio.mp3
AudioLeadIn: 0
PreviewTime: 88820
Countdown: 0
SampleSet: Soft
StackLeniency: 0.7
Mode: 0
LetterboxInBreaks: 0
WidescreenStoryboard: 0

[Editor]
DistanceSpacing: 1.4
BeatDivisor: 8
GridSize: 32
TimelineZoom: 2.4

[Metadata]
Title:Yellow
TitleUnicode:Yellow
Artist:Coldplay
ArtistUnicode:Coldplay
Creator:Sotarks
Version:Devotion
Source:
Tags:Parachutes English Pop Rock Parlophone Single Male Vocals Vocalist
BeatmapID:3747390
BeatmapSetID:1825999

[Difficulty]
HPDrainRate:5
CircleSize:4
OverallDifficulty:8.2
ApproachRate:9
SliderMultiplier:1.72
SliderTickRate:1

[Events]
//Background and Video events
0,0,"bg.jpg",0,0
//Break Periods
//Storyboard Layer 0 (Background)
//Storyboard Layer 1 (Fail)
//Storyboard Layer 2 (Pass)
//Storyboard Layer 3 (Foreground)
//Storyboard Layer 4 (Overlay)
//Storyboard Sound Samples

[TimingPoints]
382,691.523079582781,4,2,22,72,1,0
382,-238.095238095238,4,2,22,72,0,0
5914,-192.307692307692,4,2,22,72,0,0
11446,-35.4609929078014,4,2,22,72,0,0
11705,-81.9672131147541,4,2,22,5,0,0
11792,-33.112582781457,4,2,22,72,0,0
12051,-81.9672131147541,4,2,22,5,0,0
12137,-31.055900621118,4,2,22,72,0,0
12397,-81.9672131147541,4,2,22,5,0,0
12483,-65.7894736842105,4,2,22,72,0,0
12742,-81.9672131147541,4,2,22,5,0,0
12829,-35.4609929078014,4,2,22,72,0,0
12915,-35.4609929078014,4,2,22,5,0,0
13002,-35.4609929078014,4,2,22,72,0,0
13088,-35.4609929078014,4,2,22,5,0,0
13175,-45.045045045045,4,2,22,72,0,0
13434,-81.9672131147541,4,2,22,5,0,0
13520,-31.055900621118,4,2,22,72,0,0
13780,-81.9672131147541,4,2,22,5,0,0
13866,-65.7894736842105,4,2,22,72,0,0
14126,-81.9672131147541,4,2,22,5,0,0
14212,-35.4609929078014,4,2,22,72,0,0
14471,-81.9672131147541,4,2,22,5,0,0
14558,-33.112582781457,4,2,22,72,0,0
14817,-81.9672131147541,4,2,22,5,0,0
14903,-31.055900621118,4,2,22,72,0,0
15163,-81.9672131147541,4,2,22,5,0,0
15249,-65.7894736842105,4,2,22,72,0,0
15509,-81.9672131147541,4,2,22,5,0,0
15595,-35.4609929078014,4,2,22,72,0,0
15681,-35.4609929078014,4,2,22,5,0,0
15768,-35.4609929078014,4,2,22,72,0,0
15854,-35.4609929078014,4,2,22,5,0,0
15941,-45.045045045045,4,2,22,72,0,0
16200,-81.9672131147541,4,2,22,5,0,0
16287,-31.055900621118,4,2,22,72,0,0
16978,-35.4609929078014,4,2,22,72,0,0
17237,-81.9672131147541,4,2,22,5,0,0
17324,-33.112582781457,4,2,22,72,0,0
17583,-81.9672131147541,4,2,22,5,0,0
17669,-31.055900621118,4,2,22,72,0,0
17929,-81.9672131147541,4,2,22,5,0,0
18015,-65.7894736842105,4,2,22,72,0,0
18275,-81.9672131147541,4,2,22,5,0,0
18361,-35.4609929078014,4,2,22,72,0,0
18448,-35.4609929078014,4,2,22,5,0,0
18535,-35.4609929078014,4,2,22,72,0,0
18621,-35.4609929078014,4,2,22,5,0,0
18707,-45.045045045045,4,2,22,72,0,0
18966,-81.9672131147541,4,2,22,5,0,0
19052,-31.055900621118,4,2,22,72,0,0
19312,-81.9672131147541,4,2,22,5,0,0
19398,-65.7894736842105,4,2,22,72,0,0
19658,-81.9672131147541,4,2,22,5,0,0
19744,-35.4609929078014,4,2,22,72,0,0
19831,-35.4609929078014,4,2,22,5,0,0
19918,-35.4609929078014,4,2,22,72,0,0
20004,-35.4609929078014,4,2,22,5,0,0
20090,-45.045045045045,4,2,22,72,0,0
20349,-81.9672131147541,4,2,22,5,0,0
20435,-35.4609929078014,4,2,22,72,0,0
20522,-35.4609929078014,4,2,22,5,0,0
20609,-35.4609929078014,4,2,22,72,0,0
20695,-35.4609929078014,4,2,22,5,0,0
20781,-45.045045045045,4,2,22,72,0,0
21041,-81.9672131147541,4,2,22,5,0,0
21127,-38.1679389312977,4,2,22,72,0,0
22164,-81.9672131147541,4,2,22,72,0,0
22251,-81.9672131147541,4,2,22,5,0,0
22337,-81.9672131147541,4,2,22,72,0,0
22424,-81.9672131147541,4,2,22,5,0,0
22510,-35.4609929078014,4,2,22,72,0,0
22769,-81.9672131147541,4,2,22,5,0,0
22856,-33.112582781457,4,2,22,72,0,0
23115,-81.9672131147541,4,2,22,5,0,0
23201,-31.055900621118,4,2,22,72,0,0
23461,-81.9672131147541,4,2,22,5,0,0
23547,-65.7894736842105,4,2,22,72,0,0
23806,-81.9672131147541,4,2,22,5,0,0
23893,-35.4609929078014,4,2,22,72,0,0
23979,-35.4609929078014,4,2,22,5,0,0
24066,-35.4609929078014,4,2,22,72,0,0
24152,-35.4609929078014,4,2,22,5,0,0
24239,-45.045045045045,4,2,22,72,0,0
24498,-81.9672131147541,4,2,22,5,0,0
24584,-31.055900621118,4,2,22,72,0,0
24844,-81.9672131147541,4,2,22,5,0,0
24930,-65.7894736842105,4,2,22,72,0,0
25190,-81.9672131147541,4,2,22,5,0,0
25276,-35.4609929078014,4,2,22,72,0,0
25622,-33.112582781457,4,2,22,72,0,0
25881,-81.9672131147541,4,2,22,5,0,0
25967,-31.055900621118,4,2,22,72,0,0
26227,-81.9672131147541,4,2,22,5,0,0
26313,-65.7894736842105,4,2,22,72,0,0
26573,-81.9672131147541,4,2,22,5,0,0
26659,-35.4609929078014,4,2,22,72,0,0
26745,-35.4609929078014,4,2,22,5,0,0
26832,-35.4609929078014,4,2,22,72,0,0
26918,-35.4609929078014,4,2,22,5,0,0
27005,-45.045045045045,4,2,22,72,0,0
27264,-81.9672131147541,4,2,22,5,0,0
27351,-31.055900621118,4,2,22,72,0,0
27610,-81.9672131147541,4,2,22,5,0,0
27697,-31.055900621118,4,2,22,72,0,0
28042,-35.4609929078014,4,2,22,72,0,0
28301,-81.9672131147541,4,2,22,5,0,0
28388,-33.112582781457,4,2,22,72,0,0
28647,-81.9672131147541,4,2,22,5,0,0
28733,-31.055900621118,4,2,22,72,0,0
28993,-81.9672131147541,4,2,22,5,0,0
29079,-65.7894736842105,4,2,22,72,0,0
29339,-81.9672131147541,4,2,22,5,0,0
29425,-35.4609929078014,4,2,22,72,0,0
29512,-35.4609929078014,4,2,22,5,0,0
29599,-35.4609929078014,4,2,22,72,0,0
29685,-35.4609929078014,4,2,22,5,0,0
29771,-45.045045045045,4,2,22,72,0,0
30030,-81.9672131147541,4,2,22,5,0,0
30116,-31.055900621118,4,2,22,72,0,0
30376,-81.9672131147541,4,2,22,5,0,0
30462,-65.7894736842105,4,2,22,72,0,0
30722,-81.9672131147541,4,2,22,5,0,0
30808,-35.4609929078014,4,2,22,72,0,0
31499,-31.055900621118,4,2,22,72,0,0
31759,-81.9672131147541,4,2,22,5,0,0
31846,-65.7894736842105,4,2,22,72,0,0
32105,-81.9672131147541,4,2,22,5,0,0
32191,-38.1679389312977,4,2,22,72,0,0
32883,-31.055900621118,4,2,22,72,0,0
33142,-81.9672131147541,4,2,22,5,0,0
33229,-65.7894736842105,4,2,22,72,0,0
33488,-81.9672131147541,4,2,22,5,0,0
33575,-75.7575757575758,4,2,22,62,0,0
34958,-54.9450549450549,4,2,22,62,0,0
37724,-75.7575757575758,4,2,22,62,0,0
38415,-54.9450549450549,4,2,22,62,0,0
38675,-81.9672131147541,4,2,22,5,0,0
38761,-192.307692307692,4,2,22,62,0,0
39107,-75.7575757575758,4,2,22,62,0,0
39366,-81.9672131147541,4,2,22,5,0,0
39453,-75.7575757575758,4,2,22,62,0,0
48097,-75.7575757575758,4,2,22,62,0,0
48183,-75.7575757575758,4,2,22,5,0,0
48269,-75.7575757575758,4,2,22,62,0,0
48356,-75.7575757575758,4,2,22,5,0,0
48442,-54.9450549450549,4,2,22,62,0,0
49047,-75.7575757575758,4,2,22,5,0,0
49134,-49.5049504950495,4,2,22,62,0,0
49220,-75.7575757575758,4,2,22,5,0,0
49307,-45.045045045045,4,2,22,62,0,0
50171,-75.7575757575758,4,2,22,62,0,0
52159,-75.7575757575758,4,2,22,5,0,0
52246,-75.7575757575758,4,2,22,62,0,0
52851,-75.7575757575758,4,2,22,5,0,0
52938,-75.7575757575758,4,2,22,62,0,0
61841,-75.7575757575758,4,2,22,5,0,0
61927,-75.7575757575758,4,2,22,62,0,0
62532,-75.7575757575758,4,2,22,5,0,0
62619,-75.7575757575758,4,2,22,62,0,0
63915,-75.7575757575758,4,2,22,5,0,0
64002,-75.7575757575758,4,2,22,62,0,0
64780,-75.7575757575758,4,2,22,5,0,0
64866,-75.7575757575758,4,2,22,62,0,0
64952,-75.7575757575758,4,2,22,5,0,0
65039,-54.9450549450549,4,2,22,62,0,0
65644,-75.7575757575758,4,2,22,5,0,0
65730,-49.5049504950495,4,2,22,62,0,0
65817,-75.7575757575758,4,2,22,5,0,0
65903,-45.045045045045,4,2,22,62,0,0
66768,-75.7575757575758,4,2,22,62,0,0
68756,-75.7575757575758,4,2,22,5,0,0
68842,-75.7575757575758,4,2,22,62,0,0
71176,-75.7575757575758,4,2,22,5,0,0
71262,-75.7575757575758,4,2,22,62,0,0
75325,-75.7575757575758,4,2,22,5,0,0
75412,-75.7575757575758,4,2,22,62,0,0
77746,-75.7575757575758,4,2,22,5,0,0
77833,-75.7575757575758,4,2,22,62,0,0
78437,-75.7575757575758,4,2,22,5,0,0
78524,-75.7575757575758,4,2,22,62,0,0
79129,-75.7575757575758,4,2,22,5,0,0
79216,-75.7575757575758,4,2,22,62,0,0
79820,-75.7575757575758,4,2,22,5,0,0
79907,-75.7575757575758,4,2,22,62,0,0
81290,-75.7575757575758,4,2,22,62,0,0
81376,-75.7575757575758,4,2,22,5,0,0
81463,-75.7575757575758,4,2,22,62,0,0
81549,-75.7575757575758,4,2,22,5,0,0
81635,-54.9450549450549,4,2,22,62,0,0
82241,-75.7575757575758,4,2,22,5,0,0
82326,-49.5049504950495,4,2,22,62,0,0
82413,-75.7575757575758,4,2,22,5,0,0
82499,-45.045045045045,4,2,22,62,0,0
83278,-75.7575757575758,4,2,22,5,0,0
83364,-75.7575757575758,4,2,22,62,0,0
84747,-70.4225352112676,4,2,22,62,0,0
86130,-65.7894736842105,4,2,22,62,0,0
88464,-65.7894736842105,4,2,22,5,0,0
88551,-65.7894736842105,4,2,22,62,0,0
88637,-65.7894736842105,4,2,22,5,0,0
88724,-65.7894736842105,4,2,22,62,0,0
88810,-65.7894736842105,4,2,22,5,0,0
88896,-39.6825396825397,4,2,22,82,0,1
89156,-39.6825396825397,4,2,22,5,0,1
89242,-39.6825396825397,4,2,22,82,0,1
89502,-39.6825396825397,4,2,22,5,0,1
89588,-35.4609929078014,4,2,22,82,0,1
89674,-35.4609929078014,4,2,22,5,0,1
89761,-35.4609929078014,4,2,22,82,0,1
89847,-35.4609929078014,4,2,22,5,0,1
89934,-39.6825396825397,4,2,22,82,0,1
90193,-35.4609929078014,4,2,22,5,0,1
90280,-39.6825396825397,4,2,22,82,0,1
90625,-35.4609929078014,4,2,22,82,0,1
90711,-35.4609929078014,4,2,22,5,0,1
90798,-35.4609929078014,4,2,22,82,0,1
90884,-35.4609929078014,4,2,22,5,0,1
90971,-35.4609929078014,4,2,22,82,0,1
91230,-35.4609929078014,4,2,22,5,0,1
91317,-39.6825396825397,4,2,22,82,0,1
91576,-35.4609929078014,4,2,22,5,0,1
91663,-39.6825396825397,4,2,22,82,0,1
92354,-35.4609929078014,4,2,22,82,0,1
92441,-35.4609929078014,4,2,22,5,0,1
92527,-35.4609929078014,4,2,22,82,0,1
92614,-35.4609929078014,4,2,22,5,0,1
92700,-39.6825396825397,4,2,22,82,0,1
92959,-35.4609929078014,4,2,22,5,0,1
93046,-39.6825396825397,4,2,22,82,0,1
93737,-35.4609929078014,4,2,22,82,0,1
94429,-39.6825396825397,4,2,22,82,0,1
96503,-35.4609929078014,4,2,22,82,0,1
96763,-35.4609929078014,4,2,22,5,0,1
96849,-39.6825396825397,4,2,22,82,0,1
97108,-35.4609929078014,4,2,22,5,0,1
97195,-138.888888888889,4,2,22,82,0,1
97454,-35.4609929078014,4,2,22,5,0,1
97541,-138.888888888889,4,2,22,82,0,1
97886,-35.4609929078014,4,2,22,82,0,1
97973,-35.4609929078014,4,2,22,5,0,1
98059,-35.4609929078014,4,2,22,82,0,1
98146,-35.4609929078014,4,2,22,5,0,1
98232,-35.4609929078014,4,2,22,82,0,1
98319,-35.4609929078014,4,2,22,5,0,1
98578,-35.4609929078014,4,2,22,82,0,1
98665,-35.4609929078014,4,2,22,5,0,1
98751,-35.4609929078014,4,2,22,82,0,1
98838,-35.4609929078014,4,2,22,5,0,1
98924,-35.4609929078014,4,2,22,82,0,1
99961,-39.6825396825397,4,2,22,82,0,1
101344,-39.6825396825397,4,2,22,82,0,1
101431,-35.4609929078014,4,2,22,5,0,1
101517,-39.6825396825397,4,2,22,82,0,1
101604,-35.4609929078014,4,2,22,5,0,1
101690,-35.4609929078014,4,2,22,82,0,1
101777,-35.4609929078014,4,2,22,5,0,1
101863,-35.4609929078014,4,2,22,82,0,1
101950,-35.4609929078014,4,2,22,5,0,1
102035,-35.4609929078014,4,2,22,82,0,1
102295,-35.4609929078014,4,2,22,5,0,1
102381,-39.6825396825397,4,2,22,82,0,1
102640,-35.4609929078014,4,2,22,5,0,1
102727,-192.307692307692,4,2,22,82,0,1
102986,-35.4609929078014,4,2,22,5,0,1
103073,-39.6825396825397,4,2,22,82,0,1
103418,-35.4609929078014,4,2,22,82,0,1
103505,-35.4609929078014,4,2,22,5,0,1
103591,-35.4609929078014,4,2,22,82,0,1
103678,-35.4609929078014,4,2,22,5,0,1
103764,-39.6825396825397,4,2,22,82,0,1
104024,-35.4609929078014,4,2,22,5,0,1
104110,-39.6825396825397,4,2,22,82,0,1
104801,-35.4609929078014,4,2,22,82,0,1
105234,-35.4609929078014,4,2,22,5,0,1
105320,-39.6825396825397,4,2,22,82,0,1
105407,-35.4609929078014,4,2,22,5,0,1
105493,-192.307692307692,4,2,22,82,0,0
111025,-35.4609929078014,4,2,22,72,0,0
111284,-81.9672131147541,4,2,22,5,0,0
111371,-33.112582781457,4,2,22,72,0,0
111630,-81.9672131147541,4,2,22,5,0,0
111716,-31.055900621118,4,2,22,72,0,0
111976,-81.9672131147541,4,2,22,5,0,0
112062,-65.7894736842105,4,2,22,72,0,0
112321,-81.9672131147541,4,2,22,5,0,0
112408,-35.4609929078014,4,2,22,72,0,0
112494,-35.4609929078014,4,2,22,5,0,0
112581,-35.4609929078014,4,2,22,72,0,0
112667,-35.4609929078014,4,2,22,5,0,0
112754,-45.045045045045,4,2,22,72,0,0
113013,-81.9672131147541,4,2,22,5,0,0
113099,-31.055900621118,4,2,22,72,0,0
113359,-81.9672131147541,4,2,22,5,0,0
113445,-65.7894736842105,4,2,22,72,0,0
113705,-81.9672131147541,4,2,22,5,0,0
113791,-35.4609929078014,4,2,22,72,0,0
114050,-81.9672131147541,4,2,22,5,0,0
114137,-33.112582781457,4,2,22,72,0,0
114396,-81.9672131147541,4,2,22,5,0,0
114482,-31.055900621118,4,2,22,72,0,0
114742,-81.9672131147541,4,2,22,5,0,0
114828,-65.7894736842105,4,2,22,72,0,0
115088,-81.9672131147541,4,2,22,5,0,0
115174,-35.4609929078014,4,2,22,72,0,0
115260,-35.4609929078014,4,2,22,5,0,0
115347,-35.4609929078014,4,2,22,72,0,0
115433,-35.4609929078014,4,2,22,5,0,0
115520,-45.045045045045,4,2,22,72,0,0
115779,-81.9672131147541,4,2,22,5,0,0
115866,-31.055900621118,4,2,22,72,0,0
116557,-35.4609929078014,4,2,22,72,0,0
116816,-81.9672131147541,4,2,22,5,0,0
116903,-33.112582781457,4,2,22,72,0,0
117162,-81.9672131147541,4,2,22,5,0,0
117248,-31.055900621118,4,2,22,72,0,0
117508,-81.9672131147541,4,2,22,5,0,0
117594,-65.7894736842105,4,2,22,72,0,0
117854,-81.9672131147541,4,2,22,5,0,0
117940,-35.4609929078014,4,2,22,72,0,0
118027,-35.4609929078014,4,2,22,5,0,0
118114,-35.4609929078014,4,2,22,72,0,0
118200,-35.4609929078014,4,2,22,5,0,0
118286,-45.045045045045,4,2,22,72,0,0
118545,-81.9672131147541,4,2,22,5,0,0
118631,-31.055900621118,4,2,22,72,0,0
118891,-81.9672131147541,4,2,22,5,0,0
118977,-65.7894736842105,4,2,22,72,0,0
119237,-81.9672131147541,4,2,22,5,0,0
119323,-35.4609929078014,4,2,22,72,0,0
119410,-35.4609929078014,4,2,22,5,0,0
119497,-35.4609929078014,4,2,22,72,0,0
119583,-35.4609929078014,4,2,22,5,0,0
119669,-45.045045045045,4,2,22,72,0,0
119928,-81.9672131147541,4,2,22,5,0,0
120014,-35.4609929078014,4,2,22,72,0,0
120101,-35.4609929078014,4,2,22,5,0,0
120188,-35.4609929078014,4,2,22,72,0,0
120274,-35.4609929078014,4,2,22,5,0,0
120360,-45.045045045045,4,2,22,72,0,0
120620,-81.9672131147541,4,2,22,5,0,0
120706,-38.1679389312977,4,2,22,72,0,0
121743,-81.9672131147541,4,2,22,72,0,0
121830,-81.9672131147541,4,2,22,5,0,0
121916,-81.9672131147541,4,2,22,72,0,0
122003,-81.9672131147541,4,2,22,5,0,0
122089,-35.4609929078014,4,2,22,72,0,0
122348,-81.9672131147541,4,2,22,5,0,0
122435,-33.112582781457,4,2,22,72,0,0
122694,-81.9672131147541,4,2,22,5,0,0
122780,-31.055900621118,4,2,22,72,0,0
123040,-81.9672131147541,4,2,22,5,0,0
123126,-65.7894736842105,4,2,22,72,0,0
123385,-81.9672131147541,4,2,22,5,0,0
123472,-35.4609929078014,4,2,22,72,0,0
123558,-35.4609929078014,4,2,22,5,0,0
123645,-35.4609929078014,4,2,22,72,0,0
123731,-35.4609929078014,4,2,22,5,0,0
123818,-45.045045045045,4,2,22,72,0,0
124077,-81.9672131147541,4,2,22,5,0,0
124163,-31.055900621118,4,2,22,72,0,0
124423,-81.9672131147541,4,2,22,5,0,0
124509,-65.7894736842105,4,2,22,72,0,0
124769,-81.9672131147541,4,2,22,5,0,0
124855,-35.4609929078014,4,2,22,72,0,0
125201,-33.112582781457,4,2,22,72,0,0
125460,-81.9672131147541,4,2,22,5,0,0
125546,-31.055900621118,4,2,22,72,0,0
125806,-81.9672131147541,4,2,22,5,0,0
125892,-65.7894736842105,4,2,22,72,0,0
126152,-81.9672131147541,4,2,22,5,0,0
126238,-35.4609929078014,4,2,22,72,0,0
126324,-35.4609929078014,4,2,22,5,0,0
126411,-35.4609929078014,4,2,22,72,0,0
126497,-35.4609929078014,4,2,22,5,0,0
126584,-45.045045045045,4,2,22,72,0,0
126843,-81.9672131147541,4,2,22,5,0,0
126930,-31.055900621118,4,2,22,72,0,0
127190,-81.9672131147541,4,2,22,5,0,0
127277,-31.055900621118,4,2,22,72,0,0
127621,-35.4609929078014,4,2,22,72,0,0
127880,-81.9672131147541,4,2,22,5,0,0
127967,-33.112582781457,4,2,22,72,0,0
128226,-81.9672131147541,4,2,22,5,0,0
128312,-31.055900621118,4,2,22,72,0,0
128572,-81.9672131147541,4,2,22,5,0,0
128658,-65.7894736842105,4,2,22,72,0,0
128918,-81.9672131147541,4,2,22,5,0,0
129004,-35.4609929078014,4,2,22,72,0,0
129091,-35.4609929078014,4,2,22,5,0,0
129178,-35.4609929078014,4,2,22,72,0,0
129264,-35.4609929078014,4,2,22,5,0,0
129351,-45.045045045045,4,2,22,72,0,0
129609,-81.9672131147541,4,2,22,5,0,0
129696,-31.055900621118,4,2,22,72,0,0
129955,-81.9672131147541,4,2,22,5,0,0
130041,-65.7894736842105,4,2,22,72,0,0
130301,-81.9672131147541,4,2,22,5,0,0
130387,-35.4609929078014,4,2,22,72,0,0
131078,-31.055900621118,4,2,22,72,0,0
131338,-81.9672131147541,4,2,22,5,0,0
131425,-65.7894736842105,4,2,22,72,0,0
131684,-81.9672131147541,4,2,22,5,0,0
131770,-38.1679389312977,4,2,22,72,0,0
132462,-31.055900621118,4,2,22,72,0,0
132721,-81.9672131147541,4,2,22,5,0,0
132808,-65.7894736842105,4,2,22,72,0,0
133067,-81.9672131147541,4,2,22,5,0,0
133154,-75.7575757575758,4,2,22,62,0,0
137303,-75.7575757575758,4,2,22,62,0,0
137994,-54.9450549450549,4,2,22,62,0,0
138254,-81.9672131147541,4,2,22,5,0,0
138340,-192.307692307692,4,2,22,62,0,0
138686,-75.7575757575758,4,2,22,62,0,0
138945,-75.7575757575758,4,2,22,5,0,0
139032,-75.7575757575758,4,2,22,62,0,0
147676,-75.7575757575758,4,2,22,62,0,0
147762,-75.7575757575758,4,2,22,5,0,0
147848,-75.7575757575758,4,2,22,62,0,0
147935,-75.7575757575758,4,2,22,5,0,0
148021,-54.9450549450549,4,2,22,62,0,0
148626,-75.7575757575758,4,2,22,5,0,0
148713,-49.5049504950495,4,2,22,62,0,0
148799,-75.7575757575758,4,2,22,5,0,0
148886,-45.045045045045,4,2,22,62,0,0
149750,-75.7575757575758,4,2,22,62,0,0
152430,-75.7575757575758,4,2,22,5,0,0
152517,-75.7575757575758,4,2,22,62,0,0
161420,-75.7575757575758,4,2,22,5,0,0
161507,-75.7575757575758,4,2,22,62,0,0
162111,-75.7575757575758,4,2,22,5,0,0
162198,-75.7575757575758,4,2,22,62,0,0
163494,-75.7575757575758,4,2,22,5,0,0
163581,-75.7575757575758,4,2,22,62,0,0
164359,-75.7575757575758,4,2,22,5,0,0
164445,-75.7575757575758,4,2,22,62,0,0
164531,-75.7575757575758,4,2,22,5,0,0
164618,-54.9450549450549,4,2,22,62,0,0
165223,-75.7575757575758,4,2,22,5,0,0
165309,-49.5049504950495,4,2,22,62,0,0
165396,-75.7575757575758,4,2,22,5,0,0
165482,-45.045045045045,4,2,22,62,0,0
166260,-75.7575757575758,4,2,22,5,0,0
166347,-75.7575757575758,4,2,22,62,0,0
167730,-70.4225352112676,4,2,22,62,0,0
169113,-65.7894736842105,4,2,22,62,0,0
171447,-65.7894736842105,4,2,22,5,0,0
171534,-65.7894736842105,4,2,22,62,0,0
171620,-65.7894736842105,4,2,22,5,0,0
171707,-65.7894736842105,4,2,22,62,0,0
171793,-65.7894736842105,4,2,22,5,0,0
171879,-39.6825396825397,4,2,22,82,0,1
172139,-39.6825396825397,4,2,22,5,0,1
172225,-39.6825396825397,4,2,22,82,0,1
172485,-39.6825396825397,4,2,22,5,0,1
172571,-35.4609929078014,4,2,22,82,0,1
172657,-35.4609929078014,4,2,22,5,0,1
172744,-35.4609929078014,4,2,22,82,0,1
172830,-35.4609929078014,4,2,22,5,0,1
172917,-39.6825396825397,4,2,22,82,0,1
173176,-35.4609929078014,4,2,22,5,0,1
173263,-39.6825396825397,4,2,22,82,0,1
173608,-35.4609929078014,4,2,22,82,0,1
173694,-35.4609929078014,4,2,22,5,0,1
173781,-35.4609929078014,4,2,22,82,0,1
173867,-35.4609929078014,4,2,22,5,0,1
173954,-35.4609929078014,4,2,22,82,0,1
174213,-35.4609929078014,4,2,22,5,0,1
174300,-39.6825396825397,4,2,22,82,0,1
174559,-35.4609929078014,4,2,22,5,0,1
174646,-39.6825396825397,4,2,22,82,0,1
175337,-35.4609929078014,4,2,22,82,0,1
175424,-35.4609929078014,4,2,22,5,0,1
175510,-35.4609929078014,4,2,22,82,0,1
175597,-35.4609929078014,4,2,22,5,0,1
175683,-39.6825396825397,4,2,22,82,0,1
175942,-35.4609929078014,4,2,22,5,0,1
176029,-39.6825396825397,4,2,22,82,0,1
176720,-35.4609929078014,4,2,22,82,0,1
177412,-39.6825396825397,4,2,22,82,0,1
179486,-35.4609929078014,4,2,22,82,0,1
179746,-35.4609929078014,4,2,22,5,0,1
179832,-39.6825396825397,4,2,22,82,0,1
180091,-35.4609929078014,4,2,22,5,0,1
180178,-138.888888888889,4,2,22,82,0,1
180437,-35.4609929078014,4,2,22,5,0,1
180524,-138.888888888889,4,2,22,82,0,1
180869,-35.4609929078014,4,2,22,82,0,1
180956,-35.4609929078014,4,2,22,5,0,1
181042,-35.4609929078014,4,2,22,82,0,1
181129,-35.4609929078014,4,2,22,5,0,1
181215,-35.4609929078014,4,2,22,82,0,1
181302,-35.4609929078014,4,2,22,5,0,1
181561,-35.4609929078014,4,2,22,82,0,1
181648,-35.4609929078014,4,2,22,5,0,1
181734,-35.4609929078014,4,2,22,82,0,1
181821,-35.4609929078014,4,2,22,5,0,1
181907,-35.4609929078014,4,2,22,82,0,1
182944,-39.6825396825397,4,2,22,82,0,1
184327,-39.6825396825397,4,2,22,82,0,1
184414,-35.4609929078014,4,2,22,5,0,1
184500,-39.6825396825397,4,2,22,82,0,1
184587,-35.4609929078014,4,2,22,5,0,1
184673,-35.4609929078014,4,2,22,82,0,1
184760,-35.4609929078014,4,2,22,5,0,1
184846,-35.4609929078014,4,2,22,82,0,1
184933,-35.4609929078014,4,2,22,5,0,1
185018,-35.4609929078014,4,2,22,82,0,1
185278,-35.4609929078014,4,2,22,5,0,1
185364,-39.6825396825397,4,2,22,82,0,1
185623,-35.4609929078014,4,2,22,5,0,1
185710,-192.307692307692,4,2,22,82,0,1
185969,-35.4609929078014,4,2,22,5,0,1
186056,-39.6825396825397,4,2,22,82,0,1
186401,-35.4609929078014,4,2,22,82,0,1
186488,-35.4609929078014,4,2,22,5,0,1
186574,-35.4609929078014,4,2,22,82,0,1
186661,-35.4609929078014,4,2,22,5,0,1
186747,-39.6825396825397,4,2,22,82,0,1
187438,-39.6825396825397,4,2,22,82,0,1
187525,-35.4609929078014,4,2,22,5,0,1
187611,-39.6825396825397,4,2,22,82,0,1
187698,-35.4609929078014,4,2,22,5,0,1
187784,-35.4609929078014,4,2,22,82,0,1
188216,-35.4609929078014,4,2,22,5,0,1
188303,-39.6825396825397,4,2,22,82,0,1
188389,-35.4609929078014,4,2,22,5,0,1
188476,-133.333333333333,4,2,22,82,0,0
194008,-35.4609929078014,4,2,22,72,0,0
194267,-81.9672131147541,4,2,22,5,0,0
194354,-33.112582781457,4,2,22,72,0,0
194613,-81.9672131147541,4,2,22,5,0,0
194699,-31.055900621118,4,2,22,72,0,0
194959,-81.9672131147541,4,2,22,5,0,0
195045,-65.7894736842105,4,2,22,72,0,0
195304,-81.9672131147541,4,2,22,5,0,0
195391,-35.4609929078014,4,2,22,72,0,0
195477,-35.4609929078014,4,2,22,5,0,0
195564,-35.4609929078014,4,2,22,72,0,0
195650,-35.4609929078014,4,2,22,5,0,0
195737,-45.045045045045,4,2,22,72,0,0
195996,-81.9672131147541,4,2,22,5,0,0
196082,-31.055900621118,4,2,22,72,0,0
196342,-81.9672131147541,4,2,22,5,0,0
196428,-65.7894736842105,4,2,22,72,0,0
196688,-81.9672131147541,4,2,22,5,0,0
196774,-35.4609929078014,4,2,22,72,0,0
197033,-81.9672131147541,4,2,22,5,0,0
197120,-33.112582781457,4,2,22,72,0,0
197379,-81.9672131147541,4,2,22,5,0,0
197465,-31.055900621118,4,2,22,72,0,0
197725,-81.9672131147541,4,2,22,5,0,0
197811,-65.7894736842105,4,2,22,72,0,0
198071,-81.9672131147541,4,2,22,5,0,0
198157,-35.4609929078014,4,2,22,72,0,0
198243,-35.4609929078014,4,2,22,5,0,0
198330,-35.4609929078014,4,2,22,72,0,0
198416,-35.4609929078014,4,2,22,5,0,0
198503,-45.045045045045,4,2,22,72,0,0
198762,-81.9672131147541,4,2,22,5,0,0
198849,-31.055900621118,4,2,22,72,0,0
199540,-35.4609929078014,4,2,22,72,0,0
199799,-81.9672131147541,4,2,22,5,0,0
199886,-33.112582781457,4,2,22,72,0,0
200145,-81.9672131147541,4,2,22,5,0,0
200231,-31.055900621118,4,2,22,72,0,0
200491,-81.9672131147541,4,2,22,5,0,0
200577,-65.7894736842105,4,2,22,72,0,0
200837,-81.9672131147541,4,2,22,5,0,0
200923,-35.4609929078014,4,2,22,72,0,0
201010,-35.4609929078014,4,2,22,5,0,0
201097,-35.4609929078014,4,2,22,72,0,0
201183,-35.4609929078014,4,2,22,5,0,0
201269,-45.045045045045,4,2,22,72,0,0
201528,-81.9672131147541,4,2,22,5,0,0
201614,-31.055900621118,4,2,22,72,0,0
201874,-81.9672131147541,4,2,22,5,0,0
201960,-65.7894736842105,4,2,22,72,0,0
202220,-81.9672131147541,4,2,22,5,0,0
202306,-35.4609929078014,4,2,22,72,0,0
202393,-35.4609929078014,4,2,22,5,0,0
202480,-35.4609929078014,4,2,22,72,0,0
202566,-35.4609929078014,4,2,22,5,0,0
202652,-45.045045045045,4,2,22,72,0,0
202911,-81.9672131147541,4,2,22,5,0,0
202997,-35.4609929078014,4,2,22,72,0,0
203084,-35.4609929078014,4,2,22,5,0,0
203171,-35.4609929078014,4,2,22,72,0,0
203257,-35.4609929078014,4,2,22,5,0,0
203343,-45.045045045045,4,2,22,72,0,0
203603,-81.9672131147541,4,2,22,5,0,0
203689,-38.1679389312977,4,2,22,72,0,0
204726,-81.9672131147541,4,2,22,72,0,0
204813,-81.9672131147541,4,2,22,5,0,0
204899,-81.9672131147541,4,2,22,72,0,0
204986,-81.9672131147541,4,2,22,5,0,0
205072,-35.4609929078014,4,2,22,72,0,0
205331,-81.9672131147541,4,2,22,5,0,0
205418,-33.112582781457,4,2,22,72,0,0
205677,-81.9672131147541,4,2,22,5,0,0
205763,-31.055900621118,4,2,22,72,0,0
206023,-81.9672131147541,4,2,22,5,0,0
206109,-65.7894736842105,4,2,22,72,0,0
206368,-81.9672131147541,4,2,22,5,0,0
206455,-35.4609929078014,4,2,22,72,0,0
206541,-35.4609929078014,4,2,22,5,0,0
206628,-35.4609929078014,4,2,22,72,0,0
206714,-35.4609929078014,4,2,22,5,0,0
206801,-45.045045045045,4,2,22,72,0,0
207060,-81.9672131147541,4,2,22,5,0,0
207146,-31.055900621118,4,2,22,72,0,0
207406,-81.9672131147541,4,2,22,5,0,0
207492,-65.7894736842105,4,2,22,72,0,0
207752,-81.9672131147541,4,2,22,5,0,0
207838,-35.4609929078014,4,2,22,72,0,0
208184,-33.112582781457,4,2,22,72,0,0
208443,-81.9672131147541,4,2,22,5,0,0
208529,-31.055900621118,4,2,22,72,0,0
208789,-81.9672131147541,4,2,22,5,0,0
208875,-65.7894736842105,4,2,22,72,0,0
209135,-81.9672131147541,4,2,22,5,0,0
209221,-35.4609929078014,4,2,22,72,0,0
209307,-35.4609929078014,4,2,22,5,0,0
209394,-35.4609929078014,4,2,22,72,0,0
209480,-35.4609929078014,4,2,22,5,0,0
209567,-45.045045045045,4,2,22,72,0,0
209826,-81.9672131147541,4,2,22,5,0,0
209913,-31.055900621118,4,2,22,72,0,0
210172,-81.9672131147541,4,2,22,5,0,0
210259,-31.055900621118,4,2,22,72,0,0
210604,-35.4609929078014,4,2,22,72,0,0
210863,-81.9672131147541,4,2,22,5,0,0
210950,-33.112582781457,4,2,22,72,0,0
211209,-81.9672131147541,4,2,22,5,0,0
211295,-31.055900621118,4,2,22,72,0,0
211555,-81.9672131147541,4,2,22,5,0,0
211641,-65.7894736842105,4,2,22,72,0,0
211901,-81.9672131147541,4,2,22,5,0,0
211987,-35.4609929078014,4,2,22,72,0,0
212074,-35.4609929078014,4,2,22,5,0,0
212161,-35.4609929078014,4,2,22,72,0,0
212247,-35.4609929078014,4,2,22,5,0,0
212333,-45.045045045045,4,2,22,72,0,0
212592,-81.9672131147541,4,2,22,5,0,0
212679,-31.055900621118,4,2,22,72,0,0
212938,-81.9672131147541,4,2,22,5,0,0
213024,-65.7894736842105,4,2,22,72,0,0
213284,-81.9672131147541,4,2,22,5,0,0
213370,-35.4609929078014,4,2,22,72,0,0
214061,-31.055900621118,4,2,22,72,0,0
214321,-81.9672131147541,4,2,22,5,0,0
214408,-65.7894736842105,4,2,22,72,0,0
214667,-81.9672131147541,4,2,22,5,0,0
214753,-38.1679389312977,4,2,22,72,0,0
215445,-31.055900621118,4,2,22,72,0,0
215704,-81.9672131147541,4,2,22,5,0,0
215791,-65.7894736842105,4,2,22,72,0,0
216050,-81.9672131147541,4,2,22,5,0,0
216137,-35.4609929078014,4,2,22,72,0,0
216223,-35.4609929078014,4,2,22,5,0,0
216310,-35.4609929078014,4,2,22,72,0,0
216396,-35.4609929078014,4,2,22,5,0,0
216482,-35.4609929078014,4,2,22,72,0,0
217174,-45.045045045045,4,2,22,72,0,0
218903,-35.4609929078014,4,2,22,72,0,0
219681,-35.4609929078014,4,2,22,5,0,0
219767,-35.4609929078014,4,2,22,72,0,0
219854,-35.4609929078014,4,2,22,5,0,0
219940,-35.4609929078014,4,2,22,72,0,0
220372,-35.4609929078014,4,2,22,5,0,0
220458,-35.4609929078014,4,2,22,72,0,0
220545,-35.4609929078014,4,2,22,5,0,0
220631,-35.4609929078014,4,2,22,72,0,0
220977,-31.055900621118,4,2,22,72,0,0
221582,-31.055900621118,4,2,22,5,0,0
221669,-98.0392156862745,4,2,22,72,0,0
223138,-98.0392156862745,4,2,22,5,0,0
223225,-98.0392156862745,4,2,22,72,0,0
223311,-98.0392156862745,4,2,22,5,0,0
223398,-98.0392156862745,4,2,22,72,0,0
224435,-192.307692307692,4,2,22,72,0,0
224694,-98.0392156862745,4,2,22,5,0,0
224781,-98.0392156862745,4,2,22,72,0,0
225040,-98.0392156862745,4,2,22,5,0,0
225127,-65.7894736842105,4,2,22,72,0,0
225386,-98.0392156862745,4,2,22,5,0,0
225472,-49.5049504950495,4,2,22,72,0,0
225732,-98.0392156862745,4,2,22,5,0,0
225818,-39.6825396825397,4,2,22,72,0,0
226077,-98.0392156862745,4,2,22,5,0,0
226164,-33.112582781457,4,2,22,72,0,0
226423,-98.0392156862745,4,2,22,5,0,0
226510,-33.112582781457,4,2,22,72,0,0
226855,-35.4609929078014,4,2,22,72,0,0
226942,-35.4609929078014,4,2,22,5,0,0
227028,-35.4609929078014,4,2,22,72,0,0
227115,-35.4609929078014,4,2,22,5,0,0
227201,-31.055900621118,4,2,22,72,0,0
228584,-35.4609929078014,4,2,22,72,0,0
228671,-35.4609929078014,4,2,22,5,0,0
228757,-35.4609929078014,4,2,22,72,0,0
228844,-35.4609929078014,4,2,22,5,0,0
228930,-31.055900621118,4,2,22,72,0,0
229967,-28.4090909090909,4,2,22,72,0,0
230226,-35.4609929078014,4,2,22,5,0,0
230313,-33.112582781457,4,2,22,72,0,0
230572,-35.4609929078014,4,2,22,5,0,0
230659,-39.6825396825397,4,2,22,72,0,0
230918,-35.4609929078014,4,2,22,5,0,0
231004,-49.5049504950495,4,2,22,72,0,0
231264,-35.4609929078014,4,2,22,5,0,0
231350,-65.7894736842105,4,2,22,72,0,0
231610,-35.4609929078014,4,2,22,5,0,0
231696,-98.0392156862745,4,2,22,72,0,0
231955,-35.4609929078014,4,2,22,5,0,0
232042,-192.307692307692,4,2,22,72,0,0
232647,-35.4609929078014,4,2,22,5,0,0
232733,-35.4609929078014,4,2,22,72,0,0
232820,-35.4609929078014,4,2,22,5,0,0
232906,-35.4609929078014,4,2,22,72,0,0
232993,-35.4609929078014,4,2,22,5,0,0
233079,-35.4609929078014,4,2,22,72,0,0
233338,-35.4609929078014,4,2,22,5,0,0
233424,-35.4609929078014,4,2,22,72,0,0
233770,-45.045045045045,4,2,22,72,0,0
234030,-35.4609929078014,4,2,22,5,0,0
234116,-35.4609929078014,4,2,22,72,0,0
234376,-35.4609929078014,4,2,22,5,0,0
234462,-35.4609929078014,4,2,22,72,0,0
234721,-35.4609929078014,4,2,22,5,0,0
234808,-35.4609929078014,4,2,22,72,0,0
235413,-35.4609929078014,4,2,22,5,0,0
235499,-35.4609929078014,4,2,22,72,0,0
235759,-35.4609929078014,4,2,22,5,0,0
235845,-35.4609929078014,4,2,22,72,0,0
235932,-35.4609929078014,4,2,22,5,0,0
236018,-35.4609929078014,4,2,22,72,0,0
236104,-35.4609929078014,4,2,22,5,0,0
236190,-35.4609929078014,4,2,22,72,0,0
236882,-65.7894736842105,4,2,22,72,0,0
237487,-65.7894736842105,4,2,22,5,0,0
237573,-31.055900621118,4,2,22,72,0,0
237833,-35.4609929078014,4,2,22,5,0,0
237919,-31.055900621118,4,2,22,72,0,0
238265,-98.0392156862745,4,2,22,72,0,0
239735,-98.0392156862745,4,2,22,5,0,0
239821,-98.0392156862745,4,2,22,72,0,0
239908,-98.0392156862745,4,2,22,5,0,0
239994,-98.0392156862745,4,2,22,72,0,0
241031,-192.307692307692,4,2,22,72,0,0
241291,-98.0392156862745,4,2,22,5,0,0
241377,-98.0392156862745,4,2,22,72,0,0
241637,-98.0392156862745,4,2,22,5,0,0
241723,-65.7894736842105,4,2,22,72,0,0
241982,-98.0392156862745,4,2,22,5,0,0
242068,-49.5049504950495,4,2,22,72,0,0
242328,-98.0392156862745,4,2,22,5,0,0
242414,-39.6825396825397,4,2,22,72,0,0
242674,-98.0392156862745,4,2,22,5,0,0
242760,-33.112582781457,4,2,22,72,0,0
243020,-98.0392156862745,4,2,22,5,0,0
243106,-28.4090909090909,4,2,22,72,0,0
243365,-98.0392156862745,4,2,22,5,0,0
243452,-28.4090909090909,4,2,22,72,0,0
243797,-31.055900621118,4,2,22,72,0,0
245180,-35.4609929078014,4,2,22,72,0,0
245526,-31.055900621118,4,2,22,72,0,0
246564,-98.0392156862745,4,2,22,72,0,0
246823,-98.0392156862745,4,2,22,5,0,0
246909,-65.7894736842105,4,2,22,72,0,0
247169,-98.0392156862745,4,2,22,5,0,0
247255,-35.4609929078014,4,2,22,72,0,0
247342,-35.4609929078014,4,2,22,5,0,0
247428,-35.4609929078014,4,2,22,72,0,0
247515,-35.4609929078014,4,2,22,5,0,0
247601,-65.7894736842105,4,2,22,72,0,0
247941,-35.4609929078014,4,2,22,72,0,0
248033,-35.4609929078014,4,2,22,5,0,0
248120,-35.4609929078014,4,2,22,72,0,0
248207,-35.4609929078014,4,2,22,5,0,0
248293,-35.4609929078014,4,2,22,72,0,0
249330,701.754385964912,4,2,22,72,1,0
249680,-98.0392156862745,4,2,22,52,0,0
250733,-121.951219512195,4,2,22,52,0,0
257663,-121.951219512195,4,2,22,5,0,0
257751,-192.307692307692,4,2,22,52,0,0
260558,-128.205128205128,4,2,22,42,0,0
260645,-161.290322580645,4,2,22,5,0,0

[Colours]
Combo1 : 238,193,164
Combo2 : 114,114,114
Combo3 : 192,192,192
Combo4 : 234,222,0
Combo5 : 255,251,98
Combo6 : 242,115,0

[HitObjects]
57,313,382,6,0,L|65:360,1,36.1199988977051,2|0,0:2|0:2,0:2:0:0:
139,277,1073,2,0,L|156:360,1,72.2399977954102,2|0,0:2|0:2,0:2:0:0:
214,206,2110,6,0,L|189:197,1,18.0599994488526,2|0,0:2|0:2,0:2:0:0:
111,143,2456,2,0,L|123:210,1,54.1799983465577,2|0,0:2|0:2,0:2:0:0:
57,313,3148,70,0,L|65:360,1,36.1199988977051,2|0,0:2|0:2,0:2:0:0:
139,277,3839,2,0,L|156:360,1,72.2399977954102,2|0,0:2|0:2,0:2:0:0:
214,206,4876,6,0,L|189:197,1,18.0599994488526,2|0,0:2|0:2,0:2:0:0:
111,143,5222,2,0,L|123:210,1,54.1799983465577,2|0,0:2|0:2,0:2:0:0:
196,116,5914,70,0,P|226:97|275:104,1,67.0799995905762,6|0,0:2|0:2,0:2:0:0:
304,0,6605,2,0,L|312:33,1,22.3599998635254,2|0,0:2|0:2,0:2:0:0:
267,95,6951,6,0,P|301:103|331:143,1,67.0799995905762,2|0,0:2|0:2,0:2:0:0:
425,90,7642,2,0,L|408:119,1,22.3599998635254,2|0,0:2|0:2,0:2:0:0:
332,132,7988,70,0,P|351:162|344:211,1,67.0799995905762,2|0,0:2|0:2,0:2:0:0:
443,310,8680,6,0,L|360:335,1,67.0799995905762,2|0,0:2|0:2,0:2:0:0:
281,232,9371,2,0,L|288:265,1,22.3599998635254,2|0,0:2|0:2,0:2:0:0:
369,346,9717,70,0,L|304:326,1,67.0799995905762,2|0,0:2|0:2,0:2:0:0:
171,249,10409,2,0,L|178:282,1,22.3599998635254,2|0,0:2|0:2,0:2:0:0:
275,326,10754,6,0,L|210:345,1,67.0799995905762,2|0,0:2|0:2,0:2:0:0:
67,253,11446,38,0,B|122:228|152:137|60:101|37:152,1,181.88999070234,6|0,1:2|0:2,0:2:0:0:
0,202,11792,2,0,P|90:168|187:160,1,194.789997770805,0|0,3:2|0:2,0:2:0:0:
241,243,12137,6,0,B|297:214|268:143|268:143|282:211|213:236,1,207.69000031691,8|0,0:2|0:2,0:2:0:0:
241,243,12483,70,0,B|250:296|250:296|249:298|249:298|260:366,1,98.0399988032227,0|0,3:2|0:2,0:2:0:0:
332,377,12829,6,0,P|357:359|362:314,1,60.6299969007799,0|0,1:2|0:2,0:2:0:0:
438,305,13002,2,0,P|429:275|389:255,1,60.6299969007799,0|0,3:2|0:2,0:2:0:0:
447,182,13175,70,0,P|379:174|322:239,1,143.19000349585,0|0,1:2|0:2,0:2:0:0:
237,175,13520,6,0,B|201:226|260:275|260:275|215:222|265:168,1,207.69000031691,8|0,0:2|0:2,0:2:0:0:
237,175,13866,70,0,B|230:133|230:133|231:132|231:132|222:78,1,98.0399988032227,0|0,3:2|0:2,0:2:0:0:
70,26,14212,6,0,B|96:64|62:110|62:110|110:76|167:96,1,181.88999070234,2|0,1:2|0:2,0:2:0:0:
150,15,14558,2,0,B|106:55|122:105|127:105|133:105|149:146|92:205,1,194.789997770805,0|0,3:2|0:2,0:2:0:0:
64,283,14903,70,0,P|31:234|76:282,1,207.69000031691,8|0,0:2|0:2,0:2:0:0:
64,283,15249,6,0,B|109:273|109:273|111:274|111:274|180:258,1,98.0399988032227,0|0,3:2|0:2,0:2:0:0:
233,318,15595,70,0,P|255:289|249:242,1,60.6299969007799,0|0,1:2|0:2,0:2:0:0:
348,261,15768,2,0,P|339:225|300:199,1,60.6299969007799,0|0,3:2|0:2,0:2:0:0:
380,147,15941,6,0,P|331:123|248:165,1,143.19000349585,0|0,1:2|0:2,0:2:0:0:
154,134,16287,70,0,L|189:-10,1,138.460000211273,8|0,0:2|0:2,0:2:0:0:
248,236,16632,2,0,L|215:370,1,138.460000211273,0|0,3:2|0:2,0:2:0:0:
367,156,16978,6,0,B|406:137|409:76|409:76|446:124|494:121,1,181.88999070234,6|0,1:2|0:2,0:2:0:0:
442,201,17324,70,0,P|352:171|213:153,1,194.789997770805,0|0,3:2|0:2,0:2:0:0:
156,200,17670,6,0,B|120:149|179:100|179:100|134:153|184:207,1,207.69000031691,8|0,0:2|0:2,0:2:0:0:
156,200,18015,2,0,B|106:190|106:190|105:188|105:188|44:176,1,98.0399988032227,0|0,3:2|0:2,0:2:0:0:
0,269,18361,70,0,L|15:340,1,60.6299969007799,0|0,1:2|0:2,0:2:0:0:
88,337,18534,2,0,L|75:277,1,60.6299969007799,0|0,3:2|0:2,0:2:0:0:
155,292,18707,6,0,L|326:326,1,143.19000349585,0|0,1:2|0:2,0:2:0:0:
352,384,19053,70,0,B|304:356|325:296|329:298|333:300|359:235|287:180,1,207.69000031691,8|0,0:2|0:2,0:2:0:0:
304,195,19398,2,0,B|354:185|354:185|355:183|355:183|398:174,1,98.0399988032227,0|0,3:2|0:2,0:2:0:0:
462,100,19744,6,0,P|441:58|411:44,1,60.6299969007799,2|0,1:2|0:2,0:2:0:0:
346,60,19917,2,0,P|301:45|270:56,1,60.6299969007799,0|0,3:2|0:2,0:2:0:0:
243,117,20090,70,0,P|182:153|178:236,1,143.19000349585,0|0,1:2|0:2,0:2:0:0:
462,100,20436,6,0,P|441:58|411:44,1,60.6299969007799,10|0,0:2|0:2,0:2:0:0:
346,60,20609,2,0,P|301:45|270:56,1,60.6299969007799,0|0,3:2|0:2,0:2:0:0:
243,117,20781,70,0,P|182:153|178:236,1,143.19000349585,0|0,3:2|0:2,0:2:0:0:
110,274,21127,6,0,L|-29:246,1,112.660002062866,2|0,1:2|0:2,0:2:0:0:
262,199,21473,2,0,L|372:221,1,112.660002062866,2|0,3:2|0:2,0:2:0:0:
113,104,21819,69,8,0:2:0:0:
194,37,21992,1,0,3:2:0:0:
303,102,22164,6,0,L|296:66,1,26.2299989193573,0|0,3:2|0:2,0:2:0:0:
384,35,22337,2,0,L|389:60,1,26.2299989193573,0|0,3:2|0:2,0:2:0:0:
471,120,22510,70,0,B|485:189|427:181|408:211|399:279|451:314,1,181.88999070234,6|0,1:2|0:2,0:2:0:0:
499,250,22856,2,0,P|426:223|279:226,1,194.789997770805,0|0,3:2|0:2,0:2:0:0:
220,175,23202,6,0,B|184:226|243:275|243:275|198:222|248:168,1,207.69000031691,8|0,0:2|0:2,0:2:0:0:
220,175,23548,70,0,B|229:161|229:161|211:64,1,98.0399988032227,0|0,3:2|0:2,0:2:0:0:
108,7,23893,6,0,L|121:72,1,60.6299969007799,0|0,1:2|0:2,0:2:0:0:
33,23,24066,2,0,L|44:82,1,60.6299969007799,0|0,3:2|0:2,0:2:0:0:
51,165,24239,70,0,B|81:149|87:106|87:106|111:143|143:145,1,143.19000349585,0|0,1:2|0:2,0:2:0:0:
151,220,24585,6,0,P|90:157|131:241,1,207.69000031691,8|0,0:2|0:2,0:2:0:0:
151,220,24931,70,0,B|160:234|160:234|145:314,1,98.0399988032227,0|0,3:2|0:2,0:2:0:0:
128,384,25276,5,2,1:2:0:0:
248,285,25449,1,2,0:2:0:0:
401,378,25622,2,0,L|357:188,1,194.789997770805,0|0,3:2|0:2,0:2:0:0:
410,105,25968,70,0,B|366:119|358:189|358:189|323:129|274:136,1,207.69000031691,8|0,0:2|0:2,0:2:0:0:
261,151,26314,6,0,B|252:137|252:137|266:56,1,98.0399988032227,0|0,3:2|0:2,0:2:0:0:
187,6,26659,70,0,L|172:80,1,60.6299969007799,0|0,1:2|0:2,0:2:0:0:
157,138,26832,2,0,L|144:197,1,60.6299969007799,0|0,3:2|0:2,0:2:0:0:
56,295,27005,6,0,B|78:264|120:278|122:283|123:289|159:294|187:270,1,143.19000349585,0|0,1:2|0:2,0:2:0:0:
283,308,27351,70,0,B|319:257|260:208|260:208|305:261|255:315,1,207.69000031691,8|0,0:2|0:2,0:2:0:0:
211,351,27697,1,0,3:2:0:0:
418,273,27870,1,2,0:2:0:0:
418,281,27956,1,2,0:2:0:0:
420,288,28042,6,0,B|390:236|393:196|468:173|430:106|386:146|410:183,1,181.88999070234,6|0,1:2|0:2,0:2:0:0:
489,239,28388,2,0,P|421:198|285:189,1,194.789997770805,0|0,3:2|0:2,0:2:0:0:
245,145,28734,70,0,B|204:177|149:182|149:182|206:182|247:225,1,207.69000031691,8|0,0:2|0:2,0:2:0:0:
245,145,29080,6,0,B|254:131|254:131|239:50,1,98.0399988032227,0|0,3:2|0:2,0:2:0:0:
160,0,29425,70,0,P|137:33|146:77,1,60.6299969007799,0|0,1:2|0:2,0:2:0:0:
42,62,29598,2,0,P|52:100|91:122,1,60.6299969007799,0|0,3:2|0:2,0:2:0:0:
29,186,29771,6,0,B|47:265|47:265|46:268|46:268|62:336,1,143.19000349585,0|0,1:2|0:2,0:2:0:0:
126,288,30117,70,0,B|167:320|222:325|222:325|165:325|124:368,1,207.69000031691,8|0,0:2|0:2,0:2:0:0:
126,288,30463,6,0,B|117:274|117:274|131:193,1,98.0399988032227,0|0,3:2|0:2,0:2:0:0:
146,117,30809,69,0,1:2:0:0:
217,236,30981,1,2,0:2:0:0:
346,169,31154,1,0,3:2:0:0:
275,50,31326,1,2,0:2:0:0:
238,147,31500,6,0,B|291:182|333:136|332:131|331:125|373:74|447:114,1,207.69000031691,8|0,0:2|0:2,0:2:0:0:
425,105,31846,70,0,B|434:119|434:119|419:199,1,98.0399988032227,0|0,3:2|0:2,0:2:0:0:
402,295,32192,2,0,P|457:264|521:270,1,112.660002062866,0|0,1:2|0:2,0:2:0:0:
188,260,32537,6,0,P|133:291|69:285,1,112.660002062866,0|0,1:2|0:2,0:2:0:0:
313,175,32883,70,0,B|371:116|385:43|288:8|257:99|339:121,1,207.69000031691,8|0,0:2|0:2,0:2:0:0:
313,175,33229,6,0,B|327:186|327:186|423:158,1,98.0399988032227,0|0,3:2|0:2,0:2:0:0:
480,142,33575,6,0,L|451:11,1,113.519999653564,6|2,1:2|1:2,0:2:0:0:
399,253,34266,1,10,0:2:0:0:
473,312,34612,1,2,0:2:0:0:
230,166,34958,6,0,B|214:141|185:136|185:136|213:132|238:145|238:145|268:136|275:97|275:97|277:137|266:163|266:163|307:182|333:175|333:175|306:189|266:187|266:187|262:220|274:245|274:245|254:226|243:204|243:204|204:200|185:215|185:215|204:187|262:183,1,626.080021017091,2|2,1:2|1:2,0:2:0:0:
278,335,36686,1,2,1:2:0:0:
162,376,37032,1,10,0:2:0:0:
76,292,37378,1,2,0:2:0:0:
170,124,37724,70,0,L|187:42,1,56.7599998267822,2|0,1:2|0:2,0:2:0:0:
70,105,38070,2,0,L|82:50,1,56.7599998267822,0|0,1:2|0:2,0:2:0:0:
177,229,38415,6,0,P|230:251|300:211,1,117.390003940704,10|0,0:2|0:2,0:2:0:0:
299,219,38761,2,0,L|295:202,3,11.1799999317627,0|0|0|0,3:2|3:2|3:2|3:2,0:2:0:0:
380,186,39107,70,0,L|362:289,1,85.1399997401733,0|0,1:2|0:2,0:2:0:0:
359,297,39453,1,2,1:2:0:0:
452,254,39625,1,0,0:2:0:0:
224,347,39798,2,0,L|344:389,1,113.519999653564,8|0,0:2|3:2,0:2:0:0:
182,263,40490,5,0,1:2:0:0:
127,326,40663,1,2,3:2:0:0:
271,272,40836,1,0,1:2:0:0:
200,177,41008,1,2,3:2:0:0:
322,78,41181,2,0,L|291:202,1,113.519999653564,8|0,0:2|3:2,0:2:0:0:
410,149,41700,1,0,0:2:0:0:
512,303,41873,70,0,L|493:240,1,56.7599998267822,0|0,1:2|0:2,0:2:0:0:
410,384,42219,2,0,L|391:321,1,56.7599998267822,2|0,1:2|0:2,0:2:0:0:
181,262,42564,2,0,L|209:152,1,113.519999653564,10|2,0:2|0:2,0:2:0:0:
75,196,43083,1,0,0:2:0:0:
202,50,43256,2,0,L|144:30,1,56.7599998267822,2|0,1:2|0:2,0:2:0:0:
209,151,43602,2,0,L|151:131,1,56.7599998267822,0|2,1:2|0:2,0:2:0:0:
311,30,43947,1,8,0:2:0:0:
367,102,44120,1,0,0:2:0:0:
275,236,44293,5,2,3:2:0:0:
273,249,44379,1,0,3:2:0:0:
271,263,44465,1,0,3:2:0:0:
268,277,44552,1,0,3:2:0:0:
266,291,44639,70,0,P|329:303|375:269,1,113.519999653564,0|0,1:2|1:2,0:2:0:0:
111,211,45331,1,10,0:2:0:0:
76,291,45676,1,0,3:2:0:0:
326,158,46022,5,0,1:2:0:0:
291,78,46195,1,2,3:2:0:0:
218,219,46368,1,0,1:2:0:0:
266,291,46541,1,2,3:2:0:0:
78,355,46714,2,0,L|118:224,1,113.519999653564,8|0,0:2|3:2,0:2:0:0:
28,53,47405,70,0,L|48:121,1,56.7599998267822,0|0,1:2|0:2,0:2:0:0:
140,2,47751,2,0,L|160:70,1,56.7599998267822,0|2,1:2|0:2,0:2:0:0:
316,106,48097,6,0,L|306:133,1,28.3799999133911,10|0,0:2|0:2,0:2:0:0:
378,170,48269,2,0,L|388:143,1,28.3799999133911,2|0,0:2|0:2,0:2:0:0:
453,70,48442,70,0,B|467:63|498:116|421:155|390:171|294:90|383:3,1,273.910009194977,2|0,0:2|0:2,0:2:0:0:
380,5,49134,38,0,L|393:75,1,43.429999138504,2|0,1:2|0:2,0:2:0:0:
475,228,49307,70,0,B|434:124|334:168|334:174|334:180|266:216|195:161|180:125|199:17|279:16,1,429.570010487549,2|0,0:2|0:2,0:2:0:0:
294,93,50171,54,0,L|171:122,1,113.519999653564,4|2,1:2|1:2,0:2:0:0:
160,328,50863,2,0,L|85:305,1,56.7599998267822,10|0,0:2|0:2,0:2:0:0:
252,250,51208,2,0,L|177:227,1,56.7599998267822,2|0,3:2|0:2,0:2:0:0:
365,384,51554,1,2,1:2:0:0:
427,306,51727,1,0,0:2:0:0:
349,191,51900,2,0,L|330:88,1,85.1399997401733,0|0,1:2|0:2,0:2:0:0:
324,76,52246,5,8,0:2:0:0:
222,143,52419,1,0,0:2:0:0:
133,54,52591,1,0,3:2:0:0:
31,121,52764,2,0,L|42:163,1,28.3799999133911,0|0,0:2|0:2,0:2:0:0:
93,199,52937,70,0,L|70:317,1,113.519999653564,2|2,1:2|1:2,0:2:0:0:
185,253,53456,1,0,0:2:0:0:
313,384,53629,2,0,L|296:326,1,56.7599998267822,10|0,0:2|0:2,0:2:0:0:
409,340,53975,2,0,L|392:282,1,56.7599998267822,2|0,0:2|0:2,0:2:0:0:
393,113,54320,5,2,1:2:0:0:
323,180,54493,1,0,0:2:0:0:
479,273,54666,1,0,1:2:0:0:
409,340,54839,1,2,0:2:0:0:
512,183,55012,2,0,L|386:143,1,113.519999653564,8|0,0:2|3:2,0:2:0:0:
182,63,55530,69,2,3:2:0:0:
186,82,55616,1,2,3:2:0:0:
190,101,55703,2,0,P|249:112|299:72,1,113.519999653564,0|2,1:2|1:2,0:2:0:0:
234,319,56395,2,0,P|281:291|336:303,1,113.519999653564,8|0,0:2|3:2,0:2:0:0:
261,196,57086,5,0,1:2:0:0:
125,282,57259,1,2,3:2:0:0:
136,172,57432,1,0,1:2:0:0:
0,258,57605,1,2,3:2:0:0:
145,72,57778,2,0,L|26:42,1,113.519999653564,8|0,0:2|3:2,0:2:0:0:
223,350,58469,70,0,L|281:328,1,56.7599998267822,0|0,1:2|0:2,0:2:0:0:
125,282,58815,2,0,L|183:260,1,56.7599998267822,2|0,1:2|0:2,0:2:0:0:
321,123,59161,6,0,L|302:191,1,56.7599998267822,10|0,0:2|0:2,0:2:0:0:
381,229,59507,2,0,L|396:174,1,56.7599998267822,2|0,3:2|0:2,0:2:0:0:
297,26,59852,70,0,L|327:87,1,56.7599998267822,2|0,1:2|0:2,0:2:0:0:
481,183,60198,2,0,L|413:178,1,56.7599998267822,0|2,1:2|0:2,0:2:0:0:
253,264,60544,2,0,L|290:207,1,56.7599998267822,8|0,0:2|0:2,0:2:0:0:
441,342,60890,5,2,3:2:0:0:
432,359,60976,1,2,3:2:0:0:
418,373,61062,1,2,3:2:0:0:
400,382,61149,1,2,3:2:0:0:
380,384,61236,70,0,L|262:354,1,113.519999653564,0|0,1:2|1:2,0:2:0:0:
75,277,61754,2,0,L|87:312,1,28.3799999133911,0|0,0:2|0:2,0:2:0:0:
114,372,61927,2,0,B|173:350|170:266|170:266|126:248|120:190,1,198.659999393738,8|0,0:2|0:2,0:2:0:0:
130,180,62619,6,0,L|197:197,1,56.7599998267822,2|0,1:2|0:2,0:2:0:0:
98,76,62964,2,0,L|165:93,1,56.7599998267822,0|0,1:2|0:2,0:2:0:0:
295,40,63310,70,0,B|294:92|243:122|243:122|307:123|333:168,1,198.659999393738,8|0,0:2|0:2,0:2:0:0:
350,187,64002,6,0,L|364:121,1,56.7599998267822,0|0,1:2|0:2,0:2:0:0:
465,179,64347,2,0,L|479:113,1,56.7599998267822,0|2,1:2|0:2,0:2:0:0:
302,307,64693,70,0,L|313:347,1,28.3799999133911,10|0,0:2|0:2,0:2:0:0:
390,333,64866,2,0,L|382:305,1,28.3799999133911,2|0,0:2|0:2,0:2:0:0:
350,187,65039,6,0,B|336:138|260:165|237:203|245:273|348:308|393:266,1,273.910009194977,2|0,0:2|0:2,0:2:0:0:
406,267,65730,22,0,L|419:201,1,43.429999138504,2|0,1:2|0:2,0:2:0:0:
441,117,65903,70,0,B|364:198|287:119|290:114|292:108|242:49|156:74|128:101|106:209|179:240,1,429.570010487549,2|0,0:2|0:2,0:2:0:0:
222,171,66768,54,0,L|244:42,1,113.519999653564,4|0,1:2|1:2,0:2:0:0:
119,117,67286,1,0,0:2:0:0:
176,280,67459,2,0,L|158:226,1,56.7599998267822,8|0,0:2|0:2,0:2:0:0:
96,354,67805,2,0,L|78:300,1,56.7599998267822,0|0,3:2|0:2,0:2:0:0:
232,377,68151,5,0,1:2:0:0:
310,302,68324,1,0,0:2:0:0:
401,370,68497,2,0,P|450:371|489:327,1,85.1399997401733,0|0,1:2|0:2,0:2:0:0:
502,355,68842,70,0,L|515:297,1,56.7599998267822,8|0,0:2|0:2,0:2:0:0:
422,259,69188,2,0,L|435:201,1,56.7599998267822,0|0,3:2|0:2,0:2:0:0:
310,302,69534,5,0,1:2:0:0:
245,232,69707,1,0,0:2:0:0:
44,220,69880,1,2,1:2:0:0:
109,150,70053,1,0,0:2:0:0:
0,26,70225,2,0,L|61:46,1,56.7599998267822,10|0,0:2|0:2,0:2:0:0:
171,0,70571,2,0,L|232:20,1,56.7599998267822,2|0,3:2|0:2,0:2:0:0:
437,68,70917,70,0,P|385:65|344:101,1,85.1399997401733,2|0,1:2|0:2,0:2:0:0:
337,97,71263,2,0,L|358:162,1,56.7599998267822,2|0,1:2|0:2,0:2:0:0:
298,291,71608,1,8,0:2:0:0:
385,248,71781,1,0,0:2:0:0:
257,384,71954,1,0,3:2:0:0:
134,288,72127,5,2,3:2:0:0:
134,288,72213,1,2,3:2:0:0:
134,288,72300,2,0,L|111:167,1,113.519999653564,0|2,1:2|1:2,0:2:0:0:
19,250,72819,1,0,0:2:0:0:
151,88,72991,2,0,L|94:66,1,56.7599998267822,8|0,0:2|0:2,0:2:0:0:
165,196,73337,2,0,L|108:174,1,56.7599998267822,0|0,3:2|0:2,0:2:0:0:
247,124,73683,69,0,1:2:0:0:
285,210,73856,1,2,3:2:0:0:
365,105,74029,1,0,1:2:0:0:
403,191,74202,1,2,3:2:0:0:
512,56,74374,2,0,L|385:10,1,113.519999653564,8|0,0:2|3:2,0:2:0:0:
329,285,75066,6,0,P|367:291|418:262,1,85.1399997401733,0|0,1:2|0:2,0:2:0:0:
417,245,75412,2,0,L|400:180,1,56.7599998267822,2|0,1:2|0:2,0:2:0:0:
252,356,75758,2,0,L|235:291,1,56.7599998267822,10|0,0:2|0:2,0:2:0:0:
145,318,76103,2,0,L|130:263,1,56.7599998267822,2|0,3:2|0:2,0:2:0:0:
310,207,76449,2,0,L|295:152,1,56.7599998267822,2|0,1:2|0:2,0:2:0:0:
198,140,76795,2,0,L|183:85,1,56.7599998267822,0|2,1:2|0:2,0:2:0:0:
230,6,77141,1,8,0:2:0:0:
97,89,77313,1,2,0:2:0:0:
198,140,77486,1,0,3:2:0:0:
65,223,77659,70,0,L|55:266,1,28.3799999133911,2|0,3:2|3:2,0:2:0:0:
0,317,77832,2,0,L|110:344,1,113.519999653564,0|0,1:2|1:2,0:2:0:0:
180,244,78351,2,0,L|186:271,1,28.3799999133911,0|0,3:2|3:2,0:2:0:0:
135,365,78524,2,0,L|245:338,1,113.519999653564,8|0,0:2|3:2,0:2:0:0:
341,220,79042,2,0,L|334:247,1,28.3799999133911,0|0,3:2|3:2,0:2:0:0:
262,313,79215,2,0,L|372:340,1,113.519999653564,0|0,1:2|0:2,0:2:0:0:
417,252,79734,2,0,L|424:280,1,28.3799999133911,0|0,3:2|3:2,0:2:0:0:
387,373,79907,2,0,L|497:346,1,113.519999653564,8|0,0:2|3:2,0:2:0:0:
367,121,80598,6,0,L|387:188,1,56.7599998267822,0|0,1:2|0:2,0:2:0:0:
442,61,80944,2,0,L|462:128,1,56.7599998267822,0|2,1:2|0:2,0:2:0:0:
238,33,81290,70,0,L|225:71,1,28.3799999133911,10|0,0:2|0:2,0:2:0:0:
137,72,81463,2,0,L|149:39,1,28.3799999133911,2|0,0:2|0:2,0:2:0:0:
192,142,81635,6,0,B|222:210|172:210|150:269|168:322|205:345|263:333|293:288|262:243,1,273.910009194977,2|0,0:2|0:2,0:2:0:0:
293,260,82327,22,0,L|279:210,1,43.429999138504,2|0,1:2|0:2,0:2:0:0:
169,108,82500,70,0,B|212:205|140:205|108:290|134:366|187:399|270:381|313:317|269:252,1,429.570010487549,2|0,0:2|0:2,0:2:0:0:
265,241,83364,54,0,L|331:224,1,56.7599998267822,6|0,1:2|0:2,0:2:0:0:
122,300,83710,2,0,L|67:314,1,56.7599998267822,0|0,1:2|0:2,0:2:0:0:
281,141,84056,2,0,L|347:124,1,56.7599998267822,8|0,0:2|0:2,0:2:0:0:
54,229,84402,2,0,L|0:243,1,56.7599998267822,0|0,3:2|0:2,0:2:0:0:
196,59,84747,5,2,1:2:0:0:
133,162,84920,1,0,3:2:0:0:
259,281,85093,1,0,1:2:0:0:
196,384,85266,1,0,3:2:0:0:
413,242,85439,2,0,L|437:316,1,61.0599969253847,8|0,0:2|0:2,0:2:0:0:
354,84,85785,2,0,L|335:25,1,61.0599969253847,0|0,3:2|0:2,0:2:0:0:
135,244,86130,70,0,P|93:263|67:264,1,65.3599992021484,2|0,1:2|0:2,0:2:0:0:
413,242,86476,2,0,P|455:223|481:222,1,65.3599992021484,0|0,1:2|0:2,0:2:0:0:
238,94,86822,2,0,P|219:52|218:26,1,65.3599992021484,8|0,0:2|0:2,0:2:0:0:
291,324,87168,2,0,P|310:366|311:391,1,65.3599992021484,0|0,3:2|0:2,0:2:0:0:
317,152,87513,5,2,1:2:0:0:
195,239,87686,1,0,3:2:0:0:
299,35,87859,1,0,1:2:0:0:
177,122,88032,1,0,3:2:0:0:
385,296,88205,70,0,L|266:331,1,98.0399988032227,8|0,0:2|0:2,0:2:0:0:
253,341,88551,6,0,L|264:287,1,32.6799996010742,0|0,3:2|0:2,0:2:0:0:
187,273,88724,2,0,L|180:305,1,32.6799996010742,0|0,3:2|0:2,0:2:0:0:
442,175,88896,6,0,P|391:113|282:134,1,162.539995039673,6|0,1:2|0:2,0:2:0:0:
247,57,89242,2,0,P|167:49|104:141,1,162.539995039673,0|0,3:2|0:2,0:2:0:0:
0,174,89588,6,0,L|19:238,1,60.6299969007799,10|0,0:2|0:2,0:2:0:0:
99,235,89761,2,0,L|81:176,1,60.6299969007799,0|0,3:2|0:2,0:2:0:0:
42,324,89934,70,0,B|103:339|103:339|124:368|124:368|199:382,1,162.539995039673,0|0,1:2|0:2,0:2:0:0:
252,326,90280,5,2,3:2:0:0:
435,384,90452,1,0,0:2:0:0:
320,183,90625,70,0,L|337:253,1,60.6299969007799,0|0,1:2|0:2,0:2:0:0:
414,237,90798,2,0,L|396:164,1,60.6299969007799,0|0,0:2|0:2,0:2:0:0:
286,43,90971,6,0,B|309:101|352:117|435:77|400:31|365:39|363:60,1,181.88999070234,8|0,0:2|0:2,0:2:0:0:
253,131,91317,70,0,B|190:119|190:119|169:90|169:90|108:75,1,162.539995039673,2|0,3:2|0:2,0:2:0:0:
42,123,91663,5,0,1:2:0:0:
204,7,91835,1,0,0:2:0:0:
91,247,92008,1,2,3:2:0:0:
253,131,92180,1,0,0:2:0:0:
236,352,92354,70,0,L|214:290,1,60.6299969007799,10|0,0:2|0:2,0:2:0:0:
284,248,92527,2,0,L|304:305,1,60.6299969007799,0|0,0:2|0:2,0:2:0:0:
385,354,92700,6,0,B|411:316|394:273|391:274|388:275|369:233|405:190,1,162.539995039673,2|0,1:2|0:2,0:2:0:0:
467,246,93046,1,2,3:2:0:0:
295,146,93218,1,0,0:2:0:0:
407,39,93391,1,2,1:2:0:0:
284,248,93564,69,0,1:2:0:0:
284,248,93651,1,0,1:2:0:0:
284,248,93737,2,0,B|221:159|118:186|118:186|192:241|128:280|213:346,1,363.779981404679,10|0,0:2|1:2,0:2:0:0:
269,359,94342,5,0,1:2:0:0:
265,377,94429,2,0,P|323:386|372:361,1,108.359996693115,6|0,1:2|0:2,0:2:0:0:
313,144,94774,2,0,P|255:135|206:160,1,108.359996693115,0|0,3:2|0:2,0:2:0:0:
265,377,95120,2,0,P|323:386|372:361,1,108.359996693115,10|0,0:2|0:2,0:2:0:0:
313,144,95465,2,0,P|255:135|206:160,1,108.359996693115,2|0,1:2|0:2,0:2:0:0:
288,259,95812,69,2,3:2:0:0:
396,199,95985,1,0,0:2:0:0:
400,77,96157,1,0,1:2:0:0:
297,16,96330,5,0,1:2:0:0:
297,16,96417,1,0,1:2:0:0:
297,16,96503,2,0,B|257:1|214:-3|214:-3|205:68|134:82,1,181.88999070234,8|0,0:2|0:2,0:2:0:0:
96,146,96849,70,0,B|62:119|72:68|72:68|64:125|123:148,1,162.539995039673,2|0,3:2|0:2,0:2:0:0:
160,191,97195,6,0,L|150:240,1,46.4400011337891,0|0,1:2|0:2,0:2:0:0:
133,312,97540,1,2,3:2:0:0:
259,172,97713,1,0,0:2:0:0:
314,362,97886,70,0,P|289:300|290:290,1,60.6299969007799,10|0,0:2|0:2,0:2:0:0:
380,291,98059,2,0,P|406:229|413:223,1,60.6299969007799,0|0,0:2|0:2,0:2:0:0:
448,369,98232,1,2,1:2:0:0:
283,118,98578,6,0,P|258:180|259:190,1,60.6299969007799,2|0,3:2|0:2,0:2:0:0:
349,189,98751,2,0,P|375:250|382:256,1,60.6299969007799,0|0,0:2|0:2,0:2:0:0:
417,111,98924,1,2,1:2:0:0:
136,345,99269,70,0,B|133:292|197:247|263:259|316:276|336:333|313:368|271:382|220:357|213:298|282:234,1,363.779981404679,10|0,0:2|1:2,0:2:0:0:
315,213,99874,1,0,1:2:0:0:
309,189,99961,6,0,B|292:163|301:139|301:139|313:107|287:70,1,108.359996693115,6|0,1:2|0:2,0:2:0:0:
390,282,100307,2,0,B|406:303|394:335|394:335|385:359|402:385,1,108.359996693115,0|0,3:2|0:2,0:2:0:0:
455,173,100652,69,10,0:2:0:0:
268,320,100825,1,0,0:2:0:0:
309,189,100998,1,2,1:2:0:0:
122,336,101171,1,0,0:2:0:0:
199,134,101344,6,0,L|219:201,1,54.1799983465577,2|0,3:2|0:2,0:2:0:0:
136,191,101517,2,0,L|120:139,1,54.1799983465577,0|0,0:2|0:2,0:2:0:0:
197,36,101690,1,0,1:2:0:0:
37,173,101863,1,0,0:2:0:0:
205,16,102035,70,0,B|276:31|276:31|296:68|296:68|380:88,1,181.88999070234,8|0,0:2|0:2,0:2:0:0:
440,96,102381,2,0,B|448:59|497:40|497:40|445:52|406:20,1,162.539995039673,2|0,3:2|0:2,0:2:0:0:
361,83,102727,6,0,L|368:119,1,33.5399997952881,0|0,1:2|0:2,0:2:0:0:
380,188,103073,1,2,3:2:0:0:
254,352,103246,1,0,0:2:0:0:
392,287,103418,70,0,P|363:268|326:265,1,60.6299969007799,10|0,0:2|0:2,0:2:0:0:
293,204,103591,2,0,P|259:211|230:235,1,60.6299969007799,0|0,0:2|0:2,0:2:0:0:
64,252,103764,6,0,B|115:222|154:236|154:236|154:288|230:312,1,162.539995039673,2|0,1:2|0:2,0:2:0:0:
238,226,104110,2,0,L|258:89,1,108.359996693115,2|0,3:2|0:2,0:2:0:0:
380,174,104456,1,2,1:2:0:0:
291,0,104629,1,0,0:2:0:0:
466,126,104801,70,0,B|406:29|328:89|331:93|334:96|234:138|197:23,1,303.149984503899,10|0,0:2|0:2,0:2:0:0:
185,18,105320,2,0,L|173:86,1,54.1799983465577,0|0,0:2|0:2,0:2:0:0:
164,329,105493,6,0,B|196:263|151:212|89:228|55:173|59:106|130:58|174:110|183:118|183:118|192:110|233:50|298:108|358:194|226:234|190:236|206:290,1,626.079996178711,6|2,1:2|0:2,0:2:0:0:
205,287,111025,6,0,B|257:316|348:287|323:191|269:203,1,181.88999070234,6|0,1:2|0:2,0:2:0:0:
215,159,111371,2,0,P|217:240|261:369,1,194.789997770805,0|0,3:2|0:2,0:2:0:0:
336,361,111717,6,0,B|388:348|435:382|435:382|388:348|375:300,1,207.69000031691,8|0,0:2|0:2,0:2:0:0:
375,301,112062,70,0,B|366:248|366:248|367:246|367:246|358:195,1,98.0399988032227,0|0,3:2|0:2,0:2:0:0:
384,25,112408,6,0,P|359:43|354:88,1,60.6299969007799,0|0,1:2|0:2,0:2:0:0:
278,97,112581,2,0,P|287:127|327:147,1,60.6299969007799,0|0,3:2|0:2,0:2:0:0:
359,204,112754,70,0,P|427:212|484:147,1,143.19000349585,0|0,1:2|0:2,0:2:0:0:
453,121,113100,2,0,P|500:67|467:133,1,207.69000031691,8|0,0:2|0:2,0:2:0:0:
453,121,113445,6,0,B|407:113|407:113|406:111|406:111|347:101,1,98.0399988032227,0|0,3:2|0:2,0:2:0:0:
271,85,113791,70,0,B|297:47|263:1|263:1|311:35|368:15,1,181.88999070234,2|0,1:2|0:2,0:2:0:0:
357,102,114137,2,0,B|362:168|323:189|319:185|315:182|270:210|278:268,1,194.789997770805,0|0,3:2|0:2,0:2:0:0:
223,300,114483,2,0,P|270:354|237:288,1,207.69000031691,8|0,0:2|0:2,0:2:0:0:
223,300,114828,6,0,B|178:310|178:310|176:309|176:309|107:325,1,98.0399988032227,0|0,3:2|0:2,0:2:0:0:
18,284,115174,70,0,P|40:254|34:208,1,60.6299969007799,0|0,1:2|0:2,0:2:0:0:
133,227,115347,2,0,P|124:191|84:165,1,60.6299969007799,0|0,3:2|0:2,0:2:0:0:
164,109,115520,6,0,P|114:85|31:127,1,143.19000349585,0|0,1:2|0:2,0:2:0:0:
30,157,115866,70,0,B|96:142|96:142|101:145|101:145|175:130,1,138.460000211273,8|0,0:2|0:2,0:2:0:0:
486,164,116212,6,0,B|422:176|422:176|417:174|417:174|351:188,1,138.460000211273,0|0,3:2|0:2,0:2:0:0:
148,233,116557,70,0,B|101:246|93:301|93:301|40:295|29:240,1,181.88999070234,6|0,1:2|0:2,0:2:0:0:
70,183,116903,6,0,P|154:216|279:228,1,194.789997770805,0|0,3:2|0:2,0:2:0:0:
345,196,117249,70,0,B|371:219|373:251|373:251|285:273|285:273|266:251|282:216,1,207.69000031691,8|0,0:2|0:2,0:2:0:0:
345,196,117594,2,0,B|395:206|395:206|396:208|396:208|457:220,1,98.0399988032227,0|0,3:2|0:2,0:2:0:0:
512,115,117940,6,0,L|497:44,1,60.6299969007799,0|0,1:2|0:2,0:2:0:0:
424,47,118113,2,0,L|437:107,1,60.6299969007799,0|0,3:2|0:2,0:2:0:0:
357,92,118286,70,0,L|186:58,1,143.19000349585,0|0,1:2|0:2,0:2:0:0:
160,0,118632,6,0,B|208:28|187:88|183:86|179:84|153:149|225:204,1,207.69000031691,8|0,0:2|0:2,0:2:0:0:
208,189,118977,2,0,B|158:199|158:199|157:201|157:201|114:210,1,98.0399988032227,0|0,3:2|0:2,0:2:0:0:
50,284,119323,70,0,B|60:316|60:316|101:340,1,60.6299969007799,2|0,1:2|0:2,0:2:0:0:
166,324,119496,2,0,B|198:338|198:338|242:328,1,60.6299969007799,0|0,3:2|0:2,0:2:0:0:
269,267,119669,6,0,B|331:233|331:233|334:148,1,143.19000349585,0|0,1:2|0:2,0:2:0:0:
50,284,120015,70,0,B|60:316|60:316|101:340,1,60.6299969007799,10|0,0:2|0:2,0:2:0:0:
166,324,120188,2,0,B|198:338|198:338|242:328,1,60.6299969007799,0|0,3:2|0:2,0:2:0:0:
269,267,120361,6,0,B|331:233|331:233|334:148,1,143.19000349585,0|0,3:2|0:2,0:2:0:0:
402,110,120706,70,0,P|468:104|521:137,1,112.660002062866,2|0,1:2|0:2,0:2:0:0:
237,173,121052,2,0,P|171:179|118:146,1,112.660002062866,2|0,3:2|0:2,0:2:0:0:
399,280,121398,5,8,0:2:0:0:
318,347,121571,1,0,3:2:0:0:
209,282,121743,70,0,L|216:318,1,26.2299989193573,0|0,3:2|0:2,0:2:0:0:
128,349,121916,2,0,L|123:324,1,26.2299989193573,0|0,3:2|0:2,0:2:0:0:
41,264,122089,6,0,B|27:195|85:203|104:173|113:105|61:70,1,181.88999070234,6|0,1:2|0:2,0:2:0:0:
13,134,122435,2,0,P|86:161|233:158,1,194.789997770805,0|0,3:2|0:2,0:2:0:0:
292,209,122781,70,0,B|328:158|269:109|269:109|314:162|264:216,1,207.69000031691,8|0,0:2|0:2,0:2:0:0:
292,209,123127,6,0,B|283:223|283:223|301:320,1,98.0399988032227,0|0,3:2|0:2,0:2:0:0:
404,377,123472,70,0,L|391:312,1,60.6299969007799,0|0,1:2|0:2,0:2:0:0:
471,303,123645,2,0,L|482:362,1,60.6299969007799,0|0,3:2|0:2,0:2:0:0:
372,248,123818,6,0,B|402:232|408:189|408:189|432:226|464:228,1,143.19000349585,0|0,1:2|0:2,0:2:0:0:
484,147,124164,70,0,P|393:110|326:181,1,207.69000031691,8|0,0:2|0:2,0:2:0:0:
325,181,124510,6,0,B|316:167|316:167|331:87,1,98.0399988032227,0|0,3:2|0:2,0:2:0:0:
351,9,124855,69,2,1:2:0:0:
238,104,125028,1,2,0:2:0:0:
111,6,125201,2,0,L|155:196,1,194.789997770805,0|0,3:2|0:2,0:2:0:0:
20,338,125547,6,0,B|7:272|88:245|88:245|113:285|171:285,1,207.69000031691,8|0,0:2|0:2,0:2:0:0:
154,285,125893,70,0,B|163:299|163:299|149:380,1,98.0399988032227,0|0,3:2|0:2,0:2:0:0:
305,370,126238,6,0,P|276:343|220:334,1,60.6299969007799,0|0,1:2|0:2,0:2:0:0:
416,283,126412,70,0,P|376:284|330:317,1,60.6299969007799,0|0,3:2|0:2,0:2:0:0:
455,120,126584,6,0,B|446:157|402:160|398:156|395:151|360:161|344:194,1,143.19000349585,0|0,1:2|0:2,0:2:0:0:
256,156,126930,70,0,B|220:207|279:256|279:256|233:207|275:146,1,207.69000031691,8|0,0:2|0:2,0:2:0:0:
314,105,127276,1,0,3:2:0:0:
99,200,127449,1,2,0:2:0:0:
99,192,127535,1,2,0:2:0:0:
97,185,127621,6,0,B|82:241|118:278|118:278|108:338|33:347,1,181.88999070234,6|0,1:2|0:2,0:2:0:0:
8,274,127967,2,0,P|104:281|189:328,1,194.789997770805,0|0,3:2|0:2,0:2:0:0:
266,336,128313,70,0,B|288:289|336:260|336:260|284:285|229:264,1,207.69000031691,8|0,0:2|0:2,0:2:0:0:
266,336,128659,6,0,B|274:350|274:350|354:370,1,98.0399988032227,0|0,3:2|0:2,0:2:0:0:
443,312,129004,70,0,P|435:272|398:247,1,60.6299969007799,0|0,1:2|0:2,0:2:0:0:
481,184,129178,2,0,P|447:164|403:176,1,60.6299969007799,0|0,3:2|0:2,0:2:0:0:
421,81,129351,2,0,B|373:68|351:103|352:106|353:109|323:134|276:124,1,143.19000349585,0|0,1:2|0:2,0:2:0:0:
216,134,129696,6,0,B|193:87|145:58|145:58|197:83|252:62,1,207.69000031691,8|0,0:2|0:2,0:2:0:0:
216,134,130042,70,0,B|207:148|207:148|221:229,1,98.0399988032227,0|0,3:2|0:2,0:2:0:0:
233,301,130388,5,0,1:2:0:0:
296,164,130560,1,2,0:2:0:0:
91,258,130733,1,0,3:2:0:0:
157,384,130905,1,2,0:2:0:0:
329,264,131079,2,0,B|408:281|408:281|431:322|431:322|526:345,1,207.69000031691,8|0,0:2|0:2,0:2:0:0:
508,340,131425,70,0,B|517:326|517:326|502:246,1,98.0399988032227,0|0,3:2|0:2,0:2:0:0:
438,156,131771,2,0,P|444:103|460:41,1,112.660002062866,0|0,1:2|0:2,0:2:0:0:
329,264,132117,2,0,P|315:318|308:374,1,112.660002062866,0|0,1:2|0:2,0:2:0:0:
204,157,132462,6,0,B|146:98|132:25|229:-10|260:81|178:103,1,207.69000031691,8|0,0:2|0:2,0:2:0:0:
204,157,132808,70,0,B|190:168|190:168|94:140,1,98.0399988032227,0|0,3:2|0:2,0:2:0:0:
49,195,133154,22,0,L|78:326,1,113.519999653564,6|2,1:2|1:2,0:2:0:0:
112,145,133845,1,10,0:2:0:0:
38,105,134191,1,2,0:2:0:0:
202,329,134537,1,0,1:2:0:0:
128,369,134883,1,0,1:2:0:0:
283,152,135229,5,8,0:2:0:0:
235,242,135401,1,0,0:0:0:0:
145,193,135574,1,0,3:2:0:0:
193,103,135746,1,0,0:0:0:0:
52,240,135920,70,0,L|0:218,1,56.7599998267822,0|0,1:0|0:0,0:0:0:0:
71,347,136266,2,0,L|18:325,1,56.7599998267822,2|0,1:2|0:0,0:0:0:0:
377,56,136611,1,10,0:2:0:0:
465,130,136957,1,2,0:2:0:0:
342,260,137303,6,0,L|330:315,1,56.7599998267822,2|0,1:2|0:2,0:2:0:0:
442,279,137649,2,0,L|430:334,1,56.7599998267822,0|0,1:2|0:2,0:2:0:0:
335,155,137994,70,0,B|276:133|276:133|212:173,1,117.390003940704,10|0,0:2|0:2,0:2:0:0:
221,182,138340,2,0,L|225:199,3,11.1799999317627,2|2|2|2,3:2|3:2|3:2|3:2,0:2:0:0:
163,251,138686,6,0,L|181:354,1,85.1399997401733,0|0,1:2|0:2,0:2:0:0:
184,362,139032,1,2,1:2:0:0:
91,319,139204,1,0,0:2:0:0:
221,182,139377,2,0,L|101:140,1,113.519999653564,8|0,0:2|3:2,0:2:0:0:
337,301,140069,69,0,1:2:0:0:
273,354,140242,1,2,3:2:0:0:
331,220,140415,1,0,1:2:0:0:
426,371,140588,1,2,3:2:0:0:
484,237,140761,2,0,L|515:113,1,113.519999653564,8|0,0:2|3:2,0:2:0:0:
413,163,141279,1,0,0:2:0:0:
211,87,141452,6,0,L|230:150,1,56.7599998267822,0|0,1:2|0:2,0:2:0:0:
313,6,141798,2,0,L|332:69,1,56.7599998267822,2|0,1:2|0:2,0:2:0:0:
97,0,142143,2,0,L|69:110,1,113.519999653564,10|2,0:2|0:2,0:2:0:0:
0,41,142662,1,0,0:2:0:0:
68,296,142835,2,0,L|14:277,1,56.7599998267822,2|0,1:2|0:2,0:2:0:0:
61,186,143181,2,0,L|7:167,1,56.7599998267822,0|2,1:2|0:2,0:2:0:0:
195,313,143526,1,8,0:2:0:0:
139,241,143699,1,0,0:2:0:0:
242,169,143872,69,2,3:2:0:0:
240,182,143958,1,0,3:2:0:0:
238,196,144044,1,0,3:2:0:0:
235,210,144131,1,0,3:2:0:0:
233,224,144218,6,0,P|286:238|342:202,1,113.519999653564,0|0,1:2|1:2,0:2:0:0:
368,384,144910,1,8,0:2:0:0:
403,304,145255,1,0,3:2:0:0:
268,144,145601,69,0,1:2:0:0:
233,224,145774,1,2,3:2:0:0:
160,83,145947,1,0,1:2:0:0:
208,11,146120,1,2,3:2:0:0:
17,141,146293,2,0,L|57:272,1,113.519999653564,8|0,0:2|3:2,0:2:0:0:
347,258,146984,6,0,L|327:190,1,56.7599998267822,0|0,1:2|0:2,0:2:0:0:
235,309,147330,2,0,L|215:241,1,56.7599998267822,0|2,1:2|0:2,0:2:0:0:
278,99,147676,70,0,L|268:126,1,28.3799999133911,10|0,0:2|0:2,0:2:0:0:
190,118,147848,2,0,L|200:91,1,28.3799999133911,2|0,0:2|0:2,0:2:0:0:
147,189,148021,6,0,B|133:196|102:143|179:104|210:88|306:169|218:254,1,273.910009194977,2|0,0:2|0:2,0:2:0:0:
202,284,148713,22,0,L|129:261,1,43.429999138504,2|0,1:2|0:2,0:2:0:0:
74,321,148886,70,0,B|162:389|225:299|222:294|219:289|259:223|348:234|379:257|419:359|351:401,1,429.570010487549,2|0,0:2|0:2,0:2:0:0:
298,342,149750,54,0,L|320:217,1,113.519999653564,4|2,1:2|1:2,0:2:0:0:
0,213,150442,2,0,L|54:196,1,56.7599998267822,10|0,0:2|0:2,0:2:0:0:
133,167,150787,2,0,L|187:150,1,56.7599998267822,2|0,3:2|0:2,0:2:0:0:
312,113,151133,1,2,1:2:0:0:
392,87,151306,1,0,0:2:0:0:
498,47,151479,2,0,L|385:89,1,113.519999653564,0|8,1:2|0:2,0:2:0:0:
187,150,151998,5,0,0:2:0:0:
312,113,152171,1,0,3:2:0:0:
54,196,152343,2,0,L|100:183,1,28.3799999133911,0|0,0:2|0:2,0:2:0:0:
187,150,152517,70,0,L|310:113,1,113.519999653564,2|2,1:2|1:2,0:2:0:0:
391,86,153035,1,0,0:2:0:0:
291,384,153208,2,0,L|275:329,1,56.7599998267822,10|0,0:2|0:2,0:2:0:0:
248,252,153554,2,0,L|232:197,1,56.7599998267822,2|0,0:2|0:2,0:2:0:0:
90,353,153899,5,2,1:2:0:0:
116,260,154072,1,0,0:2:0:0:
145,166,154245,1,0,1:2:0:0:
171,73,154418,1,2,0:2:0:0:
353,265,154591,2,0,L|314:135,1,113.519999653564,8|0,0:2|3:2,0:2:0:0:
238,359,155109,69,2,3:2:0:0:
234,340,155195,1,2,3:2:0:0:
230,321,155282,2,0,P|171:310|121:350,1,113.519999653564,0|2,1:2|1:2,0:2:0:0:
353,265,155974,2,0,P|407:277|454:248,1,113.519999653564,8|0,0:2|3:2,0:2:0:0:
248,196,156665,5,0,1:2:0:0:
321,379,156838,1,2,3:2:0:0:
128,337,157011,1,0,1:2:0:0:
163,138,157184,1,2,3:2:0:0:
0,275,157357,2,0,L|114:234,1,113.519999653564,8|0,0:2|3:2,0:2:0:0:
289,34,158048,70,0,L|274:104,1,56.7599998267822,0|0,1:2|0:2,0:2:0:0:
358,112,158395,2,0,L|369:56,1,56.7599998267822,2|0,1:2|0:2,0:2:0:0:
198,58,158740,6,0,L|183:128,1,56.7599998267822,10|0,0:2|0:2,0:2:0:0:
453,82,159087,2,0,L|464:26,1,56.7599998267822,2|0,3:2|0:2,0:2:0:0:
281,225,159432,70,0,P|261:260|268:301,1,56.7599998267822,2|0,1:2|0:2,0:2:0:0:
415,235,159778,2,0,P|394:200|355:185,1,56.7599998267822,0|2,1:2|0:2,0:2:0:0:
338,352,160123,2,0,P|378:351|410:325,1,56.7599998267822,8|0,0:2|0:2,0:2:0:0:
317,129,160469,5,2,3:2:0:0:
307,112,160555,1,2,3:2:0:0:
293,98,160641,1,2,3:2:0:0:
276,89,160728,1,2,3:2:0:0:
256,86,160815,70,0,L|137:116,1,113.519999653564,0|0,1:2|1:2,0:2:0:0:
65,263,161333,2,0,P|58:252|53:228,1,28.3799999133911,0|0,0:2|0:2,0:2:0:0:
121,120,161506,2,0,B|116:171|74:192|74:192|73:253|122:293,1,198.659999393738,8|0,0:2|0:2,0:2:0:0:
163,224,162198,6,0,L|219:238,1,56.7599998267822,2|0,1:2|0:2,0:2:0:0:
195,328,162543,2,0,L|251:342,1,56.7599998267822,2|0,1:2|0:2,0:2:0:0:
328,384,162889,70,0,B|329:332|380:302|380:302|316:301|295:263,1,198.659999393738,8|0,0:2|0:2,0:2:0:0:
231,203,163581,6,0,L|305:180,1,56.7599998267822,0|0,1:2|0:2,0:2:0:0:
176,119,163927,2,0,L|250:96,1,56.7599998267822,0|2,1:2|0:2,0:2:0:0:
440,38,164272,70,0,L|432:65,1,28.3799999133911,10|0,0:2|0:2,0:2:0:0:
407,137,164445,2,0,L|399:165,1,28.3799999133911,2|0,0:2|0:2,0:2:0:0:
404,276,164618,6,0,B|449:298|480:223|467:181|410:140|315:193|316:255,1,273.910009194977,2|0,0:2|0:2,0:2:0:0:
319,272,165309,22,0,L|327:314,1,43.429999138504,2|0,1:2|0:2,0:2:0:0:
431,365,165482,70,0,B|480:264|380:219|376:224|371:228|299:201|293:111|308:76|402:18|456:76,1,429.570010487549,2|0,0:2|0:2,0:2:0:0:
458,128,166347,54,0,L|392:145,1,56.7599998267822,6|0,1:2|0:2,0:2:0:0:
251,118,166693,2,0,L|306:104,1,56.7599998267822,0|0,1:2|0:2,0:2:0:0:
501,210,167039,6,0,L|435:227,1,56.7599998267822,8|0,0:2|0:2,0:2:0:0:
242,202,167385,2,0,L|297:188,1,56.7599998267822,0|0,3:2|0:2,0:2:0:0:
309,371,167730,69,2,1:2:0:0:
369,268,167903,1,0,3:2:0:0:
154,233,168076,1,0,1:2:0:0:
162,384,168249,1,0,3:2:0:0:
242,202,168422,2,0,L|218:128,1,61.0599969253847,8|0,0:2|0:2,0:2:0:0:
52,303,168768,2,0,L|71:362,1,61.0599969253847,0|0,3:2|0:2,0:2:0:0:
312,148,169113,6,0,P|354:129|380:128,1,65.3599992021484,2|0,1:2|0:2,0:2:0:0:
152,196,169459,2,0,P|110:215|84:216,1,65.3599992021484,0|0,1:2|0:2,0:2:0:0:
264,266,169805,2,0,P|283:308|284:334,1,65.3599992021484,8|0,0:2|0:2,0:2:0:0:
210,85,170151,2,0,P|191:43|190:18,1,65.3599992021484,0|0,3:2|0:2,0:2:0:0:
416,28,170496,69,2,1:2:0:0:
312,148,170669,1,0,3:2:0:0:
462,219,170842,1,0,1:2:0:0:
377,378,171015,1,0,3:2:0:0:
233,293,171188,6,0,L|352:258,1,98.0399988032227,8|0,0:2|0:2,0:2:0:0:
357,283,171534,70,0,L|363:250,1,32.6799996010742,0|0,3:2|0:2,0:2:0:0:
318,187,171707,2,0,L|325:155,1,32.6799996010742,0|0,3:2|0:2,0:2:0:0:
354,64,171879,22,0,P|303:126|194:105,1,162.539995039673,6|0,1:2|0:2,0:2:0:0:
136,167,172225,2,0,P|78:113|0:121,1,162.539995039673,0|0,3:2|0:2,0:2:0:0:
0,223,172571,6,0,L|17:281,1,60.6299969007799,10|0,0:2|0:2,0:2:0:0:
93,281,172744,2,0,L|75:223,1,60.6299969007799,0|0,3:2|0:2,0:2:0:0:
66,380,172917,70,0,B|92:345|138:356|139:358|140:360|192:373|234:330,1,162.539995039673,0|0,1:2|0:2,0:2:0:0:
281,297,173263,5,2,3:2:0:0:
432,110,173435,1,0,0:2:0:0:
327,236,173608,70,0,L|313:178,1,60.6299969007799,0|0,1:2|0:2,0:2:0:0:
392,173,173781,2,0,L|407:232,1,60.6299969007799,0|0,0:2|0:2,0:2:0:0:
371,360,173954,6,0,B|394:302|437:286|520:326|485:372|450:364|448:343,1,181.88999070234,8|0,0:2|0:2,0:2:0:0:
371,360,174300,70,0,B|310:345|310:345|289:316|289:316|226:304,1,162.539995039673,2|0,3:2|0:2,0:2:0:0:
160,352,174646,5,0,1:2:0:0:
312,177,174818,1,0,0:2:0:0:
150,91,174991,1,2,3:2:0:0:
226,304,175163,1,0,0:2:0:0:
201,150,175337,70,0,L|223:212,1,60.6299969007799,10|0,0:2|0:2,0:2:0:0:
159,248,175510,2,0,L|139:191,1,60.6299969007799,0|0,0:2|0:2,0:2:0:0:
84,36,175683,6,0,B|99:78|66:111|64:109|61:107|30:141|41:186,1,162.539995039673,2|0,1:2|0:2,0:2:0:0:
76,250,176029,1,2,3:2:0:0:
176,68,176201,1,0,0:2:0:0:
226,304,176374,1,2,1:2:0:0:
336,102,176547,69,0,1:2:0:0:
336,102,176634,1,0,1:2:0:0:
336,102,176720,2,0,B|397:156|505:159|505:159|397:156|313:220,1,363.779981404679,10|0,0:2|1:2,0:2:0:0:
277,149,177325,5,0,1:2:0:0:
261,138,177412,2,0,P|230:187|233:242,1,108.359996693115,6|0,1:2|0:2,0:2:0:0:
415,368,177757,2,0,P|445:318|442:263,1,108.359996693115,0|0,3:2|0:2,0:2:0:0:
261,138,178103,2,0,P|230:187|233:242,1,108.359996693115,10|0,0:2|0:2,0:2:0:0:
415,368,178448,2,0,P|445:318|442:263,1,108.359996693115,2|0,1:2|0:2,0:2:0:0:
261,138,178795,69,2,3:2:0:0:
153,198,178968,1,0,0:2:0:0:
149,320,179140,1,0,1:2:0:0:
252,381,179313,5,0,1:2:0:0:
252,381,179400,1,0,1:2:0:0:
252,381,179486,2,0,B|290:364|296:307|296:307|326:355|371:360,1,181.88999070234,8|0,0:2|0:2,0:2:0:0:
434,289,179832,70,0,B|468:316|458:367|458:367|466:310|407:287,1,162.539995039673,2|0,3:2|0:2,0:2:0:0:
361,251,180178,6,0,L|371:202,1,46.4400011337891,0|0,1:2|0:2,0:2:0:0:
388,127,180523,1,2,3:2:0:0:
200,303,180696,1,0,0:2:0:0:
255,72,180869,70,0,P|280:134|279:144,1,60.6299969007799,10|0,0:2|0:2,0:2:0:0:
189,143,181042,2,0,P|163:205|156:211,1,60.6299969007799,0|0,0:2|0:2,0:2:0:0:
121,65,181215,1,2,1:2:0:0:
159,376,181561,6,0,P|184:314|183:304,1,60.6299969007799,2|0,3:2|0:2,0:2:0:0:
93,305,181734,2,0,P|67:244|60:238,1,60.6299969007799,0|0,0:2|0:2,0:2:0:0:
25,383,181907,1,2,1:2:0:0:
324,217,182252,70,0,B|369:189|439:224|459:288|469:343|428:387|386:384|354:353|352:296|401:262|490:293,1,363.779981404679,10|0,0:2|1:2,0:2:0:0:
487,209,182857,1,0,1:2:0:0:
481,185,182944,6,0,P|462:123|464:68,1,108.359996693115,6|0,1:2|0:2,0:2:0:0:
270,278,183289,2,0,P|271:331|288:383,1,108.359996693115,0|0,3:2|0:2,0:2:0:0:
84,149,183635,69,10,0:2:0:0:
47,299,183808,1,0,0:2:0:0:
249,179,183981,1,2,1:2:0:0:
147,40,184154,1,0,0:2:0:0:
97,200,184327,6,0,L|77:133,1,54.1799983465577,2|0,3:2|0:2,0:2:0:0:
147,118,184500,2,0,L|162:169,1,54.1799983465577,0|0,0:2|0:2,0:2:0:0:
208,315,184673,1,0,1:2:0:0:
279,116,184846,1,0,0:2:0:0:
201,336,185018,70,0,B|272:321|272:321|292:284|292:284|376:264,1,181.88999070234,8|0,0:2|0:2,0:2:0:0:
415,320,185364,2,0,B|440:299|492:311|492:311|443:292|435:255,1,162.539995039673,2|0,3:2|0:2,0:2:0:0:
387,197,185710,6,0,L|380:161,1,33.5399997952881,0|0,1:2|0:2,0:2:0:0:
370,91,186056,1,2,3:2:0:0:
258,281,186229,1,0,0:2:0:0:
204,81,186401,70,0,P|175:101|159:134,1,60.6299969007799,10|0,0:2|0:2,0:2:0:0:
91,143,186574,2,0,P|86:176|98:212,1,60.6299969007799,0|0,0:2|0:2,0:2:0:0:
258,281,186747,6,0,B|217:237|176:239|176:239|161:289|81:289,1,162.539995039673,2|0,1:2|0:2,0:2:0:0:
45,271,187093,1,2,3:2:0:0:
196,347,187266,1,0,0:2:0:0:
304,201,187438,2,0,P|334:205|358:221,1,54.1799983465577,2|0,1:2|0:0,0:0:0:0:
418,160,187611,2,0,P|436:184|442:212,1,54.1799983465577,0|0,0:2|0:0,0:0:0:0:
512,278,187784,70,0,P|387:244|190:219,1,303.149984503899,10|0,0:2|0:2,0:2:0:0:
191,241,188303,2,0,L|172:173,1,54.1799983465577,0|0,0:2|0:2,0:2:0:0:
95,85,188476,6,0,B|99:3|99:3|162:52|162:52|252:25|252:25|212:109|212:109|266:184|266:184|170:168|170:168|107:248|107:248|99:162|99:162|15:123|15:123|95:85,1,903.000034446718,6|2,1:2|0:0,0:0:0:0:
299,350,194008,6,0,B|283:292|333:211|420:258|395:308,1,181.88999070234,6|0,1:2|0:2,0:2:0:0:
395,374,194354,2,0,P|364:281|360:184,1,194.789997770805,0|0,3:2|0:2,0:2:0:0:
340,112,194700,6,0,B|387:87|399:30|399:30|387:87|410:132,1,207.69000031691,8|0,0:2|0:2,0:2:0:0:
340,112,195045,70,0,B|299:140|299:140|251:128,1,98.0399988032227,0|0,3:2|0:2,0:2:0:0:
206,64,195391,6,0,P|181:82|176:127,1,60.6299969007799,0|0,1:2|0:2,0:2:0:0:
100,136,195564,2,0,P|109:166|149:186,1,60.6299969007799,0|0,3:2|0:2,0:2:0:0:
92,257,195737,70,0,P|160:265|217:200,1,143.19000349585,0|0,1:2|0:2,0:2:0:0:
295,219,196083,6,0,B|347:243|419:202|419:202|435:249|493:277,1,207.69000031691,8|0,0:2|0:2,0:2:0:0:
466,261,196428,2,0,B|487:310|487:310|453:353,1,98.0399988032227,0|0,3:2|0:2,0:2:0:0:
372,362,196774,70,0,B|329:314|278:346|281:351|284:357|225:380|183:331,1,181.88999070234,2|0,1:2|0:2,0:2:0:0:
194,326,197120,2,0,B|225:365|284:342|281:336|278:331|331:306|378:347,1,194.789997770805,0|0,3:2|0:2,0:2:0:0:
386,258,197466,6,0,B|340:236|347:167|347:167|316:226|238:222,1,207.69000031691,8|0,0:2|0:2,0:2:0:0:
266,221,197811,70,0,B|219:232|219:232|178:204,1,98.0399988032227,0|0,3:2|0:2,0:2:0:0:
115,261,198157,6,0,P|93:231|99:185,1,60.6299969007799,0|0,1:2|0:2,0:2:0:0:
0,204,198330,2,0,P|9:168|49:142,1,60.6299969007799,0|0,3:2|0:2,0:2:0:0:
15,66,198503,70,0,L|170:102,1,143.19000349585,0|0,1:2|0:2,0:2:0:0:
236,71,198849,2,0,P|293:45|391:50,1,138.460000211273,8|0,0:2|0:2,0:2:0:0:
246,288,199194,2,0,P|177:287|114:260,1,138.460000211273,0|0,3:2|0:2,0:2:0:0:
375,179,199540,6,0,B|422:166|430:111|430:111|483:117|494:172,1,181.88999070234,6|0,1:2|0:2,0:2:0:0:
454,237,199886,70,0,P|370:204|245:192,1,194.789997770805,0|0,3:2|0:2,0:2:0:0:
212,137,200232,6,0,B|235:94|223:37|223:37|235:94|282:119,1,207.69000031691,8|0,0:2|0:2,0:2:0:0:
212,137,200577,70,0,B|171:165|171:165|124:154,1,98.0399988032227,0|0,3:2|0:2,0:2:0:0:
72,217,200923,6,0,P|52:196|45:150,1,60.6299969007799,0|0,1:2|0:2,0:2:0:0:
84,297,201096,2,0,P|55:296|17:268,1,60.6299969007799,0|0,3:2|0:2,0:2:0:0:
134,360,201269,70,0,B|197:314|212:382|297:305,1,143.19000349585,0|0,1:2|0:2,0:2:0:0:
338,288,201615,6,0,B|361:331|349:388|349:388|361:331|408:306,1,207.69000031691,8|0,0:2|0:2,0:2:0:0:
338,288,201960,70,0,B|308:248|308:248|321:180,1,98.0399988032227,0|0,3:2|0:2,0:2:0:0:
396,132,202306,6,0,B|320:98,1,60.6299969007799,2|0,1:2|0:2,0:2:0:0:
302,93,202479,2,0,B|246:117,1,60.6299969007799,0|0,3:2|0:2,0:2:0:0:
229,145,202652,2,0,B|58:88,1,143.19000349585,0|0,1:2|0:2,0:2:0:0:
396,132,202998,70,0,B|320:98,1,60.6299969007799,10|0,0:2|0:2,0:2:0:0:
302,93,203171,2,0,B|246:117,1,60.6299969007799,0|0,3:2|0:2,0:2:0:0:
229,145,203344,2,0,B|58:88,1,143.19000349585,0|0,3:2|0:2,0:2:0:0:
20,49,203689,6,0,P|4:101|51:176,1,112.660002062866,2|0,1:2|0:2,0:2:0:0:
117,384,204035,70,0,P|132:330|113:279,1,112.660002062866,2|0,3:2|0:2,0:2:0:0:
229,145,204381,5,8,0:2:0:0:
305,354,204554,1,0,3:2:0:0:
309,222,204726,70,0,L|302:258,1,26.2299989193573,0|0,3:2|0:2,0:2:0:0:
225,270,204899,2,0,L|230:245,1,26.2299989193573,0|0,3:2|0:2,0:2:0:0:
423,345,205072,6,0,B|385:321|391:273|391:273|430:230|397:150,1,181.88999070234,6|0,1:2|0:2,0:2:0:0:
494,164,205418,2,0,B|413:97|395:215|289:116,1,194.789997770805,0|0,3:2|0:2,0:2:0:0:
222,177,205764,70,0,B|186:126|245:77|245:77|200:130|250:184,1,207.69000031691,8|0,0:2|0:2,0:2:0:0:
222,177,206110,6,0,B|238:231|238:231|235:231|235:231|251:285,1,98.0399988032227,0|0,3:2|0:2,0:2:0:0:
191,330,206455,70,0,L|120:356,1,60.6299969007799,0|0,1:2|0:2,0:2:0:0:
82,289,206628,2,0,L|138:268,1,60.6299969007799,0|0,3:2|0:2,0:2:0:0:
141,190,206801,2,0,B|155:137|147:91|147:91|153:123|177:138,1,143.19000349585,0|0,1:2|0:2,0:2:0:0:
226,191,207147,6,0,B|317:114|324:253|445:127,1,207.69000031691,8|0,0:2|0:2,0:2:0:0:
417,153,207493,70,0,B|406:115|406:115|409:115|409:115|393:61,1,98.0399988032227,0|0,3:2|0:2,0:2:0:0:
339,9,207838,5,2,1:2:0:0:
488,92,208011,1,2,0:2:0:0:
405,241,208184,70,0,B|364:241|339:201|339:201|269:212|265:278,1,194.789997770805,0|0,3:2|0:2,0:2:0:0:
312,343,208530,2,0,P|301:262|257:126,1,207.69000031691,8|0,0:2|0:2,0:2:0:0:
263,141,208876,6,0,B|219:132|219:132|221:130|221:130|165:119,1,98.0399988032227,0|0,3:2|0:2,0:2:0:0:
112,54,209221,70,0,P|85:116|91:136,1,60.6299969007799,0|0,1:2|0:2,0:2:0:0:
16,157,209394,2,0,P|40:219|59:229,1,60.6299969007799,0|0,3:2|0:2,0:2:0:0:
9,291,209567,2,0,P|69:328|152:301,1,143.19000349585,0|0,1:2|0:2,0:2:0:0:
240,346,209913,6,0,B|276:295|217:246|217:246|263:295|221:356,1,207.69000031691,8|0,0:2|0:2,0:2:0:0:
170,384,210259,1,0,3:2:0:0:
413,200,210432,1,2,0:2:0:0:
413,192,210518,1,2,0:2:0:0:
415,185,210604,70,0,B|387:129|336:125|336:125|323:178|270:185,1,181.88999070234,6|0,1:2|0:2,0:2:0:0:
256,105,210950,2,0,P|171:58|75:51,1,194.789997770805,0|0,3:2|0:2,0:2:0:0:
18,130,211296,6,0,B|-36:99|-5:30|-5:30|-22:97|46:124,1,207.69000031691,8|0,0:2|0:2,0:2:0:0:
18,130,211642,70,0,B|10:185|10:185|13:185|13:185|8:223,1,98.0399988032227,0|0,3:2|0:2,0:2:0:0:
32,306,211987,6,0,P|61:278|106:279,1,60.6299969007799,0|0,1:2|0:2,0:2:0:0:
92,198,212160,2,0,P|132:199|163:232,1,60.6299969007799,0|0,3:2|0:2,0:2:0:0:
202,153,212333,2,0,P|229:182|207:312,1,143.19000349585,0|0,1:2|0:2,0:2:0:0:
151,378,212679,70,0,B|223:332|223:332|265:371|265:371|339:356,1,207.69000031691,8|0,0:2|0:2,0:2:0:0:
328,358,213025,6,0,B|333:319|333:319|330:320|330:320|337:264,1,98.0399988032227,0|0,3:2|0:2,0:2:0:0:
343,188,213371,69,0,1:2:0:0:
427,328,213543,1,2,0:2:0:0:
237,230,213716,1,0,3:2:0:0:
366,89,213888,1,2,0:2:0:0:
452,197,214062,2,0,B|374:178|374:178|351:137|351:137|272:120,1,207.69000031691,8|0,0:2|0:2,0:2:0:0:
272,120,214408,6,0,B|277:81|277:81|274:82|274:82|281:26,1,98.0399988032227,0|0,3:2|0:2,0:2:0:0:
190,65,214754,2,0,P|123:90|56:97,1,112.660002062866,0|0,1:2|0:2,0:2:0:0:
366,89,215099,2,0,P|433:64|500:57,1,112.660002062866,0|0,1:2|0:2,0:2:0:0:
303,263,215445,70,0,B|255:298|249:352|249:352|238:300|180:251,1,207.69000031691,8|0,0:2|0:2,0:2:0:0:
198,268,215791,6,0,P|201:237|206:261,1,98.0399988032227,0|0,3:2|0:2,0:2:0:0:
139,329,216137,70,0,P|101:269|104:260,1,60.6299969007799,6|0,1:2|0:2,0:2:0:0:
12,290,216310,2,0,P|27:220|36:216,1,60.6299969007799,0|0,0:2|0:2,0:2:0:0:
94,191,216482,2,0,B|83:139|83:139|86:135|86:135|65:31,1,121.25999380156,0|0,1:2|0:2,0:2:0:0:
68,50,216742,1,0,0:2:0:0:
68,50,216828,1,8,0:2:0:0:
194,145,217001,1,0,0:2:0:0:
305,87,217174,6,0,P|361:60|452:69,1,143.19000349585,2|0,3:2|0:2,0:2:0:0:
472,84,217520,69,0,1:2:0:0:
421,170,217693,1,0,0:2:0:0:
484,318,217866,5,0,1:2:0:0:
387,284,218038,1,0,0:2:0:0:
192,363,218211,69,8,0:2:0:0:
255,276,218384,1,0,0:2:0:0:
142,193,218557,6,0,P|120:139|140:84,1,95.4600023305665,0|0,3:2|0:2,0:2:0:0:
138,79,218816,1,0,0:2:0:0:
138,79,218903,70,0,L|302:110,1,121.25999380156,0|0,1:2|0:2,0:2:0:0:
374,298,219249,2,0,L|254:275,1,121.25999380156,2|0,1:2|0:2,0:2:0:0:
392,122,219594,6,0,L|415:185,1,60.6299969007799,10|0,0:2|0:2,0:2:0:0:
489,167,219767,2,0,L|468:110,1,60.6299969007799,0|0,0:2|0:2,0:2:0:0:
412,49,219940,1,2,3:2:0:0:
309,194,220113,1,0,0:2:0:0:
180,77,220286,70,0,L|201:134,1,60.6299969007799,2|0,1:2|0:2,0:2:0:0:
124,146,220459,2,0,L|103:89,1,60.6299969007799,0|0,0:2|0:2,0:2:0:0:
122,16,220632,1,0,1:2:0:0:
39,256,220804,5,2,0:2:0:0:
39,256,220891,1,2,0:2:0:0:
39,256,220977,70,0,B|79:245|113:278|113:278|175:195|283:209|315:232|313:313|228:350|155:321|224:166,1,484.610000739456,10|0,0:2|0:2,0:2:0:0:
249,179,221669,6,0,L|230:80,1,87.7200005354004,6|0,1:2|1:2,0:2:0:0:
512,317,222360,2,0,L|493:218,1,87.7200005354004,8|2,0:2|3:2,0:2:0:0:
148,356,223052,70,0,L|140:323,1,21.9300001338501,0|0,1:2|0:2,0:2:0:0:
217,334,223225,2,0,L|209:301,1,21.9300001338501,0|0,0:2|0:2,0:2:0:0:
291,350,223398,2,0,L|272:251,2,87.7200005354004,0|8|0,1:2|0:2|3:2,0:2:0:0:
3,173,224435,6,0,B|5:166|3:155|3:155|8:164|17:170,1,33.5399997952881,0|0,1:2|0:2,0:2:0:0:
46,233,224781,70,0,B|54:249|54:266|54:266|59:250|78:236,1,65.7900004015503,2|0,1:2|0:2,0:2:0:0:
120,184,225127,6,0,B|135:164|133:137|133:137|140:163|171:183,1,98.0399988032227,10|0,0:2|0:2,0:2:0:0:
195,246,225472,70,0,B|210:284|207:312|207:312|214:285|259:250,1,130.289997415512,2|0,3:2|0:2,0:2:0:0:
276,180,225818,6,0,B|317:162|334:121|334:121|328:165|377:217,1,162.539995039673,2|0,1:2|0:2,0:2:0:0:
420,254,226164,70,0,B|470:274|487:321|487:321|482:273|513:216,1,194.789997770805,0|0,1:2|0:2,0:2:0:0:
447,184,226510,5,10,0:2:0:0:
288,372,226682,1,0,0:2:0:0:
112,176,226855,70,0,P|151:225|151:233,1,60.6299969007799,0|0,3:2|0:2,0:2:0:0:
85,270,227028,2,0,P|46:221|46:213,1,60.6299969007799,0|0,0:2|0:2,0:2:0:0:
142,97,227201,6,0,P|106:284|102:386,2,276.920000422546,6|0|8,1:2|1:2|0:2,0:2:0:0:
405,347,228238,1,2,3:2:0:0:
218,209,228584,2,0,P|207:244|204:279,1,60.6299969007799,0|0,1:2|0:2,0:2:0:0:
280,286,228757,2,0,P|284:256|293:227,1,60.6299969007799,0|0,0:2|0:2,0:2:0:0:
275,111,228930,70,0,P|239:298|235:400,2,276.920000422546,0|8|0,1:2|0:2|3:2,0:2:0:0:
512,61,229967,6,0,B|455:61|427:-8|427:-8|453:63|392:135,1,227.040006928711,0|0,1:2|0:2,0:2:0:0:
340,25,230313,2,0,B|305:59|248:34|248:34|305:61|312:140,1,194.789997770805,2|0,1:2|0:2,0:2:0:0:
214,120,230659,2,0,B|213:159|166:178|166:178|215:160|264:202,1,162.539995039673,10|0,0:2|0:2,0:2:0:0:
200,256,231004,2,0,B|222:278|206:317|206:317|224:278|277:274,1,130.289997415512,2|0,3:2|0:2,0:2:0:0:
278,351,231350,2,0,B|302:351|315:381|315:381|303:350|330:318,1,98.0399988032227,2|0,1:2|0:2,0:2:0:0:
391,362,231696,2,0,B|403:349|424:358|424:358|403:348|401:319,1,65.7900004015503,0|0,1:2|0:2,0:2:0:0:
469,297,232042,70,0,B|471:276|493:268|493:268|471:276|449:257,1,78.2599995223389,10|0,0:2|0:2,0:2:0:0:
380,223,232733,6,0,L|309:200,1,60.6299969007799,4|0,1:2|0:2,0:2:0:0:
312,108,232906,2,0,L|245:141,1,60.6299969007799,0|0,0:2|0:2,0:2:0:0:
196,47,233079,2,0,L|144:235,1,181.88999070234,0|0,1:2|0:2,0:2:0:0:
121,297,233425,1,8,0:2:0:0:
7,127,233598,69,0,3:2:0:0:
7,127,233684,1,0,3:2:0:0:
7,127,233771,2,0,P|85:99|149:141,1,143.19000349585,0|0,0:2|0:2,0:2:0:0:
227,173,234116,6,0,B|307:149|307:149|321:157|321:157|416:133,1,181.88999070234,0|0,1:2|0:2,0:2:0:0:
397,125,234462,2,0,B|317:145|317:145|303:137|303:137|223:161,1,181.88999070234,0|0,1:2|0:2,0:2:0:0:
152,215,234808,69,8,0:2:0:0:
222,70,234981,1,0,0:2:0:0:
294,249,235154,1,0,3:2:0:0:
159,343,235326,2,0,B|140:338|133:322|133:322|144:337|166:339,1,60.6299969007799,0|0,0:2|0:2,0:2:0:0:
247,344,235499,6,0,B|276:285|339:281|339:281|354:327|407:334,1,181.88999070234,0|0,1:2|0:2,0:2:0:0:
469,311,235845,70,0,B|488:306|495:290|495:290|484:305|462:307,1,60.6299969007799,2|0,1:2|0:2,0:2:0:0:
426,228,236018,2,0,B|435:211|429:194|429:194|432:213|418:230,1,60.6299969007799,0|0,0:2|0:2,0:2:0:0:
335,205,236191,1,10,0:2:0:0:
469,123,236364,1,0,0:2:0:0:
371,40,236537,1,2,3:2:0:0:
254,127,236710,5,0,0:2:0:0:
254,127,236796,1,0,0:2:0:0:
254,127,236882,2,0,B|212:72|146:100|149:110|151:121|83:127|48:75,1,228.75999720752,2|0,1:2|0:2,0:2:0:0:
52,98,237574,70,0,B|83:134|149:135|147:126|145:116|206:91|246:143,1,207.69000031691,10|0,0:2|0:2,0:2:0:0:
238,156,237920,2,0,B|201:108|140:133|143:143|144:152|78:151|47:115,1,207.69000031691,0|0,3:2|0:2,0:2:0:0:
5,186,238265,6,0,L|28:290,1,87.7200005354004,6|0,1:2|0:2,0:2:0:0:
342,20,238957,2,0,L|365:124,1,87.7200005354004,8|2,0:2|0:2,0:2:0:0:
247,356,239648,70,0,L|238:320,1,21.9300001338501,0|0,1:2|0:2,0:2:0:0:
306,290,239821,2,0,L|311:311,1,21.9300001338501,0|0,0:2|0:2,0:2:0:0:
392,342,239994,2,0,L|373:256,2,87.7200005354004,0|8|0,1:2|0:2|3:2,0:2:0:0:
512,232,241032,6,0,P|518:222|508:230,1,33.5399997952881,0|0,1:2|0:2,0:2:0:0:
457,162,241377,70,0,P|451:140|448:164,1,65.7900004015503,2|0,1:2|0:2,0:2:0:0:
357,132,241723,6,0,P|327:114|351:143,1,98.0399988032227,10|0,0:2|0:2,0:2:0:0:
267,202,242069,70,0,P|232:168|255:216,1,130.289997415512,2|0,3:2|0:2,0:2:0:0:
155,330,242415,6,0,P|167:264|130:319,1,162.539995039673,2|0,1:2|0:2,0:2:0:0:
19,270,242760,70,0,P|5:194|47:257,1,194.789997770805,0|0,1:2|0:2,0:2:0:0:
179,185,243106,6,0,P|194:102|148:171,1,227.040006928711,10|0,0:2|0:2,0:2:0:0:
178,144,243452,1,0,3:2:0:0:
281,331,243625,1,0,0:2:0:0:
438,148,243798,69,6,1:2:0:0:
438,148,243971,1,0,0:2:0:0:
346,202,244143,1,0,1:2:0:0:
346,202,244316,1,0,0:2:0:0:
191,60,244489,1,8,0:2:0:0:
191,60,244662,1,0,0:2:0:0:
99,114,244834,1,0,3:2:0:0:
99,114,245007,1,0,0:2:0:0:
236,292,245181,1,0,1:2:0:0:
236,292,245354,1,0,0:2:0:0:
146,255,245526,1,0,1:2:0:0:
146,255,245699,1,0,0:2:0:0:
281,97,245872,1,8,0:2:0:0:
281,97,246045,1,0,0:2:0:0:
191,60,246217,1,0,3:2:0:0:
191,60,246390,1,0,0:2:0:0:
346,202,246564,6,0,P|379:185|416:180,1,65.7900004015503,0|0,1:2|0:2,0:2:0:0:
461,125,246909,2,0,B|459:104|468:74|468:74|459:104|435:118,1,98.0399988032227,2|0,1:2|0:2,0:2:0:0:
338,74,247255,70,0,L|323:7,1,60.6299969007799,10|0,0:2|0:2,0:2:0:0:
254,21,247428,2,0,L|267:80,1,60.6299969007799,0|0,0:2|0:2,0:2:0:0:
223,175,247601,6,0,B|225:196|216:226|216:226|225:196|244:186,1,98.0399988032227,2|0,3:2|0:2,0:2:0:0:
322,291,247947,70,0,L|337:358,1,60.6299969007799,0|0,1:2|0:2,0:2:0:0:
406,344,248120,2,0,L|392:284,1,60.6299969007799,0|0,0:2|0:2,0:2:0:0:
253,342,248293,1,2,1:2:0:0:
467,284,248465,1,0,0:2:0:0:
253,342,248638,2,0,B|202:327|165:270|165:270|119:310|33:304,1,242.51998760312,8|0,0:2|3:2,0:2:0:0:
148,384,249157,1,2,0:2:0:0:
148,384,249243,1,2,0:2:0:0:
148,384,249330,1,4,1:2:0:0:
276,238,249680,22,0,L|262:185,1,43.8600002677002,2|0,0:2|0:2,0:2:0:0:
144,209,250031,2,0,L|202:226,1,43.8600002677002,2|0,0:2|0:2,0:2:0:0:
231,109,250382,2,0,L|186:152,1,43.8600002677002,2|0,0:2|0:2,0:2:0:0:
42,103,250733,6,0,B|21:93|21:93|54:78|54:78|57:44|57:44|82:75|82:75|120:70|120:70|98:99|98:99|114:131|114:131|79:121|79:121|53:144|53:144|53:108,1,352.600005380249,2|0,0:2|0:2,0:2:0:0:
33,223,252838,70,0,L|24:264,1,35.2600005380249,2|0,0:2|0:2,0:2:0:0:
94,291,253189,2,0,L|101:256,1,35.2600005380249,2|0,0:2|0:2,0:2:0:0:
178,238,253540,2,0,L|156:348,1,105.780001614075,2|0,0:2|0:2,0:2:0:0:
241,310,254242,2,0,P|281:330|341:309,1,105.780001614075,2|0,0:2|0:2,0:2:0:0:
411,258,254944,5,2,0:2:0:0:
59,129,255645,2,0,B|128:74|211:124|181:152|244:195|328:133,1,282.080004304199,2|2,0:2|0:2,0:2:0:0:
458,48,257575,2,0,L|452:80,1,17.6300002690125,0|0,0:2|0:2,0:2:0:0:
444,81,257751,70,0,L|452:130,3,44.7199997270508,2|0|0|0,0:2|0:2|0:2|0:2,0:2:0:0:
372,118,259154,6,0,L|380:167,1,44.7199997270508,2|0,0:2|0:2,0:2:0:0:
405,247,259856,70,0,P|380:232|338:234,1,67.0799995905762,2|0,0:2|0:2,0:2:0:0:
145,124,260558,22,0,B|194:132|231:109|231:109|312:88|297:29|230:43|231:109|231:109|229:175|174:314|88:293|81:216|132:177|183:237|183:237|183:237|183:237|212:289|287:292|287:292|279:269|223:216|267:166|310:220|310:220|350:172|383:191|392:264|302:256|319:369,1,1073.2800360293,6|0,0:2|0:2,0:2:0:0:
