osu file format v14

[General]
AudioFilename: audio.mp3
AudioLeadIn: 0
PreviewTime: 92
Countdown: 1
SampleSet: Soft
StackLeniency: 0.7
Mode: 0
LetterboxInBreaks: 0
WidescreenStoryboard: 0

[Editor]
Bookmarks: 26305,111498,137712,163925,222905
DistanceSpacing: 1
BeatDivisor: 4
GridSize: 32
TimelineZoom: 1

[Metadata]
Title:The Scientist
TitleUnicode:The Scientist
Artist:Coldplay
ArtistUnicode:Coldplay
Creator:Vulkin
Version:A Romantic Apology
Source:
Tags:A Rush of Blood to the Head Chris Martin Jonny Buckland Guy Berryman Will Champion Piano Ballad
BeatmapID:1858016
BeatmapSetID:888906

[Difficulty]
HPDrainRate:6
CircleSize:4.6
OverallDifficulty:6
ApproachRate:8
SliderMultiplier:1.2
SliderTickRate:1

[Events]
//Background and Video events
0,0,"ViewOfTheOcean.png",0,0
//Break Periods
2,111698,136962
//Storyboard Layer 0 (Background)
//Storyboard Layer 1 (Fail)
//Storyboard Layer 2 (Pass)
//Storyboard Layer 3 (Foreground)
//Storyboard Sound Samples

[TimingPoints]
92,819.168543927913,4,2,1,40,1,0
137712,-80,4,2,2,45,0,0
144060,-80,4,2,0,45,0,0
144265,-80,4,2,2,45,0,0
150614,-80,4,2,0,45,0,0
150819,-80,4,2,2,45,0,0
157167,-80,4,2,0,45,0,0
157372,-80,4,2,2,45,0,0
163720,-80,4,2,0,45,0,0
163925,-66.6666666666667,4,2,2,45,0,0
170274,-66.6666666666667,4,2,0,45,0,0
170479,-66.6666666666667,4,2,2,45,0,0
176827,-66.6666666666667,4,2,0,45,0,0
177032,-66.6666666666667,4,2,2,45,0,0

[Colours]
Combo1 : 128,128,255
Combo2 : 128,128,192

[HitObjects]
65,51,26305,6,0,L|70:120,1,60,2|0,0:0|0:0,0:0:0:0:
141,108,27124,2,0,L|136:177,1,60,2|0,0:0|0:0,0:0:0:0:
52,228,27943,2,0,P|107:279|112:290,1,60,2|2,0:0|0:0,0:0:0:0:
129,330,28762,1,0,0:0:0:0:
287,248,29172,2,0,P|217:253|168:271,1,120,2|0,0:0|0:0,0:0:0:0:
271,317,30401,2,0,P|220:324|195:333,1,60,2|0,0:0|0:0,0:0:0:0:
290,242,31220,6,0,P|326:265|342:290,1,60,2|2,0:0|0:0,0:0:0:0:
370,344,32039,1,0,0:0:0:0:
454,176,32449,2,0,P|444:235|405:283,1,120,2|0,0:0|0:0,0:0:0:0:
384,184,33677,2,0,P|377:213|353:231,1,60,2|0,0:0|0:0,0:0:0:0:
304,259,34292,1,0,0:0:0:0:
254,287,34497,6,0,L|177:285,1,60,2|2,0:0|0:0,0:0:0:0:
128,348,35316,1,0,0:0:0:0:
43,171,35725,2,0,P|80:187|100:274,1,120,2|2,0:0|0:0,0:0:0:0:
183,116,36954,2,0,L|100:126,1,60,0|2,0:0|0:0,0:0:0:0:
243,42,37773,2,0,P|274:88|267:158,1,120,2|2,0:0|0:0,0:0:0:0:
225,214,39002,1,0,0:0:0:0:
123,123,39412,6,0,L|132:194,1,60,2|0,0:0|0:0,0:0:0:0:
201,171,40231,2,0,L|192:242,1,60,2|0,0:0|0:0,0:0:0:0:
364,258,41050,2,0,P|337:270|320:295,1,60,2|2,0:0|0:0,0:0:0:0:
282,362,41869,1,0,0:0:0:0:
139,240,42279,2,0,P|197:258|251:305,1,120,2|0,0:0|0:0,0:0:0:0:
132,310,43507,2,0,P|170:321|190:341,1,60,2|0,0:0|0:0,0:0:0:0:
91,186,44327,6,0,P|72:213|66:240,1,60,2|2,0:0|0:0,0:0:0:0:
100,310,45146,1,0,0:0:0:0:
248,192,45555,2,0,P|191:209|144:245,1,120,2|0,0:0|0:0,0:0:0:0:
257,262,46784,2,0,P|216:273|193:294,1,60,2|0,0:0|0:0,0:0:0:0:
165,321,47398,1,0,0:0:0:0:
127,357,47603,6,0,L|54:362,1,60,2|2,0:0|0:0,0:0:0:0:
15,289,48422,1,0,0:0:0:0:
187,200,48832,2,0,P|134:227|97:274,1,120,2|2,0:0|0:0,0:0:0:0:
30,164,50061,2,0,L|101:176,1,60,0|2,0:0|0:0,0:0:0:0:
167,110,50880,2,0,P|187:154|160:244,1,120,2|2,0:0|0:0,0:0:0:0:
136,292,52109,1,0,0:0:0:0:
252,161,52518,6,0,L|263:229,1,60,2|0,0:0|0:0,0:0:0:0:
339,201,53337,2,0,L|328:269,1,60,2|0,0:0|0:0,0:0:0:0:
206,274,54157,2,0,P|240:290|260:312,1,60,2|2,0:0|0:0,0:0:0:0:
305,384,54976,1,0,0:0:0:0:
445,246,55385,2,0,P|388:264|341:299,1,120,2|0,0:0|0:0,0:0:0:0:
455,315,56614,2,0,P|419:326|397:341,1,60,2|0,0:0|0:0,0:0:0:0:
361,356,57229,1,0,0:0:0:0:
321,373,57433,6,0,L|241:358,1,60,2|2,0:0|0:0,0:0:0:0:
181,384,58252,1,0,0:0:0:0:
133,209,58662,2,0,P|178:248|203:303,1,120,2|0,0:0|0:0,0:0:0:0:
298,182,59891,2,0,L|230:190,1,60,2|0,0:0|0:0,0:0:0:0:
143,310,60710,2,0,L|202:302,1,60,2|2,0:0|0:0,0:0:0:0:
281,372,61529,1,0,0:0:0:0:
301,269,61939,5,2,0:0:0:0:
301,269,62758,6,0,P|343:253|426:271,1,120,2|2,0:0|0:0,0:0:0:0:
429,165,63987,2,0,P|470:183|515:254,1,120,2|2,0:0|0:0,0:0:0:0:
483,338,65215,1,0,0:0:0:0:
321,165,65625,6,0,L|314:239,1,60,2|0,0:0|0:0,0:0:0:0:
244,221,66444,2,0,L|251:295,1,60,2|0,0:0|0:0,0:0:0:0:
375,269,67263,2,0,P|350:285|330:308,1,60,2|2,0:0|0:0,0:0:0:0:
265,363,68082,1,0,0:0:0:0:
144,232,68492,2,0,P|202:244|249:280,1,120,2|0,0:0|0:0,0:0:0:0:
147,300,69721,2,0,P|182:312|201:330,1,60,2|0,0:0|0:0,0:0:0:0:
134,158,70540,2,0,P|88:183|80:212,1,60,2|2,0:0|0:0,0:0:0:0:
32,252,71359,1,0,0:0:0:0:
79,86,71769,6,0,P|30:121|3:174,1,120,2|0,0:0|0:0,0:0:0:0:
111,148,72998,2,0,P|75:175|64:200,1,60,2|0,0:0|0:0,0:0:0:0:
65,20,73817,2,0,P|109:25|136:48,1,60,2|2,0:0|0:0,0:0:0:0:
181,116,74636,1,0,0:0:0:0:
338,3,75045,2,0,P|278:2|223:22,1,120,2|2,0:0|0:0,0:0:0:0:
320,71,76274,2,0,P|281:73|256:81,1,60,0|2,0:0|0:0,0:0:0:0:
180,129,77093,2,0,P|234:149|270:204,1,120,2|2,0:0|0:0,0:0:0:0:
179,221,78322,1,0,0:0:0:0:
455,33,78732,6,0,L|468:106,1,60,2|0,0:0|0:0,0:0:0:0:
475,151,79551,1,0,0:0:0:0:
352,108,79960,2,0,P|292:91|220:86,1,120,2|2,0:0|0:0,0:0:0:0:
157,126,81189,1,0,0:0:0:0:
341,151,81599,6,0,P|278:155|209:175,1,120,2|2,0:0|0:0,0:0:0:0:
163,234,82828,1,0,0:0:0:0:
96,175,83237,2,0,P|75:215|83:273,1,90,2|0,0:0|0:0,0:0:0:0:
90,285,84056,2,0,P|161:322|237:281,1,150,2|0,0:0|0:0,0:0:0:0:
243,277,85285,6,0,L|309:288,1,60,2|0,0:0|0:0,0:0:0:0:
450,248,86104,2,0,L|384:259,1,60,2|2,0:0|0:0,0:0:0:0:
322,218,86923,5,0,0:0:0:0:
351,306,87333,1,2,0:0:0:0:
332,159,87743,1,2,0:0:0:0:
259,109,88152,2,0,P|216:97|180:107,1,60,2|0,0:0|0:0,0:0:0:0:
119,31,88971,5,2,0:0:0:0:
107,138,89381,1,2,0:0:0:0:
103,18,89790,1,0,0:0:0:0:
88,145,90200,2,0,P|103:209|89:244,1,90,2|0,0:0|0:0,0:0:0:0:
65,270,91019,2,0,P|103:282|132:303,1,60,2|0,0:0|0:0,0:0:0:0:
195,169,91838,6,0,L|202:247,1,60,2|0,0:0|0:0,0:0:0:0:
205,287,92658,1,2,0:0:0:0:
274,192,93067,2,0,P|313:173|392:179,1,120,2|2,0:0|0:0,0:0:0:0:
461,228,94296,1,0,0:0:0:0:
323,279,94705,6,0,P|366:274|439:305,1,120,2|2,0:0|0:0,0:0:0:0:
486,376,95934,1,0,0:0:0:0:
405,362,96344,2,0,P|365:340|311:358,1,90,2|0,0:0|0:0,0:0:0:0:
299,364,97163,2,0,P|221:386|141:362,1,150,2|0,0:0|0:0,0:0:0:0:
123,353,98392,6,0,L|57:362,1,60,2|0,0:0|0:0,0:0:0:0:
7,247,99211,1,2,0:0:0:0:
134,255,99620,2,0,P|163:251|194:254,1,60,2|2,0:0|0:0,0:0:0:0:
256,320,100440,1,0,0:0:0:0:
318,254,100849,2,0,P|348:250|378:255,1,60,2|2,0:0|0:0,0:0:0:0:
505,247,101668,1,2,0:0:0:0:
505,247,102488,6,0,P|455:241|426:242,1,60,2|0,0:0|0:0,0:0:0:0:
279,247,103307,2,0,P|308:251|338:253,1,60,2|0,0:0|0:0,0:0:0:0:
401,326,104126,1,2,0:0:0:0:
392,247,104535,1,0,0:0:0:0:
383,167,104945,6,0,L|308:171,1,60,2|0,0:0|0:0,0:0:0:0:
129,217,105764,2,0,L|204:213,1,60,2|0,0:0|0:0,0:0:0:0:
383,167,106583,6,0,L|308:171,1,60,2|0,0:0|0:0,0:0:0:0:
188,213,107402,2,0,L|129:217,1,60,2|0,0:0|0:0,0:0:0:0:
63,220,108222,1,2,0:0:0:0:
63,220,110679,1,2,0:0:0:0:
119,270,111089,1,0,0:0:0:0:
121,284,111294,1,0,0:0:0:0:
123,299,111498,1,2,0:0:0:0:
33,98,137712,6,0,L|39:142,1,37.5,2|0,0:0|0:0,0:0:0:0:
137,160,138121,2,0,L|131:204,1,37.5,2|0,0:0|0:0,0:0:0:0:
63,231,138531,2,0,P|105:269|153:275,1,75,10|2,0:0|0:0,0:0:0:0:
195,330,139145,1,0,0:0:0:0:
243,240,139350,6,0,P|263:235|309:245,1,37.5,2|0,0:0|0:0,0:0:0:0:
451,270,139760,2,0,P|430:274|385:265,1,37.5,2|0,0:0|0:0,0:0:0:0:
332,359,140169,2,0,P|327:340|327:322,1,37.5,10|0,0:0|0:0,0:0:0:0:
366,187,140579,2,0,P|366:169|362:151,1,37.5,2|0,0:0|0:0,0:0:0:0:
253,90,140988,6,0,L|191:107,1,37.5,2|0,0:0|0:0,0:0:0:0:
31,132,141398,2,0,L|93:149,1,37.5,2|0,0:0|0:0,0:0:0:0:
178,250,141808,2,0,P|195:306|180:340,1,75,10|2,0:0|0:0,0:0:0:0:
127,381,142422,1,0,0:0:0:0:
263,211,142627,6,0,L|329:220,1,37.5,2|0,0:0|0:0,0:0:0:0:
486,261,143036,2,0,L|448:255,1,37.5,2|0,0:0|0:0,0:0:0:0:
393,161,143446,1,10,0:0:0:0:
354,309,143650,1,0,0:0:0:0:
405,114,143856,1,6,0:0:0:0:
342,356,144060,1,8,0:0:0:0:
217,301,144265,6,0,L|164:292,1,37.5,2|0,0:0|0:0,0:0:0:0:
33,320,144675,2,0,L|69:326,1,37.5,2|0,0:0|0:0,0:0:0:0:
242,228,145084,2,0,P|280:255|294:302,1,75,10|2,0:0|0:0,0:0:0:0:
328,382,145699,1,0,0:0:0:0:
173,222,145904,6,0,P|182:191|203:173,1,37.5,2|0,0:0|0:0,0:0:0:0:
304,19,146313,2,0,P|295:50|274:68,1,37.5,2|0,0:0|0:0,0:0:0:0:
238,120,146723,5,10,0:0:0:0:
238,120,147132,2,0,L|234:167,1,37.5,2|0,0:0|0:0,0:0:0:0:
227,231,147542,2,0,P|279:229|314:243,1,75,2|2,0:0|0:0,0:0:0:0:
115,278,148361,2,0,P|63:280|28:266,1,75,10|2,0:0|0:0,0:0:0:0:
194,310,149180,2,0,P|196:362|182:397,1,75,2|2,0:0|0:0,0:0:0:0:
147,198,149999,2,0,P|145:146|159:111,1,75,10|6,0:0|0:0,0:0:0:0:
260,168,150614,1,8,0:0:0:0:
369,97,150819,6,0,L|386:162,1,37.5,2|0,0:0|0:0,0:0:0:0:
467,183,151228,2,0,L|450:248,1,37.5,2|0,0:0|0:0,0:0:0:0:
369,269,151638,2,0,P|302:255|271:263,1,75,10|2,0:0|0:0,0:0:0:0:
232,309,152252,1,0,0:0:0:0:
68,206,152457,6,0,L|106:211,1,37.5,2|0,0:0|0:0,0:0:0:0:
258,154,152866,2,0,L|220:162,1,37.5,2|0,0:0|0:0,0:0:0:0:
53,221,153276,2,0,L|91:226,1,37.5,10|0,0:0|0:0,0:0:0:0:
235,147,153686,2,0,L|272:140,1,37.5,2|0,0:0|0:0,0:0:0:0:
466,172,154095,6,0,P|446:206|441:230,1,37.5,2|0,0:0|0:0,0:0:0:0:
315,244,154505,2,0,P|335:278|340:302,1,37.5,2|0,0:0|0:0,0:0:0:0:
453,336,154914,2,0,P|388:339|361:362,1,75,10|2,0:0|0:0,0:0:0:0:
305,383,155529,1,0,0:0:0:0:
228,288,155734,6,0,L|180:294,1,37.5,2|0,0:0|0:0,0:0:0:0:
15,334,156143,2,0,L|52:329,1,37.5,2|0,0:0|0:0,0:0:0:0:
139,380,156553,1,10,0:0:0:0:
103,241,156757,1,0,0:0:0:0:
66,102,156962,2,0,P|106:94|117:94,1,37.5,6|8,0:0|0:0,0:0:0:0:
207,146,157372,6,0,P|252:155|273:152,1,37.5,2|0,0:0|0:0,0:0:0:0:
467,126,157781,2,0,P|422:117|401:120,1,37.5,2|0,0:0|0:0,0:0:0:0:
318,42,158191,2,0,P|313:86|323:128,1,75,10|2,0:0|0:0,0:0:0:0:
381,192,158805,1,0,0:0:0:0:
449,269,159010,6,0,P|454:305|449:342,1,75,2|2,0:0|0:0,0:0:0:0:
233,343,159829,2,0,P|228:306|233:269,1,75,10|2,0:0|0:0,0:0:0:0:
250,235,160444,1,0,0:0:0:0:
266,201,160649,2,0,P|225:180|179:180,1,75,2|2,0:0|0:0,0:0:0:0:
6,221,161468,2,0,P|47:242|93:242,1,75,10|2,0:0|0:0,0:0:0:0:
126,81,162287,5,2,0:0:0:0:
146,341,162696,1,2,0:0:0:0:
6,221,163106,1,10,0:0:0:0:
266,201,163516,1,6,0:0:0:0:
276,221,163720,1,8,0:0:0:0:
286,241,163925,6,0,P|312:236|348:236,1,45.0000017166138,2|0,0:0|0:0,0:0:0:0:
164,306,164335,2,0,P|138:311|102:311,1,45.0000017166138,2|0,0:0|0:0,0:0:0:0:
152,78,164744,2,0,P|186:118|192:175,1,90.0000034332277,10|2,0:0|0:0,0:0:0:0:
31,195,165359,1,0,0:0:0:0:
238,33,165564,6,0,L|246:79,1,45.0000017166138,2|0,0:0|0:0,0:0:0:0:
392,67,165973,2,0,L|384:113,1,45.0000017166138,2|0,0:0|0:0,0:0:0:0:
253,63,166383,2,0,L|261:109,1,45.0000017166138,10|0,0:0|0:0,0:0:0:0:
291,284,166792,2,0,P|325:275|356:278,1,45.0000017166138,2|0,0:0|0:0,0:0:0:0:
489,352,167202,6,0,P|455:361|424:358,1,45.0000017166138,2|0,0:0|0:0,0:0:0:0:
255,220,167611,2,0,P|221:259|221:291,1,45.0000017166138,2|0,0:0|0:0,0:0:0:0:
39,159,168021,2,0,L|54:255,1,90.0000034332277,10|2,0:0|0:0,0:0:0:0:
65,335,168635,1,0,0:0:0:0:
36,85,168840,6,0,P|67:90|88:104,1,45.0000017166138,2|0,0:0|0:0,0:0:0:0:
261,161,169250,2,0,P|238:158|218:149,1,45.0000017166138,2|0,0:0|0:0,0:0:0:0:
110,235,169659,2,0,P|112:213|121:192,1,45.0000017166138,10|0,0:0|0:0,0:0:0:0:
186,10,170069,1,6,0:0:0:0:
149,123,170274,1,8,0:0:0:0:
110,235,170479,6,0,P|105:268|107:299,1,45.0000017166138,2|0,0:0|0:0,0:0:0:0:
264,356,170888,2,0,P|269:323|267:292,1,45.0000017166138,2|0,0:0|0:0,0:0:0:0:
255,135,171298,2,0,P|298:125|360:131,1,90.0000034332277,10|2,0:0|0:0,0:0:0:0:
453,207,171912,1,0,0:0:0:0:
357,303,172117,6,0,P|314:313|252:307,1,90.0000034332277,2|2,0:0|0:0,0:0:0:0:
28,120,172936,2,0,P|58:152|79:192,1,90.0000034332277,10|2,0:0|0:0,0:0:0:0:
99,232,173550,1,0,0:0:0:0:
130,265,173755,6,0,L|231:255,1,90.0000034332277,2|2,0:0|0:0,0:0:0:0:
423,293,174574,2,0,L|333:301,1,90.0000034332277,10|2,0:0|0:0,0:0:0:0:
299,222,175394,1,2,0:0:0:0:
254,335,175803,1,2,0:0:0:0:
389,214,176213,5,10,0:0:0:0:
164,343,176622,1,6,0:0:0:0:
119,347,176826,1,8,0:0:0:0:
74,351,177032,5,2,0:0:0:0:
