osu file format v14

[General]
AudioFilename: audio.mp3
AudioLeadIn: 0
PreviewTime: -1
Countdown: 1
SampleSet: None
StackLeniency: 0.7
Mode: 0
LetterboxInBreaks: 0
WidescreenStoryboard: 0

[Editor]
DistanceSpacing: 2
BeatDivisor: 4
GridSize: 8
TimelineZoom: 1

[Metadata]
Title:Clocks (Instrumental)
TitleUnicode:Clocks (Instrumental)
Artist:Coldplay
ArtistUnicode:Coldplay
Creator:- Mili
Version:Chroma
Source:
Tags:
BeatmapID:1465288
BeatmapSetID:692506

[Difficulty]
HPDrainRate:5
CircleSize:3.4
OverallDifficulty:4
ApproachRate:8.1
SliderMultiplier:1.4
SliderTickRate:1

[Events]
//Background and Video events
0,0,"ice_land_by_grafi_ray-d33aam2.jpg",0,0
//Break Periods
2,12606,15565
2,23598,30221
//Storyboard Layer 0 (Background)
//Storyboard Layer 1 (Fail)
//Storyboard Layer 2 (Pass)
//Storyboard Layer 3 (Foreground)
//Storyboard Sound Samples

[TimingPoints]
1643,458.015267175573,4,3,0,60,1,0
16299,-100,4,3,0,100,0,1
30955,-100,4,3,0,100,0,0
60268,-100,4,3,0,100,0,1
89581,-100,4,3,0,100,0,0
118894,-100,4,3,0,100,0,1
206833,-100,4,3,0,100,0,0

[Colours]
Combo1 : 128,128,192
Combo2 : 0,64,128
Combo3 : 149,210,234

[HitObjects]
264,328,1643,6,0,L|200:280,1,70,4|0,0:0|0:0,0:0:0:0:
216,160,2101,1,0,0:0:0:0:
320,104,2330,1,4,0:0:0:0:
408,184,2559,1,0,0:0:0:0:
408,184,2788,1,0,0:0:0:0:
312,288,3017,2,0,P|264:272|248:256,1,70,6|0,0:0|0:0,0:0:0:0:
80,176,3475,6,0,P|136:120|200:96,1,140,4|0,0:0|0:0,0:0:0:0:
320,48,4162,1,4,0:0:0:0:
488,184,4391,1,0,0:0:0:0:
488,48,4620,1,0,0:0:0:0:
312,184,4849,2,0,P|256:160|224:136,1,70,6|0,0:0|0:0,0:0:0:0:
192,32,5307,6,0,P|128:32|56:64,1,140,4|0,0:0|0:0,0:0:0:0:
8,160,5994,1,4,0:0:0:0:
184,160,6223,1,0,0:0:0:0:
96,272,6452,1,0,0:0:0:0:
96,80,6681,2,0,L|144:16,1,70,6|0,0:0|0:0,0:0:0:0:
308,69,7139,6,0,L|236:197,1,140,4|0,0:0|0:0,0:0:0:0:
416,224,7826,1,4,0:0:0:0:
240,320,8055,1,0,0:0:0:0:
424,344,8284,1,4,0:0:0:0:
240,192,8513,2,0,P|200:152|160:136,1,70,6|0,0:0|0:0,0:0:0:0:
40,176,8971,6,0,P|56:128|120:64,1,140,4|0,0:0|0:0,0:0:0:0:
256,56,9658,1,4,0:0:0:0:
408,128,9887,1,0,0:0:0:0:
248,200,10116,1,4,0:0:0:0:
392,312,10345,2,0,P|312:336|296:336,1,70,6|0,0:0|0:0,0:0:0:0:
200,272,10803,2,0,P|152:208|152:144,1,140,4|0,0:0|0:0,0:0:0:0:
240,80,11490,1,4,0:0:0:0:
360,216,11719,1,0,0:0:0:0:
384,88,11948,1,4,0:0:0:0:
208,208,12177,2,0,P|160:184|144:176,1,70,6|0,0:0|0:0,0:0:0:0:
160,80,16299,6,0,P|256:72|304:80,1,140
456,184,16986,1,10,0:0:0:0:
272,272,17215,1,0,2:0:0:0:
408,104,17444,1,6,0:0:0:0:
232,136,17673,2,0,P|280:96|304:88,1,70,6|0,0:0|0:0,0:0:0:0:
496,128,18131,6,0,P|504:216|488:280,1,140
288,256,18818,1,10,0:0:0:0:
104,168,19047,1,0,2:0:0:0:
240,336,19276,1,2,0:0:0:0:
64,304,19505,2,0,P|112:344|136:352,1,70,6|0,0:0|0:0,0:0:0:0:
344,344,19963,6,0,P|392:304|424:224,1,140
224,152,20650,1,10,0:0:0:0:
40,240,20879,1,0,2:0:0:0:
176,72,21108,1,6,0:0:0:0:
0,104,21337,2,0,P|48:64|72:56,1,70,6|0,0:0|0:0,0:0:0:0:
296,88,21795,2,0,P|344:112|392:200,1,140
160,256,22482,1,10,0:0:0:0:
32,144,22711,1,0,2:0:0:0:
0,336,22940,1,6,0:0:0:0:
128,168,23169,2,0,P|160:128|184:96,1,70,6|0,0:0|0:0,0:0:0:0:
64,104,30955,6,0,P|160:80|216:112,1,140,6|0,0:0|0:0,0:0:0:0:
