osu file format v14

[General]
AudioFilename: audio.mp3
AudioLeadIn: 0
PreviewTime: 132499
Countdown: 0
SampleSet: Soft
StackLeniency: 0.9
Mode: 0
LetterboxInBreaks: 0
WidescreenStoryboard: 0

[Editor]
Bookmarks: 7649,73511,102380,135291,158960,182645
DistanceSpacing: 0.6
BeatDivisor: 12
GridSize: 32
TimelineZoom: 1.9177

[Metadata]
Title:Christmas Lights
TitleUnicode:Christmas Lights
Artist:Coldplay
ArtistUnicode:Coldplay
Creator:Aistre
Version:Wistful Winter
Source:
Tags:xmas pop english seasonal alternative rock chris martin alphabet venax apollo apo11o AJT london oxford street
BeatmapID:2744045
BeatmapSetID:1324802

[Difficulty]
HPDrainRate:5.4
CircleSize:4.5
OverallDifficulty:7.8
ApproachRate:8.4
SliderMultiplier:2
SliderTickRate:1

[Events]
//Background and Video events
0,0,"Oxford_Street.jpg",0,0
//Break Periods
//Storyboard Layer 0 (Background)
//Storyboard Layer 1 (Fail)
//Storyboard Layer 2 (Pass)
//Storyboard Layer 3 (Foreground)
//Storyboard Layer 4 (Overlay)
//Storyboard Sound Samples

[TimingPoints]
65,474.308300395256,4,2,1,30,1,0
65,-375.0000009375,4,2,1,30,0,0
539,451.127819548872,4,2,1,30,1,8
539,-375.0000009375,4,2,1,30,0,0
1215,465.116279069767,4,2,1,30,1,8
1215,-375.0000009375,4,2,1,30,0,0
1912,488.798370672097,4,2,1,30,1,0
1912,-375.0000009375,4,2,1,30,0,0
2400,460.652591170825,4,2,1,30,1,8
2400,-375.0000009375,4,2,1,30,0,0
3090,490.79754601227,4,2,1,30,1,8
3090,-375.0000009375,4,2,1,30,0,0
3580,424.028268551236,4,2,1,30,1,8
3580,-375.0000009375,4,2,1,30,0,0
3799,534.521158129175,4,2,1,30,1,0
3799,-375.0000009375,4,2,1,30,0,0
4061,600,4,2,1,30,1,8
4061,-375.0000009375,4,2,1,30,0,0
4363,468.75,4,2,1,30,1,8
4363,-375.0000009375,4,2,1,30,0,0
5062,477.707006369427,4,2,1,30,1,8
5062,-375.0000009375,4,2,1,30,0,0
5778,478.08764940239,4,2,1,30,1,0
5778,-375.0000009375,4,2,1,30,0,0
6253,468.75,4,2,1,30,1,8
6253,-375.0000009375,4,2,1,30,0,0
6959,460.652591170825,4,2,1,30,1,8
6959,-375.0000009375,4,2,1,30,0,0
7649,453.686200378072,4,2,1,30,1,0
7649,-133.333333333333,4,2,1,45,0,0
9463,459.312562198576,4,2,1,45,1,0
9463,-133.333333333333,4,2,1,45,0,0
11300,457.840518885921,4,2,1,45,1,0
11300,-133.333333333333,4,2,1,45,0,0
13131,449.438202247191,4,2,1,45,1,0
13131,-133.333333333333,4,2,1,45,0,0
14029,457.66590389016,4,2,1,45,1,0
14029,-133.333333333333,4,2,1,45,0,0
14944,457.73573390296,4,2,1,45,1,0
14944,-133.333333333333,4,2,1,45,0,0
20436,439.560439560439,4,2,1,45,1,0
20436,-133.333333333333,4,2,1,45,0,0
20875,466.926070038911,4,2,1,45,1,0
20875,-133.333333333333,4,2,1,45,0,0
21341,465.116279069767,4,2,1,45,1,0
21341,-133.333333333333,4,2,1,45,0,0
21806,428.571428571429,4,2,1,45,1,0
21806,-133.333333333333,4,2,1,45,0,0
22020,492.813141683778,4,2,1,45,1,0
22020,-133.333333333333,4,2,1,45,0,0
22266,458.015267175573,4,2,1,45,1,0
22266,-200,4,2,1,30,0,0
24098,454.201362604088,4,2,1,30,1,0
24098,-200,4,2,1,30,0,0
25914,457.73573390296,4,2,1,30,1,0
25914,-200,4,2,1,30,0,0
27744,-133.333333333333,4,2,1,45,0,0
28660,472.44094488189,4,2,1,45,1,0
28660,-133.333333333333,4,2,1,45,0,0
29132,446.096654275093,4,2,1,45,1,0
29132,-133.333333333333,4,2,1,45,0,0
29578,465.116279069767,4,2,1,45,1,0
29578,-200,4,2,1,30,0,0
31438,458.015267175573,4,2,1,30,1,0
31438,-200,4,2,1,30,0,0
33270,465.116279069767,4,2,1,30,1,0
33270,-200,4,2,1,30,0,0
34665,494.845360824742,4,2,1,30,1,0
35159,431.654676258993,4,2,1,30,1,0
35159,-133.333333333333,4,2,1,45,0,0
35806,476.190476190476,4,2,1,45,1,0
35806,-133.333333333333,4,2,1,45,0,0
36044,456.273764258555,4,2,1,45,1,0
36044,-133.333333333333,4,2,1,45,0,0
36956,459.770114942529,4,2,1,45,1,0
36956,-200,4,2,1,30,0,0
42473,-133.333333333333,4,2,1,45,0,0
42933,441.176470588235,4,2,1,45,1,0
42933,-133.333333333333,4,2,1,45,0,0
43374,471.512770137525,4,2,1,45,1,0
43374,-133.333333333333,4,2,1,45,0,0
44317,457.142857142858,4,2,1,45,1,0
44317,-200,4,2,1,30,0,0
46145,466.926070038911,4,2,1,30,1,0
46145,-200,4,2,1,30,0,0
48012,456.62100456621,4,2,1,30,1,0
48012,-200,4,2,1,30,0,0
49838,450.281425891182,4,2,1,30,1,0
49838,-133.333333333333,4,2,1,30,0,0
50288,461.538461538462,4,2,1,30,1,0
50288,-133.333333333333,4,2,1,45,0,0
50749,465.766185374942,4,2,1,45,1,0
50749,-133.333333333333,4,2,1,45,0,0
51680,460.652591170825,4,2,1,45,1,0
51680,-133.333333333333,4,2,1,30,0,0
53522,456.273764258556,4,2,1,30,1,0
53522,-133.333333333333,4,2,1,30,0,0
54890,454.545454545455,4,2,1,30,1,0
54890,-133.333333333333,4,2,1,30,0,0
55344,422.535211267606,4,2,1,30,1,0
55344,-133.333333333333,4,2,1,30,0,0
55766,495.867768595041,4,2,1,30,1,0
55766,-133.333333333333,4,2,1,30,0,0
56261,448.598130841121,4,2,1,30,1,0
56261,-133.333333333333,4,2,1,30,0,0
57158,418.848167539267,4,2,1,30,1,0
57158,-133.333333333333,4,2,1,30,0,0
57577,468.75,4,2,1,30,1,0
57577,-133.333333333333,4,2,1,30,0,0
58514,446.927374301676,4,2,1,30,1,0
58514,-133.333333333333,4,2,1,30,0,0
58960,450.45045045045,4,2,1,30,1,0
58960,-117.647058823529,4,2,1,45,0,0
59860,457.66590389016,4,2,1,45,1,0
59860,-117.647058823529,4,2,1,45,0,0
60775,437.31778425656,4,2,1,45,1,0
60775,-117.647058823529,4,2,1,45,0,0
61212,459.770114942529,4,2,1,45,1,0
61212,-117.647058823529,4,2,1,45,0,0
62586,453.857791225416,4,2,1,45,1,0
62586,-117.647058823529,4,2,1,45,0,0
64406,446.262551134251,4,2,1,45,1,0
64406,-117.647058823529,4,2,1,45,0,0
65298,453.001132502831,4,2,1,45,1,0
65298,-117.647058823529,4,2,1,45,0,0
66204,453.001132502831,4,2,1,45,1,0
66204,-117.647058823529,4,2,1,45,0,0
67563,467.107824056053,4,2,1,45,1,0
67563,-117.647058823529,4,2,1,45,0,0
68030,452.830188679245,4,2,1,45,1,0
68030,-117.647058823529,4,2,1,45,0,0
68482,454.545454545455,4,2,1,45,1,0
68482,-117.647058823529,4,2,1,45,0,0
68709,483.870967741935,4,2,1,45,1,0
68709,-117.647058823529,4,2,1,45,0,0
68950,441.988950276243,4,2,1,45,1,0
68950,-117.647058823529,4,2,1,45,0,0
69170,468.75,4,2,1,45,1,0
69170,-117.647058823529,4,2,1,45,0,0
69873,453.857791225416,4,2,1,45,1,0
69873,-117.647058823529,4,2,1,45,0,0
72596,457.561198810341,4,2,1,45,1,0
73511,448.598130841121,4,2,1,60,1,0
75305,453.857791225416,4,2,1,60,1,0
78935,444.444444444444,4,2,1,60,1,0
80712,457.142857142857,4,2,1,60,1,0
82540,445.269016697588,4,2,1,60,1,0
84321,459.770114942529,4,2,1,60,1,0
85240,451.127819548872,4,2,1,60,1,0
86142,451.977401129944,4,2,1,60,1,0
89757,449.438202247192,4,2,1,60,1,0
91554,451.127819548873,4,2,1,60,1,0
93358,449.438202247192,4,2,1,60,1,0
93358,-66.6666666666667,4,2,1,60,0,0
94032,-100,4,2,1,60,0,0
95155,453.001132502831,4,2,1,60,1,0
98326,449.438202247191,4,2,1,60,1,0
98775,449.438202247191,4,2,1,60,1,0
99673,454.545454545455,4,2,1,60,1,0
100582,441.176470588235,4,2,1,60,1,0
101023,456.968773800457,4,2,1,60,1,0
101936,444.444444444444,4,2,1,60,1,0
102380,449.438202247191,4,2,1,60,1,0
102380,-133.333333333333,4,2,1,60,0,0
102829,463.320463320463,4,2,1,60,1,0
102829,-133.333333333333,4,2,1,35,0,0
104218,459.770114942529,4,2,1,35,1,0
104218,-133.333333333333,4,2,1,35,0,0
105597,456.273764258555,4,2,1,35,1,0
105597,-133.333333333333,4,2,1,35,0,0
106053,461.538461538462,4,2,1,35,1,0
106053,-133.333333333333,4,2,1,35,0,0
106514,464.2166344294,4,2,1,35,1,0
106514,-133.333333333333,4,2,1,35,0,0
107906,464.2166344294,4,2,1,35,1,0
107906,-133.333333333333,4,2,1,35,0,0
108834,459.770114942529,4,2,1,35,1,0
108834,-133.333333333333,4,2,1,35,0,0
109753,462.42774566474,4,2,1,35,1,0
109753,-133.333333333333,4,2,1,35,0,0
111140,468.75,4,2,1,35,1,0
111140,-133.333333333333,4,2,1,35,0,0
111608,461.538461538462,4,2,1,35,1,0
111608,-133.333333333333,4,2,1,35,0,0
115300,447.761194029851,4,2,1,35,1,0
115300,-133.333333333333,4,2,1,35,0,0
115747,476.190476190476,4,2,1,35,1,0
115747,-133.333333333333,4,2,1,35,0,0
116223,456.273764258555,4,2,1,35,1,0
116223,-133.333333333333,4,2,1,35,0,0
117135,456.273764258555,4,2,1,60,1,0
120785,452.830188679246,4,2,1,60,1,0
122596,454.545454545455,4,2,1,60,1,0
123732,468.75,4,2,1,60,1,0
124427,451.127819548872,4,2,1,60,1,0
126232,458.015267175573,4,2,1,60,1,0
128064,458.891013384322,4,2,1,60,1,0
129899,457.596095179988,6,2,1,60,1,0
132644,437.158469945354,6,2,1,60,1,0
132644,-100,6,2,1,60,0,0
133409,-100,6,2,1,5,0,0
133518,449.438202247191,6,2,1,60,1,0
134304,-100,6,2,1,5,0,0
134416,437.956204379562,6,2,1,60,1,0
135180,-100,6,2,1,5,0,0
135291,526.315789473685,3,2,2,70,1,0
135291,-80,3,2,2,70,0,0
135817,483.870967741936,3,2,2,70,1,0
136300,457.142857142857,3,2,2,70,1,0
136757,488.997555012225,3,2,2,70,1,0
136757,-66.6666666666667,3,2,2,70,0,0
138223,-100,3,2,2,70,0,0
139201,462.42774566474,3,2,2,70,1,8
139663,497.92531120332,3,2,2,70,1,0
139663,-66.6666666666667,3,2,2,70,0,0
141156,487.80487804878,3,2,2,70,1,0
141156,-66.6666666666667,3,2,2,70,0,0
142131,453.686200378072,3,2,2,70,1,8
142584,495.867768595041,3,2,2,70,1,0
144071,486.815415821501,3,2,2,70,1,0
145531,488.798370672098,3,2,2,70,1,0
145531,-80,3,2,2,70,0,0
146508,-66.6666666666667,3,2,2,70,0,0
146997,491.803278688525,3,2,2,70,1,0
146997,-66.6666666666667,3,2,2,70,0,0
147980,472.44094488189,3,2,2,70,1,8
148452,489.795918367347,3,2,2,70,1,0
148452,-57.1428571428571,3,2,2,70,0,0
148941,-66.6666666666667,3,2,2,70,0,0
149431,-80,3,2,2,70,0,0
149921,493.827160493827,3,2,2,70,1,0
150908,485.82995951417,3,2,2,70,1,8
151393,485.82995951417,3,2,2,70,1,0
151393,-66.6666666666667,3,2,2,70,0,0
152850,497.92531120332,3,2,2,70,1,0
153845,466.926070038911,3,2,2,70,1,8
154311,490.596892886345,3,2,2,70,1,0
154311,-66.6666666666667,3,2,2,70,0,0
155782,500,3,2,2,70,1,0
156282,521.739130434783,3,2,2,70,1,8
156803,491.803278688525,3,2,2,70,1,8
157294,576.923076923077,3,2,2,70,1,0
157870,538.116591928251,3,2,2,70,1,8
158408,552.99539170507,3,2,2,70,1,0
158960,487.804878048781,3,2,2,70,1,0
159447,513.918629550321,3,2,2,70,1,0
159942,446.096654275093,3,2,2,70,1,0
160406,490.79754601227,3,2,2,70,1,0
160406,-66.6666666666667,3,2,2,70,0,0
161387,483.870967741935,3,2,2,70,1,0
161860,483.870967741935,3,2,2,70,1,0
163321,480,3,2,2,70,1,0
163321,-66.6666666666667,3,2,2,70,0,0
164281,486.815415821501,3,2,2,70,1,0
164752,487.80487804878,3,2,2,70,1,0
164752,-66.6666666666667,3,2,2,70,0,0
165742,461.538461538461,3,2,2,70,1,0
166203,490.79754601227,3,2,2,70,1,0
167675,476.190476190476,3,2,2,70,1,0
169103,483.870967741935,3,2,2,70,1,0
169103,-80,3,2,2,70,0,0
170070,-66.6666666666667,3,2,2,70,0,0
170554,485.82995951417,3,2,2,70,1,0
170554,-66.6666666666667,3,2,2,70,0,0
171525,472.44094488189,3,2,2,70,1,0
171997,489.795918367347,3,2,2,70,1,0
171997,-57.1428571428571,3,2,2,70,0,0
172486,-66.6666666666667,3,2,2,70,0,0
172976,-80,3,2,2,70,0,0
173466,495.867768595041,3,2,2,70,1,0
173961,478.08764940239,3,2,2,70,1,0
174917,485.829959514171,3,2,2,70,1,0
174917,-66.6666666666667,3,2,2,70,0,0
175888,480.000000000001,3,2,2,70,1,0
176368,480.000000000001,3,2,2,70,1,0
177808,489.795918367347,3,2,2,70,1,0
177808,-66.6666666666667,3,2,2,70,0,0
179277,487.804878048781,3,2,2,70,1,0
180252,465.116279069768,3,2,2,70,1,0
180717,481.927710843374,4,2,2,70,1,0
181680,465.116279069768,4,2,3,70,1,0
182145,500.000000000001,4,2,3,70,1,0
182645,477.137176938371,3,2,2,70,1,0
182645,-80,3,2,2,70,0,0
184076,485.829959514171,3,2,2,70,1,0
184076,-80,3,2,2,70,0,0
185533,490.797546012271,3,2,2,70,1,0
185533,-80,3,2,2,70,0,0
186023,475.247524752476,3,2,2,70,1,0
186023,-80,3,2,2,70,0,0
186973,487.804878048782,3,2,2,70,1,0
186973,-80,3,2,2,70,0,0
187460,483.870967741937,3,2,2,70,1,0
187460,-66.6666666666667,3,2,2,70,0,0
188427,512.820512820514,3,2,2,70,1,0
188427,-80,3,2,2,70,0,0
188939,466.926070038912,3,2,2,70,1,0
188939,-80,3,2,2,70,0,0
189872,509.55414012739,3,2,2,70,1,0
189872,-80,3,2,2,70,0,0
190381,487.80487804878,3,2,2,70,1,0
190381,-80,3,2,2,70,0,0
191356,472.44094488189,3,2,2,70,1,0
191356,-80,3,2,2,70,0,0
191828,480,3,2,2,70,1,0
191828,-80,3,2,2,70,0,0
192788,480,3,2,2,70,1,0
192788,-80,3,2,2,70,0,0
193268,487.80487804878,3,2,2,70,1,0
193268,-66.6666666666667,3,2,2,70,0,0
194243,493.827160493827,3,2,2,70,1,0
194243,-66.6666666666667,3,2,2,70,0,0
194736,483.870967741935,3,2,2,70,1,0
194736,-80,3,2,2,70,0,0
195219,476.190476190476,3,2,2,70,1,0
195219,-80,3,2,2,70,0,0
195695,485.82995951417,3,2,2,70,1,0
195695,-66.6666666666667,3,2,2,70,0,0
197152,-80,3,2,2,70,0,0
198123,474.308300395257,3,2,2,70,1,0
198123,-80,3,2,2,70,0,0
198597,500,3,2,2,70,1,0
198597,-80,3,2,2,70,0,0
199097,481.927710843374,3,2,2,70,1,0
199097,-80,3,2,2,70,0,0
200060,480,3,2,2,70,1,0
200060,-80,3,2,2,70,0,0
201980,487.804878048781,3,2,2,70,1,0
201980,-80,3,2,2,70,0,0
202467,495.867768595041,3,2,2,70,1,0
202467,-80,3,2,2,70,0,0
202962,500,3,2,2,70,1,0
202962,-80,3,2,2,70,0,0
203462,512.820512820513,3,2,2,70,1,0
203974,550.45871559633,3,2,2,70,1,0
204524,521.059487624837,3,2,2,70,1,0
205305,555.555555555556,3,2,2,70,1,0
206138,484.848484848485,3,2,2,70,1,0
206865,542.986425339366,3,2,2,70,1,0
206865,-80,3,2,2,70,0,0
207407,483.870967741935,3,2,2,70,1,0
207407,-80,3,2,2,70,0,0
207890,468.75,3,2,2,70,1,0
207890,-80,3,2,2,70,0,0
208358,476.190476190476,3,2,2,70,1,0
208358,-66.6666666666667,3,2,2,70,0,0
209310,500,3,2,2,70,1,0
209310,-80,3,2,2,70,0,0
209810,478.08764940239,3,2,2,70,1,0
209810,-80,3,2,2,70,0,0
211244,483.870967741935,3,2,2,70,1,0
211244,-66.6666666666667,3,2,2,70,0,0
212211,476.190476190476,3,2,2,70,1,0
212211,-80,3,2,2,70,0,0
212687,517.241379310345,3,2,2,70,1,0
212687,-80,3,2,2,70,0,0
213204,472.440944881889,3,2,2,70,1,0
213204,-80,3,2,2,70,0,0
213676,456.273764258555,3,2,2,70,1,0
213676,-80,3,2,2,70,0,0
214132,497.925311203319,3,2,2,70,1,0
214132,-80,3,2,2,70,0,0
214629,479.999999999999,3,2,2,70,1,0
214629,-80,3,2,2,70,0,0
215589,504.201680672268,3,2,2,70,1,0
215589,-80,3,2,2,70,0,0
216093,491.803278688524,3,2,2,70,1,0
216093,-80,3,2,2,70,0,0
216584,454.545454545454,3,2,2,70,1,0
216584,-80,3,2,2,70,0,0
217038,490.797546012269,3,2,2,70,1,0
217038,-66.6666666666667,3,2,2,70,0,0
218019,476.190476190476,3,2,2,70,1,0
218019,-80,3,2,2,70,0,0
218495,504.201680672268,3,2,2,70,1,0
218495,-80,3,2,2,70,0,0
218999,495.867768595041,3,2,2,70,1,0
218999,-80,3,2,2,70,0,0
219494,468.75,3,2,2,70,1,0
219494,-80,3,2,2,70,0,0
219962,465.116279069767,3,2,2,70,1,0
220427,497.925311203319,3,2,3,70,1,0
220924,508.474576271186,3,2,3,70,1,0
221432,699.708454810494,3,2,2,70,1,0
221432,-285.714285714286,3,2,2,70,0,0
223531,621.761658031087,3,2,2,30,1,0
224152,550.45871559633,3,2,2,30,1,0
224702,560.747663551401,3,2,2,30,1,0
225262,511.727078891258,3,2,2,30,1,0
225262,-200,3,2,2,30,0,0
226285,-200,3,2,2,30,0,0
226797,528.63436123348,3,2,2,30,1,0
226797,-200,3,2,2,30,0,0
227325,500,3,2,2,30,1,0
227325,-200,3,2,2,30,0,0
228325,530.973451327434,3,2,2,30,1,0
228325,-200,3,2,2,30,0,0
229121,487.80487804878,3,2,2,30,1,0
229121,-200,3,2,2,30,0,0
229852,472.44094488189,3,2,2,45,1,0
229852,-200,3,2,2,45,0,0
230796,468.75,3,2,2,30,1,0
230796,-200,3,2,2,30,0,0
231030,508.474576271186,3,2,2,25,1,0
231030,-200,3,2,2,25,0,0
231284,500,3,2,2,30,1,0
231284,-200,3,2,2,30,0,0
231863,-200,3,2,1,60,0,0
232034,512.820512820513,3,2,2,15,1,0
232034,-200,3,2,2,15,0,0
232290,491.803278688525,3,2,2,10,1,0
232290,-200,3,2,2,10,0,0
232781,515.021459227468,3,2,2,30,1,0
232781,-200,3,2,2,30,0,0
233296,510.638297872341,3,2,2,30,1,0
233296,-200,3,2,2,30,0,0
233806,545.454545454546,3,2,2,20,1,0
233806,-200,3,2,2,20,0,0
234078,576.923076923077,3,2,2,15,1,0
234078,-200,3,2,2,15,0,0
234366,674.157303370787,3,2,2,30,1,0
234366,-200,3,2,2,30,0,0
236388,670.391061452514,3,2,2,20,1,0
240410,750,3,2,1,60,1,0

[Colours]
Combo1 : 255,192,45
Combo2 : 255,64,64
Combo3 : 249,215,96
Combo4 : 134,240,169
Combo5 : 149,235,242

[HitObjects]
482,375,65,5,2,0:0:0:0:
449,289,539,1,0,0:0:0:0:
449,289,1215,1,0,0:0:0:0:
388,119,1912,5,2,0:0:0:0:
355,205,2400,1,0,0:0:0:0:
355,205,3090,1,0,0:0:0:0:
271,97,3580,5,2,0:0:0:0:
243,83,3799,1,2,0:0:0:0:
171,85,4061,1,2,0:0:0:0:
121,146,4363,1,0,0:0:0:0:
121,146,5062,1,0,0:0:0:0:
121,146,6253,6,0,L|135:239,1,80
96,369,7649,6,0,P|40:350|29:314,2,75.0000028610231,2|0|2,0:0|0:0|0:0,0:0:0:0:
181,337,8329,2,0,P|217:304|327:308,2,150.000005722046
102,288,9463,6,0,L|112:203,2,75.0000028610231,2|0|2,0:0|0:0|0:0,0:0:0:0:
199,220,10151,2,0,L|177:62,2,150.000005722046
317,338,11300,5,2,0:0:0:0:
345,268,11528,1,0,0:0:0:0:
412,235,11757,1,2,0:0:0:0:
358,292,11986,2,0,B|322:308|279:292|299:274|246:251|212:269,2,150.000005722046,0|0|2,0:0|0:0|0:0,0:0:0:0:
477,185,13131,6,0,P|446:156|402:157,1,75.0000028610231,0|2,0:0|0:0,0:0:0:0:
343,198,13580,1,2,0:0:0:0:
415,236,13805,1,2,0:0:0:0:
347,116,14029,2,0,L|271:101,1,75.0000028610231,2|0,0:0|0:0,0:0:0:0:
333,34,14486,1,2,0:0:0:0:
333,34,14715,1,0,0:0:0:0:
210,59,14944,6,0,P|194:97|205:135,2,75.0000028610231,2|0|2,0:0|0:0|0:0,0:0:0:0:
133,173,15630,2,0,P|89:129|3:115,2,150.000005722046
145,309,16774,6,0,L|130:391,2,75.0000028610231,2|0|2,0:0|0:0|0:0,0:0:0:0:
227,239,17461,2,0,L|374:200,2,150.000005722046
314,353,18605,5,2,0:0:0:0:
384,378,18834,1,0,0:0:0:0:
451,345,19063,1,2,0:0:0:0:
470,272,19292,2,0,P|457:200|465:92,2,150.000005722046,0|0|2,0:0|0:0|0:0,0:0:0:0:
380,293,20436,6,0,P|342:261|306:260,1,75.0000028610231
194,304,20875,1,2,0:0:0:0:
243,237,21108,1,2,0:0:0:0:
144,121,21341,2,0,L|53:105,1,75.0000028610231,2|0,0:0|0:0,0:0:0:0:
255,87,21806,1,2,0:0:0:0:
210,159,22020,1,0,0:0:0:0:
229,186,22266,6,0,L|279:179,2,50,2|0|2,0:0|0:0|0:0,0:0:0:0:
99,339,23869,1,2,0:0:0:0:
54,278,24098,2,0,P|29:305|23:328,2,50,2|0|2,0:0|0:0|0:0,0:0:0:0:
251,361,25914,6,0,L|311:353,1,50,2|2,0:0|0:0,0:0:0:0:
367,288,26371,2,0,L|198:265,1,150,2|0,0:0|0:0,0:0:0:0:
147,257,27287,2,0,P|146:292|159:310,1,50,2|2,0:0|0:0,0:0:0:0:
194,191,27744,6,0,L|204:116,1,75.0000028610231
215,24,28202,1,0,0:0:0:0:
138,60,28431,1,2,0:0:0:0:
280,76,28660,2,0,P|301:39|297:7,2,75.0000028610231,2|0|2,0:0|0:0|0:0,0:0:0:0:
280,76,29355,1,0,0:0:0:0:
323,201,29578,6,0,L|337:260,1,50,2|2,0:0|0:0,0:0:0:0:
399,148,30043,2,0,L|359:358,1,200,2|0,0:0|0:0,0:0:0:0:
361,344,31205,1,2,0:0:0:0:
301,282,31438,6,0,P|278:302|268:328,1,50,2|0,0:0|0:0,0:0:0:0:
361,344,31896,1,2,0:0:0:0:
361,344,33041,1,0,0:0:0:0:
301,282,33270,6,0,P|278:302|268:328,1,50,2|0,0:0|0:0,0:0:0:0:
361,344,33735,2,0,L|339:195,1,150,2|0,0:0|0:0,0:0:0:0:
318,43,34912,1,2,0:0:0:0:
250,81,35159,6,0,L|176:68,1,75.0000028610231
49,81,35590,1,2,0:0:0:0:
114,122,35806,1,2,0:0:0:0:
53,239,36044,2,0,L|41:158,2,75.0000028610231,2|0|2,0:0|0:0|0:0,0:0:0:0:
53,239,36728,1,0,0:0:0:0:
124,321,36956,6,0,L|110:388,2,50,2|2|2,0:3|0:0|0:0,0:0:0:0:
326,348,38565,1,2,0:0:0:0:
278,283,38795,6,0,P|274:245|281:216,1,50,2|2,0:0|0:0,0:0:0:0:
359,273,39427,1,2,0:0:0:0:
481,143,40634,6,0,L|421:130,1,50,2|0,0:0|0:0,0:0:0:0:
371,61,41093,2,0,L|220:84,1,150,2|0,0:0|0:0,0:0:0:0:
171,139,42013,1,0,0:0:0:0:
171,139,42243,1,2,0:0:0:0:
145,39,42473,6,0,P|103:56|83:87,1,75.0000028610231
60,162,42933,1,2,0:0:0:0:
0,107,43153,1,2,0:0:0:0:
26,237,43374,2,0,L|39:313,1,75.0000028610231,2|0,0:0|0:0,0:0:0:0:
143,211,43845,2,0,L|130:287,1,75.0000028610231,2|0,0:0|0:0,0:0:0:0:
264,370,44317,5,2,0:0:0:0:
244,292,44545,1,0,0:0:0:0:
227,215,44774,2,0,B|262:195|313:205|297:224|342:235|385:222,1,150,2|0,0:0|0:0,0:0:0:0:
371,225,45917,1,0,0:0:0:0:
433,331,46145,6,0,P|435:300|447:275,1,50,2|0,0:0|0:0,0:0:0:0:
361,371,46787,1,2,0:0:0:0:
460,199,47701,1,0,0:0:0:0:
460,199,47779,1,2,0:0:0:0:
409,121,48012,6,0,P|371:125|347:138,1,50,2|0,0:0|0:0,0:0:0:0:
301,69,48468,2,0,P|326:140|338:214,1,150,2|0,0:0|0:0,0:0:0:0:
284,286,49381,1,2,0:0:0:0:
331,364,49610,1,2,0:0:0:0:
463,304,49838,6,0,P|467:256|450:228,1,75.0000028610231
494,143,50288,1,2,0:0:0:0:
447,65,50518,1,2,0:0:0:0:
308,151,50749,2,0,L|384:160,1,75.0000028610231,2|0,0:0|0:0,0:0:0:0:
331,39,51214,2,0,L|255:48,1,75.0000028610231,2|0,0:0|0:0,0:0:0:0:
165,113,51680,6,0,B|131:105|94:136|112:153|69:185|20:174,1,150.000005722046,2|2,0:0|0:0,0:0:0:0:
141,350,52601,2,0,P|178:353|220:361,1,75.0000028610231,2|0,0:0|0:0,0:0:0:0:
127,256,53061,2,0,P|90:262|52:265,1,75.0000028610231,2|0,0:0|0:0,0:0:0:0:
171,155,53522,6,0,P|246:165|314:195,1,150.000005722046,2|0,0:0|0:0,0:0:0:0:
401,222,54206,2,0,P|326:232|258:262,1,150.000005722046,2|2,0:0|0:0,0:0:0:0:
491,384,55344,5,2,0:0:0:0:
446,297,55555,1,2,0:0:0:0:
512,219,55766,1,2,0:0:0:0:
467,132,56013,1,2,0:0:0:0:
505,36,56261,2,0,L|351:68,1,150.000005722046,2|0,0:0|0:0,0:0:0:0:
347,79,57158,6,0,P|269:65|155:57,1,150,2|2,0:0|0:0,0:0:0:0:
129,22,57811,1,2,0:0:0:0:
23,114,58045,2,0,L|33:197,1,75.0000028610231,2|0,0:0|0:0,0:0:0:0:
43,261,58514,1,2,0:0:0:0:
312,317,58960,6,0,P|347:341|369:397,2,85.0000016212464,2|0|2,0:0|0:0|0:0,0:0:0:0:
220,192,59635,2,0,L|128:206,1,85.0000016212464,2|0,0:0|0:0,0:0:0:0:
171,278,60088,2,0,L|255:265,1,85.0000016212464,2|0,0:0|0:0,0:0:0:0:
312,317,60546,1,2,0:0:0:0:
441,238,60775,6,0,P|455:188|481:165,2,85.0000016212464,2|0|2,0:0|0:0|0:0,0:0:0:0:
281,160,61441,2,0,L|272:73,1,85.0000016212464,2|0,0:0|0:0,0:0:0:0:
352,120,61901,2,0,L|361:207,1,85.0000016212464,2|0,0:0|0:0,0:0:0:0:
441,238,62361,1,2,0:0:0:0:
312,357,62586,6,0,P|254:349|234:326,2,85.0000016212464,2|0|2,0:0|0:0|0:0,0:0:0:0:
202,253,63266,2,0,L|192:163,1,85.0000016212464,2|0,0:0|0:0,0:0:0:0:
116,211,63720,2,0,L|126:301,1,85.0000016212464,2|0,0:0|0:0,0:0:0:0:
63,346,64174,1,2,0:0:0:0:
3,217,64406,5,0,0:0:0:0:
18,243,64629,1,2,0:0:0:0:
144,86,64852,1,2,0:0:0:0:
0,134,65075,1,2,0:0:0:0:
252,163,65298,5,2,0:0:0:0:
309,79,65524,1,0,0:0:0:0:
407,105,65751,2,0,P|420:169|421:195,1,85.0000016212464,2|0,0:0|0:0,0:0:0:0:
397,260,66204,6,0,P|354:230|349:186,2,85.0000016212464,2|0|2,0:0|0:0|0:0,0:0:0:0:
293,357,66883,2,0,L|201:366,1,85.0000016212464,2|0,0:0|0:0,0:0:0:0:
160,291,67336,2,0,L|252:282,1,85.0000016212464,2|0,0:0|0:0,0:0:0:0:
301,364,67796,1,2,0:0:0:0:
152,209,68030,6,0,P|109:223|84:270,2,85.0000016212464,2|0|2,0:0|0:0|0:0,0:0:0:0:
267,118,68709,2,0,L|254:16,1,85.0000016212464,2|0,0:0|0:0,0:0:0:0:
181,20,69170,2,0,L|194:122,1,85.0000016212464,2|0,0:0|0:0,0:0:0:0:
276,128,69638,1,2,0:0:0:0:
381,27,69873,6,0,P|433:34|468:55,2,85.0000016212464,2|0|2,0:0|0:0|0:0,0:0:0:0:
339,188,70553,2,0,L|357:278,1,85.0000016212464,2|0,0:0|0:0,0:0:0:0:
290,313,71007,2,0,L|273:229,1,85.0000016212464,2|0,0:0|0:0,0:0:0:0:
349,177,71461,1,2,0:0:0:0:
463,301,71688,6,0,P|453:348|411:371,1,85.0000016212464
301,320,72142,1,2,0:0:0:0:
422,225,72369,1,2,0:0:0:0:
267,121,72596,1,2,0:0:0:0:
267,121,72824,2,0,P|212:137|156:11,1,200,2|2,0:0|0:0,0:0:0:0:
87,184,73511,6,0,L|103:282,1,100,14|0,2:3|0:0,0:0:0:0:
203,212,73959,2,0,L|187:310,1,100,10|0,1:3|0:0,0:0:0:0:
311,381,74408,1,2,2:3:0:0:
271,306,74632,1,8,2:3:0:0:
384,208,74856,5,2,2:3:0:0:
424,133,75081,1,8,2:3:0:0:
395,50,75305,2,0,L|287:69,1,100,10|0,2:3|0:0,0:0:0:0:
130,170,75758,5,8,1:3:0:0:
74,20,75985,1,2,0:0:0:0:
0,90,76212,2,0,L|107:101,1,100,0|10,2:3|2:3,0:0:0:0:
213,249,76666,2,0,L|106:260,1,100,0|10,2:3|2:3,0:0:0:0:
317,145,77120,6,0,P|254:218|271:313,2,200,10|10|2,2:3|1:3|2:3,0:0:0:0:
427,158,78255,1,8,2:3:0:0:
359,2,78482,2,0,L|376:100,1,100,2|10,0:0|2:3,0:0:0:0:
334,263,78935,5,8,2:3:0:0:
394,327,79157,1,0,0:0:0:0:
459,260,79379,2,0,P|363:285|276:334,1,200,10|0,1:3|0:0,0:0:0:0:
205,293,80046,1,10,2:3:0:0:
102,368,80268,1,2,0:0:0:0:
10,269,80490,1,10,2:3:0:0:
119,287,80712,6,0,P|114:237|108:187,1,100,8|2,2:3|0:0,0:0:0:0:
211,245,81169,1,8,1:3:0:0:
211,245,81397,1,2,0:0:0:0:
177,27,81626,2,0,P|170:76|166:126,1,100,0|10,0:0|2:3,0:0:0:0:
290,254,82083,2,0,P|279:187|234:162,1,100,0|10,0:0|2:3,0:0:0:0:
231,328,82540,6,0,P|317:282|416:290,1,200,8|10,2:3|1:3,0:0:0:0:
450,125,83207,2,0,P|485:160|485:209,1,100,2|0,2:0|0:0,0:0:0:0:
416,290,83653,2,0,P|381:255|381:206,1,100,10|0,2:3|0:0,0:0:0:0:
466,47,84098,1,10,2:3:0:0:
364,124,84321,6,0,B|319:94|260:124|277:142|217:165|176:137,1,200,10|8,2:3|1:3,0:0:0:0:
213,231,85010,1,2,0:0:0:0:
132,288,85240,2,0,P|128:238|116:189,1,100,2|10,0:0|2:3,0:0:0:0:
283,286,85691,2,0,P|269:334|265:383,1,100,0|10,0:0|2:3,0:0:0:0:
56,363,86142,5,8,2:3:0:0:
19,288,86367,1,0,0:0:0:0:
98,193,86593,2,0,B|117:150|117:150|84:-20,1,200,8|2,1:3|2:3,0:0:0:0:
34,136,87271,1,8,2:3:0:0:
183,207,87497,2,0,P|249:216|294:223,1,100,2|8,0:0|2:3,0:0:0:0:
405,164,87949,6,0,P|353:180|308:314,1,200,10|10,2:3|1:3,0:0:0:0:
372,384,88627,1,2,0:0:0:0:
461,347,88853,2,0,B|483:303|483:303|465:236,1,100,0|10,0:0|2:3,0:0:0:0:
382,158,89305,1,8,0:0:0:0:
433,76,89531,1,10,2:3:0:0:
392,178,89757,6,0,B|272:150|310:219|172:181,1,200,8|8,2:3|1:3,0:0:0:0:
158,68,90431,2,0,P|211:67|250:113,1,100,2|0,0:0|0:0,0:0:0:0:
110,200,90880,2,0,P|82:154|102:97,1,100,10|8,2:3|0:0,0:0:0:0:
216,206,91330,1,8,2:3:0:0:
261,370,91554,5,10,2:3:0:0:
376,200,91779,2,0,P|367:254|359:317,1,100,2|10,0:0|1:3,0:0:0:0:
274,91,92230,2,0,B|290:118|298:136|296:200,1,100,2|0,0:0|0:0,0:0:0:0:
465,28,92681,2,0,B|441:58|437:70|456:93|420:143,1,100,10|8,2:3|0:0,0:0:0:0:
346,302,93132,1,10,2:3:0:0:
483,370,93358,6,0,B|490:315|456:295|398:292|353:320|376:348|283:349|294:299|238:306|225:308,1,300.000011444092,8|8,2:3|1:3,0:0:0:0:
227,307,94032,1,0,0:0:0:0:
7,331,94481,5,10,2:3:0:0:
76,268,94706,1,8,0:0:0:0:
103,358,94931,1,10,2:3:0:0:
3,313,95155,1,8,2:3:0:0:
163,211,95381,6,0,P|179:158|160:114,1,100,2|8,0:0|1:3,0:0:0:0:
99,70,95834,2,0,P|83:123|102:167,1,100,2|0,0:0|0:0,0:0:0:0:
322,68,96287,2,0,P|275:56|205:47,1,100,10|8,2:3|0:0,0:0:0:0:
191,226,96740,6,0,B|236:249|293:230|279:204|327:167|381:192,1,200,10|2,2:3|0:0,0:0:0:0:
510,251,97420,1,8,1:3:0:0:
510,251,97646,2,0,B|465:274|408:255|422:229|374:192|320:217,1,200,2|10,0:0|2:3,0:0:0:0:
236,314,98326,1,8,0:0:0:0:
355,382,98550,6,0,B|365:334|365:334|353:284,2,100,2|8|0,0:0|2:3|0:0,0:0:0:0:
470,184,99224,1,10,1:3:0:0:
388,96,99449,1,0,0:0:0:0:
495,39,99673,1,2,0:0:0:0:
404,117,99900,2,0,P|352:101|295:94,1,100,10|8,2:3|0:0,0:0:0:0:
153,107,100354,1,10,2:3:0:0:
56,169,100582,6,0,P|150:137|249:135,1,200,8|8,2:3|1:3,0:0:0:0:
391,204,101251,2,0,P|328:195|273:219,1,100
136,254,101708,2,0,P|189:277|220:319,1,100,10|8,2:3|0:0,0:0:0:0:
257,384,102158,1,8,2:3:0:0:
279,119,102380,5,12,2:3:0:0:
279,119,102829,1,2,0:0:0:0:
121,50,103292,2,0,L|131:130,1,75.0000028610231,2|2,0:0|0:0,0:0:0:0:
86,185,103755,1,2,0:0:0:0:
112,255,103987,1,2,0:0:0:0:
44,302,104218,6,0,P|119:312|190:336,1,150.000005722046,2|2,0:0|0:0,0:0:0:0:
264,341,104907,2,0,P|264:304|240:276,2,75.0000028610231,2|0|0,0:0|0:0|0:0,0:0:0:0:
491,275,106053,5,2,0:0:0:0:
415,228,106283,1,2,0:0:0:0:
501,250,106514,1,2,0:0:0:0:
408,246,106746,1,2,0:0:0:0:
325,289,106978,2,0,P|243:311|182:343,1,150.000005722046,2|2,0:0|0:0,0:0:0:0:
199,359,107906,6,0,P|228:315|158:258,1,150.000005722046,2|2,0:0|0:0,0:0:0:0:
115,201,108602,1,2,0:0:0:0:
150,132,108834,2,0,P|155:98|148:54,3,75.0000028610231,2|2|2|0,0:0|0:0|0:0|0:0,0:0:0:0:
171,145,109753,5,2,0:0:0:0:
347,30,110215,2,0,L|335:107,1,75.0000028610231,2|0,0:0|0:0,0:0:0:0:
283,161,110677,2,0,L|295:238,1,75.0000028610231,2|2,0:0|0:0,0:0:0:0:
356,282,111140,1,2,0:0:0:0:
330,355,111374,1,2,0:0:0:0:
436,266,111608,6,0,P|450:206|486:120,1,150.000005722046,2|2,0:0|0:0,0:0:0:0:
465,26,112300,2,0,P|428:35|400:68,2,75.0000028610231,2|0|0,0:0|0:0|0:0,0:0:0:0:
184,20,113454,5,2,0:0:0:0:
195,52,113684,1,2,0:0:0:0:
136,140,113915,1,2,0:0:0:0:
147,172,114145,1,2,0:0:0:0:
201,250,114377,2,0,P|129:216|44:203,1,150.000005722046,2|2,0:0|0:0,0:0:0:0:
48,192,115300,6,0,P|17:239|90:278,1,150.000005722046,2|2,0:0|0:0,0:0:0:0:
141,331,115985,1,2,0:0:0:0:
203,282,116223,2,0,P|249:266|278:266,3,75.0000028610231,2|2|0|0,0:0|0:0|0:0|0:0,0:0:0:0:
477,346,117135,5,14,2:3:0:0:
357,257,117363,1,2,0:0:0:0:
501,218,117591,1,10,1:3:0:0:
394,330,117819,2,0,P|333:348|290:372,1,100,2|0,0:0|0:0,0:0:0:0:
323,145,118275,2,0,P|367:166|416:179,1,100,8|8,2:3|0:2,0:0:0:0:
236,218,118731,1,8,2:3:0:0:
116,152,118960,6,0,L|9:125,2,100,10|2|10,2:3|0:0|1:3,0:0:0:0:
367,36,119644,2,0,P|289:16|198:91,1,200,2|8,0:0|2:3,0:0:0:0:
128,273,120328,1,8,0:2:0:0:
19,127,120557,1,8,2:3:0:0:
61,217,120785,5,10,2:3:0:0:
235,164,121011,1,2,0:0:0:0:
96,75,121237,1,10,1:3:0:0:
168,240,121464,2,0,P|150:302|141:356,1,100,2|0,0:0|0:0,0:0:0:0:
307,108,121917,2,0,P|325:170|334:224,1,100,8|8,2:3|0:2,0:0:0:0:
245,34,122369,1,8,2:3:0:0:
404,126,122596,5,10,2:3:0:0:
231,178,122823,1,2,0:0:0:0:
458,222,123050,1,10,1:3:0:0:
307,108,123277,2,0,P|320:35|321:6,1,100,2|0,0:0|0:0,0:0:0:0:
487,145,123732,1,8,2:3:0:0:
403,372,123966,1,8,0:2:0:0:
316,193,124200,1,8,2:3:0:0:
498,304,124427,5,4,0:3:0:0:
256,192,124652,12,0,127377,0:0:0:0:
98,274,128064,5,2,0:0:0:0:
98,274,128293,1,2,0:0:0:0:
98,274,128522,1,2,0:0:0:0:
299,313,129211,1,2,0:0:0:0:
445,165,129899,1,2,0:0:0:0:
110,67,132644,6,0,B|108:48|48:9|-16:69|15:227|206:185|227:61,1,350,2|0,0:0|0:0,0:0:0:0:
348,94,133518,2,0,B|358:77|429:69|460:151|363:279|209:157|245:37,1,350,2|0,0:0|0:0,0:0:0:0:
251,13,134416,2,0,B|313:83|255:204|231:149|174:261|242:366,1,350,2|0,0:0|0:0,0:0:0:0:
319,299,135291,6,0,P|282:224|123:224,1,250,4|0,1:3|0:0,0:0:0:0:
47,35,136099,1,8,2:3:0:0:
5,101,136300,2,0,P|69:73|155:61,1,133.333333333333,0|0,0:0|3:0,0:0:0:0:
220,13,136757,6,0,B|270:-10|321:55|296:71|336:117|388:112,1,200.000007629395,2|0,3:2|0:0,0:0:0:0:
218,128,137245,2,0,B|251:161|328:131|304:106|352:68|415:97,1,200.000007629395,2|0,0:0|0:0,0:0:0:0:
462,47,137734,2,0,P|494:148|406:145,1,200.000007629395,10|0,2:3|0:0,0:0:0:0:
388,11,138223,5,2,3:2:0:0:
357,190,138549,1,0,0:0:0:0:
357,190,138712,2,0,P|375:266|373:312,1,116.666666666667,0|8,0:0|2:3,0:0:0:0:
318,363,139201,2,0,P|268:319|317:278,1,133.333333333333,0|0,0:0|3:0,0:0:0:0:
448,170,139663,6,0,P|318:185|141:267,2,300.000011444092,2|2|10,3:2|0:0|2:3,0:0:0:0:
193,34,141156,6,0,B|140:19|102:78|130:86|92:144|29:128,1,200.000007629395,2|0,3:2|0:0,0:0:0:0:
50,55,141643,2,0,P|139:81|155:163,1,175.00000667572,0|8,0:0|2:3,0:0:0:0:
321,146,142131,2,0,P|242:177|239:242,1,133.333333333333,0|0,0:0|3:2,0:0:0:0:
163,256,142584,5,2,3:2:0:0:
289,33,143079,2,0,B|376:60|376:60|388:80|388:80|499:110,1,200,2|10,0:0|2:3,0:0:0:0:
288,241,143906,1,2,0:0:0:0:
341,293,144071,6,0,B|375:311|409:280|409:280|385:225|377:146,1,200,2|0,3:2|0:0,0:0:0:0:
231,62,144841,1,8,2:3:0:0:
224,47,145044,2,0,P|289:39|323:115,1,133.333333333333,0|0,0:0|3:2,0:0:0:0:
240,136,145531,6,0,B|206:168|153:153|163:141|126:116|78:134,1,166.666666666667,2|0,3:2|0:0,0:0:0:0:
137,58,146019,2,0,P|167:159|175:236,1,166.666666666667,2|0,0:0|0:0,0:0:0:0:
237,263,146508,2,0,P|302:199|222:137,1,200.000007629395,10|0,2:3|0:0,0:0:0:0:
93,298,146997,6,0,B|183:314|183:314|194:329|194:329|311:349,1,200.000007629395,2|0,3:2|0:0,0:0:0:0:
300,358,147488,1,0,0:0:0:0:
349,198,147775,1,8,2:3:0:0:
363,209,147980,6,0,L|350:283,1,66.6666666666667
425,158,148294,1,2,3:2:0:0:
434,146,148452,2,0,P|328:122|272:233,1,233.333335558573,0|0,3:2|0:0,0:0:0:0:
203,248,148941,2,0,P|123:285|133:211,1,200.000007629395,2|0,0:0|0:0,0:0:0:0:
116,139,149431,2,0,P|175:57|150:0,1,166.666666666667,10|2,2:3|0:0,0:0:0:0:
31,167,149921,6,0,P|151:167|246:180,1,200,2|0,3:2|0:0,0:0:0:0:
385,337,150702,1,8,2:3:0:0:
350,275,150908,2,0,P|359:189|359:130,1,133.333333333333,0|0,0:0|3:2,0:0:0:0:
483,74,151393,6,0,B|410:35|345:91|374:114|302:185|214:145,2,300.000011444092,2|2|10,3:2|0:0|2:3,0:0:0:0:
186,74,152850,6,0,L|172:225,1,133.333333333333,2|0,3:2|0:0,0:0:0:0:
101,197,153347,2,0,L|110:319,1,116.666666666667,0|8,0:0|2:3,0:0:0:0:
161,384,153845,2,0,P|202:320|175:271,1,133.333333333333,0|0,0:0|3:2,0:0:0:0:
110,314,154311,6,0,B|146:240|249:251|226:281|321:297|368:213,2,300.000011444092,2|2|10,3:2|0:0|2:3,0:0:0:0:
427,264,155782,6,0,P|395:202|417:143,1,133.333333333333,2|0,3:2|0:0,0:0:0:0:
414,145,156282,1,0,0:0:0:0:
178,27,156586,1,8,2:3:0:0:
237,92,156803,2,0,P|151:69|86:58,1,133.333333333333,0|0,0:0|3:2,0:0:0:0:
349,24,157294,5,2,3:2:0:0:
193,184,157870,1,2,3:2:0:0:
321,301,158408,1,2,3:2:0:0:
371,222,158960,6,0,P|297:212|238:336,1,200,6|0,1:2|0:0,0:0:0:0:
125,143,159746,1,8,2:3:0:0:
58,182,159942,2,0,P|130:202|152:271,1,133.333333333333,0|0,0:0|3:2,0:0:0:0:
306,94,160406,6,0,B|261:71|203:109|229:126|177:161|125:143,1,200.000007629395,2|0,3:2|0:0,0:0:0:0:
66,95,160896,2,0,P|50:44|136:78,1,200.000007629395,2|0,0:0|0:0,0:0:0:0:
124,142,161387,2,0,P|104:218|109:280,1,133.333333333333,10|0,2:3|0:0,0:0:0:0:
107,272,161860,5,2,3:2:0:0:
212,384,162182,1,0,0:0:0:0:
212,384,162343,2,0,P|250:328|236:278,1,116.666666666667,0|8,0:0|2:3,0:0:0:0:
174,320,162827,2,0,P|104:303|32:300,1,133.333333333333,0|0,0:0|3:2,0:0:0:0:
250,269,163321,6,0,B|318:366|426:357|461:274|415:212|343:222|339:261,2,300.000011444092,2|2|10,3:2|0:0|2:3,0:0:0:0:
79,76,164752,6,0,B|132:52|186:104|154:115|214:150|271:119,1,200.000007629395,2|0,3:2|0:0,0:0:0:0:
226,54,165239,2,0,P|150:145|173:197,1,175.00000667572,0|8,0:0|2:3,0:0:0:0:
179,274,165742,2,0,P|227:197|279:203,1,133.333333333333,0|0,0:0|3:2,0:0:0:0:
251,270,166203,5,2,3:2:0:0:
438,150,166693,2,0,B|402:117|402:117|227:145,1,200,2|10,0:0|2:3,0:0:0:0:
76,308,167511,1,2,0:0:0:0:
39,238,167675,6,0,B|54:157|54:157|46:127|46:127|67:24,1,200,2|0,3:2|0:0,0:0:0:0:
194,166,168428,1,8,2:3:0:0:
205,177,168627,2,0,P|233:125|174:82,1,133.333333333333,0|0,0:0|3:2,0:0:0:0:
110,157,169103,6,0,P|134:253|131:343,1,166.666666666667,2|0,3:2|0:0,0:0:0:0:
202,365,169586,2,0,B|234:387|289:372|273:356|321:334|363:359,1,166.666666666667,2|0,0:0|0:0,0:0:0:0:
430,332,170070,2,0,P|447:273|345:276,1,200.000007629395,10|0,2:3|0:0,0:0:0:0:
345,275,170554,6,0,B|372:303|411:277|411:277|387:205|417:145,1,200.000007629395,2|0,3:2|0:0,0:0:0:0:
254,53,171039,2,0,B|281:25|320:51|320:51|296:123|320:170,1,175.00000667572,0|8,0:0|2:3,0:0:0:0:
266,232,171525,6,0,L|193:216,1,66.6666666666667
56,260,171839,1,2,3:2:0:0:
102,329,171997,2,0,P|100:188|125:82,1,233.333335558573,0|0,3:2|0:0,0:0:0:0:
109,19,172486,2,0,P|152:17|184:144,1,200.000007629395,2|0,0:0|0:0,0:0:0:0:
302,190,172976,2,0,P|222:207|203:291,1,166.666666666667,10|2,2:3|0:0,0:0:0:0:
331,270,173466,6,0,P|331:168|310:56,1,200,2|0,3:2|0:0,0:0:0:0:
479,172,174239,1,8,2:3:0:0:
473,96,174439,2,0,P|417:127|414:212,1,133.333333333333,0|0,0:0|3:2,0:0:0:0:
509,252,174917,6,0,B|427:233|372:294|400:316|321:374|242:342,2,300.000011444092,2|2|10,3:2|0:0|2:3,0:0:0:0:
294,255,176368,6,0,P|283:193|210:142,1,133.333333333333,2|0,3:2|0:0,0:0:0:0:
352,167,176848,2,0,P|363:105|408:64,1,116.666666666667,0|8,0:0|2:3,0:0:0:0:
289,95,177328,1,0,0:0:0:0:
129,176,177648,1,0,3:2:0:0:
129,176,177808,2,0,P|65:85|205:113,2,300.000011444092,2|2|10,3:2|0:0|2:3,0:0:0:0:
440,236,179277,6,0,P|329:185|233:178,1,200,2|0,3:2|0:0,0:0:0:0:
222,317,180049,1,8,2:3:0:0:
212,308,180252,2,0,P|228:260|309:282,1,133.333333333333,0|0,0:0|3:2,0:0:0:0:
287,357,180717,1,4,3:2:0:0:
63,360,181198,5,2,0:0:0:0:
112,290,181359,1,8,2:3:0:0:
0,221,181520,1,8,2:3:0:0:
82,119,181680,5,4,0:3:0:0:
131,179,181835,1,4,0:3:0:0:
111,200,181990,1,4,0:3:0:0:
126,211,182145,1,4,0:3:0:0:
244,336,182478,5,4,0:3:0:0:
226,347,182645,2,0,P|247:253|323:230,1,166.666666666667,4|0,3:3|0:0,0:0:0:0:
372,275,183122,2,0,L|470:258,1,83.3333333333333,2|2,0:0|0:0,0:0:0:0:
509,74,183440,1,8,2:3:0:0:
491,86,183599,2,0,L|393:69,1,83.3333333333333,2|2,0:0|0:0,0:0:0:0:
360,18,183917,1,0,3:2:0:0:
353,154,184076,6,0,P|285:81|211:93,1,166.666666666667,2|0,3:2|0:0,0:0:0:0:
164,41,184561,2,0,P|134:59|127:115,2,83.3333333333333,2|2|0,0:0|0:0|0:0,0:0:0:0:
113,209,185047,2,0,P|77:190|67:151,2,83.3333333333333,10|2|0,2:3|0:0|0:0,0:0:0:0:
215,337,185533,5,2,3:2:0:0:
282,295,185696,1,2,0:0:0:0:
331,318,185860,1,0,0:0:0:0:
370,300,186023,2,0,B|336:284|285:311|309:324|264:348|214:336,1,166.666666666667,2|8,0:0|2:3,0:0:0:0:
171,260,186498,2,0,P|200:216|187:180,1,83.3333333333333,2|2,0:0|0:0,0:0:0:0:
132,118,186815,5,0,3:2:0:0:
117,128,186973,2,0,P|88:84|101:48,1,83.3333333333333,2|2,3:2|0:0,0:0:0:0:
204,84,187298,1,0,0:0:0:0:
168,20,187460,6,0,P|161:144|166:228,1,200.000007629395,2|0,0:0|0:0,0:0:0:0:
132,321,187943,2,0,P|139:197|134:113,1,200.000007629395,10|0,2:3|0:0,0:0:0:0:
327,4,188427,6,0,P|329:55|287:86,1,83.3333333333333,2|2,3:2|0:0,0:0:0:0:
270,176,188768,1,0,0:0:0:0:
217,96,188939,2,0,P|321:115|389:149,1,166.666666666667,2|8,0:0|2:3,0:0:0:0:
453,222,189405,1,2,0:0:0:0:
417,289,189561,1,2,0:0:0:0:
444,322,189717,1,0,3:2:0:0:
436,344,189872,6,0,P|440:294|433:256,1,83.3333333333333,2|2,3:2|0:0,0:0:0:0:
491,132,190211,1,0,0:0:0:0:
475,144,190381,2,0,P|470:102|476:61,2,83.3333333333333,2|2|0,0:0|0:0|0:0,0:0:0:0:
364,213,190868,2,0,L|262:197,1,83.3333333333333,10|2,2:3|0:0,0:0:0:0:
228,149,191194,1,0,0:0:0:0:
139,85,191356,6,0,B|177:67|223:89|209:111|253:142|304:122,1,166.666666666667,2|0,3:2|0:0,0:0:0:0:
350,37,191828,2,0,P|315:28|270:73,1,83.3333333333333,2|2,0:0|0:0,0:0:0:0:
211,172,192148,1,8,2:3:0:0:
217,180,192308,2,0,P|182:189|137:144,1,83.3333333333333,2|2,0:0|0:0,0:0:0:0:
13,75,192628,1,0,3:2:0:0:
70,22,192788,6,0,P|42:125|38:201,1,166.666666666667,6|0,3:2|0:0,0:0:0:0:
74,338,193268,2,0,B|42:285|82:235|101:256|137:205|111:157,1,200.000007629395,2|0,0:0|0:0,0:0:0:0:
140,90,193755,2,0,P|232:126|186:179,1,200.000007629395,10|0,2:3|0:0,0:0:0:0:
303,27,194243,6,0,B|425:52|425:52|461:87|430:131,1,200.000007629395,2|0,3:2|0:0,0:0:0:0:
327,194,194736,2,0,P|306:225|312:278,1,83.3333333333333,2|2,0:0|0:0,0:0:0:0:
459,327,195058,1,8,2:3:0:0:
471,317,195219,2,0,P|473:276|451:241,1,83.3333333333333,2|2,0:0|0:0,0:0:0:0:
365,325,195536,1,0,3:2:0:0:
299,374,195695,6,0,P|205:339|107:317,1,200.000007629395,2|0,3:2|0:0,0:0:0:0:
98,179,196180,2,0,P|192:221|171:313,1,200.000007629395,2|0,0:0|0:0,0:0:0:0:
61,372,196666,2,0,P|35:313|50:274,1,100.000003814697,10|2,2:3|0:0,0:0:0:0:
107,317,196990,1,0,0:0:0:0:
201,375,197152,6,0,P|227:265|256:194,1,166.666666666667,2|0,3:2|0:0,0:0:0:0:
315,131,197637,1,2,0:0:0:0:
276,67,197799,1,2,0:0:0:0:
314,30,197961,1,8,2:3:0:0:
300,14,198123,6,0,P|288:84|278:121,1,83.3333333333333,2|2,0:0|0:0,0:0:0:0:
430,190,198439,1,0,3:2:0:0:
448,118,198597,6,0,P|374:182|360:340,1,250,2|2,3:2|0:0,0:0:0:0:
359,330,199578,2,0,P|298:250|209:253,1,166.666666666667,10|0,2:3|0:0,0:0:0:0:
225,254,199980,1,2,0:0:0:0:
214,267,200060,5,2,3:2:0:0:
30,362,200380,1,0,0:0:0:0:
70,301,200540,2,0,L|165:319,2,83.3333333333333,2|2|8,0:0|0:0|2:3,0:0:0:0:
16,187,201020,1,2,0:0:0:0:
63,108,201180,1,2,0:0:0:0:
41,81,201340,1,0,3:2:0:0:
52,66,201500,6,0,P|86:87|93:127,1,83.3333333333333,2|2,3:2|0:0,0:0:0:0:
147,206,201820,1,0,0:0:0:0:
162,216,201980,2,0,P|196:194|203:154,1,83.3333333333333,2|2,0:0|0:0,0:0:0:0:
271,31,202305,1,0,0:0:0:0:
286,21,202467,2,0,P|320:42|327:82,2,83.3333333333333,10|2|0,2:3|0:0|0:0,0:0:0:0:
434,74,202962,6,0,P|339:130|319:286,1,250,2|0,3:2|0:0,0:0:0:0:
467,362,203803,1,8,2:3:0:0:
501,253,203974,6,0,B|468:243|443:270|457:279|425:312|385:300,1,133.333333333333,2|0,0:0|0:0,0:0:0:0:
386,300,204524,1,2,0:0:0:0:
57,55,205305,2,0,P|146:68|134:259,1,300,2|2,0:0|0:0,0:0:0:0:
155,245,206865,6,0,B|126:286|63:253|42:201|154:98|224:210,1,250,6|0,1:3|0:0,0:0:0:0:
361,351,207689,1,8,2:3:0:0:
417,293,207890,2,0,P|413:225|423:135,1,145.833333333333,0|0,0:0|3:2,0:0:0:0:
512,77,208358,6,0,B|469:46|411:83|441:106|376:145|326:110,1,200.000007629395,2|0,3:2|0:0,0:0:0:0:
495,152,208834,2,0,B|443:160|406:102|443:94|402:31|342:39,1,200.000007629395,2|0,0:0|0:0,0:0:0:0:
235,164,209310,2,0,P|307:109|267:71,1,166.666666666667,10|0,2:3|0:0,0:0:0:0:
263,0,209810,6,0,P|248:110|252:282,1,250,2|0,3:2|0:0,0:0:0:0:
55,352,210566,1,8,2:3:0:0:
8,292,210766,2,0,B|-1:261|17:244|17:244|153:277,1,166.666666666667,0|0,0:0|3:2,0:0:0:0:
206,325,211244,6,0,B|324:345|324:345|370:329|370:329|500:352,2,300.000011444092,2|2|10,3:2|0:0|2:3,0:0:0:0:
100,103,212687,6,0,P|199:160|198:218,1,166.666666666667,2|0,3:2|0:0,0:0:0:0:
137,221,213204,2,0,B|122:179|151:144|160:171|192:112|163:70,1,145.833333333333,0|8,0:0|2:3,0:0:0:0:
120,15,213676,1,0,0:0:0:0:
274,136,213980,5,0,3:2:0:0:
260,119,214132,2,0,P|348:36|485:82,1,250,2|2,3:2|0:0,0:0:0:0:
302,217,215109,2,0,P|219:252|213:331,1,166.666666666667,10|2,2:3|0:0,0:0:0:0:
288,298,215589,6,0,B|329:329|372:308|358:295|401:270|446:294,1,166.666666666667,2|0,3:2|0:0,0:0:0:0:
444,293,216093,1,0,0:0:0:0:
378,97,216379,1,8,2:3:0:0:
321,141,216584,2,0,L|136:120,1,166.666666666667,0|0,0:0|3:2,0:0:0:0:
95,6,217038,6,0,P|124:184|125:328,2,300.000011444092,2|2|10,3:2|0:0|2:3,0:0:0:0:
80,360,218495,6,0,P|42:281|100:233,1,166.666666666667,2|0,3:2|0:0,0:0:0:0:
136,174,218999,2,0,P|121:87|59:85,1,145.833333333333,0|8,0:0|2:3,0:0:0:0:
149,0,219494,2,0,P|147:71|151:97,1,83.3333333333333
177,235,219806,1,2,0:0:0:0:
136,174,219962,5,8,2:3:0:0:
159,155,220117,1,8,2:3:0:0:
187,162,220272,1,8,2:3:0:0:
250,115,220427,5,4,0:3:0:0:
331,166,220592,1,4,0:3:0:0:
424,121,220758,1,4,0:3:0:0:
490,171,220924,5,4,0:3:0:0:
294,62,221262,1,4,0:3:0:0:
294,62,221432,2,0,P|293:149|301:276,1,209.999993591309,4|2,0:3|0:0,0:0:0:0:
308,286,224152,1,2,0:0:0:0:
300,319,224702,1,2,0:0:0:0:
314,367,225262,6,0,P|405:353|527:357,1,200,2|0,0:0|0:0,0:0:0:0:
504,219,226797,2,0,P|462:264|411:239,1,100,2|2,0:0|0:0,0:0:0:0:
438,182,227825,1,2,0:0:0:0:
364,59,228325,6,0,P|368:132|364:221,1,150,2|2,0:0|0:0,0:0:0:0:
226,64,229852,5,2,0:0:0:0:
193,220,230324,1,2,0:0:0:0:
75,114,230796,1,2,0:0:0:0:
39,101,231030,1,2,0:0:0:0:
0,112,231284,1,2,0:0:0:0:
37,182,232034,2,0,P|43:213|44:247,1,50,2|2,0:0|0:0,0:0:0:0:
203,353,232781,5,2,0:0:0:0:
121,184,233296,1,2,0:0:0:0:
40,314,233806,1,2,0:0:0:0:
40,314,234078,1,2,0:0:0:0:
40,314,234366,6,0,B|99:368|205:328|176:299|253:245|332:299,1,300,2|2,0:0|0:0,0:0:0:0:
