osu file format v14

[General]
AudioFilename: audio.mp3
AudioLeadIn: 0
PreviewTime: 132499
Countdown: 0
SampleSet: Soft
StackLeniency: 0.9
Mode: 0
LetterboxInBreaks: 0
WidescreenStoryboard: 1

[Editor]
Bookmarks: 7649,73511,89757,117135,135291,158960,182645,206865
DistanceSpacing: 1
BeatDivisor: 12
GridSize: 32
TimelineZoom: 1.9177

[Metadata]
Title:Christmas Lights
TitleUnicode:Christmas Lights
Artist:Coldplay
ArtistUnicode:Coldplay
Creator:Aistre
Version:Hard feat. AJT
Source:
Tags:xmas pop english seasonal alternative rock chris martin alphabet venax apollo apo11o AJT london oxford street
BeatmapID:2744043
BeatmapSetID:1324802

[Difficulty]
HPDrainRate:4.5
CircleSize:4
OverallDifficulty:6.4
ApproachRate:7.5
SliderMultiplier:1.4
SliderTickRate:1

[Events]
//Background and Video events
0,0,"Oxford_Street.jpg",0,0
//Break Periods
//Storyboard Layer 0 (Background)
//Storyboard Layer 1 (Fail)
//Storyboard Layer 2 (Pass)
//Storyboard Layer 3 (Foreground)
//Storyboard Layer 4 (Overlay)
//Storyboard Sound Samples

[TimingPoints]
65,474.308300395256,4,2,1,30,1,0
539,451.127819548872,4,2,1,30,1,8
1215,465.116279069767,4,2,1,30,1,8
1912,488.798370672097,4,2,1,30,1,0
2400,460.652591170825,4,2,1,30,1,8
3090,490.79754601227,4,2,1,30,1,8
3580,424.028268551236,4,2,1,30,1,8
3799,534.521158129175,4,2,1,30,1,0
4061,600,4,2,1,30,1,8
4363,468.75,4,2,1,30,1,8
5062,477.707006369427,4,2,1,30,1,8
5778,478.08764940239,4,2,1,30,1,0
6253,468.75,4,2,1,30,1,8
6959,460.652591170825,4,2,1,30,1,8
7649,453.686200378072,4,2,1,30,1,0
7649,-111.111111111111,4,2,1,45,0,0
9463,459.312562198576,4,2,1,45,1,0
9463,-111.111111111111,4,2,1,45,0,0
11300,457.840518885921,4,2,1,45,1,0
11300,-111.111111111111,4,2,1,45,0,0
13131,449.438202247191,4,2,1,45,1,0
13131,-111.111111111111,4,2,1,45,0,0
14029,457.66590389016,4,2,1,45,1,0
14029,-111.111111111111,4,2,1,45,0,0
14944,457.73573390296,4,2,1,45,1,0
14944,-111.111111111111,4,2,1,45,0,0
20436,439.560439560439,4,2,1,45,1,0
20436,-111.111111111111,4,2,1,45,0,0
20875,466.926070038911,4,2,1,45,1,0
20875,-111.111111111111,4,2,1,45,0,0
21341,465.116279069767,4,2,1,45,1,0
21341,-111.111111111111,4,2,1,45,0,0
21806,428.571428571429,4,2,1,45,1,0
21806,-111.111111111111,4,2,1,45,0,0
22020,492.813141683778,4,2,1,45,1,0
22020,-111.111111111111,4,2,1,45,0,0
22266,458.015267175573,4,2,1,45,1,0
22266,-133.333333333333,4,2,1,30,0,0
24098,454.201362604088,4,2,1,30,1,0
24098,-133.333333333333,4,2,1,30,0,0
25914,457.73573390296,4,2,1,30,1,0
25914,-133.333333333333,4,2,1,30,0,0
28660,472.44094488189,4,2,1,45,1,0
28660,-133.333333333333,4,2,1,45,0,0
29132,446.096654275093,4,2,1,45,1,0
29132,-133.333333333333,4,2,1,45,0,0
29578,465.116279069767,4,2,1,45,1,0
29578,-133.333333333333,4,2,1,30,0,0
31438,458.015267175573,4,2,1,30,1,0
31438,-133.333333333333,4,2,1,30,0,0
33270,465.116279069767,4,2,1,30,1,0
33270,-133.333333333333,4,2,1,30,0,0
34665,494.845360824742,4,2,1,30,1,0
34665,-133.333333333333,4,2,1,30,0,0
35159,431.654676258993,4,2,1,30,1,0
35159,-133.333333333333,4,2,1,45,0,0
35806,476.190476190476,4,2,1,45,1,0
35806,-133.333333333333,4,2,1,45,0,0
36044,456.273764258555,4,2,1,45,1,0
36044,-133.333333333333,4,2,1,35,0,0
36956,459.770114942529,4,2,1,45,1,0
36956,-133.333333333333,4,2,1,30,0,0
42473,-100,4,2,1,45,0,0
42933,441.176470588235,4,2,1,45,1,0
42933,-133.333333333333,4,2,1,45,0,0
43374,471.512770137525,4,2,1,45,1,0
43374,-133.333333333333,4,2,1,45,0,0
44317,457.142857142858,4,2,1,45,1,0
44317,-133.333333333333,4,2,1,30,0,0
46145,466.926070038911,4,2,1,30,1,0
46145,-133.333333333333,4,2,1,30,0,0
48012,456.62100456621,4,2,1,30,1,0
48012,-133.333333333333,4,2,1,30,0,0
49838,450.281425891182,4,2,1,30,1,0
49838,-133.333333333333,4,2,1,30,0,0
50288,461.538461538462,4,2,1,30,1,0
50288,-133.333333333333,4,2,1,45,0,0
50749,465.766185374942,4,2,1,45,1,0
50749,-133.333333333333,4,2,1,45,0,0
51680,460.652591170825,4,2,1,45,1,0
51680,-133.333333333333,4,2,1,30,0,0
53522,456.273764258556,4,2,1,30,1,0
53522,-133.333333333333,4,2,1,30,0,0
54890,454.545454545455,4,2,1,30,1,0
54890,-133.333333333333,4,2,1,30,0,0
55344,422.535211267606,4,2,1,30,1,0
55344,-133.333333333333,4,2,1,30,0,0
55766,495.867768595041,4,2,1,30,1,0
55766,-133.333333333333,4,2,1,30,0,0
56261,448.598130841121,4,2,1,30,1,0
56261,-133.333333333333,4,2,1,30,0,0
57158,418.848167539267,4,2,1,30,1,0
57158,-133.333333333333,4,2,1,30,0,0
57577,468.75,4,2,1,30,1,0
57577,-133.333333333333,4,2,1,30,0,0
58514,446.927374301676,4,2,1,30,1,0
58514,-133.333333333333,4,2,1,30,0,0
58960,450.45045045045,4,2,1,30,1,0
58960,-111.111111111111,4,2,1,45,0,0
59860,457.66590389016,4,2,1,45,1,0
59860,-111.111111111111,4,2,1,45,0,0
60775,437.31778425656,4,2,1,45,1,0
60775,-111.111111111111,4,2,1,45,0,0
61212,459.770114942529,4,2,1,45,1,0
61212,-111.111111111111,4,2,1,45,0,0
62586,453.857791225416,4,2,1,45,1,0
62586,-111.111111111111,4,2,1,45,0,0
64406,446.262551134251,4,2,1,45,1,0
64406,-111.111111111111,4,2,1,45,0,0
65298,453.001132502831,4,2,1,45,1,0
65298,-111.111111111111,4,2,1,45,0,0
66204,453.001132502831,4,2,1,45,1,0
66204,-111.111111111111,4,2,1,45,0,0
67563,467.107824056053,4,2,1,45,1,0
67563,-111.111111111111,4,2,1,45,0,0
68030,452.830188679245,4,2,1,45,1,0
68030,-111.111111111111,4,2,1,45,0,0
68482,454.545454545455,4,2,1,45,1,0
68482,-111.111111111111,4,2,1,45,0,0
68709,483.870967741935,4,2,1,45,1,0
68709,-111.111111111111,4,2,1,45,0,0
68950,441.988950276243,4,2,1,45,1,0
68950,-111.111111111111,4,2,1,45,0,0
69170,468.75,4,2,1,45,1,0
69170,-111.111111111111,4,2,1,45,0,0
69873,453.857791225416,4,2,1,45,1,0
69873,-111.111111111111,4,2,1,45,0,0
72596,457.561198810341,4,2,1,45,1,0
72596,-111.111111111111,4,2,1,45,0,0
73511,448.598130841121,4,2,1,60,1,0
75305,453.857791225416,4,2,1,60,1,0
78935,444.444444444444,4,2,1,60,1,0
80712,457.142857142857,4,2,1,60,1,0
82312,-98.6193293885601,4,2,1,60,0,0
82540,445.269016697588,4,2,1,60,1,0
84098,-102.040816326531,4,2,1,60,0,0
84321,459.770114942529,4,2,1,60,1,0
85240,451.127819548872,4,2,1,60,1,0
86142,451.977401129944,4,2,1,60,1,0
89757,449.438202247192,4,2,1,60,1,0
91554,451.127819548873,4,2,1,60,1,0
93358,449.438202247192,4,2,1,60,1,0
95155,453.001132502831,4,2,1,60,1,0
98326,449.438202247191,4,2,1,60,1,0
98775,449.438202247191,4,2,1,60,1,0
99673,454.545454545455,4,2,1,60,1,0
100582,441.176470588235,4,2,1,60,1,0
101023,456.968773800457,4,2,1,60,1,0
101936,444.444444444444,4,2,1,60,1,0
102380,449.438202247191,4,2,1,60,1,0
102380,-133.333333333333,4,2,1,60,0,0
102829,463.320463320463,4,2,1,60,1,0
102829,-133.333333333333,4,2,1,35,0,0
104218,459.770114942529,4,2,1,35,1,0
104218,-133.333333333333,4,2,1,35,0,0
105597,456.273764258555,4,2,1,35,1,0
105597,-133.333333333333,4,2,1,35,0,0
106053,461.538461538462,4,2,1,35,1,0
106053,-133.333333333333,4,2,1,35,0,0
106514,464.2166344294,4,2,1,35,1,0
106514,-133.333333333333,4,2,1,35,0,0
107906,464.2166344294,4,2,1,35,1,0
107906,-133.333333333333,4,2,1,35,0,0
108834,459.770114942529,4,2,1,35,1,0
108834,-133.333333333333,4,2,1,35,0,0
109753,462.42774566474,4,2,1,35,1,0
109753,-133.333333333333,4,2,1,35,0,0
111140,468.75,4,2,1,35,1,0
111140,-133.333333333333,4,2,1,35,0,0
111608,461.538461538462,4,2,1,35,1,0
111608,-133.333333333333,4,2,1,35,0,0
115300,447.761194029851,4,2,1,35,1,0
115300,-133.333333333333,4,2,1,35,0,0
115747,476.190476190476,4,2,1,35,1,0
115747,-133.333333333333,4,2,1,35,0,0
116223,456.273764258555,4,2,1,35,1,0
116223,-133.333333333333,4,2,1,35,0,0
117135,456.273764258555,4,2,1,60,1,0
120785,452.830188679246,4,2,1,60,1,0
122596,454.545454545455,4,2,1,60,1,0
123732,468.75,4,2,1,60,1,0
124427,451.127819548872,4,2,1,60,1,0
126232,458.015267175573,4,2,1,60,1,0
128064,458.891013384322,4,2,1,60,1,0
129899,457.596095179988,6,2,1,60,1,0
132644,437.158469945354,6,2,1,60,1,0
133518,449.438202247191,6,2,1,60,1,0
134416,437.956204379562,6,2,1,60,1,0
135291,526.315789473685,3,2,2,70,1,0
135817,483.870967741936,3,2,2,70,1,0
136300,457.142857142857,3,2,2,70,1,0
136757,488.997555012225,3,2,2,70,1,0
139201,462.42774566474,3,2,2,70,1,8
139663,497.92531120332,3,2,2,70,1,0
141156,487.80487804878,3,2,2,70,1,0
142131,453.686200378072,3,2,2,70,1,8
142584,495.867768595041,3,2,2,70,1,0
144071,486.815415821501,3,2,2,70,1,0
145531,488.798370672098,3,2,2,70,1,0
146997,491.803278688525,3,2,2,70,1,0
147980,472.44094488189,3,2,2,70,1,8
148452,489.795918367347,3,2,2,70,1,0
149921,493.827160493827,3,2,2,70,1,0
150908,485.82995951417,3,2,2,70,1,8
151393,485.82995951417,3,2,2,70,1,0
152850,497.92531120332,3,2,2,70,1,0
153845,466.926070038911,3,2,2,70,1,8
154311,490.596892886345,3,2,2,70,1,0
155782,500,3,2,2,70,1,0
156282,521.739130434783,3,2,2,70,1,8
156803,491.803278688525,3,2,2,70,1,8
157294,576.923076923077,3,2,2,70,1,0
157870,538.116591928251,3,2,2,70,1,8
158408,552.99539170507,3,2,2,70,1,0
158960,487.804878048781,3,2,2,70,1,0
158960,-101.83299389002,3,2,2,70,0,0
159447,513.918629550321,3,2,2,70,1,0
159942,446.096654275093,3,2,2,70,1,0
160406,490.79754601227,3,2,2,70,1,0
161387,483.870967741935,3,2,2,70,1,0
161860,483.870967741935,3,2,2,70,1,0
163321,480,3,2,2,70,1,0
164281,486.815415821501,3,2,2,70,1,0
164752,487.80487804878,3,2,2,70,1,0
165742,461.538461538461,3,2,2,70,1,0
166203,490.79754601227,3,2,2,70,1,0
167675,476.190476190476,3,2,2,70,1,0
169103,483.870967741935,3,2,2,70,1,0
170554,485.82995951417,3,2,2,70,1,0
171525,472.44094488189,3,2,2,70,1,0
171761,-101.317122593718,3,2,2,70,0,0
171997,489.795918367347,3,2,2,70,1,0
173466,495.867768595041,3,2,2,70,1,0
173961,478.08764940239,3,2,2,70,1,0
174917,485.829959514171,3,2,2,70,1,0
175888,480.000000000001,3,2,2,70,1,0
176368,480.000000000001,3,2,2,70,1,0
177808,489.795918367347,3,2,2,70,1,0
179277,487.804878048781,3,2,2,70,1,0
180252,465.116279069768,3,2,2,70,1,0
180717,481.927710843374,4,2,2,70,1,0
181680,465.116279069768,4,2,3,70,1,0
182145,500.000000000001,4,2,3,70,1,0
182645,477.137176938371,3,2,2,70,1,0
182645,-90.9090909090909,3,2,2,70,0,0
184076,485.829959514171,3,2,2,70,1,0
184076,-90.9090909090909,3,2,2,70,0,0
185533,490.797546012271,3,2,2,70,1,0
185533,-90.9090909090909,3,2,2,70,0,0
186023,475.247524752476,3,2,2,70,1,0
186023,-90.9090909090909,3,2,2,70,0,0
186973,487.804878048782,3,2,2,70,1,0
186973,-90.9090909090909,3,2,2,70,0,0
187460,483.870967741937,3,2,2,70,1,0
187460,-90.9090909090909,3,2,2,70,0,0
188427,512.820512820514,3,2,2,70,1,0
188427,-90.9090909090909,3,2,2,70,0,0
188939,466.926070038912,3,2,2,70,1,0
188939,-90.9090909090909,3,2,2,70,0,0
189872,509.55414012739,3,2,2,70,1,0
189872,-90.9090909090909,3,2,2,70,0,0
190381,487.80487804878,3,2,2,70,1,0
190381,-90.9090909090909,3,2,2,70,0,0
191356,472.44094488189,3,2,2,70,1,0
191356,-90.9090909090909,3,2,2,70,0,0
191828,480,3,2,2,70,1,0
191828,-90.9090909090909,3,2,2,70,0,0
192788,480,3,2,2,70,1,0
192788,-90.9090909090909,3,2,2,70,0,0
193268,487.80487804878,3,2,2,70,1,0
193268,-90.9090909090909,3,2,2,70,0,0
194243,493.827160493827,3,2,2,70,1,0
194243,-90.9090909090909,3,2,2,70,0,0
194736,483.870967741935,3,2,2,70,1,0
194736,-90.9090909090909,3,2,2,70,0,0
195219,476.190476190476,3,2,2,70,1,0
195219,-90.9090909090909,3,2,2,70,0,0
195695,485.82995951417,3,2,2,70,1,0
195695,-90.9090909090909,3,2,2,70,0,0
197152,-90.9090909090909,3,2,2,70,0,0
198123,474.308300395257,3,2,2,70,1,0
198123,-90.9090909090909,3,2,2,70,0,0
198597,500,3,2,2,70,1,0
198597,-90.9090909090909,3,2,2,70,0,0
199097,481.927710843374,3,2,2,70,1,0
199097,-90.9090909090909,3,2,2,70,0,0
200060,480,3,2,2,70,1,0
200060,-90.9090909090909,3,2,2,70,0,0
201980,487.804878048781,3,2,2,70,1,0
201980,-90.9090909090909,3,2,2,70,0,0
202467,495.867768595041,3,2,2,70,1,0
202467,-90.9090909090909,3,2,2,70,0,0
202962,500,3,2,2,70,1,0
202962,-90.9090909090909,3,2,2,70,0,0
203462,512.820512820513,3,2,2,70,1,0
203462,-90.9090909090909,3,2,2,70,0,0
203974,550.45871559633,3,2,2,70,1,0
203974,-90.9090909090909,3,2,2,70,0,0
204524,521.059487624837,3,2,2,70,1,0
205305,555.555555555556,3,2,2,70,1,0
206138,484.848484848485,3,2,2,70,1,0
206865,542.986425339366,3,2,2,70,1,0
206865,-101.317122593718,3,2,2,70,0,0
207407,483.870967741935,3,2,2,70,1,0
207890,468.75,3,2,2,70,1,0
208358,476.190476190476,3,2,2,70,1,0
209310,500,3,2,2,70,1,0
209810,478.08764940239,3,2,2,70,1,0
211244,483.870967741935,3,2,2,70,1,0
212211,476.190476190476,3,2,2,70,1,0
212687,517.241379310345,3,2,2,70,1,0
212687,-102.040816326531,3,2,2,70,0,0
213204,472.440944881889,3,2,2,70,1,0
213676,456.273764258555,3,2,2,70,1,0
214132,497.925311203319,3,2,2,70,1,0
214629,479.999999999999,3,2,2,70,1,0
215589,504.201680672268,3,2,2,70,1,0
216093,491.803278688524,3,2,2,70,1,0
216584,454.545454545454,3,2,2,70,1,0
217038,490.797546012269,3,2,2,70,1,0
218019,476.190476190476,3,2,2,70,1,0
218495,504.201680672268,3,2,2,70,1,0
218495,-99.403578528827,3,2,2,70,0,0
218999,495.867768595041,3,2,2,70,1,0
219494,468.75,3,2,2,70,1,0
219962,465.116279069767,3,2,2,70,1,0
220427,497.925311203319,3,2,3,70,1,0
220924,508.474576271186,3,2,3,70,1,0
221432,699.708454810494,3,2,2,70,1,0
223297,-100,3,2,2,5,0,0
223531,621.761658031087,3,2,2,30,1,0
224152,550.45871559633,3,2,2,30,1,0
224702,560.747663551401,3,2,2,30,1,0
225262,511.727078891258,3,2,2,30,1,0
226797,528.63436123348,3,2,2,30,1,0
227325,500,3,2,2,30,1,0
228325,530.973451327434,3,2,2,30,1,0
229121,487.80487804878,3,2,2,30,1,0
229852,472.44094488189,3,2,2,45,1,0
230796,468.75,3,2,2,30,1,0
231030,508.474576271186,3,2,2,25,1,0
231284,500,3,2,2,30,1,0
232034,512.820512820513,3,2,2,15,1,0
232290,491.803278688525,3,2,2,10,1,0
232781,515.021459227468,3,2,2,30,1,0
233296,510.638297872341,3,2,2,30,1,0
233806,545.454545454546,3,2,2,20,1,0
234078,576.923076923077,3,2,2,15,1,0
234366,674.157303370787,3,2,2,30,1,0
236388,670.391061452514,3,2,2,20,1,0
240410,750,3,2,1,60,1,0

[Colours]
Combo1 : 255,192,45
Combo2 : 255,64,64
Combo3 : 249,215,96
Combo4 : 134,240,169
Combo5 : 149,235,242

[HitObjects]
339,257,7649,6,0,L|349:328,2,62.9999980773926,2|0|2,0:0|0:0|0:0,0:0:0:0:
360,184,8329,2,0,P|407:146|477:159,2,125.999996154785
245,136,9463,2,0,L|170:125,2,62.9999980773926,2|0|2,0:0|0:0|0:0,0:0:0:0:
318,109,10151,2,0,P|325:48|287:0,2,125.999996154785
265,237,11300,6,0,L|268:305,2,62.9999980773926,2|0|2,0:0|0:0|0:0,0:0:0:0:
217,178,11986,2,0,L|90:197,2,125.999996154785,0|0|2,0:0|0:0|0:0,0:0:0:0:
148,35,13355,1,2,0:0:0:0:
148,35,13580,2,0,L|136:109,1,62.9999980773926,2|2,0:0|0:0,0:0:0:0:
89,153,14029,2,0,L|101:227,1,62.9999980773926,2|0,0:0|0:0,0:0:0:0:
144,275,14486,1,2,0:0:0:0:
294,306,14944,6,0,P|272:361|273:388,2,62.9999980773926,2|0|2,0:0|0:0|0:0,0:0:0:0:
362,273,15630,2,0,P|418:294|480:277,2,125.999996154785
304,171,16774,2,0,P|326:116|325:89,2,62.9999980773926,2|0|2,0:0|0:0|0:0,0:0:0:0:
236,204,17461,2,0,P|180:183|118:200,2,125.999996154785,0|0|0,0:0|0:0|0:0,0:0:0:0:
220,322,18605,6,0,L|227:394,2,62.9999980773926,2|0|2,0:0|0:0|0:0,0:0:0:0:
170,264,19292,2,0,L|183:125,2,125.999996154785,0|0|2,0:0|0:0|0:0,0:0:0:0:
33,358,20655,1,0,0:0:0:0:
33,358,20875,2,0,L|22:289,1,62.9999980773926,2|2,0:0|0:0,0:0:0:0:
52,226,21341,2,0,L|63:157,1,62.9999980773926,2|0,0:0|0:0,0:0:0:0:
24,100,21806,1,2,0:0:0:0:
24,100,22020,1,0,0:0:0:0:
124,22,22266,6,0,L|185:33,2,52.5000020027161,2|0|2,0:0|0:0|0:0,0:0:0:0:
185,127,23869,1,2,0:0:0:0:
185,127,24098,2,0,L|246:138,2,52.5000020027161,2|0|2,0:0|0:0|0:0,0:0:0:0:
274,231,25914,6,0,L|205:243,1,52.5000020027161,2|2,0:0|0:0,0:0:0:0:
151,273,26371,2,0,B|202:305|257:274|245:257|299:228|350:262,1,210.000008010865,2|2,0:0|0:0,0:0:0:0:
303,328,27516,1,2,0:0:0:0:
445,362,27973,1,0,0:0:0:0:
445,362,28202,2,0,L|429:289,1,52.5000020027161,2|2,0:0|0:0,0:0:0:0:
476,246,28660,2,0,L|487:185,2,52.5000020027161,2|0|2,0:0|0:0|0:0,0:0:0:0:
419,74,29578,6,0,P|392:66|362:62,1,52.5000020027161,2|2,0:0|0:0,0:0:0:0:
310,16,30043,2,0,P|273:68|122:65,1,210.000008010865,2|0,0:0|0:0,0:0:0:0:
66,54,31205,1,2,0:0:0:0:
3,95,31438,2,0,L|10:146,2,52.5000020027161,2|0|2,0:0|0:0|0:0,0:0:0:0:
68,284,33041,1,2,0:0:0:0:
131,325,33270,6,0,L|123:376,1,52.5000020027161,2|0,0:0|0:0,0:0:0:0:
198,288,33735,2,0,B|269:275|269:275|279:280|279:280|363:266,1,157.500006008148,2|2,0:0|0:0,0:0:0:0:
462,358,34912,1,2,0:0:0:0:
499,205,35374,1,0,0:0:0:0:
499,205,35590,2,0,L|437:219,1,52.5000020027161,2|2,0:0|0:0,0:0:0:0:
386,170,36044,2,0,L|324:184,2,52.5000020027161,2|2|2,0:0|0:0|0:0,0:0:0:0:
252,314,36956,6,0,P|214:292|198:264,1,52.5000020027161,2|2,0:3|0:0,0:0:0:0:
190,214,37415,1,2,0:0:0:0:
36,287,38565,1,2,0:0:0:0:
36,287,38795,1,2,0:0:0:0:
36,287,39024,2,0,P|77:242|77:203,1,91.8750035047532,2|2,0:0|0:0,0:0:0:0:
146,85,40634,6,0,L|80:74,1,52.5000020027161,2|0,0:0|0:0,0:0:0:0:
23,120,41093,2,0,L|237:90,1,210.000008010865,2|0,0:0|0:0,0:0:0:0:
290,135,42243,1,2,0:0:0:0:
416,60,42703,1,0,0:0:0:0:
416,60,42933,2,0,P|405:100|410:121,1,52.5000020027161,2|2,0:0|0:0,0:0:0:0:
451,174,43374,2,0,P|451:200|441:224,1,52.5000020027161,2|0,0:0|0:0,0:0:0:0:
389,281,43845,1,2,0:0:0:0:
442,350,44081,1,0,0:0:0:0:
442,350,44317,6,0,L|501:341,1,52.5000020027161,2|0,0:0|0:0,0:0:0:0:
377,267,44774,2,0,P|314:247|163:248,1,210.000008010865,2|0,0:0|0:0,0:0:0:0:
122,302,45917,1,2,0:0:0:0:
57,269,46145,1,2,0:0:0:0:
57,269,46378,2,0,P|52:223|26:173,1,91.8750035047532,2|2,0:0|0:0,0:0:0:0:
161,16,47779,1,2,0:0:0:0:
106,67,48012,6,0,P|116:107|112:132,1,52.5000020027161,2|0,0:0|0:0,0:0:0:0:
157,179,48468,2,0,B|213:154|271:185|255:201|307:238|375:200,1,210.000008010865,2|0,0:0|0:0,0:0:0:0:
320,136,49610,1,2,0:0:0:0:
450,53,50063,1,0,0:0:0:0:
450,53,50288,2,0,P|466:90|465:116,1,52.5000020027161,2|2,0:0|0:0,0:0:0:0:
424,161,50749,2,0,P|408:198|409:224,1,52.5000020027161,2|0,0:0|0:0,0:0:0:0:
446,272,51214,1,2,0:0:0:0:
420,341,51447,1,0,0:0:0:0:
345,345,51680,6,0,L|222:333,1,105.000004005432,2|2,0:0|0:0,0:0:0:0:
79,282,52601,2,0,L|90:341,1,52.5000020027161,2|0,0:0|0:0,0:0:0:0:
158,279,53061,2,0,L|147:220,1,52.5000020027161,2|0,0:0|0:0,0:0:0:0:
92,178,53522,6,0,B|107:146|107:146|90:60,1,105.000004005432,2|0,0:0|0:0,0:0:0:0:
143,23,54206,2,0,L|207:31,2,52.5000020027161,2|0|2,0:0|0:0|0:0,0:0:0:0:
244,202,55344,5,2,0:0:0:0:
311,172,55555,1,2,0:0:0:0:
380,198,55766,2,0,L|442:174,1,52.5000020027161,2|2,0:0|0:0,0:0:0:0:
462,95,56261,2,0,P|429:83|370:122,1,105.000004005432,2|0,0:0|0:0,0:0:0:0:
312,261,57158,6,0,P|278:291|209:270,1,105.000004005432,2|2,0:0|0:0,0:0:0:0:
169,226,57811,1,2,0:0:0:0:
169,226,58045,2,0,P|200:207|221:205,2,52.5000020027161,2|0|2,0:0|0:0|0:0,0:0:0:0:
61,78,58960,6,0,L|43:-1,2,62.9999980773926,2|0|2,0:0|0:0|0:0,0:0:0:0:
128,123,59635,2,0,L|208:112,1,62.9999980773926,2|0,0:0|0:0,0:0:0:0:
255,65,60088,2,0,L|335:76,1,62.9999980773926,2|0,0:0|0:0,0:0:0:0:
377,129,60546,1,2,0:0:0:0:
457,98,60775,6,0,P|476:53|465:19,2,62.9999980773926,2|0|2,0:0|0:0|0:0,0:0:0:0:
492,171,61441,2,0,P|476:231|507:307,2,125.999996154785,2|2|2,0:0|0:0|0:0,0:0:0:0:
389,281,62586,2,0,L|317:271,1,62.9999980773926,2|0,0:0|0:0,0:0:0:0:
267,215,63039,1,2,0:0:0:0:
203,266,63266,2,0,L|190:336,1,62.9999980773926,2|0,0:0|0:0,0:0:0:0:
110,341,63720,2,0,L|123:271,1,62.9999980773926,2|0,0:0|0:0,0:0:0:0:
66,217,64174,1,2,0:0:0:0:
182,143,64629,5,2,0:0:0:0:
137,73,64852,2,0,B|110:64|110:64|58:76,1,62.9999980773926,2|2,0:0|0:0,0:0:0:0:
190,11,65298,2,0,B|217:20|217:20|269:8,1,62.9999980773926,2|0,0:0|0:0,0:0:0:0:
308,69,65751,1,2,0:0:0:0:
308,69,65977,1,0,0:0:0:0:
382,35,66204,6,0,P|424:15|449:18,2,62.9999980773926,2|0|2,0:0|0:0|0:0,0:0:0:0:
438,99,66883,2,0,P|446:135|449:167,1,62.9999980773926,2|0,0:0|0:0,0:0:0:0:
501,220,67336,2,0,P|494:244|490:288,1,62.9999980773926,2|0,0:0|0:0,0:0:0:0:
455,354,67796,1,2,0:0:0:0:
297,297,68030,6,0,L|227:304,2,62.9999980773926,2|0|2,0:0|0:0|0:0,0:0:0:0:
358,245,68709,2,0,L|377:166,1,62.9999980773926,2|0,0:0|0:0,0:0:0:0:
434,135,69170,2,0,L|415:56,1,62.9999980773926,2|0,0:0|0:0,0:0:0:0:
353,33,69638,1,2,0:0:0:0:
234,75,69873,6,0,P|209:40|187:27,2,62.9999980773926,2|0|2,0:0|0:0|0:0,0:0:0:0:
190,146,70553,2,0,P|150:209|156:262,2,125.999996154785,2|2|2,0:0|0:0|0:0,0:0:0:0:
65,18,71915,1,0,0:0:0:0:
29,91,72142,2,0,P|43:127|49:154,1,62.9999980773926,2|2,0:0|0:0,0:0:0:0:
24,226,72596,1,2,0:0:0:0:
94,302,72824,2,0,B|168:293|158:330|223:319,1,125.999996154785,2|2,0:0|0:0,0:0:0:0:
328,289,73511,6,0,P|336:254|349:222,1,70,14|0,2:3|0:0,0:0:0:0:
280,163,73959,2,0,P|271:128|257:95,1,70,10|0,1:3|0:0,0:0:0:0:
369,35,74408,1,2,2:3:0:0:
369,35,74632,2,0,B|402:23|402:23|488:54|462:106,1,140,8|8,2:3|2:3,0:0:0:0:
406,273,75531,5,0,0:0:0:0:
406,273,75758,2,0,B|372:261|372:261|286:292|313:344,1,140,8|0,1:3|2:3,0:0:0:0:
220,300,76439,1,10,2:3:0:0:
138,340,76666,1,0,2:3:0:0:
69,280,76893,1,10,2:3:0:0:
23,176,77120,6,0,B|79:151|137:182|121:198|173:235|241:197,1,210.000008010865,10|0,2:3|0:0,0:0:0:0:
191,115,78028,1,2,2:3:0:0:
191,115,78255,2,0,L|262:122,2,70,8|2|10,2:3|0:0|2:3,0:0:0:0:
93,133,78935,2,0,L|91:63,1,70,8|0,2:3|0:0,0:0:0:0:
5,39,79379,6,0,L|212:6,1,210,10|10,1:3|2:3,0:0:0:0:
285,83,80268,1,2,0:0:0:0:
285,83,80490,2,0,L|269:160,1,70,10|8,2:3|2:3,0:0:0:0:
353,189,80940,2,0,L|369:258,1,70,2|8,0:0|1:3,0:0:0:0:
455,306,81397,6,0,B|419:297|419:297|315:317,1,140,2|10,0:0|2:3,0:0:0:0:
228,364,82083,1,0,0:0:0:0:
228,364,82312,2,0,L|84:331,1,140,10|0,2:3|0:0,0:0:0:0:
82,232,82985,1,10,1:3:0:0:
19,199,83207,2,0,L|169:171,1,140,2|10,2:0|2:3,0:0:0:0:
217,240,83875,1,0,0:0:0:0:
200,330,84098,6,0,B|161:284|161:284|311:319,1,210,10|8,2:3|1:3,0:0:0:0:
395,356,85010,1,2,0:0:0:0:
482,324,85240,1,2,0:0:0:0:
437,245,85465,2,0,L|446:170,2,70,10|0|10,2:3|0:0|2:3,0:0:0:0:
383,325,86142,1,8,2:3:0:0:
293,302,86367,1,0,0:0:0:0:
192,358,86593,6,0,L|115:362,1,70,8|0,1:3|0:0,0:0:0:0:
45,312,87045,2,0,L|50:233,1,70,2|8,2:3|2:3,0:0:0:0:
114,178,87497,2,0,L|193:183,1,70,2|8,0:0|2:3,0:0:0:0:
202,271,87949,6,0,L|222:120,1,140,10|10,2:3|1:3,0:0:0:0:
225,40,88627,1,2,0:0:0:0:
142,15,88853,1,0,0:0:0:0:
142,15,89079,2,0,B|109:3|109:3|23:34|49:86,1,140,10|10,2:3|2:3,0:0:0:0:
69,161,89757,6,0,L|-16:158,2,70,8|0|8,2:3|0:0|1:3,0:0:0:0:
104,244,90431,2,0,L|174:242,1,70,2|0,0:0|0:0,0:0:0:0:
218,321,90880,2,0,P|260:246|240:174,1,140,10|8,2:3|2:3,0:0:0:0:
205,65,91554,5,10,2:3:0:0:
279,121,91779,2,0,L|348:130,1,70,2|10,0:0|1:3,0:0:0:0:
440,97,92230,2,0,B|428:156|428:156|414:166|414:166|401:227,1,140,2|10,0:0|2:3,0:0:0:0:
446,306,92907,1,8,0:0:0:0:
387,375,93132,1,10,2:3:0:0:
317,315,93358,6,0,P|263:292|175:301,1,140,8|8,2:3|1:3,0:0:0:0:
114,335,94032,1,0,0:0:0:0:
27,144,94481,1,10,2:3:0:0:
102,195,94706,2,0,P|117:151|109:119,1,70,8|10,0:0|2:3,0:0:0:0:
67,50,95155,5,8,2:3:0:0:
156,37,95381,2,0,L|328:23,2,140,2|2|10,0:0|0:0|2:3,0:0:0:0:
199,116,96514,1,8,0:0:0:0:
259,183,96740,2,0,P|288:150|289:111,1,70,10|0,2:3|0:0,0:0:0:0:
367,75,97193,2,0,P|400:64|433:74,1,70,2|8,0:0|1:3,0:0:0:0:
478,153,97646,2,0,P|440:194|440:298,1,140,2|10,0:0|2:3,0:0:0:0:
469,358,98326,2,0,P|426:370|388:353,1,70,8|2,0:0|0:0,0:0:0:0:
313,264,98775,6,0,B|265:230|265:230|94:270,1,210,8|0,2:3|0:0,0:0:0:0:
49,206,99673,1,2,0:0:0:0:
126,159,99900,2,0,L|135:85,1,70,10|8,2:3|0:0,0:0:0:0:
202,29,100354,1,10,2:3:0:0:
283,76,100582,6,0,L|356:80,1,70,8|0,2:3|0:0,0:0:0:0:
471,20,101023,2,0,P|438:69|431:161,1,140,8|0,1:3|0:0,0:0:0:0:
364,213,101708,1,10,2:3:0:0:
423,284,101936,2,0,P|436:330|421:364,1,70,8|8,0:0|2:3,0:0:0:0:
345,380,102380,5,12,2:3:0:0:
240,283,102829,1,2,0:0:0:0:
117,364,103292,2,0,L|46:352,1,52.5000020027161,2|2,0:0|0:0,0:0:0:0:
50,283,103755,2,0,L|-21:271,1,52.5000020027161,2|2,0:0|0:0,0:0:0:0:
139,207,104218,6,0,B|152:172|152:172|126:91,1,105.000004005432,2|2,0:0|0:0,0:0:0:0:
79,55,104907,2,0,P|50:69|29:96,2,52.5000020027161,2|0|0,0:0|0:0|0:0,0:0:0:0:
294,18,106053,5,2,0:0:0:0:
266,85,106283,1,2,0:0:0:0:
308,144,106514,2,0,L|300:213,1,52.5000020027161,2|2,0:0|0:0,0:0:0:0:
311,278,106978,2,0,P|272:238|204:245,1,105.000004005432,2|2,0:0|0:0,0:0:0:0:
52,325,107906,2,0,B|125:315|91:349|160:339,1,105.000004005432,2|2,0:0|0:0,0:0:0:0:
227,372,108602,1,2,0:0:0:0:
227,372,108834,2,0,L|288:360,2,52.5000020027161,2|2|2,0:0|0:0|0:0,0:0:0:0:
428,270,109753,5,2,0:0:0:0:
428,270,110215,2,0,L|413:201,1,52.5000020027161,2|0,0:0|0:0,0:0:0:0:
447,151,110677,2,0,L|432:82,1,52.5000020027161,2|2,0:0|0:0,0:0:0:0:
457,30,111140,1,2,0:0:0:0:
457,30,111374,1,2,0:0:0:0:
346,92,111608,6,0,P|303:55|249:46,1,105.000004005432,2|2,0:0|0:0,0:0:0:0:
191,79,112300,2,0,P|156:83|119:66,2,52.5000020027161,2|0|0,0:0|0:0|0:0,0:0:0:0:
3,7,113454,5,2,0:0:0:0:
33,73,113684,1,2,0:0:0:0:
1,139,113915,2,0,P|11:187|14:206,1,52.5000020027161,2|2,0:0|0:0,0:0:0:0:
72,259,114377,2,0,P|24:325|16:369,1,105.000004005432,2|2,0:0|0:0,0:0:0:0:
167,208,115300,6,0,B|243:212|196:234|266:244,1,105.000004005432,2|2,0:0|0:0,0:0:0:0:
333,224,115985,1,2,0:0:0:0:
331,147,116223,2,0,P|323:117|316:92,2,52.5000020027161,2|2|0,0:0|0:0|0:0,0:0:0:0:
173,257,117135,6,0,L|162:330,2,70,14|2|10,2:3|0:0|1:3,0:0:0:0:
142,173,117819,2,0,P|95:135|18:145,2,140,2|8|8,0:0|2:3|2:3,0:0:0:0:
208,230,118960,2,0,L|217:305,2,70,10|2|10,2:3|0:0|1:3,0:0:0:0:
272,163,119644,2,0,P|333:156|396:207,2,140,2|8|8,0:0|2:3|2:3,0:0:0:0:
211,236,120785,6,0,L|137:223,2,70,10|2|10,2:3|0:0|1:3,0:0:0:0:
276,303,121464,2,0,B|309:281|309:281|421:290,2,140,2|8|8,0:0|2:3|2:3,0:0:0:0:
98,349,122823,5,2,0:0:0:0:
98,349,123050,2,0,L|87:269,1,70,10|2,1:3|0:0,0:0:0:0:
161,225,123505,2,0,L|158:143,1,70,0|8,0:0|2:3,0:0:0:0:
104,82,123966,1,8,0:2:0:0:
416,32,124427,6,0,P|382:52|344:48,2,70,6|0|2,0:3|0:0|0:0,0:0:0:0:
478,89,125103,2,0,P|457:145|481:232,1,140,2|0,0:0|0:0,0:0:0:0:
216,104,126232,6,0,P|194:150|201:196,2,70,2|0|2,0:0|0:0|0:0,0:0:0:0:
156,35,126919,2,0,P|212:14|287:44,1,140,2|2,0:0|0:0,0:0:0:0:
38,159,128064,5,2,0:0:0:0:
106,219,128293,1,2,0:0:0:0:
181,168,128522,2,0,B|149:211|149:211|129:284|152:382,2,210,2|2|2,0:0|0:0|0:0,0:0:0:0:
256,192,130127,12,2,132644,0:0:0:0:
317,300,133518,5,2,0:0:0:0:
293,76,134416,1,2,0:0:0:0:
112,208,135291,2,0,P|79:157|132:71,1,140,4|0,1:3|0:0,0:0:0:0:
200,32,136099,1,8,2:3:0:0:
200,32,136300,2,0,P|256:58|298:51,1,93.3333333333333,0|0,0:0|3:0,0:0:0:0:
321,42,136757,2,0,P|328:108|334:201,2,140,2|2|10,3:2|0:0|2:3,0:0:0:0:
242,189,138223,6,0,B|187:161|137:215|155:238|106:278|42:255,1,221.666666666667,2|8,3:2|2:3,0:0:0:0:
225,291,139509,1,0,3:0:0:0:
225,291,139663,2,0,P|301:306|375:327,2,140,2|2|10,3:2|0:0|2:3,0:0:0:0:
427,230,141156,6,0,P|457:185|351:96,1,221.666666666667,2|8,3:2|3:0,0:0:0:0:
209,20,142433,1,0,3:2:0:0:
209,20,142584,2,0,P|222:90|227:168,1,140,2|2,3:2|0:0,0:0:0:0:
131,245,143575,2,0,P|83:232|30:226,1,93.3333333333333,10|2,2:3|0:0,0:0:0:0:
25,194,144071,6,0,P|99:205|161:223,1,140,2|0,3:2|0:0,0:0:0:0:
225,294,144841,1,8,2:3:0:0:
225,294,145044,2,0,P|262:243|244:196,1,93.3333333333333,0|0,0:0|3:2,0:0:0:0:
240,184,145531,2,0,L|401:210,2,140,2|2|10,3:2|0:0|2:3,0:0:0:0:
96,84,146997,6,0,B|140:112|211:91|187:58|239:11|297:32,1,221.666666666667,2|8,3:2|2:3,0:0:0:0:
449,14,148294,1,2,3:2:0:0:
449,14,148452,2,0,P|418:77|414:151,1,140,2|2,3:2|0:0,0:0:0:0:
335,244,149431,2,0,P|374:283|389:336,1,93.3333333333333,10|2,2:3|0:0,0:0:0:0:
416,323,149921,6,0,P|396:259|317:207,1,140,2|0,3:2|0:0,0:0:0:0:
232,248,150702,1,8,2:3:0:0:
232,248,150908,2,0,P|206:294|163:303,1,93.3333333333333,0|0,0:0|3:2,0:0:0:0:
135,325,151393,2,0,P|84:281|4:267,2,140,2|2|10,3:2|0:0|2:3,0:0:0:0:
307,273,152850,6,0,B|328:233|305:191|293:209|276:176|293:132,1,140,2|0,3:2|0:0,0:0:0:0:
324,55,153638,1,8,2:3:0:0:
324,55,153845,2,0,L|207:66,1,93.3333333333333,0|0,0:0|3:2,0:0:0:0:
201,89,154311,2,0,L|46:73,2,140,2|2|10,3:2|0:0|2:3,0:0:0:0:
354,15,155782,6,0,P|418:43|447:121,1,140,2|0,3:2|0:0,0:0:0:0:
488,181,156586,1,8,2:3:0:0:
488,181,156803,2,0,P|450:216|445:262,1,93.3333333333333,0|0,0:0|3:2,0:0:0:0:
464,284,157294,5,2,3:2:0:0:
344,214,157870,1,2,3:2:0:0:
212,251,158408,1,2,3:2:0:0:
17,318,158960,6,0,P|81:290|179:165,1,221.666666666667,6|8,1:2|2:3,0:0:0:0:
203,145,159942,1,0,0:0:0:0:
48,162,160406,2,0,P|33:86|12:12,2,140,2|2|10,3:2|0:0|2:3,0:0:0:0:
117,102,161860,6,0,L|87:239,1,140,2|0,3:2|0:0,0:0:0:0:
158,333,162626,1,8,2:3:0:0:
158,333,162827,2,0,L|252:318,1,93.3333333333333,0|0,0:0|3:2,0:0:0:0:
294,296,163321,1,2,3:2:0:0:
460,212,163801,1,2,0:0:0:0:
425,41,164281,1,10,2:3:0:0:
463,114,164752,6,0,B|407:147|354:112|377:85|315:43|258:73,1,221.666666666667,2|8,3:2|2:3,0:0:0:0:
274,205,166049,1,0,3:0:0:0:
274,205,166203,2,0,P|243:268|239:342,2,140,2|2|10,3:2|0:0|2:3,0:0:0:0:
182,136,167511,1,2,0:0:0:0:
182,136,167675,6,0,L|42:152,1,140,2|0,3:2|0:0,0:0:0:0:
35,272,168428,1,8,2:3:0:0:
214,321,168944,1,0,3:2:0:0:
214,321,169103,2,0,P|288:325|362:350,2,140,2|2|10,3:2|0:0|2:3,0:0:0:0:
44,256,170554,6,0,P|119:321|198:246,1,221.666666666667,2|8,3:2|2:3,0:0:0:0:
195,222,171525,1,0,0:0:0:0:
264,90,171839,2,0,B|328:66|328:66|368:60|400:97,1,141.399997195129,2|0,0:0|0:0,0:0:0:0:
415,113,172486,1,2,0:0:0:0:
270,177,172976,1,10,2:3:0:0:
128,64,173303,1,2,0:0:0:0:
128,64,173466,6,0,L|112:204,1,140,2|0,3:2|0:0,0:0:0:0:
95,323,174239,1,8,2:3:0:0:
256,192,174757,1,0,3:2:0:0:
275,200,174917,5,2,3:2:0:0:
454,227,175402,1,2,0:0:0:0:
383,56,175888,1,10,2:3:0:0:
512,53,176368,6,0,P|448:81|349:199,1,221.666666666667,2|8,3:2|2:3,0:0:0:0:
338,223,177328,1,0,0:0:0:0:
227,315,177648,1,0,3:2:0:0:
227,315,177808,2,0,P|153:319|71:350,1,140,2|2,3:2|0:0,0:0:0:0:
224,210,178787,2,0,P|232:166|220:106,1,93.3333333333333,10|0,2:3|0:0,0:0:0:0:
158,66,179277,6,0,P|194:76|381:47,1,221.666666666667,2|8,3:2|2:3,0:0:0:0:
410,27,180252,1,0,0:0:0:0:
440,172,180562,1,0,3:2:0:0:
440,172,180717,2,0,P|400:192|368:232,1,93.3333333333333,4|0,3:2|0:0,0:0:0:0:
335,278,181198,6,0,L|332:345,2,46.6666666666667,2|8|8,0:0|2:3|2:3,0:0:0:0:
303,241,181680,1,4,0:3:0:0:
258,226,181835,1,4,0:3:0:0:
213,239,181990,1,4,0:3:0:0:
187,274,182145,1,4,0:3:0:0:
64,192,182478,1,4,0:3:0:0:
71,199,182645,6,0,P|76:144|101:91,1,102.666669799805,4|0,3:3|0:0,0:0:0:0:
165,48,183122,2,0,P|147:18|128:9,2,51.3333348999024,2|2|8,0:0|0:0|2:3,0:0:0:0:
228,108,183599,2,0,P|210:138|191:147,2,51.3333348999024,2|2|0,0:0|0:0|3:2,0:0:0:0:
320,30,184076,2,0,P|373:6|436:13,1,102.666669799805,2|0,3:2|0:0,0:0:0:0:
475,68,184561,2,0,P|434:107|423:162,1,102.666669799805,2|0,0:0|0:0,0:0:0:0:
421,232,185047,2,0,P|453:230|481:211,2,51.3333348999024,10|2|0,2:3|0:0|0:0,0:0:0:0:
389,302,185533,6,0,B|352:281|310:296|321:310|277:331|232:308,1,154.000004699707,2|2,3:2|0:0,0:0:0:0:
124,368,186339,1,8,2:3:0:0:
124,368,186498,2,0,P|133:310|125:267,1,102.666669799805,2|0,0:0|3:2,0:0:0:0:
181,212,186973,2,0,P|172:154|180:111,1,102.666669799805,2|0,3:2|0:0,0:0:0:0:
258,42,187460,2,0,P|275:26|284:-4,2,51.3333348999024,2|0|0,0:0|0:0|0:0,0:0:0:0:
172,13,187943,2,0,P|149:6|119:13,2,51.3333348999024,10|0|0,2:3|0:0|0:0,0:0:0:0:
188,101,188427,6,0,P|205:155|200:202,1,102.666669799805,2|0,3:2|0:0,0:0:0:0:
271,254,188939,2,0,P|325:237|372:242,1,102.666669799805,2|8,0:0|2:3,0:0:0:0:
431,188,189405,2,0,P|463:176|485:149,2,51.3333348999024,2|2|0,0:0|0:0|3:2,0:0:0:0:
449,270,189872,1,2,3:2:0:0:
344,119,190381,2,0,P|333:61|280:12,1,102.666669799805,2|0,0:0|0:0,0:0:0:0:
246,69,190868,2,0,P|235:127|182:176,1,102.666669799805,10|0,2:3|0:0,0:0:0:0:
114,219,191356,6,0,B|153:202|198:235|180:250|220:277|271:259,1,154.000004699707,2|2,3:2|0:0,0:0:0:0:
366,364,192148,1,8,2:3:0:0:
366,364,192308,2,0,P|415:320|464:316,1,102.666669799805,2|0,0:0|3:2,0:0:0:0:
487,251,192788,2,0,P|453:217|464:112,1,154.000004699707,6|2,3:2|0:0,0:0:0:0:
322,17,193755,2,0,B|264:30|296:44|222:59,1,102.666669799805,10|0,2:3|0:0,0:0:0:0:
173,130,194243,6,0,P|134:71|53:51,1,154.000004699707,2|2,3:2|0:0,0:0:0:0:
0,151,195058,1,8,2:3:0:0:
0,151,195219,2,0,P|34:202|37:245,1,102.666669799805,2|0,0:0|3:2,0:0:0:0:
98,302,195695,2,0,P|97:328|86:363,2,51.3333348999024,2|0|0,3:2|0:0|0:0,0:0:0:0:
161,246,196180,2,0,P|160:220|149:185,2,51.3333348999024,2|0|0,0:0|0:0|0:0,0:0:0:0:
232,293,196666,2,0,P|293:302|335:331,1,102.666669799805,10|0,2:3|0:0,0:0:0:0:
378,380,197152,6,0,P|365:290|364:219,1,154.000004699707,2|2,3:2|0:0,0:0:0:0:
447,147,197961,1,8,2:3:0:0:
458,136,198123,2,0,P|422:96|352:97,1,102.666669799805,2|0,0:0|3:2,0:0:0:0:
318,140,198597,1,2,3:2:0:0:
204,62,199097,2,0,P|125:44|76:42,1,102.666669799805,2|0,0:0|0:0,0:0:0:0:
41,90,199578,2,0,P|34:140|21:190,1,102.666669799805,10|0,2:3|0:0,0:0:0:0:
70,272,200060,6,0,B|109:262|152:288|131:307|167:330|214:323,1,154.000004699707,2|2,3:2|0:0,0:0:0:0:
315,283,200860,1,8,2:3:0:0:
315,283,201020,2,0,P|337:254|360:250,2,51.3333348999024,2|2|0,0:0|0:0|3:2,0:0:0:0:
291,360,201500,2,0,P|275:286|217:183,1,154.000004699707,2|2,3:2|0:0,0:0:0:0:
317,47,202467,2,0,P|281:94|298:136,1,102.666669799805,10|0,2:3|0:0,0:0:0:0:
370,105,202962,6,0,B|408:89|452:120|432:136|472:160|521:139,1,154.000004699707,2|0,3:2|0:0,0:0:0:0:
374,226,203803,1,8,2:3:0:0:
374,226,203974,2,0,P|398:288|400:339,1,102.666669799805,2|0,0:0|0:0,0:0:0:0:
396,351,204524,5,2,0:0:0:0:
167,229,205305,1,2,0:0:0:0:
293,79,206138,1,2,0:0:0:0:
480,32,206865,6,0,P|446:93|448:244,1,210,6|8,1:3|2:3,0:0:0:0:
456,266,207890,1,0,0:0:0:0:
322,285,208358,2,0,P|243:288|196:328,1,140,2|2,3:2|0:0,0:0:0:0:
37,191,209310,2,0,L|137:212,1,93.3333333333333,10|0,2:3|0:0,0:0:0:0:
187,162,209810,6,0,P|184:236|227:304,1,140,2|0,3:2|0:0,0:0:0:0:
311,205,210566,1,8,2:3:0:0:
311,205,210766,2,0,L|416:190,1,93.3333333333333,0|0,0:0|3:2,0:0:0:0:
446,183,211244,1,2,3:2:0:0:
479,313,211727,1,2,0:0:0:0:
446,183,212211,1,10,2:3:0:0:
422,45,212687,6,0,B|362:10|297:48|330:74|269:116|203:83,1,210,2|8,3:2|2:3,0:0:0:0:
150,205,213980,1,0,3:0:0:0:
150,205,214132,2,0,P|119:142|31:103,1,140,2|2,3:2|0:0,0:0:0:0:
33,224,215109,1,10,2:3:0:0:
110,336,215429,1,2,0:0:0:0:
110,336,215589,6,0,B|139:351|139:351|255:360,1,140,2|0,3:2|0:0,0:0:0:0:
319,265,216379,1,8,2:3:0:0:
319,265,216584,1,0,0:0:0:0:
189,206,216887,1,0,3:2:0:0:
189,206,217038,2,0,P|115:210|38:233,2,140,2|2|10,3:2|0:0|2:3,0:0:0:0:
74,145,218495,6,0,P|159:154|277:90,1,221.666666666667,2|8,3:2|0:3,0:0:0:0:
328,33,219494,1,0,0:0:0:0:
333,20,219650,2,0,B|385:50|381:153,1,140,2|0,0:0|3:2,2:0:0:0:
456,191,220272,1,8,2:3:0:0:
456,191,220427,1,4,0:3:0:0:
456,191,220592,2,0,L|448:237,2,46.6666666666667,4|4|4,0:3|0:3|0:3,0:0:0:0:
336,151,221262,1,4,0:3:0:0:
336,151,221432,6,0,P|291:199|27:131,1,373.333333333333,4|0,0:3|0:0,0:0:0:0:
28,134,223531,5,2,0:0:0:0:
159,70,224152,1,2,0:0:0:0:
270,149,224702,1,2,0:0:0:0:
423,149,225262,6,0,P|349:153|202:293,1,280,2|0,0:0|0:0,0:0:0:0:
350,278,226797,5,2,0:0:0:0:
291,354,227325,2,0,P|361:366|437:336,2,140,2|2|2,0:0|0:0|0:0,0:0:0:0:
256,192,228678,12,2,234366,0:0:0:0:
