osu file format v14

[General]
AudioFilename: Adventure Of A Lifetime.mp3
AudioLeadIn: 0
PreviewTime: 86062
Countdown: 1
SampleSet: Soft
StackLeniency: 1
Mode: 0
LetterboxInBreaks: 0
WidescreenStoryboard: 1

[Editor]
Bookmarks: 52709
DistanceSpacing: 1
BeatDivisor: 4
GridSize: 4
TimelineZoom: 1

[Metadata]
Title:Adventure Of A Lifetime
TitleUnicode:Adventure Of A Lifetime
Artist:Coldplay
ArtistUnicode:Coldplay
Creator:TheOnlyMuffin
Version:Hard
Source:
Tags:Coldplay, English
BeatmapID:917227
BeatmapSetID:423177

[Difficulty]
HPDrainRate:7
CircleSize:4.5
OverallDifficulty:7.5
ApproachRate:7.5
SliderMultiplier:1.4
SliderTickRate:2

[Events]
//Background and Video events
0,0,"Coldplay Adventure Of A Lifetime osu.jpg",0,0
//Break Periods
2,77686,80947
//Storyboard Layer 0 (Background)
//Storyboard Layer 1 (Fail)
//Storyboard Layer 2 (Pass)
//Storyboard Layer 3 (Foreground)
//Storyboard Layer 4 (Overlay)
//Storyboard Sound Samples

[TimingPoints]
8915,535.714285714286,4,2,1,100,1,0
17486,-66.6666666666667,4,2,1,100,0,0
34629,-66.6666666666667,4,2,1,100,0,0
52843,-66.6666666666667,4,2,1,100,0,0
77471,-133.333333333333,4,2,1,100,0,0
81757,-200,4,2,1,100,0,0
84971,-66.6666666666667,4,2,1,100,0,0
86042,-66.6666666666667,4,2,1,100,0,1
103185,-66.6666666666667,4,2,1,100,0,0
128900,-133.333333333333,4,2,1,100,0,0
133185,-200,4,2,1,100,0,0
136400,-66.6666666666667,4,2,1,100,0,0
137471,-66.6666666666667,4,2,1,100,0,1
154614,-133.333333333333,4,2,1,100,0,0
180328,-66.6666666666667,4,2,1,100,0,0
184614,-66.6666666666667,4,2,1,100,0,1
210149,-66.6666666666667,4,2,1,100,0,0
210328,-66.6666666666667,4,2,1,100,0,1
236042,-66.6666666666667,4,2,1,100,0,0

[Colours]
Combo1 : 0,255,64
Combo2 : 255,32,32
Combo3 : 255,70,163
Combo4 : 0,128,255

[HitObjects]
184,76,17218,5,0,0:0:0:0:
152,116,17352,1,0,0:0:0:0:
120,156,17486,1,2,1:0:0:0:
256,272,17754,5,0,0:0:0:0:
336,192,18022,1,8,0:0:0:0:
256,112,18290,2,0,B|320:68|320:68|336:92|352:104|376:120|400:128|424:112|440:100|464:68,1,210.000008010865
436,176,19093,1,8,0:0:0:0:
436,248,19361,5,0,0:0:0:0:
424,288,19495,1,0,0:0:0:0:
384,316,19629,1,0,0:0:0:0:
308,320,19897,2,0,L|176:320,1,105.000004005432,0|8,0:0|0:0,0:0:0:0:
132,304,20432,2,0,L|132:188,1,105.000004005432
208,192,20968,2,0,L|348:192,1,105.000004005432,8|8,1:0|1:0,0:0:0:0:
380,199,21504,5,0,0:0:0:0:
364,151,21638,1,0,0:0:0:0:
332,111,21772,1,0,0:0:0:0:
168,112,22040,1,0,0:0:0:0:
292,248,22307,1,8,0:0:0:0:
152,228,22575,1,0,0:0:0:0:
256,132,22843,2,0,B|184:12|148:208|76:88,2,210.000008010865,0|8|0,0:0|0:0|0:0,0:0:0:0:
392,68,24182,5,0,0:0:0:0:
396,144,24450,2,0,L|396:260,1,105.000004005432,8|0,0:0|0:0,0:0:0:0:
136,252,24986,2,0,L|136:128,1,105.000004005432,0|8,0:0|1:0,0:0:0:0:
132,68,25522,1,8,1:0:0:0:
256,140,25790,1,0,0:0:0:0:
256,192,25923,1,0,0:0:0:0:
256,244,26057,1,2,1:0:0:0:
164,104,26325,6,0,P|112:112|80:44,2,105.000004005432,0|8|0,0:0|0:0|0:0,0:0:0:0:
164,232,27129,1,0,0:0:0:0:
256,192,27397,2,0,L|352:120,1,105.000004005432,0|8,0:0|0:0,0:0:0:0:
424,108,27932,1,0,0:0:0:0:
424,160,28066,1,0,0:0:0:0:
424,212,28200,1,0,0:0:0:0:
96,304,28468,6,0,P|136:256|188:272,2,105.000004005432,0|8|0,0:0|0:0|0:0,0:0:0:0:
256,192,29272,1,0,0:0:0:0:
308,116,29540,1,8,1:0:0:0:
308,256,29807,1,8,1:0:0:0:
256,192,30075,1,0,0:0:0:0:
204,192,30209,1,0,0:0:0:0:
152,192,30343,1,2,1:0:0:0:
328,328,30611,6,0,L|432:264,1,105.000004005432,0|8,0:0|0:0,0:0:0:0:
424,144,31147,2,0,L|308:72,1,105.000004005432
256,160,31682,1,0,0:0:0:0:
256,208,31816,1,0,0:0:0:0:
256,256,31950,6,0,P|232:312|164:280,1,105.000004005432,8|0,0:0|0:0,0:0:0:0:
132,280,32486,1,0,0:0:0:0:
132,204,32754,1,0,0:0:0:0:
132,128,33022,1,8,0:0:0:0:
136,48,33290,1,0,0:0:0:0:
400,80,33557,6,0,L|284:160,1,105.000004005432,2|0,2:1|0:0,0:0:0:0:
408,280,34093,2,0,L|300:228,1,105.000004005432,2|0,2:1|0:0,0:0:0:0:
336,72,34629,6,0,B|428:72|428:72|428:192,1,210.000008010865,4|8,1:0|0:0,0:0:0:0:
348,144,35432,1,0,0:0:0:0:
300,144,35566,1,0,0:0:0:0:
252,144,35700,1,0,0:0:0:0:
408,280,35968,6,0,L|272:280,1,105.000004005432,0|8,0:0|0:0,0:0:0:0:
196,276,36504,1,0,0:0:0:0:
152,264,36638,1,0,0:0:0:0:
108,240,36772,2,0,B|108:136|108:136|220:136,1,210.000008010865,0|8,0:0|0:0,0:0:0:0:
400,136,37575,6,0,L|276:136,1,105.000004005432
300,208,38111,1,0,0:0:0:0:
300,256,38245,1,0,0:0:0:0:
364,304,38513,2,0,P|300:332|220:280,1,157.500006008148,0|2,0:0|1:0,0:0:0:0:
196,60,39182,6,0,B|92:60|92:60|92:216,1,210.000008010865
164,168,39986,1,0,0:0:0:0:
212,168,40120,1,0,0:0:0:0:
264,168,40254,2,4,L|400:168,1,105.000004005432,0|8,0:0|0:0,0:0:0:0:
400,288,40790,5,0,0:0:0:0:
348,288,40923,2,0,L|256:288,1,52.5000020027161
192,192,41325,2,0,L|332:192,1,105.000004005432,0|8,0:0|0:0,0:0:0:0:
92,72,41861,6,0,L|92:304,1,210.000008010865
164,284,42665,1,8,0:0:0:0:
196,244,42798,1,0,0:0:0:0:
224,200,42932,1,0,0:0:0:0:
256,160,43066,1,0,0:0:0:0:
288,124,43200,1,2,1:0:0:0:
448,196,43468,6,0,B|448:64|448:64|336:64,1,210.000008010865
376,136,44272,1,0,0:0:0:0:
376,180,44406,1,0,0:0:0:0:
376,228,44540,1,0,0:0:0:0:
256,192,44807,6,0,L|256:104,1,52.5000020027161,8|0,0:0|0:0,0:0:0:0:
316,80,45209,1,0,0:0:0:0:
364,80,45343,1,0,0:0:0:0:
432,192,45611,2,0,L|432:80,1,105.000004005432,0|8,0:0|0:0,0:0:0:0:
428,276,46147,5,0,0:0:0:0:
408,320,46281,1,0,0:0:0:0:
360,336,46415,1,0,0:0:0:0:
96,324,46682,2,0,L|208:324,1,105.000004005432,0|8,0:0|0:0,0:0:0:0:
201,324,47084,2,0,L|201:144,1,157.500006008148,0|2,0:0|1:1,0:0:0:0:
384,108,47754,5,0,0:0:0:0:
404,200,48022,1,8,0:0:0:0:
288,128,48290,1,0,0:0:0:0:
312,204,48557,2,0,L|196:276,1,105.000004005432
156,124,49093,5,8,0:0:0:0:
188,164,49227,1,0,0:0:0:0:
256,192,49629,12,2,51772,2:1:0:0:
388,84,53111,5,0,0:0:0:0:
352,120,53245,1,0,0:0:0:0:
316,152,53379,1,8,0:0:0:0:
76,284,53647,2,0,B|140:240|140:240|156:264|172:276|196:292|220:300|244:284|260:272|284:240,1,210.000008010865
324,272,54450,1,8,0:0:0:0:
256,192,54718,5,0,0:0:0:0:
208,172,54852,1,0,0:0:0:0:
176,128,54986,1,0,0:0:0:0:
400,80,55254,2,0,L|336:80,1,52.5000020027161
376,160,55656,2,0,P|392:240|300:240,1,157.500006008148,0|2,0:0|1:0,0:0:0:0:
88,88,56459,6,0,L|176:88,1,52.5000020027161,0|8,0:0|0:0,0:0:0:0:
136,192,56861,1,0,0:0:0:0:
196,248,57129,1,0,0:0:0:0:
256,192,57397,1,0,0:0:0:0:
256,100,57665,1,8,0:0:0:0:
392,256,57932,6,0,P|396:316|356:316,1,105.000004005432
316,256,58468,1,0,0:0:0:0:
272,228,58602,1,0,0:0:0:0:
228,204,58736,1,8,0:0:0:0:
392,92,59004,2,0,L|288:156,1,105.000004005432
104,308,59540,2,0,L|208:236,1,105.000004005432,0|8,0:0|0:0,0:0:0:0:
256,192,60075,1,0,0:0:0:0:
256,192,60209,1,0,0:0:0:0:
256,192,60343,1,2,1:0:0:0:
312,240,60611,6,0,P|340:304|432:284,1,157.500006008148
420,256,61147,1,0,0:0:0:0:
420,208,61281,1,0,0:0:0:0:
420,160,61415,1,0,0:0:0:0:
128,200,61816,6,0,B|128:56|128:56|192:56,1,157.500006008148
188,60,62352,1,0,0:0:0:0:
228,60,62486,1,0,0:0:0:0:
304,64,62754,2,0,B|304:208|304:208|224:208,1,210.000008010865
160,208,63557,5,0,0:0:0:0:
164,260,63691,1,0,0:0:0:0:
196,300,63825,1,0,0:0:0:0:
240,312,63959,1,0,0:0:0:0:
288,304,64093,2,0,P|348:276|288:168,1,210.000008010865,8|2,0:0|1:1,0:0:0:0:
332,64,65031,5,0,0:0:0:0:
292,96,65165,1,8,0:0:0:0:
108,108,65432,2,0,L|213:108,1,105.000004005432
164,172,65968,2,0,L|164:280,1,105.000004005432,0|8,0:0|0:0,0:0:0:0:
388,240,66504,5,0,0:0:0:0:
428,276,66638,1,0,0:0:0:0:
432,328,66772,1,0,0:0:0:0:
363,304,67040,2,0,P|275:296|275:168,1,210.000008010865
344,116,67843,5,4,0:0:0:0:
168,116,68379,5,4,0:0:0:0:
256,292,68647,6,4,L|256:172,1,105.000004005432,0|0,0:0|0:0,0:0:0:0:
172,88,69182,1,0,0:0:0:0:
120,144,69450,1,8,0:0:0:0:
340,88,69718,1,0,0:0:0:0:
392,144,69986,1,0,0:0:0:0:
256,88,70254,2,4,L|256:216,1,105.000004005432,0|8,0:0|0:0,0:0:0:0:
305,288,70790,6,0,L|200:288,1,105.000004005432
136,272,71325,1,0,0:0:0:0:
108,232,71459,1,0,0:0:0:0:
108,184,71593,1,8,0:0:0:0:
256,72,71861,5,0,0:0:0:0:
325,105,72129,1,0,0:0:0:0:
317,176,72397,1,0,0:0:0:0:
256,148,72665,2,4,P|249:226|370:197,1,210.000008010865,8|0,0:0|0:0,0:0:0:0:
180,312,73468,5,0,0:0:0:0:
136,293,73602,1,0,0:0:0:0:
116,249,73736,1,8,0:0:0:0:
183,86,74004,2,0,L|112:178,1,105.000004005432
329,86,74540,2,0,L|400:178,1,105.000004005432,0|8,0:0|0:0,0:0:0:0:
264,336,75075,6,0,B|196:348|140:272|192:196|260:230|288:224|300:196|288:164|232:156|190:129|168:96|164:64|232:12|284:32|280:60,1,420.000016021729
104,192,76415,5,4,0:0:0:0:
256,192,76950,5,4,0:0:0:0:
408,192,77486,5,4,0:0:0:0:
256,192,81772,12,0,84718,0:0:0:0:
256,84,84986,5,4,2:3:0:0:
256,288,85522,1,4,2:3:0:0:
256,192,85790,1,0,0:0:0:0:
256,192,85923,1,0,0:0:0:0:
256,192,86057,1,2,1:0:0:0:
344,72,86325,6,0,B|452:72|452:72|452:220,1,210.000008010865
376,180,87129,2,0,L|264:180,1,105.000004005432
192,184,87665,2,0,L|192:324,1,105.000004005432,8|0,0:0|0:0,0:0:0:0:
192,289,88066,1,0,0:0:0:0:
192,289,88200,1,0,0:0:0:0:
80,64,88468,6,0,B|144:108|144:108|160:84|176:72|200:56|224:48|248:64|264:76|288:108,1,210.000008010865
256,152,89272,1,0,1:0:0:0:
200,224,89540,1,8,1:0:0:0:
304,224,89807,1,8,1:0:0:0:
256,304,90075,2,4,P|196:304|152:268,1,105.000004005432,0|2,0:0|2:1,0:0:0:0:
328,76,90611,5,0,0:0:0:0:
360,116,90745,1,0,0:0:0:0:
392,156,90879,1,8,0:0:0:0:
256,272,91147,5,0,0:0:0:0:
176,192,91415,1,0,0:0:0:0:
256,112,91683,2,0,B|192:68|192:68|176:92|160:104|136:120|112:128|88:112|72:100|48:68,1,210.000008010865
76,176,92486,1,0,0:0:0:0:
76,248,92754,5,0,0:0:0:0:
88,288,92888,1,0,0:0:0:0:
128,316,93022,1,8,0:0:0:0:
204,320,93290,2,4,L|336:320,1,105.000004005432,0|2,0:0|1:1,0:0:0:0:
380,304,93825,2,4,L|380:188,1,105.000004005432,0|2,0:0|1:1,0:0:0:0:
304,192,94361,2,0,L|164:192,1,105.000004005432,0|8,1:0|1:1,0:0:0:0:
128,160,94897,5,0,0:0:0:0:
144,112,95031,1,0,0:0:0:0:
176,72,95165,1,8,0:0:0:0:
344,112,95433,1,0,0:0:0:0:
220,248,95700,1,0,0:0:0:0:
360,228,95968,1,0,0:0:0:0:
256,132,96236,2,0,B|328:12|364:208|436:88,2,210.000008010865,8|0|8,0:0|0:0|0:0,0:0:0:0:
256,204,97575,5,0,0:0:0:0:
256,204,97709,1,0,0:0:0:0:
256,204,97843,1,0,0:0:0:0:
344,140,98111,2,0,L|344:264,1,105.000004005432,8|8,1:1|1:1,0:0:0:0:
176,192,98647,5,0,0:0:0:0:
124,192,98781,1,0,0:0:0:0:
72,192,98915,1,2,1:0:0:0:
184,328,99183,6,0,L|94:272,1,105.000004005432,0|8,0:0|0:0,0:0:0:0:
88,144,99719,2,0,L|177:88,1,105.000004005432
256,160,100254,1,0,0:0:0:0:
256,208,100388,1,0,0:0:0:0:
256,255,100522,6,0,P|268:304|317:314,1,105.000004005432,8|0,0:0|0:0,0:0:0:0:
380,280,101058,1,0,0:0:0:0:
380,204,101326,1,0,0:0:0:0:
380,128,101594,1,8,0:0:0:0:
376,48,101862,1,0,0:0:0:0:
112,80,102129,6,0,L|198:139,1,105.000004005432,8|0,2:1|0:0,0:0:0:0:
104,280,102665,2,0,L|198:234,1,105.000004005432,8|0,2:1|0:0,0:0:0:0:
256,192,103200,1,2,1:1:0:0:
