osu file format v14

[General]
AudioFilename: audio 1.200x (pitch raised).mp3
AudioLeadIn: 0
PreviewTime: 0
Countdown: 0
SampleSet: Normal
StackLeniency: 0.7
Mode: 3
LetterboxInBreaks: 0
SpecialStyle: 0
WidescreenStoryboard: 0

[Editor]
DistanceSpacing: 0.9
BeatDivisor: 4
GridSize: 4
TimelineZoom: 1.9

[Metadata]
Title:3000 (sped up ver.)
TitleUnicode:3000 (sped up ver.)
Artist:Colbreakz
ArtistUnicode:Colbreakz
Creator:--[ Chino ]--
Version:Three Thousands
Source:
Tags:3000
BeatmapID:4291994
BeatmapSetID:2054373

[Difficulty]
HPDrainRate:7.5
CircleSize:4
OverallDifficulty:7.5
ApproachRate:8.2
SliderMultiplier:1.4
SliderTickRate:1

[Events]
//Background and Video events
0,0,"30003.jpg",0,0
//Break Periods
2,100492,112048
//Storyboard Layer 0 (Background)
//Storyboard Layer 1 (Fail)
//Storyboard Layer 2 (Pass)
//Storyboard Layer 3 (Foreground)
//Storyboard Layer 4 (Overlay)
//Storyboard Sound Samples

[TimingPoints]
268,390.625,4,1,0,100,1,0
50268,-100,4,1,0,100,0,1
61205,-100,4,1,0,100,0,0
62768,-100,4,1,0,100,0,1
74877,-100,4,1,0,100,0,0
75268,-100,4,1,0,100,0,1
97143,-100,4,1,0,100,0,0
150268,-100,4,1,0,100,0,1
161205,-100,4,1,0,100,0,0
162768,-100,4,1,0,100,0,1
174877,-100,4,1,0,100,0,0
175268,-100,4,1,0,100,0,1
187768,-100,4,1,0,100,0,0

[HitObjects]
64,192,658,5,0,0:0:0:0:
64,192,1830,1,0,0:0:0:0:
64,192,2221,1,0,0:0:0:0:
320,192,2416,1,0,0:0:0:0:
448,192,2807,1,0,0:0:0:0:
192,192,3393,1,0,0:0:0:0:
320,192,3393,1,0,0:0:0:0:
192,192,3783,1,0,0:0:0:0:
64,192,3783,1,0,0:0:0:0:
192,192,4955,1,0,0:0:0:0:
448,192,4955,1,0,0:0:0:0:
320,192,5346,1,0,0:0:0:0:
64,192,5541,1,0,0:0:0:0:
192,192,5932,1,0,0:0:0:0:
320,192,5932,1,0,0:0:0:0:
64,192,6518,1,0,0:0:0:0:
192,192,6518,1,0,0:0:0:0:
320,192,6908,1,0,0:0:0:0:
192,192,6908,1,0,0:0:0:0:
64,192,8080,1,0,0:0:0:0:
192,192,8080,1,0,0:0:0:0:
320,192,8471,1,0,0:0:0:0:
448,192,8666,1,0,0:0:0:0:
320,192,9057,1,0,0:0:0:0:
192,192,9057,1,0,0:0:0:0:
64,192,9643,1,0,0:0:0:0:
192,192,9643,1,0,0:0:0:0:
448,192,9838,1,0,0:0:0:0:
320,192,10033,1,0,0:0:0:0:
64,192,10228,1,0,0:0:0:0:
192,192,10424,1,0,0:0:0:0:
320,192,10619,1,0,0:0:0:0:
448,192,10814,1,0,0:0:0:0:
64,192,11010,1,0,0:0:0:0:
320,192,11205,1,0,0:0:0:0:
192,192,11205,1,0,0:0:0:0:
448,192,11400,1,0,0:0:0:0:
320,192,11596,1,0,0:0:0:0:
192,192,11596,1,0,0:0:0:0:
448,192,11791,1,0,0:0:0:0:
64,192,11791,1,0,0:0:0:0:
192,192,11986,1,0,0:0:0:0:
320,192,12182,1,0,0:0:0:0:
448,192,12182,1,0,0:0:0:0:
192,192,12377,1,0,0:0:0:0:
64,192,12572,1,0,0:0:0:0:
192,192,12768,128,0,12865:0:0:0:0:
320,192,12768,128,0,12865:0:0:0:0:
448,192,12768,128,0,12865:0:0:0:0:
64,192,12963,1,0,0:0:0:0:
448,192,13158,1,0,0:0:0:0:
320,192,13353,1,0,0:0:0:0:
64,192,13549,1,0,0:0:0:0:
448,192,13549,1,0,0:0:0:0:
192,192,13549,1,0,0:0:0:0:
320,192,13744,1,0,0:0:0:0:
64,192,13939,1,0,0:0:0:0:
448,192,14135,1,0,0:0:0:0:
64,192,14330,1,0,0:0:0:0:
192,192,14330,1,0,0:0:0:0:
448,192,14525,1,0,0:0:0:0:
320,192,14721,1,0,0:0:0:0:
192,192,14916,1,0,0:0:0:0:
64,192,15111,1,0,0:0:0:0:
448,192,15111,1,0,0:0:0:0:
320,192,15111,1,0,0:0:0:0:
192,192,15307,1,0,0:0:0:0:
64,192,15502,1,0,0:0:0:0:
320,192,15697,1,0,0:0:0:0:
64,192,15893,1,0,0:0:0:0:
448,192,15893,1,0,0:0:0:0:
320,192,16088,1,0,0:0:0:0:
448,192,16283,1,0,0:0:0:0:
64,192,16478,1,0,0:0:0:0:
320,192,16674,1,0,0:0:0:0:
448,192,16674,1,0,0:0:0:0:
192,192,16674,1,0,0:0:0:0:
64,192,16869,1,0,0:0:0:0:
192,192,17064,1,0,0:0:0:0:
448,192,17260,1,0,0:0:0:0:
64,192,17455,1,0,0:0:0:0:
320,192,17455,1,0,0:0:0:0:
448,192,17650,1,0,0:0:0:0:
320,192,17846,1,0,0:0:0:0:
64,192,18041,1,0,0:0:0:0:
192,192,18236,1,0,0:0:0:0:
320,192,18236,1,0,0:0:0:0:
448,192,18236,1,0,0:0:0:0:
64,192,18432,1,0,0:0:0:0:
448,192,18627,1,0,0:0:0:0:
192,192,18822,1,0,0:0:0:0:
320,192,19018,1,0,0:0:0:0:
64,192,19018,128,0,19115:0:0:0:0:
448,192,19018,1,0,0:0:0:0:
192,192,19213,1,0,0:0:0:0:
320,192,19408,128,0,19506:0:0:0:0:
448,192,19408,1,0,0:0:0:0:
64,192,19603,1,0,0:0:0:0:
192,192,19799,1,0,0:0:0:0:
448,192,19799,128,0,19896:0:0:0:0:
320,192,19799,1,0,0:0:0:0:
64,192,19994,1,0,0:0:0:0:
448,192,20189,1,0,0:0:0:0:
64,192,20385,128,0,20482:0:0:0:0:
192,192,20385,1,0,0:0:0:0:
320,192,20580,128,0,20678:0:0:0:0:
448,192,20580,1,0,0:0:0:0:
192,192,20775,128,0,20873:0:0:0:0:
64,192,20775,1,0,0:0:0:0:
448,192,20971,128,0,21068:0:0:0:0:
320,192,20971,1,0,0:0:0:0:
320,192,21166,128,0,21264:0:0:0:0:
64,192,21166,1,0,0:0:0:0:
192,192,21361,1,0,0:0:0:0:
64,192,21361,1,0,0:0:0:0:
448,192,21361,1,0,0:0:0:0:
320,192,21557,1,0,0:0:0:0:
64,192,21752,128,0,21850:0:0:0:0:
448,192,21752,1,0,0:0:0:0:
320,192,21947,1,0,0:0:0:0:
192,192,22143,128,0,22240:0:0:0:0:
64,192,22143,1,0,0:0:0:0:
320,192,22338,1,0,0:0:0:0:
448,192,22533,1,0,0:0:0:0:
64,192,22728,1,0,0:0:0:0:
320,192,22924,128,0,23021:0:0:0:0:
192,192,22924,1,0,0:0:0:0:
448,192,22924,1,0,0:0:0:0:
64,192,23119,1,0,0:0:0:0:
448,192,23217,128,0,23314:0:0:0:0:
320,192,23314,1,0,0:0:0:0:
192,192,23510,1,0,0:0:0:0:
64,192,23510,128,0,23607:0:0:0:0:
192,192,23705,128,0,23803:0:0:0:0:
448,192,23705,1,0,0:0:0:0:
64,192,23900,128,0,23998:0:0:0:0:
448,192,23900,1,0,0:0:0:0:
320,192,24096,128,0,24193:0:0:0:0:
192,192,24096,1,0,0:0:0:0:
448,192,24291,128,0,24389:0:0:0:0:
64,192,24291,1,0,0:0:0:0:
192,192,24486,1,0,0:0:0:0:
320,192,24486,1,0,0:0:0:0:
64,192,24486,1,0,0:0:0:0:
448,192,24682,1,0,0:0:0:0:
64,192,24877,128,0,25268:0:0:0:0:
320,192,24877,1,0,0:0:0:0:
192,192,24877,128,0,25268:0:0:0:0:
320,192,25268,1,0,0:0:0:0:
448,192,25268,128,0,25463:0:0:0:0:
64,192,26049,128,0,26244:0:0:0:0:
192,192,26635,128,0,26830:0:0:0:0:
320,192,26830,128,0,26928:0:0:0:0:
448,192,27025,128,0,27123:0:0:0:0:
64,192,27221,128,0,27318:0:0:0:0:
192,192,27416,128,0,27807:0:0:0:0:
320,192,28002,128,0,28197:0:0:0:0:
64,192,28393,128,0,28588:0:0:0:0:
192,192,29174,128,0,29369:0:0:0:0:
320,192,29467,128,0,29662:0:0:0:0:
448,192,29760,128,0,29857:0:0:0:0:
320,192,29955,128,0,30053:0:0:0:0:
192,192,30150,128,0,30248:0:0:0:0:
64,192,30346,128,0,30443:0:0:0:0:
448,192,30541,128,0,30932:0:0:0:0:
320,192,31127,128,0,31518:0:0:0:0:
64,192,31518,1,0,0:0:0:0:
192,192,31518,1,0,0:0:0:0:
448,192,31518,1,0,0:0:0:0:
64,192,32299,128,0,32592:0:0:0:0:
320,192,32885,128,0,33080:0:0:0:0:
192,192,33080,128,0,33178:0:0:0:0:
64,192,33275,128,0,33373:0:0:0:0:
192,192,33471,128,0,33568:0:0:0:0:
448,192,33666,128,0,34057:0:0:0:0:
320,192,34252,128,0,34447:0:0:0:0:
192,192,34643,128,0,34740:0:0:0:0:
64,192,34643,1,0,0:0:0:0:
448,192,34643,1,0,0:0:0:0:
320,192,35424,128,0,35619:0:0:0:0:
192,192,35717,128,0,35912:0:0:0:0:
64,192,36010,128,0,36107:0:0:0:0:
192,192,36205,128,0,36303:0:0:0:0:
320,192,36400,128,0,36498:0:0:0:0:
448,192,36596,128,0,36693:0:0:0:0:
64,192,36791,128,0,37182:0:0:0:0:
192,192,37377,128,0,37572:0:0:0:0:
64,192,37768,1,0,0:0:0:0:
320,192,37768,1,0,0:0:0:0:
448,192,37768,1,0,0:0:0:0:
192,192,38549,1,0,0:0:0:0:
320,192,38549,1,0,0:0:0:0:
448,192,38549,1,0,0:0:0:0:
64,192,38549,128,0,38646:0:0:0:0:
64,192,39135,128,0,39232:0:0:0:0:
192,192,39330,128,0,39428:0:0:0:0:
320,192,39330,1,0,0:0:0:0:
448,192,39330,1,0,0:0:0:0:
64,192,39525,128,0,39623:0:0:0:0:
448,192,39721,128,0,39818:0:0:0:0:
320,192,39916,128,0,40014:0:0:0:0:
192,192,39916,1,0,0:0:0:0:
64,192,39916,1,0,0:0:0:0:
64,192,40502,128,0,40697:0:0:0:0:
192,192,40893,128,0,40990:0:0:0:0:
448,192,40893,1,0,0:0:0:0:
320,192,40893,1,0,0:0:0:0:
64,192,40893,1,0,0:0:0:0:
64,192,41674,128,0,41869:0:0:0:0:
320,192,41674,1,0,0:0:0:0:
448,192,41674,1,0,0:0:0:0:
192,192,41674,1,0,0:0:0:0:
192,192,41967,128,0,42162:0:0:0:0:
320,192,42260,128,0,42357:0:0:0:0:
448,192,42455,128,0,42553:0:0:0:0:
192,192,42455,1,0,0:0:0:0:
64,192,42455,1,0,0:0:0:0:
64,192,42650,128,0,42748:0:0:0:0:
192,192,42846,128,0,42943:0:0:0:0:
320,192,43041,1,0,0:0:0:0:
64,192,43041,1,0,0:0:0:0:
448,192,43041,128,0,43627:0:0:0:0:
192,192,43627,128,0,43822:0:0:0:0:
320,192,44018,1,0,0:0:0:0:
448,192,44018,1,0,0:0:0:0:
64,192,44018,128,0,44115:0:0:0:0:
448,192,44408,1,0,0:0:0:0:
320,192,44603,1,0,0:0:0:0:
448,192,44799,1,0,0:0:0:0:
64,192,44799,128,0,44896:0:0:0:0:
192,192,44799,1,0,0:0:0:0:
320,192,44994,1,0,0:0:0:0:
192,192,45189,1,0,0:0:0:0:
64,192,45385,128,0,45482:0:0:0:0:
192,192,45385,1,0,0:0:0:0:
320,192,45385,1,0,0:0:0:0:
192,192,45580,128,0,45678:0:0:0:0:
448,192,45580,1,0,0:0:0:0:
320,192,45775,128,0,45873:0:0:0:0:
64,192,45775,1,0,0:0:0:0:
448,192,45971,128,0,46068:0:0:0:0:
192,192,45971,1,0,0:0:0:0:
64,192,46166,128,0,46264:0:0:0:0:
320,192,46166,1,0,0:0:0:0:
448,192,46361,1,0,0:0:0:0:
320,192,46557,1,0,0:0:0:0:
192,192,46752,128,0,46947:0:0:0:0:
64,192,46752,1,0,0:0:0:0:
448,192,46947,1,0,0:0:0:0:
64,192,47143,128,0,47240:0:0:0:0:
192,192,47143,1,0,0:0:0:0:
320,192,47143,1,0,0:0:0:0:
448,192,47240,1,0,0:0:0:0:
320,192,47338,1,0,0:0:0:0:
192,192,47435,1,0,0:0:0:0:
64,192,47533,1,0,0:0:0:0:
320,192,47533,1,0,0:0:0:0:
448,192,47631,1,0,0:0:0:0:
320,192,47728,1,0,0:0:0:0:
64,192,47826,1,0,0:0:0:0:
192,192,47924,128,0,48217:0:0:0:0:
320,192,47924,1,0,0:0:0:0:
448,192,47924,1,0,0:0:0:0:
320,192,48217,128,0,48510:0:0:0:0:
448,192,48217,1,0,0:0:0:0:
64,192,48217,1,0,0:0:0:0:
448,192,48510,1,0,0:0:0:0:
192,192,48510,1,0,0:0:0:0:
64,192,48510,128,0,49877:0:0:0:0:
192,192,49877,1,0,0:0:0:0:
320,192,49877,1,0,0:0:0:0:
448,192,49877,1,0,0:0:0:0:
64,192,50268,1,0,0:0:0:0:
192,192,50268,1,0,0:0:0:0:
448,192,50365,1,0,0:0:0:0:
320,192,50463,1,0,0:0:0:0:
192,192,50560,1,0,0:0:0:0:
320,192,50658,1,0,0:0:0:0:
448,192,50658,1,0,0:0:0:0:
64,192,50658,1,0,0:0:0:0:
192,192,50756,1,0,0:0:0:0:
320,192,50853,1,0,0:0:0:0:
448,192,50951,1,0,0:0:0:0:
64,192,51049,1,0,0:0:0:0:
192,192,51049,1,0,0:0:0:0:
448,192,51146,1,0,0:0:0:0:
64,192,51244,1,0,0:0:0:0:
192,192,51342,1,0,0:0:0:0:
64,192,51439,1,0,0:0:0:0:
448,192,51439,1,0,0:0:0:0:
320,192,51439,1,0,0:0:0:0:
192,192,51537,1,0,0:0:0:0:
448,192,51635,1,0,0:0:0:0:
320,192,51732,1,0,0:0:0:0:
192,192,51830,1,0,0:0:0:0:
64,192,51830,1,0,0:0:0:0:
448,192,51928,1,0,0:0:0:0:
64,192,52025,1,0,0:0:0:0:
448,192,52123,1,0,0:0:0:0:
320,192,52221,1,0,0:0:0:0:
192,192,52221,1,0,0:0:0:0:
64,192,52221,1,0,0:0:0:0:
448,192,52318,1,0,0:0:0:0:
64,192,52416,1,0,0:0:0:0:
192,192,52514,1,0,0:0:0:0:
448,192,52611,1,0,0:0:0:0:
64,192,52611,1,0,0:0:0:0:
192,192,52709,1,0,0:0:0:0:
448,192,52807,1,0,0:0:0:0:
320,192,52904,1,0,0:0:0:0:
192,192,53002,1,0,0:0:0:0:
64,192,53002,1,0,0:0:0:0:
448,192,53002,1,0,0:0:0:0:
320,192,53100,1,0,0:0:0:0:
448,192,53197,1,0,0:0:0:0:
64,192,53295,1,0,0:0:0:0:
192,192,53393,1,0,0:0:0:0:
320,192,53393,1,0,0:0:0:0:
448,192,53490,1,0,0:0:0:0:
64,192,53588,1,0,0:0:0:0:
192,192,53685,1,0,0:0:0:0:
320,192,53783,1,0,0:0:0:0:
448,192,53783,1,0,0:0:0:0:
64,192,53783,1,0,0:0:0:0:
192,192,53881,1,0,0:0:0:0:
448,192,53978,1,0,0:0:0:0:
320,192,54076,1,0,0:0:0:0:
64,192,54174,1,0,0:0:0:0:
192,192,54174,1,0,0:0:0:0:
320,192,54271,1,0,0:0:0:0:
192,192,54369,1,0,0:0:0:0:
448,192,54467,1,0,0:0:0:0:
192,192,54564,1,0,0:0:0:0:
64,192,54564,1,0,0:0:0:0:
320,192,54564,1,0,0:0:0:0:
448,192,54662,1,0,0:0:0:0:
320,192,54760,1,0,0:0:0:0:
192,192,54857,1,0,0:0:0:0:
64,192,54955,1,0,0:0:0:0:
448,192,54955,1,0,0:0:0:0:
320,192,55053,1,0,0:0:0:0:
64,192,55150,1,0,0:0:0:0:
192,192,55248,1,0,0:0:0:0:
320,192,55346,1,0,0:0:0:0:
448,192,55346,1,0,0:0:0:0:
64,192,55346,1,0,0:0:0:0:
192,192,55443,1,0,0:0:0:0:
448,192,55541,1,0,0:0:0:0:
64,192,55639,1,0,0:0:0:0:
192,192,55736,1,0,0:0:0:0:
320,192,55736,1,0,0:0:0:0:
64,192,55834,1,0,0:0:0:0:
448,192,55932,1,0,0:0:0:0:
320,192,56029,1,0,0:0:0:0:
192,192,56127,1,0,0:0:0:0:
64,192,56127,1,0,0:0:0:0:
448,192,56127,1,0,0:0:0:0:
320,192,56225,1,0,0:0:0:0:
192,192,56322,1,0,0:0:0:0:
320,192,56420,1,0,0:0:0:0:
64,192,56518,128,0,56615:0:0:0:0:
192,192,56518,128,0,56615:0:0:0:0:
448,192,56518,128,0,56615:0:0:0:0:
320,192,56615,1,0,0:0:0:0:
64,192,56713,1,0,0:0:0:0:
192,192,56810,1,0,0:0:0:0:
448,192,56908,1,0,0:0:0:0:
320,192,56908,1,0,0:0:0:0:
64,192,56908,1,0,0:0:0:0:
192,192,57006,1,0,0:0:0:0:
320,192,57103,1,0,0:0:0:0:
448,192,57201,1,0,0:0:0:0:
64,192,57299,1,0,0:0:0:0:
192,192,57299,1,0,0:0:0:0:
320,192,57396,1,0,0:0:0:0:
448,192,57494,1,0,0:0:0:0:
192,192,57592,1,0,0:0:0:0:
64,192,57689,1,0,0:0:0:0:
448,192,57689,1,0,0:0:0:0:
320,192,57689,1,0,0:0:0:0:
192,192,57787,1,0,0:0:0:0:
64,192,57885,1,0,0:0:0:0:
448,192,57982,1,0,0:0:0:0:
192,192,58080,1,0,0:0:0:0:
64,192,58080,1,0,0:0:0:0:
320,192,58178,1,0,0:0:0:0:
64,192,58275,1,0,0:0:0:0:
192,192,58373,1,0,0:0:0:0:
320,192,58471,1,0,0:0:0:0:
448,192,58471,1,0,0:0:0:0:
64,192,58471,1,0,0:0:0:0:
192,192,58568,1,0,0:0:0:0:
448,192,58666,1,0,0:0:0:0:
320,192,58764,1,0,0:0:0:0:
64,192,58861,1,0,0:0:0:0:
448,192,58861,1,0,0:0:0:0:
320,192,58959,1,0,0:0:0:0:
192,192,59057,1,0,0:0:0:0:
64,192,59154,1,0,0:0:0:0:
320,192,59252,1,0,0:0:0:0:
448,192,59252,1,0,0:0:0:0:
192,192,59252,1,0,0:0:0:0:
64,192,59350,1,0,0:0:0:0:
192,192,59447,1,0,0:0:0:0:
448,192,59545,1,0,0:0:0:0:
64,192,59643,1,0,0:0:0:0:
192,192,59643,1,0,0:0:0:0:
320,192,59740,1,0,0:0:0:0:
64,192,59838,1,0,0:0:0:0:
192,192,59935,1,0,0:0:0:0:
448,192,60033,1,0,0:0:0:0:
320,192,60033,1,0,0:0:0:0:
64,192,60033,1,0,0:0:0:0:
192,192,60131,1,0,0:0:0:0:
448,192,60228,1,0,0:0:0:0:
320,192,60326,1,0,0:0:0:0:
192,192,60424,1,0,0:0:0:0:
64,192,60424,1,0,0:0:0:0:
320,192,60521,1,0,0:0:0:0:
448,192,60619,1,0,0:0:0:0:
64,192,60717,1,0,0:0:0:0:
192,192,60814,1,0,0:0:0:0:
320,192,60814,1,0,0:0:0:0:
448,192,60814,1,0,0:0:0:0:
64,192,60912,1,0,0:0:0:0:
192,192,61010,1,0,0:0:0:0:
320,192,61107,1,0,0:0:0:0:
64,192,61205,1,0,0:0:0:0:
192,192,61205,1,0,0:0:0:0:
448,192,61205,128,0,61791:0:0:0:0:
320,192,61791,1,0,0:0:0:0:
192,192,61791,1,0,0:0:0:0:
64,192,61791,128,0,62768:0:0:0:0:
192,192,62768,1,0,0:0:0:0:
320,192,62768,1,0,0:0:0:0:
448,192,62865,1,0,0:0:0:0:
320,192,62963,1,0,0:0:0:0:
64,192,63060,1,0,0:0:0:0:
192,192,63158,1,0,0:0:0:0:
320,192,63158,1,0,0:0:0:0:
448,192,63158,1,0,0:0:0:0:
64,192,63256,1,0,0:0:0:0:
192,192,63353,1,0,0:0:0:0:
320,192,63451,1,0,0:0:0:0:
64,192,63549,1,0,0:0:0:0:
192,192,63549,1,0,0:0:0:0:
448,192,63646,1,0,0:0:0:0:
64,192,63744,1,0,0:0:0:0:
192,192,63842,1,0,0:0:0:0:
448,192,63939,1,0,0:0:0:0:
320,192,63939,1,0,0:0:0:0:
64,192,63939,1,0,0:0:0:0:
192,192,64037,1,0,0:0:0:0:
320,192,64135,1,0,0:0:0:0:
448,192,64232,1,0,0:0:0:0:
192,192,64330,1,0,0:0:0:0:
64,192,64330,1,0,0:0:0:0:
320,192,64428,1,0,0:0:0:0:
448,192,64525,1,0,0:0:0:0:
64,192,64623,1,0,0:0:0:0:
192,192,64721,1,0,0:0:0:0:
320,192,64721,1,0,0:0:0:0:
448,192,64721,1,0,0:0:0:0:
64,192,64818,1,0,0:0:0:0:
448,192,64916,1,0,0:0:0:0:
320,192,65014,1,0,0:0:0:0:
192,192,65111,1,0,0:0:0:0:
64,192,65111,1,0,0:0:0:0:
448,192,65209,1,0,0:0:0:0:
320,192,65307,1,0,0:0:0:0:
192,192,65404,1,0,0:0:0:0:
64,192,65502,1,0,0:0:0:0:
320,192,65502,1,0,0:0:0:0:
448,192,65502,1,0,0:0:0:0:
192,192,65600,1,0,0:0:0:0:
320,192,65697,1,0,0:0:0:0:
448,192,65795,1,0,0:0:0:0:
64,192,65893,1,0,0:0:0:0:
192,192,65893,1,0,0:0:0:0:
320,192,65990,1,0,0:0:0:0:
64,192,66088,1,0,0:0:0:0:
192,192,66185,1,0,0:0:0:0:
448,192,66283,1,0,0:0:0:0:
320,192,66283,1,0,0:0:0:0:
64,192,66283,1,0,0:0:0:0:
192,192,66381,1,0,0:0:0:0:
320,192,66478,1,0,0:0:0:0:
448,192,66576,1,0,0:0:0:0:
64,192,66674,1,0,0:0:0:0:
320,192,66674,1,0,0:0:0:0:
192,192,66771,1,0,0:0:0:0:
64,192,66869,1,0,0:0:0:0:
448,192,66967,1,0,0:0:0:0:
320,192,67064,1,0,0:0:0:0:
192,192,67064,1,0,0:0:0:0:
64,192,67064,1,0,0:0:0:0:
448,192,67162,1,0,0:0:0:0:
64,192,67260,1,0,0:0:0:0:
192,192,67357,1,0,0:0:0:0:
320,192,67455,1,0,0:0:0:0:
448,192,67455,1,0,0:0:0:0:
64,192,67553,1,0,0:0:0:0:
192,192,67650,1,0,0:0:0:0:
448,192,67748,1,0,0:0:0:0:
320,192,67846,1,0,0:0:0:0:
192,192,67846,1,0,0:0:0:0:
64,192,67846,1,0,0:0:0:0:
448,192,67943,1,0,0:0:0:0:
320,192,68041,1,0,0:0:0:0:
192,192,68139,1,0,0:0:0:0:
64,192,68236,1,0,0:0:0:0:
448,192,68236,1,0,0:0:0:0:
192,192,68334,1,0,0:0:0:0:
320,192,68432,1,0,0:0:0:0:
64,192,68529,1,0,0:0:0:0:
192,192,68627,1,0,0:0:0:0:
320,192,68627,1,0,0:0:0:0:
448,192,68627,1,0,0:0:0:0:
64,192,68725,1,0,0:0:0:0:
320,192,68822,1,0,0:0:0:0:
448,192,68920,1,0,0:0:0:0:
192,192,69018,128,0,69115:0:0:0:0:
64,192,69018,128,0,69115:0:0:0:0:
320,192,69018,128,0,69115:0:0:0:0:
448,192,69115,1,0,0:0:0:0:
320,192,69213,1,0,0:0:0:0:
64,192,69310,1,0,0:0:0:0:
192,192,69408,1,0,0:0:0:0:
320,192,69408,1,0,0:0:0:0:
448,192,69408,1,0,0:0:0:0:
64,192,69506,1,0,0:0:0:0:
448,192,69603,1,0,0:0:0:0:
320,192,69701,1,0,0:0:0:0:
192,192,69799,1,0,0:0:0:0:
64,192,69799,1,0,0:0:0:0:
448,192,69896,1,0,0:0:0:0:
192,192,69994,1,0,0:0:0:0:
320,192,70092,1,0,0:0:0:0:
64,192,70189,1,0,0:0:0:0:
448,192,70189,1,0,0:0:0:0:
192,192,70189,1,0,0:0:0:0:
320,192,70287,1,0,0:0:0:0:
64,192,70385,1,0,0:0:0:0:
192,192,70482,1,0,0:0:0:0:
320,192,70580,1,0,0:0:0:0:
448,192,70580,1,0,0:0:0:0:
64,192,70678,1,0,0:0:0:0:
192,192,70775,1,0,0:0:0:0:
448,192,70873,1,0,0:0:0:0:
320,192,70971,1,0,0:0:0:0:
192,192,70971,1,0,0:0:0:0:
64,192,70971,1,0,0:0:0:0:
448,192,71068,1,0,0:0:0:0:
192,192,71166,1,0,0:0:0:0:
320,192,71264,1,0,0:0:0:0:
64,192,71361,1,0,0:0:0:0:
192,192,71361,1,0,0:0:0:0:
448,192,71459,1,0,0:0:0:0:
64,192,71557,1,0,0:0:0:0:
192,192,71654,1,0,0:0:0:0:
320,192,71752,1,0,0:0:0:0:
448,192,71752,1,0,0:0:0:0:
64,192,71752,1,0,0:0:0:0:
192,192,71850,1,0,0:0:0:0:
448,192,71947,1,0,0:0:0:0:
64,192,72045,1,0,0:0:0:0:
320,192,72143,1,0,0:0:0:0:
192,192,72143,1,0,0:0:0:0:
448,192,72240,1,0,0:0:0:0:
192,192,72338,1,0,0:0:0:0:
64,192,72435,1,0,0:0:0:0:
192,192,72533,1,0,0:0:0:0:
320,192,72533,1,0,0:0:0:0:
448,192,72533,1,0,0:0:0:0:
64,192,72631,1,0,0:0:0:0:
448,192,72728,1,0,0:0:0:0:
320,192,72826,1,0,0:0:0:0:
64,192,72924,128,0,73217:0:0:0:0:
192,192,72924,1,0,0:0:0:0:
448,192,73217,128,0,73510:0:0:0:0:
320,192,73217,1,0,0:0:0:0:
192,192,73217,1,0,0:0:0:0:
320,192,73510,128,0,74877:0:0:0:0:
192,192,73510,1,0,0:0:0:0:
64,192,73510,1,0,0:0:0:0:
192,192,74877,1,0,0:0:0:0:
64,192,74877,1,0,0:0:0:0:
64,192,75268,1,0,0:0:0:0:
192,192,75268,1,0,0:0:0:0:
448,192,75268,128,0,75463:0:0:0:0:
320,192,75365,1,0,0:0:0:0:
192,192,75463,1,0,0:0:0:0:
320,192,75560,1,0,0:0:0:0:
192,192,75658,1,0,0:0:0:0:
64,192,75658,128,0,75853:0:0:0:0:
448,192,75658,1,0,0:0:0:0:
320,192,75756,1,0,0:0:0:0:
448,192,75853,1,0,0:0:0:0:
192,192,75951,1,0,0:0:0:0:
448,192,76049,128,0,76244:0:0:0:0:
320,192,76049,1,0,0:0:0:0:
192,192,76146,1,0,0:0:0:0:
64,192,76244,1,0,0:0:0:0:
320,192,76342,1,0,0:0:0:0:
64,192,76439,128,0,76635:0:0:0:0:
192,192,76439,1,0,0:0:0:0:
448,192,76439,1,0,0:0:0:0:
320,192,76537,1,0,0:0:0:0:
448,192,76635,1,0,0:0:0:0:
192,192,76732,1,0,0:0:0:0:
448,192,76830,128,0,77025:0:0:0:0:
64,192,76830,1,0,0:0:0:0:
192,192,76928,1,0,0:0:0:0:
320,192,77025,1,0,0:0:0:0:
192,192,77123,1,0,0:0:0:0:
64,192,77221,128,0,77416:0:0:0:0:
448,192,77221,1,0,0:0:0:0:
320,192,77221,1,0,0:0:0:0:
192,192,77318,1,0,0:0:0:0:
448,192,77416,1,0,0:0:0:0:
320,192,77514,1,0,0:0:0:0:
448,192,77611,128,0,77807:0:0:0:0:
192,192,77611,1,0,0:0:0:0:
320,192,77709,1,0,0:0:0:0:
64,192,77807,1,0,0:0:0:0:
192,192,77904,1,0,0:0:0:0:
64,192,78002,128,0,78197:0:0:0:0:
320,192,78002,1,0,0:0:0:0:
448,192,78002,1,0,0:0:0:0:
192,192,78100,1,0,0:0:0:0:
320,192,78197,1,0,0:0:0:0:
448,192,78295,1,0,0:0:0:0:
192,192,78393,1,0,0:0:0:0:
320,192,78393,128,0,78783:0:0:0:0:
64,192,78393,1,0,0:0:0:0:
64,192,78783,128,0,79174:0:0:0:0:
192,192,78783,1,0,0:0:0:0:
448,192,78783,1,0,0:0:0:0:
192,192,79174,128,0,79564:0:0:0:0:
320,192,79174,1,0,0:0:0:0:
448,192,79174,1,0,0:0:0:0:
448,192,79564,128,0,79955:0:0:0:0:
320,192,79564,1,0,0:0:0:0:
64,192,79564,1,0,0:0:0:0:
64,192,79955,128,0,80150:0:0:0:0:
192,192,79955,1,0,0:0:0:0:
320,192,79955,1,0,0:0:0:0:
320,192,80150,128,0,80346:0:0:0:0:
448,192,80150,1,0,0:0:0:0:
192,192,80150,1,0,0:0:0:0:
192,192,80346,128,0,80541:0:0:0:0:
64,192,80346,1,0,0:0:0:0:
448,192,80346,1,0,0:0:0:0:
64,192,80541,128,0,80736:0:0:0:0:
320,192,80541,1,0,0:0:0:0:
448,192,80541,1,0,0:0:0:0:
448,192,80736,128,0,80932:0:0:0:0:
320,192,80736,1,0,0:0:0:0:
192,192,80736,1,0,0:0:0:0:
320,192,80932,128,0,81127:0:0:0:0:
192,192,80932,1,0,0:0:0:0:
64,192,80932,1,0,0:0:0:0:
64,192,81127,128,0,81518:0:0:0:0:
192,192,81127,1,0,0:0:0:0:
448,192,81127,1,0,0:0:0:0:
192,192,81518,1,0,0:0:0:0:
448,192,81518,128,0,81713:0:0:0:0:
320,192,81615,1,0,0:0:0:0:
64,192,81713,1,0,0:0:0:0:
192,192,81810,1,0,0:0:0:0:
64,192,81908,128,0,82103:0:0:0:0:
320,192,81908,1,0,0:0:0:0:
448,192,81908,1,0,0:0:0:0:
192,192,82006,1,0,0:0:0:0:
448,192,82103,1,0,0:0:0:0:
320,192,82201,1,0,0:0:0:0:
448,192,82299,128,0,82494:0:0:0:0:
192,192,82299,1,0,0:0:0:0:
64,192,82396,1,0,0:0:0:0:
320,192,82494,1,0,0:0:0:0:
192,192,82592,1,0,0:0:0:0:
64,192,82689,128,0,82885:0:0:0:0:
448,192,82689,1,0,0:0:0:0:
320,192,82689,1,0,0:0:0:0:
192,192,82787,1,0,0:0:0:0:
320,192,82885,1,0,0:0:0:0:
192,192,82982,1,0,0:0:0:0:
448,192,83080,128,0,83275:0:0:0:0:
64,192,83080,1,0,0:0:0:0:
192,192,83178,1,0,0:0:0:0:
320,192,83275,1,0,0:0:0:0:
192,192,83373,1,0,0:0:0:0:
64,192,83471,128,0,83666:0:0:0:0:
448,192,83471,1,0,0:0:0:0:
320,192,83471,1,0,0:0:0:0:
192,192,83568,1,0,0:0:0:0:
448,192,83666,1,0,0:0:0:0:
320,192,83764,1,0,0:0:0:0:
448,192,83861,128,0,84057:0:0:0:0:
64,192,83861,1,0,0:0:0:0:
192,192,83959,1,0,0:0:0:0:
64,192,84057,1,0,0:0:0:0:
320,192,84154,1,0,0:0:0:0:
64,192,84252,128,0,84447:0:0:0:0:
192,192,84252,1,0,0:0:0:0:
448,192,84252,1,0,0:0:0:0:
320,192,84350,1,0,0:0:0:0:
448,192,84447,1,0,0:0:0:0:
192,192,84545,1,0,0:0:0:0:
320,192,84643,1,0,0:0:0:0:
64,192,84643,1,0,0:0:0:0:
448,192,84643,128,0,85033:0:0:0:0:
64,192,85033,128,0,85424:0:0:0:0:
320,192,85033,1,0,0:0:0:0:
192,192,85033,1,0,0:0:0:0:
192,192,85424,128,0,85814:0:0:0:0:
320,192,85424,1,0,0:0:0:0:
448,192,85424,1,0,0:0:0:0:
448,192,85814,1,0,0:0:0:0:
64,192,85814,1,0,0:0:0:0:
320,192,85814,128,0,86205:0:0:0:0:
64,192,86205,128,0,86596:0:0:0:0:
192,192,86205,1,0,0:0:0:0:
448,192,86205,1,0,0:0:0:0:
320,192,86596,128,0,86986:0:0:0:0:
448,192,86596,1,0,0:0:0:0:
192,192,86596,1,0,0:0:0:0:
192,192,86986,128,0,87377:0:0:0:0:
448,192,86986,1,0,0:0:0:0:
64,192,86986,1,0,0:0:0:0:
64,192,87377,128,0,87768:0:0:0:0:
320,192,87377,1,0,0:0:0:0:
448,192,87377,1,0,0:0:0:0:
192,192,87768,1,0,0:0:0:0:
448,192,87768,128,0,87963:0:0:0:0:
320,192,87865,1,0,0:0:0:0:
64,192,87963,1,0,0:0:0:0:
192,192,88060,1,0,0:0:0:0:
64,192,88158,128,0,88353:0:0:0:0:
320,192,88158,1,0,0:0:0:0:
448,192,88158,1,0,0:0:0:0:
192,192,88256,1,0,0:0:0:0:
448,192,88353,1,0,0:0:0:0:
320,192,88451,1,0,0:0:0:0:
448,192,88549,128,0,88744:0:0:0:0:
64,192,88549,1,0,0:0:0:0:
320,192,88646,1,0,0:0:0:0:
192,192,88744,1,0,0:0:0:0:
448,192,88842,1,0,0:0:0:0:
64,192,88939,128,0,89135:0:0:0:0:
192,192,88939,1,0,0:0:0:0:
320,192,88939,1,0,0:0:0:0:
448,192,89037,1,0,0:0:0:0:
320,192,89135,1,0,0:0:0:0:
192,192,89232,1,0,0:0:0:0:
320,192,89330,128,0,89525:0:0:0:0:
64,192,89330,1,0,0:0:0:0:
448,192,89428,1,0,0:0:0:0:
192,192,89525,1,0,0:0:0:0:
64,192,89623,1,0,0:0:0:0:
448,192,89721,128,0,89916:0:0:0:0:
192,192,89721,1,0,0:0:0:0:
320,192,89721,1,0,0:0:0:0:
64,192,89818,1,0,0:0:0:0:
320,192,89916,1,0,0:0:0:0:
192,192,90014,1,0,0:0:0:0:
64,192,90111,128,0,90307:0:0:0:0:
320,192,90111,1,0,0:0:0:0:
192,192,90209,1,0,0:0:0:0:
448,192,90307,1,0,0:0:0:0:
320,192,90404,1,0,0:0:0:0:
64,192,90502,1,0,0:0:0:0:
448,192,90502,128,0,90697:0:0:0:0:
192,192,90502,1,0,0:0:0:0:
320,192,90600,1,0,0:0:0:0:
64,192,90697,1,0,0:0:0:0:
320,192,90795,1,0,0:0:0:0:
192,192,90893,1,0,0:0:0:0:
64,192,90893,1,0,0:0:0:0:
448,192,90893,128,0,91283:0:0:0:0:
320,192,91283,128,0,91674:0:0:0:0:
192,192,91283,1,0,0:0:0:0:
64,192,91283,1,0,0:0:0:0:
192,192,91674,128,0,92064:0:0:0:0:
64,192,91674,1,0,0:0:0:0:
448,192,91674,1,0,0:0:0:0:
64,192,92064,128,0,92455:0:0:0:0:
320,192,92064,1,0,0:0:0:0:
448,192,92064,1,0,0:0:0:0:
320,192,92455,128,0,92650:0:0:0:0:
192,192,92455,1,0,0:0:0:0:
448,192,92455,1,0,0:0:0:0:
448,192,92650,128,0,92846:0:0:0:0:
192,192,92650,1,0,0:0:0:0:
64,192,92650,1,0,0:0:0:0:
192,192,92846,128,0,93041:0:0:0:0:
64,192,92846,1,0,0:0:0:0:
320,192,92846,1,0,0:0:0:0:
320,192,93041,128,0,93236:0:0:0:0:
448,192,93041,1,0,0:0:0:0:
64,192,93041,1,0,0:0:0:0:
64,192,93236,128,0,93432:0:0:0:0:
192,192,93236,1,0,0:0:0:0:
448,192,93236,1,0,0:0:0:0:
448,192,93432,128,0,93627:0:0:0:0:
320,192,93432,1,0,0:0:0:0:
192,192,93432,1,0,0:0:0:0:
192,192,93627,128,0,94018:0:0:0:0:
64,192,93627,1,0,0:0:0:0:
320,192,93627,1,0,0:0:0:0:
64,192,94018,1,0,0:0:0:0:
448,192,94018,128,0,94213:0:0:0:0:
320,192,94115,1,0,0:0:0:0:
64,192,94213,1,0,0:0:0:0:
192,192,94310,1,0,0:0:0:0:
64,192,94408,128,0,94603:0:0:0:0:
320,192,94408,1,0,0:0:0:0:
448,192,94408,1,0,0:0:0:0:
192,192,94506,1,0,0:0:0:0:
320,192,94603,1,0,0:0:0:0:
448,192,94701,1,0,0:0:0:0:
192,192,94799,128,0,94994:0:0:0:0:
320,192,94799,1,0,0:0:0:0:
64,192,94896,1,0,0:0:0:0:
448,192,94994,1,0,0:0:0:0:
64,192,95092,1,0,0:0:0:0:
320,192,95189,128,0,95385:0:0:0:0:
448,192,95189,1,0,0:0:0:0:
192,192,95189,1,0,0:0:0:0:
64,192,95287,1,0,0:0:0:0:
448,192,95385,1,0,0:0:0:0:
192,192,95482,1,0,0:0:0:0:
448,192,95580,128,0,95775:0:0:0:0:
320,192,95580,1,0,0:0:0:0:
192,192,95678,1,0,0:0:0:0:
64,192,95775,1,0,0:0:0:0:
192,192,95873,1,0,0:0:0:0:
320,192,95971,128,0,96166:0:0:0:0:
64,192,95971,1,0,0:0:0:0:
448,192,95971,1,0,0:0:0:0:
192,192,96068,1,0,0:0:0:0:
448,192,96166,1,0,0:0:0:0:
64,192,96264,1,0,0:0:0:0:
192,192,96361,128,0,96557:0:0:0:0:
448,192,96361,1,0,0:0:0:0:
320,192,96459,1,0,0:0:0:0:
64,192,96557,1,0,0:0:0:0:
320,192,96654,1,0,0:0:0:0:
64,192,96752,128,0,96947:0:0:0:0:
192,192,96752,1,0,0:0:0:0:
448,192,96752,1,0,0:0:0:0:
320,192,96850,1,0,0:0:0:0:
448,192,96947,1,0,0:0:0:0:
320,192,97045,1,0,0:0:0:0:
64,192,97143,1,0,0:0:0:0:
192,192,97143,1,0,0:0:0:0:
448,192,97143,128,0,97533:0:0:0:0:
320,192,97533,128,0,97924:0:0:0:0:
192,192,97924,128,0,98217:0:0:0:0:
448,192,97924,1,0,0:0:0:0:
64,192,97924,1,0,0:0:0:0:
64,192,98217,128,0,98510:0:0:0:0:
448,192,98217,1,0,0:0:0:0:
320,192,98217,1,0,0:0:0:0:
448,192,98510,128,0,99486:0:0:0:0:
192,192,98510,1,0,0:0:0:0:
320,192,98510,1,0,0:0:0:0:
320,192,99486,128,0,99877:0:0:0:0:
192,192,99877,128,0,100268:0:0:0:0:
64,192,100268,1,0,0:0:0:0:
320,192,100268,1,0,0:0:0:0:
448,192,100268,1,0,0:0:0:0:
64,192,112768,5,0,0:0:0:0:
192,192,112768,1,0,0:0:0:0:
448,192,112963,1,0,0:0:0:0:
320,192,113158,1,0,0:0:0:0:
64,192,113353,1,0,0:0:0:0:
192,192,113549,1,0,0:0:0:0:
320,192,113549,1,0,0:0:0:0:
448,192,113549,1,0,0:0:0:0:
64,192,113744,1,0,0:0:0:0:
192,192,113939,1,0,0:0:0:0:
448,192,114135,1,0,0:0:0:0:
320,192,114330,1,0,0:0:0:0:
192,192,114330,1,0,0:0:0:0:
64,192,114525,1,0,0:0:0:0:
192,192,114721,1,0,0:0:0:0:
448,192,114916,1,0,0:0:0:0:
64,192,115111,1,0,0:0:0:0:
320,192,115111,1,0,0:0:0:0:
448,192,115111,1,0,0:0:0:0:
192,192,115307,1,0,0:0:0:0:
64,192,115502,1,0,0:0:0:0:
320,192,115697,1,0,0:0:0:0:
64,192,115893,1,0,0:0:0:0:
320,192,115893,1,0,0:0:0:0:
192,192,116088,1,0,0:0:0:0:
448,192,116283,1,0,0:0:0:0:
64,192,116478,1,0,0:0:0:0:
64,192,116674,1,0,0:0:0:0:
192,192,116674,1,0,0:0:0:0:
320,192,116674,1,0,0:0:0:0:
448,192,116869,1,0,0:0:0:0:
320,192,117064,1,0,0:0:0:0:
64,192,117260,1,0,0:0:0:0:
192,192,117455,1,0,0:0:0:0:
320,192,117455,1,0,0:0:0:0:
448,192,117650,1,0,0:0:0:0:
64,192,117846,1,0,0:0:0:0:
192,192,118041,1,0,0:0:0:0:
448,192,118236,1,0,0:0:0:0:
320,192,118236,1,0,0:0:0:0:
64,192,118236,1,0,0:0:0:0:
192,192,118432,1,0,0:0:0:0:
320,192,118627,1,0,0:0:0:0:
448,192,118822,1,0,0:0:0:0:
64,192,119018,1,0,0:0:0:0:
192,192,119018,128,0,119115:0:0:0:0:
64,192,119213,1,0,0:0:0:0:
448,192,119408,128,0,119506:0:0:0:0:
320,192,119408,1,0,0:0:0:0:
192,192,119603,1,0,0:0:0:0:
320,192,119799,128,0,119896:0:0:0:0:
64,192,119799,1,0,0:0:0:0:
192,192,119799,1,0,0:0:0:0:
448,192,119994,1,0,0:0:0:0:
192,192,120189,1,0,0:0:0:0:
64,192,120385,128,0,120482:0:0:0:0:
448,192,120385,1,0,0:0:0:0:
320,192,120580,128,0,120678:0:0:0:0:
192,192,120580,1,0,0:0:0:0:
192,192,120775,128,0,120873:0:0:0:0:
64,192,120775,1,0,0:0:0:0:
64,192,120971,128,0,121068:0:0:0:0:
320,192,120971,1,0,0:0:0:0:
448,192,121166,128,0,121264:0:0:0:0:
192,192,121166,1,0,0:0:0:0:
64,192,121361,1,0,0:0:0:0:
320,192,121361,1,0,0:0:0:0:
192,192,121361,1,0,0:0:0:0:
320,192,121557,1,0,0:0:0:0:
448,192,121752,128,0,121850:0:0:0:0:
64,192,121752,1,0,0:0:0:0:
192,192,121947,1,0,0:0:0:0:
64,192,122143,1,0,0:0:0:0:
320,192,122143,128,0,122240:0:0:0:0:
448,192,122338,1,0,0:0:0:0:
64,192,122533,1,0,0:0:0:0:
320,192,122728,1,0,0:0:0:0:
64,192,122924,128,0,123021:0:0:0:0:
192,192,122924,1,0,0:0:0:0:
448,192,122924,1,0,0:0:0:0:
320,192,123119,1,0,0:0:0:0:
192,192,123217,128,0,123314:0:0:0:0:
448,192,123314,1,0,0:0:0:0:
320,192,123510,128,0,123607:0:0:0:0:
64,192,123510,1,0,0:0:0:0:
448,192,123705,128,0,123803:0:0:0:0:
64,192,123705,1,0,0:0:0:0:
320,192,123900,128,0,123998:0:0:0:0:
192,192,123900,1,0,0:0:0:0:
192,192,124096,128,0,124193:0:0:0:0:
448,192,124096,1,0,0:0:0:0:
64,192,124291,128,0,124877:0:0:0:0:
320,192,124291,1,0,0:0:0:0:
320,192,124486,1,0,0:0:0:0:
448,192,124486,1,0,0:0:0:0:
192,192,124486,1,0,0:0:0:0:
192,192,124877,128,0,125268:0:0:0:0:
320,192,125268,1,0,0:0:0:0:
448,192,125268,1,0,0:0:0:0:
64,192,125268,128,0,125463:0:0:0:0:
192,192,126049,128,0,126244:0:0:0:0:
448,192,126635,128,0,126732:0:0:0:0:
320,192,126830,128,0,126928:0:0:0:0:
448,192,127025,128,0,127123:0:0:0:0:
192,192,127221,128,0,127318:0:0:0:0:
64,192,127416,128,0,128197:0:0:0:0:
192,192,128197,128,0,128393:0:0:0:0:
320,192,128393,128,0,128588:0:0:0:0:
64,192,129369,128,0,129564:0:0:0:0:
192,192,129564,128,0,129955:0:0:0:0:
320,192,129955,128,0,130053:0:0:0:0:
192,192,130150,128,0,130248:0:0:0:0:
64,192,130346,128,0,130443:0:0:0:0:
320,192,130541,128,0,130639:0:0:0:0:
192,192,130736,128,0,130834:0:0:0:0:
64,192,130932,128,0,131029:0:0:0:0:
448,192,131127,128,0,131225:0:0:0:0:
320,192,131322,128,0,131420:0:0:0:0:
192,192,131518,1,0,0:0:0:0:
448,192,131518,1,0,0:0:0:0:
64,192,131518,128,0,131713:0:0:0:0:
320,192,132299,128,0,132494:0:0:0:0:
64,192,132885,128,0,132982:0:0:0:0:
192,192,133080,128,0,133178:0:0:0:0:
64,192,133275,128,0,133373:0:0:0:0:
192,192,133471,128,0,133568:0:0:0:0:
320,192,133666,128,0,134252:0:0:0:0:
64,192,134252,128,0,134447:0:0:0:0:
192,192,134447,128,0,134643:0:0:0:0:
64,192,134643,1,0,0:0:0:0:
320,192,134643,1,0,0:0:0:0:
448,192,134643,128,0,134838:0:0:0:0:
64,192,135619,128,0,135814:0:0:0:0:
192,192,135814,128,0,136205:0:0:0:0:
320,192,136205,128,0,136303:0:0:0:0:
448,192,136400,128,0,136498:0:0:0:0:
192,192,136596,128,0,136693:0:0:0:0:
64,192,136791,128,0,136889:0:0:0:0:
320,192,136986,128,0,137084:0:0:0:0:
192,192,137182,128,0,137279:0:0:0:0:
64,192,137377,128,0,137475:0:0:0:0:
320,192,137572,128,0,137670:0:0:0:0:
64,192,137768,1,0,0:0:0:0:
192,192,137768,1,0,0:0:0:0:
448,192,137768,128,0,137963:0:0:0:0:
64,192,138549,128,0,138744:0:0:0:0:
192,192,138549,1,0,0:0:0:0:
448,192,138549,1,0,0:0:0:0:
448,192,139135,128,0,139232:0:0:0:0:
320,192,139330,128,0,139428:0:0:0:0:
64,192,139330,1,0,0:0:0:0:
192,192,139330,1,0,0:0:0:0:
192,192,139525,128,0,139623:0:0:0:0:
64,192,139721,128,0,139818:0:0:0:0:
448,192,139916,128,0,140014:0:0:0:0:
192,192,139916,1,0,0:0:0:0:
320,192,139916,1,0,0:0:0:0:
192,192,140697,128,0,140893:0:0:0:0:
448,192,140893,1,0,0:0:0:0:
320,192,140893,128,0,141088:0:0:0:0:
64,192,140893,1,0,0:0:0:0:
64,192,141674,128,0,141869:0:0:0:0:
192,192,141674,1,0,0:0:0:0:
320,192,141674,1,0,0:0:0:0:
448,192,141674,1,0,0:0:0:0:
448,192,142260,128,0,142455:0:0:0:0:
320,192,142455,128,0,142846:0:0:0:0:
192,192,142455,1,0,0:0:0:0:
64,192,142455,1,0,0:0:0:0:
448,192,143041,1,0,0:0:0:0:
192,192,143041,1,0,0:0:0:0:
64,192,143041,128,0,143139:0:0:0:0:
192,192,143236,128,0,143334:0:0:0:0:
320,192,143432,128,0,143529:0:0:0:0:
448,192,143627,128,0,144018:0:0:0:0:
192,192,144018,128,0,144115:0:0:0:0:
64,192,144018,1,0,0:0:0:0:
320,192,144018,1,0,0:0:0:0:
64,192,144213,1,0,0:0:0:0:
320,192,144408,1,0,0:0:0:0:
64,192,144603,1,0,0:0:0:0:
64,192,144799,128,0,144994:0:0:0:0:
448,192,144799,1,0,0:0:0:0:
192,192,144799,1,0,0:0:0:0:
320,192,144994,1,0,0:0:0:0:
192,192,145189,1,0,0:0:0:0:
320,192,145385,128,0,145580:0:0:0:0:
64,192,145385,1,0,0:0:0:0:
192,192,145580,128,0,145678:0:0:0:0:
448,192,145580,1,0,0:0:0:0:
64,192,145580,1,0,0:0:0:0:
64,192,145775,128,0,145873:0:0:0:0:
320,192,145775,1,0,0:0:0:0:
192,192,145971,128,0,146068:0:0:0:0:
448,192,145971,1,0,0:0:0:0:
448,192,146166,128,0,146264:0:0:0:0:
64,192,146166,1,0,0:0:0:0:
320,192,146166,1,0,0:0:0:0:
320,192,146361,1,0,0:0:0:0:
192,192,146557,1,0,0:0:0:0:
320,192,146752,128,0,147143:0:0:0:0:
64,192,146752,1,0,0:0:0:0:
192,192,146947,1,0,0:0:0:0:
192,192,147143,128,0,147240:0:0:0:0:
64,192,147143,1,0,0:0:0:0:
448,192,147240,1,0,0:0:0:0:
320,192,147338,1,0,0:0:0:0:
64,192,147435,1,0,0:0:0:0:
192,192,147533,1,0,0:0:0:0:
320,192,147533,1,0,0:0:0:0:
448,192,147631,1,0,0:0:0:0:
320,192,147728,1,0,0:0:0:0:
192,192,147826,1,0,0:0:0:0:
64,192,147924,1,0,0:0:0:0:
320,192,147924,1,0,0:0:0:0:
448,192,147924,128,0,148217:0:0:0:0:
320,192,148217,128,0,148510:0:0:0:0:
192,192,148217,1,0,0:0:0:0:
64,192,148217,1,0,0:0:0:0:
64,192,148510,128,0,149877:0:0:0:0:
192,192,148510,1,0,0:0:0:0:
448,192,148510,1,0,0:0:0:0:
192,192,149877,1,0,0:0:0:0:
320,192,149877,1,0,0:0:0:0:
448,192,149877,1,0,0:0:0:0:
320,192,150072,1,0,0:0:0:0:
448,192,150268,1,0,0:0:0:0:
64,192,150268,1,0,0:0:0:0:
192,192,150365,1,0,0:0:0:0:
448,192,150463,1,0,0:0:0:0:
320,192,150560,1,0,0:0:0:0:
192,192,150658,1,0,0:0:0:0:
64,192,150658,1,0,0:0:0:0:
448,192,150756,1,0,0:0:0:0:
64,192,150853,1,0,0:0:0:0:
192,192,150951,1,0,0:0:0:0:
320,192,151049,1,0,0:0:0:0:
448,192,151049,1,0,0:0:0:0:
64,192,151146,1,0,0:0:0:0:
448,192,151244,1,0,0:0:0:0:
320,192,151342,1,0,0:0:0:0:
64,192,151439,1,0,0:0:0:0:
448,192,151439,1,0,0:0:0:0:
320,192,151537,1,0,0:0:0:0:
64,192,151635,1,0,0:0:0:0:
192,192,151732,1,0,0:0:0:0:
320,192,151830,1,0,0:0:0:0:
448,192,151830,1,0,0:0:0:0:
64,192,151928,1,0,0:0:0:0:
320,192,152025,1,0,0:0:0:0:
192,192,152123,1,0,0:0:0:0:
320,192,152221,1,0,0:0:0:0:
448,192,152221,1,0,0:0:0:0:
64,192,152318,1,0,0:0:0:0:
320,192,152416,1,0,0:0:0:0:
64,192,152514,1,0,0:0:0:0:
192,192,152611,1,0,0:0:0:0:
320,192,152611,1,0,0:0:0:0:
448,192,152709,1,0,0:0:0:0:
320,192,152807,1,0,0:0:0:0:
192,192,152904,1,0,0:0:0:0:
64,192,153002,1,0,0:0:0:0:
320,192,153002,1,0,0:0:0:0:
448,192,153100,1,0,0:0:0:0:
64,192,153197,1,0,0:0:0:0:
192,192,153295,1,0,0:0:0:0:
320,192,153393,1,0,0:0:0:0:
448,192,153393,1,0,0:0:0:0:
64,192,153490,1,0,0:0:0:0:
192,192,153588,1,0,0:0:0:0:
448,192,153685,1,0,0:0:0:0:
192,192,153783,1,0,0:0:0:0:
64,192,153783,1,0,0:0:0:0:
320,192,153881,1,0,0:0:0:0:
64,192,153978,1,0,0:0:0:0:
192,192,154076,1,0,0:0:0:0:
320,192,154174,1,0,0:0:0:0:
448,192,154174,1,0,0:0:0:0:
64,192,154271,1,0,0:0:0:0:
192,192,154369,1,0,0:0:0:0:
448,192,154467,1,0,0:0:0:0:
64,192,154564,1,0,0:0:0:0:
320,192,154564,1,0,0:0:0:0:
448,192,154662,1,0,0:0:0:0:
64,192,154760,1,0,0:0:0:0:
192,192,154857,1,0,0:0:0:0:
64,192,154955,1,0,0:0:0:0:
448,192,154955,1,0,0:0:0:0:
320,192,155053,1,0,0:0:0:0:
64,192,155150,1,0,0:0:0:0:
192,192,155248,1,0,0:0:0:0:
320,192,155346,1,0,0:0:0:0:
448,192,155346,1,0,0:0:0:0:
192,192,155443,1,0,0:0:0:0:
64,192,155541,1,0,0:0:0:0:
448,192,155639,1,0,0:0:0:0:
320,192,155736,1,0,0:0:0:0:
64,192,155736,1,0,0:0:0:0:
192,192,155834,1,0,0:0:0:0:
64,192,155932,1,0,0:0:0:0:
320,192,156029,1,0,0:0:0:0:
64,192,156127,1,0,0:0:0:0:
448,192,156127,1,0,0:0:0:0:
320,192,156225,1,0,0:0:0:0:
192,192,156322,1,0,0:0:0:0:
448,192,156420,1,0,0:0:0:0:
64,192,156518,128,0,156615:0:0:0:0:
192,192,156518,128,0,156615:0:0:0:0:
320,192,156518,128,0,156615:0:0:0:0:
448,192,156615,1,0,0:0:0:0:
64,192,156713,1,0,0:0:0:0:
192,192,156810,1,0,0:0:0:0:
320,192,156908,1,0,0:0:0:0:
448,192,156908,1,0,0:0:0:0:
192,192,157006,1,0,0:0:0:0:
64,192,157103,1,0,0:0:0:0:
448,192,157201,1,0,0:0:0:0:
320,192,157299,1,0,0:0:0:0:
192,192,157299,1,0,0:0:0:0:
64,192,157396,1,0,0:0:0:0:
448,192,157494,1,0,0:0:0:0:
320,192,157592,1,0,0:0:0:0:
448,192,157689,1,0,0:0:0:0:
64,192,157689,1,0,0:0:0:0:
320,192,157787,1,0,0:0:0:0:
64,192,157885,1,0,0:0:0:0:
192,192,157982,1,0,0:0:0:0:
320,192,158080,1,0,0:0:0:0:
448,192,158080,1,0,0:0:0:0:
192,192,158178,1,0,0:0:0:0:
64,192,158275,1,0,0:0:0:0:
192,192,158373,1,0,0:0:0:0:
448,192,158471,1,0,0:0:0:0:
320,192,158471,1,0,0:0:0:0:
64,192,158568,1,0,0:0:0:0:
448,192,158666,1,0,0:0:0:0:
320,192,158764,1,0,0:0:0:0:
192,192,158861,1,0,0:0:0:0:
64,192,158861,1,0,0:0:0:0:
320,192,158959,1,0,0:0:0:0:
64,192,159057,1,0,0:0:0:0:
448,192,159154,1,0,0:0:0:0:
192,192,159252,1,0,0:0:0:0:
64,192,159252,1,0,0:0:0:0:
448,192,159350,1,0,0:0:0:0:
192,192,159447,1,0,0:0:0:0:
64,192,159545,1,0,0:0:0:0:
192,192,159643,1,0,0:0:0:0:
320,192,159643,1,0,0:0:0:0:
448,192,159740,1,0,0:0:0:0:
64,192,159838,1,0,0:0:0:0:
320,192,159935,1,0,0:0:0:0:
448,192,160033,1,0,0:0:0:0:
64,192,160033,1,0,0:0:0:0:
192,192,160131,1,0,0:0:0:0:
320,192,160228,1,0,0:0:0:0:
448,192,160326,1,0,0:0:0:0:
64,192,160424,1,0,0:0:0:0:
320,192,160424,1,0,0:0:0:0:
192,192,160521,1,0,0:0:0:0:
448,192,160619,1,0,0:0:0:0:
320,192,160717,1,0,0:0:0:0:
64,192,160814,1,0,0:0:0:0:
448,192,160814,1,0,0:0:0:0:
320,192,160912,1,0,0:0:0:0:
192,192,161010,1,0,0:0:0:0:
448,192,161107,1,0,0:0:0:0:
64,192,161205,1,0,0:0:0:0:
192,192,161205,1,0,0:0:0:0:
320,192,161205,128,0,161791:0:0:0:0:
64,192,161791,128,0,162377:0:0:0:0:
192,192,161791,1,0,0:0:0:0:
448,192,161791,1,0,0:0:0:0:
192,192,162377,1,0,0:0:0:0:
320,192,162377,1,0,0:0:0:0:
448,192,162572,1,0,0:0:0:0:
192,192,162572,1,0,0:0:0:0:
448,192,162768,1,0,0:0:0:0:
320,192,162768,1,0,0:0:0:0:
64,192,162768,1,0,0:0:0:0:
192,192,162865,1,0,0:0:0:0:
320,192,162963,1,0,0:0:0:0:
448,192,163060,1,0,0:0:0:0:
320,192,163158,1,0,0:0:0:0:
192,192,163158,1,0,0:0:0:0:
64,192,163158,1,0,0:0:0:0:
448,192,163256,1,0,0:0:0:0:
192,192,163353,1,0,0:0:0:0:
64,192,163451,1,0,0:0:0:0:
320,192,163549,1,0,0:0:0:0:
192,192,163549,1,0,0:0:0:0:
64,192,163646,1,0,0:0:0:0:
448,192,163744,1,0,0:0:0:0:
320,192,163842,1,0,0:0:0:0:
192,192,163939,1,0,0:0:0:0:
448,192,163939,1,0,0:0:0:0:
64,192,163939,1,0,0:0:0:0:
320,192,164037,1,0,0:0:0:0:
64,192,164135,1,0,0:0:0:0:
448,192,164232,1,0,0:0:0:0:
192,192,164330,1,0,0:0:0:0:
64,192,164330,1,0,0:0:0:0:
320,192,164428,1,0,0:0:0:0:
192,192,164525,1,0,0:0:0:0:
64,192,164623,1,0,0:0:0:0:
320,192,164721,1,0,0:0:0:0:
448,192,164721,1,0,0:0:0:0:
192,192,164721,1,0,0:0:0:0:
64,192,164818,1,0,0:0:0:0:
320,192,164916,1,0,0:0:0:0:
192,192,165014,1,0,0:0:0:0:
448,192,165111,1,0,0:0:0:0:
64,192,165111,1,0,0:0:0:0:
320,192,165209,1,0,0:0:0:0:
192,192,165307,1,0,0:0:0:0:
64,192,165404,1,0,0:0:0:0:
448,192,165502,1,0,0:0:0:0:
320,192,165502,1,0,0:0:0:0:
192,192,165502,1,0,0:0:0:0:
64,192,165600,1,0,0:0:0:0:
448,192,165697,1,0,0:0:0:0:
320,192,165795,1,0,0:0:0:0:
192,192,165893,1,0,0:0:0:0:
64,192,165893,1,0,0:0:0:0:
448,192,165990,1,0,0:0:0:0:
192,192,166088,1,0,0:0:0:0:
320,192,166185,1,0,0:0:0:0:
192,192,166283,1,0,0:0:0:0:
448,192,166283,1,0,0:0:0:0:
64,192,166283,1,0,0:0:0:0:
320,192,166381,1,0,0:0:0:0:
64,192,166478,1,0,0:0:0:0:
192,192,166576,1,0,0:0:0:0:
448,192,166674,1,0,0:0:0:0:
320,192,166674,1,0,0:0:0:0:
64,192,166771,1,0,0:0:0:0:
192,192,166869,1,0,0:0:0:0:
448,192,166967,1,0,0:0:0:0:
320,192,167064,1,0,0:0:0:0:
192,192,167064,1,0,0:0:0:0:
64,192,167064,1,0,0:0:0:0:
448,192,167162,1,0,0:0:0:0:
192,192,167260,1,0,0:0:0:0:
320,192,167357,1,0,0:0:0:0:
64,192,167455,1,0,0:0:0:0:
192,192,167455,1,0,0:0:0:0:
448,192,167553,1,0,0:0:0:0:
192,192,167650,1,0,0:0:0:0:
64,192,167748,1,0,0:0:0:0:
192,192,167846,1,0,0:0:0:0:
320,192,167846,1,0,0:0:0:0:
448,192,167846,1,0,0:0:0:0:
64,192,167943,1,0,0:0:0:0:
320,192,168041,1,0,0:0:0:0:
448,192,168139,1,0,0:0:0:0:
192,192,168236,1,0,0:0:0:0:
320,192,168236,1,0,0:0:0:0:
64,192,168334,1,0,0:0:0:0:
448,192,168432,1,0,0:0:0:0:
64,192,168529,1,0,0:0:0:0:
192,192,168627,1,0,0:0:0:0:
320,192,168627,1,0,0:0:0:0:
448,192,168627,1,0,0:0:0:0:
64,192,168725,1,0,0:0:0:0:
448,192,168822,1,0,0:0:0:0:
192,192,168920,1,0,0:0:0:0:
64,192,169018,128,0,169115:0:0:0:0:
448,192,169018,128,0,169115:0:0:0:0:
320,192,169018,128,0,169115:0:0:0:0:
192,192,169115,1,0,0:0:0:0:
64,192,169213,1,0,0:0:0:0:
192,192,169310,1,0,0:0:0:0:
320,192,169408,1,0,0:0:0:0:
448,192,169408,1,0,0:0:0:0:
64,192,169408,1,0,0:0:0:0:
192,192,169506,1,0,0:0:0:0:
448,192,169603,1,0,0:0:0:0:
320,192,169701,1,0,0:0:0:0:
192,192,169799,1,0,0:0:0:0:
64,192,169799,1,0,0:0:0:0:
448,192,169896,1,0,0:0:0:0:
192,192,169994,1,0,0:0:0:0:
64,192,170092,1,0,0:0:0:0:
192,192,170189,1,0,0:0:0:0:
448,192,170189,1,0,0:0:0:0:
320,192,170189,1,0,0:0:0:0:
64,192,170287,1,0,0:0:0:0:
320,192,170385,1,0,0:0:0:0:
192,192,170482,1,0,0:0:0:0:
320,192,170580,1,0,0:0:0:0:
448,192,170580,1,0,0:0:0:0:
64,192,170678,1,0,0:0:0:0:
448,192,170775,1,0,0:0:0:0:
320,192,170873,1,0,0:0:0:0:
192,192,170971,1,0,0:0:0:0:
64,192,170971,1,0,0:0:0:0:
448,192,170971,1,0,0:0:0:0:
320,192,171068,1,0,0:0:0:0:
192,192,171166,1,0,0:0:0:0:
64,192,171264,1,0,0:0:0:0:
192,192,171361,1,0,0:0:0:0:
320,192,171361,1,0,0:0:0:0:
64,192,171459,1,0,0:0:0:0:
448,192,171557,1,0,0:0:0:0:
320,192,171654,1,0,0:0:0:0:
192,192,171752,1,0,0:0:0:0:
64,192,171752,1,0,0:0:0:0:
448,192,171752,1,0,0:0:0:0:
320,192,171850,1,0,0:0:0:0:
192,192,171947,1,0,0:0:0:0:
320,192,172045,1,0,0:0:0:0:
64,192,172143,1,0,0:0:0:0:
192,192,172143,1,0,0:0:0:0:
448,192,172240,1,0,0:0:0:0:
192,192,172338,1,0,0:0:0:0:
64,192,172435,1,0,0:0:0:0:
192,192,172533,1,0,0:0:0:0:
320,192,172533,1,0,0:0:0:0:
448,192,172533,1,0,0:0:0:0:
64,192,172631,1,0,0:0:0:0:
320,192,172728,1,0,0:0:0:0:
192,192,172826,1,0,0:0:0:0:
320,192,172924,1,0,0:0:0:0:
448,192,172924,1,0,0:0:0:0:
64,192,172924,128,0,173217:0:0:0:0:
192,192,173217,128,0,173510:0:0:0:0:
320,192,173217,1,0,0:0:0:0:
448,192,173217,1,0,0:0:0:0:
320,192,173510,128,0,174877:0:0:0:0:
448,192,173510,1,0,0:0:0:0:
64,192,173510,1,0,0:0:0:0:
192,192,174877,1,0,0:0:0:0:
64,192,174877,1,0,0:0:0:0:
448,192,174877,1,0,0:0:0:0:
64,192,175268,1,0,0:0:0:0:
192,192,175268,128,0,175463:0:0:0:0:
448,192,175365,1,0,0:0:0:0:
320,192,175463,1,0,0:0:0:0:
64,192,175560,1,0,0:0:0:0:
320,192,175658,128,0,175853:0:0:0:0:
448,192,175658,1,0,0:0:0:0:
192,192,175658,1,0,0:0:0:0:
64,192,175756,1,0,0:0:0:0:
192,192,175853,1,0,0:0:0:0:
448,192,175951,1,0,0:0:0:0:
192,192,176049,128,0,176244:0:0:0:0:
320,192,176049,1,0,0:0:0:0:
64,192,176146,1,0,0:0:0:0:
448,192,176244,1,0,0:0:0:0:
192,192,176342,1,0,0:0:0:0:
320,192,176439,128,0,176635:0:0:0:0:
448,192,176439,1,0,0:0:0:0:
64,192,176439,1,0,0:0:0:0:
192,192,176537,1,0,0:0:0:0:
64,192,176635,1,0,0:0:0:0:
448,192,176732,1,0,0:0:0:0:
192,192,176830,128,0,177025:0:0:0:0:
320,192,176830,1,0,0:0:0:0:
448,192,176928,1,0,0:0:0:0:
320,192,177025,1,0,0:0:0:0:
64,192,177123,1,0,0:0:0:0:
320,192,177221,128,0,177416:0:0:0:0:
192,192,177221,1,0,0:0:0:0:
448,192,177221,1,0,0:0:0:0:
64,192,177318,1,0,0:0:0:0:
192,192,177416,1,0,0:0:0:0:
448,192,177514,1,0,0:0:0:0:
192,192,177611,128,0,177807:0:0:0:0:
320,192,177611,1,0,0:0:0:0:
64,192,177709,1,0,0:0:0:0:
448,192,177807,1,0,0:0:0:0:
64,192,177904,1,0,0:0:0:0:
320,192,178002,128,0,178197:0:0:0:0:
192,192,178002,1,0,0:0:0:0:
448,192,178002,1,0,0:0:0:0:
64,192,178100,1,0,0:0:0:0:
448,192,178197,1,0,0:0:0:0:
192,192,178295,1,0,0:0:0:0:
64,192,178393,128,0,178783:0:0:0:0:
448,192,178393,1,0,0:0:0:0:
320,192,178393,1,0,0:0:0:0:
320,192,178783,128,0,179174:0:0:0:0:
192,192,178783,1,0,0:0:0:0:
448,192,178783,1,0,0:0:0:0:
192,192,179174,128,0,179564:0:0:0:0:
448,192,179174,1,0,0:0:0:0:
64,192,179174,1,0,0:0:0:0:
64,192,179564,128,0,179955:0:0:0:0:
320,192,179564,1,0,0:0:0:0:
448,192,179564,1,0,0:0:0:0:
448,192,179955,128,0,180150:0:0:0:0:
320,192,179955,1,0,0:0:0:0:
192,192,179955,1,0,0:0:0:0:
320,192,180150,128,0,180346:0:0:0:0:
192,192,180150,1,0,0:0:0:0:
64,192,180150,1,0,0:0:0:0:
192,192,180346,128,0,180541:0:0:0:0:
64,192,180346,1,0,0:0:0:0:
448,192,180346,1,0,0:0:0:0:
64,192,180541,128,0,180736:0:0:0:0:
448,192,180541,1,0,0:0:0:0:
320,192,180541,1,0,0:0:0:0:
448,192,180736,128,0,180932:0:0:0:0:
320,192,180736,1,0,0:0:0:0:
192,192,180736,1,0,0:0:0:0:
320,192,180932,128,0,181127:0:0:0:0:
192,192,180932,1,0,0:0:0:0:
64,192,180932,1,0,0:0:0:0:
192,192,181127,128,0,181518:0:0:0:0:
64,192,181127,1,0,0:0:0:0:
448,192,181127,1,0,0:0:0:0:
448,192,181518,128,0,181713:0:0:0:0:
320,192,181518,1,0,0:0:0:0:
64,192,181615,1,0,0:0:0:0:
192,192,181713,1,0,0:0:0:0:
320,192,181810,1,0,0:0:0:0:
64,192,181908,128,0,182103:0:0:0:0:
192,192,181908,1,0,0:0:0:0:
448,192,181908,1,0,0:0:0:0:
320,192,182006,1,0,0:0:0:0:
448,192,182103,1,0,0:0:0:0:
320,192,182201,1,0,0:0:0:0:
448,192,182299,128,0,182494:0:0:0:0:
64,192,182299,1,0,0:0:0:0:
192,192,182396,1,0,0:0:0:0:
320,192,182494,1,0,0:0:0:0:
192,192,182592,1,0,0:0:0:0:
64,192,182689,128,0,182885:0:0:0:0:
448,192,182689,1,0,0:0:0:0:
320,192,182689,1,0,0:0:0:0:
192,192,182787,1,0,0:0:0:0:
448,192,182885,1,0,0:0:0:0:
320,192,182982,1,0,0:0:0:0:
448,192,183080,128,0,183275:0:0:0:0:
64,192,183080,1,0,0:0:0:0:
192,192,183178,1,0,0:0:0:0:
320,192,183275,1,0,0:0:0:0:
192,192,183373,1,0,0:0:0:0:
320,192,183471,1,0,0:0:0:0:
448,192,183471,1,0,0:0:0:0:
64,192,183471,128,0,183666:0:0:0:0:
192,192,183568,1,0,0:0:0:0:
448,192,183666,1,0,0:0:0:0:
320,192,183764,1,0,0:0:0:0:
448,192,183861,128,0,184057:0:0:0:0:
192,192,183861,1,0,0:0:0:0:
64,192,183959,1,0,0:0:0:0:
192,192,184057,1,0,0:0:0:0:
320,192,184154,1,0,0:0:0:0:
64,192,184252,128,0,184447:0:0:0:0:
448,192,184252,1,0,0:0:0:0:
192,192,184252,1,0,0:0:0:0:
320,192,184350,1,0,0:0:0:0:
192,192,184447,1,0,0:0:0:0:
320,192,184545,1,0,0:0:0:0:
448,192,184643,128,0,185033:0:0:0:0:
64,192,184643,1,0,0:0:0:0:
192,192,184643,1,0,0:0:0:0:
192,192,185033,128,0,185424:0:0:0:0:
320,192,185033,1,0,0:0:0:0:
64,192,185033,1,0,0:0:0:0:
448,192,185424,128,0,185814:0:0:0:0:
320,192,185424,1,0,0:0:0:0:
64,192,185424,1,0,0:0:0:0:
64,192,185814,128,0,186205:0:0:0:0:
192,192,185814,1,0,0:0:0:0:
320,192,185814,1,0,0:0:0:0:
320,192,186205,128,0,186596:0:0:0:0:
192,192,186205,1,0,0:0:0:0:
448,192,186205,1,0,0:0:0:0:
448,192,186596,128,0,186986:0:0:0:0:
192,192,186596,1,0,0:0:0:0:
64,192,186596,1,0,0:0:0:0:
192,192,186986,128,0,187377:0:0:0:0:
64,192,186986,1,0,0:0:0:0:
320,192,186986,1,0,0:0:0:0:
64,192,187377,128,0,187768:0:0:0:0:
320,192,187377,1,0,0:0:0:0:
448,192,187377,1,0,0:0:0:0:
192,192,187768,128,0,187963:0:0:0:0:
320,192,187768,1,0,0:0:0:0:
448,192,187865,1,0,0:0:0:0:
320,192,187963,1,0,0:0:0:0:
448,192,188060,1,0,0:0:0:0:
64,192,188158,1,0,0:0:0:0:
320,192,188158,1,0,0:0:0:0:
192,192,188256,1,0,0:0:0:0:
320,192,188353,1,0,0:0:0:0:
448,192,188451,1,0,0:0:0:0:
64,192,188549,128,0,188744:0:0:0:0:
320,192,188549,1,0,0:0:0:0:
192,192,188646,1,0,0:0:0:0:
320,192,188744,1,0,0:0:0:0:
192,192,188842,1,0,0:0:0:0:
320,192,188939,1,0,0:0:0:0:
448,192,188939,128,0,189135:0:0:0:0:
64,192,188939,1,0,0:0:0:0:
192,192,189037,1,0,0:0:0:0:
320,192,189135,128,0,189330:0:0:0:0:
192,192,189232,1,0,0:0:0:0:
64,192,189330,128,0,189525:0:0:0:0:
192,192,189428,1,0,0:0:0:0:
448,192,189525,128,0,189916:0:0:0:0:
320,192,189525,1,0,0:0:0:0:
192,192,189623,1,0,0:0:0:0:
320,192,189721,1,0,0:0:0:0:
64,192,189721,1,0,0:0:0:0:
192,192,189818,1,0,0:0:0:0:
320,192,189916,128,0,190307:0:0:0:0:
64,192,189916,1,0,0:0:0:0:
448,192,190014,1,0,0:0:0:0:
64,192,190111,1,0,0:0:0:0:
448,192,190209,1,0,0:0:0:0:
192,192,190307,128,0,190502:0:0:0:0:
64,192,190307,1,0,0:0:0:0:
320,192,190404,1,0,0:0:0:0:
64,192,190502,128,0,190697:0:0:0:0:
448,192,190502,1,0,0:0:0:0:
320,192,190600,1,0,0:0:0:0:
448,192,190697,128,0,190893:0:0:0:0:
192,192,190795,1,0,0:0:0:0:
320,192,190893,128,0,191088:0:0:0:0:
192,192,190990,1,0,0:0:0:0:
64,192,191088,1,0,0:0:0:0:
192,192,191185,1,0,0:0:0:0:
320,192,191283,1,0,0:0:0:0:
64,192,191283,1,0,0:0:0:0:
448,192,191381,1,0,0:0:0:0:
192,192,191478,1,0,0:0:0:0:
320,192,191576,1,0,0:0:0:0:
64,192,191674,1,0,0:0:0:0:
192,192,191771,1,0,0:0:0:0:
64,192,191869,128,0,192064:0:0:0:0:
320,192,191869,1,0,0:0:0:0:
448,192,191967,1,0,0:0:0:0:
192,192,192064,128,0,192455:0:0:0:0:
320,192,192064,1,0,0:0:0:0:
448,192,192162,1,0,0:0:0:0:
320,192,192260,1,0,0:0:0:0:
64,192,192357,1,0,0:0:0:0:
320,192,192455,128,0,192650:0:0:0:0:
448,192,192455,1,0,0:0:0:0:
64,192,192553,1,0,0:0:0:0:
448,192,192650,128,0,192846:0:0:0:0:
192,192,192748,1,0,0:0:0:0:
64,192,192846,128,0,193041:0:0:0:0:
320,192,192846,1,0,0:0:0:0:
192,192,192943,1,0,0:0:0:0:
320,192,193041,128,0,193236:0:0:0:0:
448,192,193139,1,0,0:0:0:0:
192,192,193236,128,0,193432:0:0:0:0:
64,192,193334,1,0,0:0:0:0:
448,192,193432,128,0,193627:0:0:0:0:
320,192,193529,1,0,0:0:0:0:
64,192,193627,128,0,193822:0:0:0:0:
192,192,193627,1,0,0:0:0:0:
320,192,193725,1,0,0:0:0:0:
192,192,193822,1,0,0:0:0:0:
448,192,193920,1,0,0:0:0:0:
192,192,194018,1,0,0:0:0:0:
64,192,194018,1,0,0:0:0:0:
320,192,194018,128,0,194799:0:0:0:0:
192,192,194408,1,0,0:0:0:0:
64,192,194408,1,0,0:0:0:0:
64,192,194799,128,0,195385:0:0:0:0:
192,192,194799,1,0,0:0:0:0:
448,192,194799,1,0,0:0:0:0:
320,192,195189,1,0,0:0:0:0:
448,192,195189,1,0,0:0:0:0:
320,192,195385,128,0,195580:0:0:0:0:
448,192,195385,1,0,0:0:0:0:
192,192,195385,1,0,0:0:0:0:
448,192,195580,128,0,195775:0:0:0:0:
192,192,195580,1,0,0:0:0:0:
64,192,195580,1,0,0:0:0:0:
64,192,195775,128,0,195971:0:0:0:0:
192,192,195775,1,0,0:0:0:0:
320,192,195775,1,0,0:0:0:0:
448,192,195971,128,0,196166:0:0:0:0:
320,192,195971,1,0,0:0:0:0:
192,192,195971,1,0,0:0:0:0:
320,192,196166,128,0,196752:0:0:0:0:
192,192,196166,1,0,0:0:0:0:
64,192,196166,1,0,0:0:0:0:
64,192,196752,128,0,197143:0:0:0:0:
448,192,196752,1,0,0:0:0:0:
192,192,196752,1,0,0:0:0:0:
192,192,197143,1,0,0:0:0:0:
320,192,197143,1,0,0:0:0:0:
448,192,197143,128,0,197533:0:0:0:0:
320,192,197533,128,0,197924:0:0:0:0:
192,192,197924,128,0,198217:0:0:0:0:
64,192,197924,1,0,0:0:0:0:
448,192,197924,1,0,0:0:0:0:
64,192,198217,128,0,198510:0:0:0:0:
448,192,198217,1,0,0:0:0:0:
320,192,198217,1,0,0:0:0:0:
192,192,198510,128,0,199486:0:0:0:0:
320,192,198510,1,0,0:0:0:0:
448,192,198510,1,0,0:0:0:0:
320,192,199486,128,0,199877:0:0:0:0:
448,192,199877,128,0,200268:0:0:0:0:
64,192,200268,128,0,200463:0:0:0:0:
192,192,200268,128,0,200463:0:0:0:0:
320,192,200268,128,0,200463:0:0:0:0:
