osu file format v14

[General]
AudioFilename: audio.mp3
AudioLeadIn: 0
PreviewTime: 93827
Countdown: 1
SampleSet: Normal
StackLeniency: 0.7
Mode: 0
LetterboxInBreaks: 0
WidescreenStoryboard: 0

[Editor]
DistanceSpacing: 1.1
BeatDivisor: 16
GridSize: 4
TimelineZoom: 3.099999

[Metadata]
Title:10000
TitleUnicode:10000
Artist:ColBreakz
ArtistUnicode:ColBreakz
Creator:Pluto44
Version:Extra
Source:
Tags:
BeatmapID:1943806
BeatmapSetID:930859

[Difficulty]
HPDrainRate:4.5
CircleSize:4
OverallDifficulty:6
ApproachRate:9
SliderMultiplier:1.4
SliderTickRate:1

[Events]
//Background and Video events
0,0,"wallpapersden.com_anime-girl-and-colorful-sky_1920x1246.jpg",0,0
//Break Periods
//Storyboard Layer 0 (Background)
//Storyboard Layer 1 (Fail)
//Storyboard Layer 2 (Pass)
//Storyboard Layer 3 (Foreground)
//Storyboard Sound Samples

[TimingPoints]
232.826427197885,600,4,1,0,100,1,0
18757,-50,4,1,0,100,0,0
19432,-25,4,1,0,100,0,0
23932,-66.6666666666667,4,1,0,100,0,0
24195,-25,4,1,0,100,0,0
28770,-66.6666666666667,4,1,0,100,0,0
28882,-25,4,1,0,100,0,0
34470,-25,4,1,0,100,0,0
36157,-50,4,1,0,100,0,0
38632,-200,4,1,0,100,0,0
47032,-33.3333333333333,4,1,0,100,0,0
48345,-200,4,1,0,100,0,0
50632,-100,4,1,0,100,0,0
53032,-33.3333333333333,4,1,0,100,0,0
55432,-133.333333333333,4,1,0,100,0,0
56670,-33.3333333333333,4,1,0,100,0,0
61470,-25,4,1,0,100,0,0
62632,-33.3333333333333,4,1,0,100,0,0
125032,-100,4,1,0,100,0,0

[HitObjects]
179,219,270,6,0,L|244:278,1,70
374,167,870,1,0,0:0:0:0:
269,132,1057,2,0,L|271:113,1,17.5
186,131,1357,1,0,0:0:0:0:
173,135,1432,6,0,L|161:206,1,70
220,279,2032,1,0,0:0:0:0:
336,233,2257,2,0,L|341:251,1,17.5
368,150,2557,1,0,0:0:0:0:
365,135,2632,6,0,L|309:83,1,70
200,90,3157,1,0,0:0:0:0:
188,90,3232,2,0,L|114:122,1,78.75
110,199,3757,1,0,0:0:0:0:
110,210,3832,1,0,0:0:0:0:
226,228,4057,1,0,0:0:0:0:
226,242,4132,1,0,0:0:0:0:
341,205,4357,5,0,0:0:0:0:
341,205,4432,1,0,0:0:0:0:
341,205,4507,1,0,0:0:0:0:
341,205,4582,1,0,0:0:0:0:
341,205,4657,1,0,0:0:0:0:
341,205,4732,1,0,0:0:0:0:
341,205,4807,1,0,0:0:0:0:
341,205,4882,1,0,0:0:0:0:
341,205,4957,1,0,0:0:0:0:
341,205,5032,6,0,L|401:165,1,70
309,83,5632,1,0,0:0:0:0:
174,121,5857,2,0,L|155:121,1,17.5
85,230,6157,1,0,0:0:0:0:
101,250,6232,6,0,L|174:251,1,70
315,253,6832,1,0,0:0:0:0:
340,149,7057,2,0,L|359:150,1,17.5
274,72,7357,1,0,0:0:0:0:
254,60,7432,6,0,L|175:84,1,70
95,156,7957,1,0,0:0:0:0:
93,180,8032,2,0,L|162:210,1,70
301,264,8557,5,0,0:0:0:0:
279,219,8632,1,0,0:0:0:0:
198,67,8857,5,0,0:0:0:0:
226,111,8932,1,0,0:0:0:0:
345,172,9157,1,0,0:0:0:0:
345,172,9232,5,0,0:0:0:0:
345,172,9307,1,0,0:0:0:0:
345,172,9382,1,0,0:0:0:0:
345,172,9457,1,0,0:0:0:0:
345,172,9532,1,0,0:0:0:0:
345,172,9607,1,0,0:0:0:0:
345,172,9682,1,0,0:0:0:0:
345,172,9757,1,0,0:0:0:0:
345,172,9832,6,0,L|380:243,1,70
236,280,10470,1,0,0:0:0:0:
126,208,10657,2,0,L|112:190,1,17.5
170,81,10957,1,0,0:0:0:0:
187,71,11032,6,0,L|261:74,1,70
333,161,11632,1,0,0:0:0:0:
234,304,11857,2,0,L|215:306,1,17.5
72,218,12157,1,0,0:0:0:0:
75,196,12232,6,0,L|152:179,1,78.75
264,210,12757,5,0,0:0:0:0:
381,213,12870,1,0,0:0:0:0:
379,93,13057,5,0,0:0:0:0:
265,92,13170,1,0,0:0:0:0:
398,164,13357,1,0,0:0:0:0:
395,188,13432,6,0,L|385:250,1,52.5
384,266,13732,1,0,0:0:0:0:
245,262,13957,1,0,0:0:0:0:
243,268,14032,1,0,0:0:0:0:
151,135,14257,1,0,0:0:0:0:
151,135,14332,1,0,0:0:0:0:
249,60,14557,1,0,0:0:0:0:
277,61,14670,6,0,L|345:93,1,70
363,211,15232,1,0,0:0:0:0:
200,271,15457,2,0,L|203:252,1,17.5
108,175,15757,1,0,0:0:0:0:
106,153,15832,6,0,L|169:122,1,70
322,106,16470,1,0,0:0:0:0:
295,255,16657,2,0,L|276:260,1,17.5
164,114,16957,1,0,0:0:0:0:
164,141,17032,6,0,L|163:207,1,52.5
163,228,17332,1,0,0:0:0:0:
330,164,17557,5,0,0:0:0:0:
353,124,17632,1,0,0:0:0:0:
195,82,17857,5,0,0:0:0:0:
154,83,17932,1,0,0:0:0:0:
175,227,18157,5,0,0:0:0:0:
174,262,18232,1,0,0:0:0:0:
313,256,18457,5,0,0:0:0:0:
355,258,18532,1,0,0:0:0:0:
378,87,18757,5,0,0:0:0:0:
338,89,18832,2,0,B|310:141|247:151|176:108,1,175
124,198,19470,6,0,B|214:233|278:249|332:209|390:164,1,280
317,97,20070,1,0,0:0:0:0:
341,234,20257,1,0,0:0:0:0:
294,242,20370,1,0,0:0:0:0:
141,214,20557,1,0,0:0:0:0:
143,175,20670,6,0,B|171:99|225:73|295:46|331:51|376:65,1,280
371,230,21232,1,0,0:0:0:0:
246,242,21457,1,0,0:0:0:0:
198,237,21570,1,0,0:0:0:0:
223,89,21757,1,0,0:0:0:0:
251,87,21832,6,0,B|330:80|330:80|442:166|442:166|426:259,1,315
364,281,22357,1,0,0:0:0:0:
330,286,22470,2,0,B|197:285|197:285|137:179|137:179|136:99,1,280
221,81,22957,5,0,0:0:0:0:
238,203,23070,1,0,0:0:0:0:
345,78,23257,1,0,0:0:0:0:
238,203,23370,1,0,0:0:0:0:
365,213,23557,1,0,0:0:0:0:
334,252,23670,5,0,0:0:0:0:
151,199,23857,1,0,0:0:0:0:
170,153,23932,2,0,L|196:116,1,39.3750015020371
213,82,24120,1,0,0:0:0:0:
294,72,24232,6,0,B|366:116|366:116|395:149|418:219|356:280|356:280|328:276,1,280
175,250,24870,1,0,0:0:0:0:
125,99,25057,1,0,0:0:0:0:
163,69,25170,1,0,0:0:0:0:
307,75,25357,1,0,0:0:0:0:
346,109,25470,6,0,B|375:185|375:185|290:189|290:189|269:262|220:274,1,280
142,163,26032,1,0,0:0:0:0:
279,79,26257,1,0,0:0:0:0:
327,78,26370,1,0,0:0:0:0:
408,193,26557,1,0,0:0:0:0:
403,231,26670,6,0,B|371:282|371:282|275:267|247:221|264:177|264:177|218:152,1,280
122,80,27157,1,0,0:0:0:0:
118,113,27270,2,0,B|89:193|89:193|174:196|162:282|162:282|99:290,1,280
282,175,27757,5,0,0:0:0:0:
330,170,27870,1,0,0:0:0:0:
376,299,28057,5,0,0:0:0:0:
327,300,28170,1,0,0:0:0:0:
206,321,28357,5,0,0:0:0:0:
103,310,28470,1,0,0:0:0:0:
102,270,28545,1,0,0:0:0:0:
101,233,28620,1,0,0:0:0:0:
100,197,28695,1,0,0:0:0:0:
95,166,28770,2,0,L|107:133,1,26.2500010013581
162,134,28957,1,0,0:0:0:0:
222,149,29070,2,0,B|269:228|269:229|269:229|309:201|309:201|278:122|355:153|354:152|354:152|370:192,1,280
404,300,29670,5,0,0:0:0:0:
269,257,29857,1,0,0:0:0:0:
230,240,29970,1,0,0:0:0:0:
150,92,30157,1,0,0:0:0:0:
193,108,30270,6,0,B|284:112|283:112|301:201|254:250|278:260|278:260|346:260,1,280
393,100,30870,1,0,0:0:0:0:
386,203,31057,1,0,0:0:0:0:
352,235,31170,1,0,0:0:0:0:
251,267,31357,1,0,0:0:0:0:
214,257,31470,6,0,B|123:253|124:253|106:164|153:115|162:101|217:77,1,280
360,65,31957,1,0,0:0:0:0:
382,113,32107,2,0,B|408:162|410:159|410:159|332:204|332:204|306:164|306:164,1,175
247,140,32370,2,0,B|175:131|175:131|185:215|185:215|190:261,1,175
275,283,32670,5,0,0:0:0:0:
381,182,32857,1,0,0:0:0:0:
344,150,32970,1,0,0:0:0:0:
239,77,33157,1,0,0:0:0:0:
136,161,33270,2,0,L|137:232,1,70
236,208,33457,1,0,0:0:0:0:
238,167,33570,1,0,0:0:0:0:
359,158,33795,1,0,0:0:0:0:
404,185,33870,2,0,B|400:268|400:268|320:259|320:259|225:334|225:334,1,280
91,138,34470,6,0,B|163:110|163:110|234:137|234:137|306:102,1,210
378,149,34770,1,0,0:0:0:0:
410,257,34957,5,0,0:0:0:0:
369,278,35070,2,0,B|289:291|256:237|256:237|183:258|157:202|157:202|91:189,1,280
169,53,35670,2,0,B|226:93|187:125|187:125|226:167|226:167|281:157|302:191,1,210
319,200,35970,1,0,0:0:0:0:
390,66,36157,5,0,0:0:0:0:
432,103,36232,2,0,B|442:128|412:148|412:148|366:136|361:158,1,105
282,236,36570,2,0,B|243:260|228:224|228:224|207:194,1,87.5
136,82,36870,2,0,B|154:56|183:51|216:64,1,87.5
316,172,37170,2,0,B|276:207|276:207|294:252,1,87.5
128,268,37470,2,0,B|90:203|120:117|120:117,1,140
317,108,38032,2,0,B|385:114|385:114|407:152|406:195,1,140
330,247,38632,6,0,L|293:252,1,35
169,148,39232,2,0,L|170:182,1,35
318,120,39832,2,0,L|351:111,1,35
302,279,40432,2,0,L|264:282,1,35
113,213,41032,2,0,L|127:181,1,35
252,72,41632,2,0,L|283:87,1,35
249,71,42232,2,0,L|284:85,1,35
368,227,42832,2,0,L|333:238,1,35
182,230,43432,2,0,L|188:196,1,35
179,232,44032,2,0,L|190:196,1,35
181,233,44632,2,0,L|195:198,1,35
178,230,45232,2,0,L|207:210,1,35
329,93,45832,2,0,L|328:129,1,35
330,94,46432,2,0,P|323:113|331:124,1,35
376,208,47070,6,4,B|365:266|365:266|310:232|276:264|263:263|241:229|173:229,1,236.250009012223
111,107,47557,2,4,B|198:61|198:61|227:90|244:135,1,183.750007009506
373,243,47970,2,4,B|399:157|376:111|376:111|295:58,1,210.000008010865
129,237,48870,6,0,L|162:223,1,35
322,140,49470,2,0,L|322:178,1,35
238,255,50070,2,0,L|207:234,1,35
117,139,50632,6,0,P|135:93|165:78,1,78.75
294,128,51270,2,0,L|289:83,1,43.75
303,198,51570,2,0,L|307:245,1,43.75
372,128,51870,2,0,L|363:78,1,43.75
383,209,52170,2,0,L|383:257,1,43.75
453,136,52470,2,0,L|445:91,1,43.75
462,217,52770,2,0,L|452:260,1,43.75
378,181,53032,6,0,B|331:172|300:131|281:102|281:102|230:94|228:80|228:80|180:81,1,236.250009012223
76,123,53670,2,0,B|64:208|64:208|135:238|173:207|189:197,1,210.000008010865
381,84,54270,2,0,B|313:94|288:126|288:126|258:90|252:89|210:83|207:83|207:83|198:108,1,210.000008010865
132,209,54870,2,0,B|129:256|129:256|174:251|213:200|224:199|233:198|239:198|280:252,1,210.000008010865
368,280,55432,2,0,P|351:237|300:211,1,105.000004005432
134,96,56670,6,0,B|93:93|121:94|123:72|149:135|130:67,1,52.5000020027161
358,292,56970,6,0,B|381:306|375:329|346:321|359:277|354:283,1,52.5000020027161
425,65,57270,6,0,B|422:52|456:58|451:61|456:64|425:63,1,52.5000020027161
186,248,57570,6,0,B|164:279|156:268|156:256|186:251|188:242,1,52.5000020027161
250,144,57870,2,0,B|327:137|350:134|359:156|366:174|366:214|361:223|365:228,1,157.500006008148
366,252,58207,1,0,0:0:0:0:
366,252,58245,1,0,0:0:0:0:
92,273,58470,6,0,L|150:182,1,105.000004005432
204,70,58732,1,0,0:0:0:0:
232,259,58882,1,0,0:0:0:0:
316,77,59070,6,0,L|397:143,1,105.000004005432
384,274,59332,1,0,0:0:0:0:
235,187,59482,1,0,0:0:0:0:
211,265,59632,1,0,0:0:0:0:
191,250,59707,1,0,0:0:0:0:
172,232,59782,1,0,0:0:0:0:
153,214,59857,1,0,0:0:0:0:
136,198,59932,1,0,0:0:0:0:
123,179,60007,1,0,0:0:0:0:
113,157,60082,1,0,0:0:0:0:
108,130,60157,1,0,0:0:0:0:
102,108,60232,1,0,0:0:0:0:
101,83,60307,6,0,B|150:82|150:82|173:116|173:116|211:126,1,105.000004005432
284,233,60570,5,0,0:0:0:0:
373,82,60720,1,0,0:0:0:0:
400,71,60832,2,0,B|466:111|475:111|478:174|437:178|437:178|359:178,1,210.000008010865
75,122,61470,6,0,B|64:169|49:191|50:217|137:202|137:202|176:236|188:238|197:231|238:201|238:201|271:201|271:201|271:152|271:152|297:128|309:127|317:127|350:159,1,420
443,190,62032,2,0,B|390:206|390:206|435:254|435:255|435:255|396:268|366:296|348:308|360:316|293:284|292:260|292:260|256:242|256:242|247:180|247:180|217:160|191:161|192:150|189:113|189:113|202:90,1,490
266,55,62632,2,0,B|337:77|337:77|332:128|332:128|329:246,1,236.250009012223
153,261,63157,5,0,0:0:0:0:
183,231,63232,1,0,0:0:0:0:
379,95,63532,1,0,0:0:0:0:
331,239,63870,5,0,0:0:0:0:
157,132,64020,1,0,0:0:0:0:
320,93,64170,1,0,0:0:0:0:
205,231,64320,1,0,0:0:0:0:
369,216,64470,1,0,0:0:0:0:
235,91,64657,1,0,0:0:0:0:
316,96,64770,1,0,0:0:0:0:
282,269,64920,1,0,0:0:0:0:
166,273,65107,6,0,B|136:238|136:238|166:205|182:199|184:188|141:138|141:138|151:92|151:92|183:71|247:32|279:106,1,367.500014019013
290,114,65670,1,0,0:0:0:0:
291,116,65707,1,0,0:0:0:0:
411,236,66232,6,0,B|353:215|343:213|347:206|355:166|355:166|307:131|307:131|231:137|275:145|281:164|284:139,1,236.250009012223
98,292,66870,6,0,B|67:212|67:212|86:177|93:177|95:178|130:198|130:198|141:235|141:235|151:272|156:272|158:261|166:266|186:244,1,262.500010013581
210,76,67470,2,0,P|350:83|417:222,1,288.750011014939
420,232,67957,1,0,0:0:0:0:
420,253,67995,1,0,0:0:0:0:
175,121,68370,5,0,0:0:0:0:
131,294,68670,2,0,P|145:148|281:102,1,288.750011014939
305,104,69157,1,0,0:0:0:0:
334,108,69195,1,0,0:0:0:0:
209,304,69607,5,0,0:0:0:0:
416,210,69870,2,0,B|349:195|349:195|311:234|297:225|292:237|302:284|302:284|230:256|230:256|178:265,1,288.750011014939
155,255,70357,1,0,0:0:0:0:
109,249,70395,1,0,0:0:0:0:
308,76,70807,5,0,0:0:0:0:
420,86,71070,2,0,B|353:100|353:100|315:62|301:70|296:58|253:104|253:104|216:49|216:49|165:42,1,288.750011014939
140,47,71557,1,0,0:0:0:0:
87,52,71595,1,0,0:0:0:0:
163,278,71857,5,0,0:0:0:0:
405,293,72270,2,0,B|359:247|359:247|299:272|299:272|240:178|229:176|221:177|201:200|181:190|181:190|167:197,1,288.750011014939
134,183,72757,1,0,0:0:0:0:
83,168,72795,1,0,0:0:0:0:
291,86,73207,5,0,0:0:0:0:
405,91,73470,2,0,B|359:137|359:137|299:112|299:112|240:206|229:208|221:207|201:184|181:194|181:194|167:187,1,288.750011014939
123,206,73957,1,0,0:0:0:0:
62,229,73995,1,0,0:0:0:0:
266,285,74107,5,0,0:0:0:0:
