osu file format v14

[General]
AudioFilename: audio.mp3
AudioLeadIn: 0
PreviewTime: 55010
Countdown: 0
SampleSet: Soft
StackLeniency: 0.7
Mode: 0
LetterboxInBreaks: 0
WidescreenStoryboard: 1

[Editor]
Bookmarks: 11045,22079,33113,44147,55182,66216,77251,99320,110354,121389,132423,143458,154492,165527,176561,187596
DistanceSpacing: 1.1
BeatDivisor: 4
GridSize: 16
TimelineZoom: 1.2

[Metadata]
Title:Remember
TitleUnicode:Remember
Artist:ColBreakz & Vizzen
ArtistUnicode:ColBreakz & Vizzen
Creator:Hinsvar
Version:Normal
Source:
Tags:Electronic English drum and & bass DnB dubstep glitch hop drumstep melodic
BeatmapID:4288161
BeatmapSetID:2052201

[Difficulty]
HPDrainRate:3
CircleSize:3
OverallDifficulty:4.5
ApproachRate:5.5
SliderMultiplier:1.04
SliderTickRate:1

[Events]
//Background and Video events
0,0,"BG.jpg",0,0
//Break Periods
2,77450,98195
//Storyboard Layer 0 (Background)
//Storyboard Layer 1 (Fail)
//Storyboard Layer 2 (Pass)
//Storyboard Layer 3 (Foreground)
//Storyboard Layer 4 (Overlay)
//Storyboard Sound Samples

[TimingPoints]
11,344.827586206897,4,2,1,50,1,0
11045,-125,4,2,1,50,0,0
20054,344.827586206897,4,2,1,50,1,0
20054,-125,4,2,1,50,0,0
22079,344.827586206897,4,2,1,50,1,0
22079,-125,4,2,1,50,0,0
33113,-111.111111111111,4,2,1,60,0,0
44147,-100,4,2,1,70,0,0
49665,-100,4,2,1,50,0,0
50354,-100,4,2,1,55,0,0
51044,-100,4,2,1,60,0,0
51734,-100,4,2,1,65,0,0
52423,-100,4,2,1,70,0,0
55182,-90.9090909090909,4,2,1,75,0,1
55872,-90.9090909090909,4,2,1,75,0,0
66216,-90.9090909090909,4,2,1,75,0,1
66906,-90.9090909090909,4,2,1,75,0,0
77251,-125,4,2,2,50,0,0
121389,-111.111111111111,4,2,1,60,0,0
132423,-100,4,2,1,70,0,0
137941,-100,4,2,1,50,0,0
138630,-100,4,2,1,55,0,0
139320,-100,4,2,1,60,0,0
140010,-100,4,2,1,65,0,0
140699,-100,4,2,1,70,0,0
143458,-90.9090909090909,4,2,1,80,0,1
147596,-90.9090909090909,4,2,1,80,0,0
147941,-90.9090909090909,4,2,1,80,0,1
158630,-90.9090909090909,4,2,1,80,0,0
158975,-90.9090909090909,4,2,1,80,0,1
164147,-90.9090909090909,4,2,1,80,0,0
164492,-90.9090909090909,4,2,1,80,0,1
176561,-100,4,2,1,70,0,0
179320,-111.111111111111,4,2,1,60,0,0
186389,-125,4,2,1,50,0,0

[Colours]
Combo1 : 200,142,238
Combo2 : 242,153,100
Combo3 : 123,233,236
Combo4 : 121,213,87

[HitObjects]
49,306,11045,5,2,0:0:0:0:
254,296,11735,1,2,0:0:0:0:
249,193,12079,1,2,0:0:0:0:
454,184,12769,1,2,0:0:0:0:
449,80,13114,1,2,0:0:0:0:
345,84,13459,1,2,0:0:0:0:
349,88,14321,5,2,0:0:0:0:
349,88,14493,2,0,P|291:74|247:21,1,124.8,2|0,0:0|0:0,0:0:0:0:
197,35,15183,2,0,P|183:93|130:137,1,124.8,2|0,0:0|0:0,0:0:0:0:
142,181,15873,2,0,P|200:195|244:248,1,124.8,2|0,0:0|0:0,0:0:0:0:
288,236,16562,1,2,0:0:0:0:
377,183,16907,1,2,0:0:0:0:
105,29,17942,5,2,0:0:0:0:
16,82,18286,1,2,0:0:0:0:
177,212,18976,1,2,0:0:0:0:
151,314,19321,1,2,0:0:0:0:
361,314,20054,1,2,0:0:0:0:
335,212,20398,1,2,0:0:0:0:
496,82,21088,1,2,0:0:0:0:
407,29,21433,1,2,0:0:0:0:
256,172,22079,5,2,0:0:0:0:
439,269,22768,1,2,0:0:0:0:
361,338,23113,1,2,0:0:0:0:
151,338,23803,1,2,0:0:0:0:
73,269,24147,1,2,0:0:0:0:
171,235,24492,1,2,0:0:0:0:
175,239,25354,5,2,0:0:0:0:
175,239,25527,2,0,P|133:195|125:132,1,124.8,2|0,0:0|0:0,0:0:0:0:
124,81,26216,2,0,P|168:39|231:31,1,124.8,2|0,0:0|0:0,0:0:0:0:
282,30,26906,2,0,P|324:74|332:137,1,124.8,2|0,0:0|0:0,0:0:0:0:
333,188,27596,1,2,0:0:0:0:
281,278,27941,1,2,0:0:0:0:
285,282,29492,5,2,0:0:0:0:
285,282,29665,2,0,L|397:371,1,124.8,2|0,0:0|0:0,0:0:0:0:
433,350,30354,2,0,L|454:208,1,124.8,2|0,0:0|0:0,0:0:0:0:
438,175,31044,2,0,L|326:86,1,124.8,2|0,0:0|0:0,0:0:0:0:
290,107,31734,1,2,0:0:0:0:
220,184,32079,2,0,P|125:197|37:122,1,208,2|0,0:0|0:0,0:0:0:0:
40,79,33113,5,2,3:2:0:0:
245,95,33803,2,0,P|291:82|326:48,1,93.5999971435548,2|0,0:0|0:0,0:0:0:0:
426,47,34492,2,0,P|439:93|473:128,1,93.5999971435548,2|0,0:0|0:0,0:0:0:0:
498,169,35010,2,0,P|452:182|417:216,1,93.5999971435548,2|0,0:0|0:0,0:0:0:0:
376,241,35527,2,0,P|369:218|352:200,2,46.7999985717774,2|0|0,0:0|0:0|0:0,0:0:0:0:
392,342,36216,5,2,0:0:0:0:
295,372,36561,1,2,0:0:0:0:
236,289,36906,1,2,0:0:0:0:
177,206,37251,2,0,P|146:174|96:151,1,93.5999971435548,2|0,0:0|0:0,0:0:0:0:
53,136,37768,2,0,P|40:178|45:233,1,93.5999971435548,2|0,0:0|0:0,0:0:0:0:
55,279,38285,2,0,P|76:273|99:257,2,46.7999985717774,2|0|0,0:0|0:0|0:0,0:0:0:0:
28,323,38803,1,2,0:0:0:0:
191,364,39320,5,2,0:0:0:0:
293,351,39665,1,2,0:0:0:0:
231,270,40010,2,0,P|216:226|224:181,1,93.5999971435548,2|0,0:0|0:0,0:0:0:0:
221,128,40527,2,0,P|265:113|310:121,1,93.5999971435548,2|0,0:0|0:0,0:0:0:0:
363,118,41044,2,0,P|370:140|366:162,2,46.7999985717774,2|0|0,0:0|0:0|0:0,0:0:0:0:
396,78,41561,1,2,0:0:0:0:
235,26,42079,5,2,0:0:0:0:
132,17,42423,1,2,0:0:0:0:
72,101,42768,2,0,P|46:87|14:77,2,46.7999985717774,2|0|0,0:0|0:0|0:0,0:0:0:0:
39,199,43458,2,0,P|65:213|97:223,1,46.7999985717774,2|0,0:0|0:0,0:0:0:0:
132,213,43803,1,2,0:0:0:0:
110,314,44147,6,0,P|164:312|208:285,1,104,10|8,3:2|0:0,0:0:0:0:
253,263,44665,1,2,0:0:0:0:
253,263,44837,2,0,P|254:317|282:361,1,104,8|8,0:0|0:0,0:0:0:0:
383,357,45527,2,0,L|402:246,1,104,10|8,3:2|0:0,0:0:0:0:
409,203,46044,2,0,L|514:163,1,104,2|0,0:0|0:0,0:0:0:0:
494,116,46561,1,10,0:0:0:0:
436,29,46906,6,0,P|389:21|339:52,1,104,10|8,3:2|0:0,0:0:0:0:
298,73,47423,1,2,0:0:0:0:
298,73,47596,2,0,P|274:77|249:61,2,52,8|0|8,0:0|0:0|0:0,0:0:0:0:
368,149,48285,2,0,L|349:264,1,104,10|8,3:2|0:0,0:0:0:0:
300,264,48803,2,0,L|290:321,2,52,2|8|0,0:0|0:0|0:0,0:0:0:0:
253,240,49320,1,8,0:0:0:0:
159,285,49665,6,0,P|86:301|32:232,1,156,10|8,3:2|0:0,0:0:0:0:
32,195,50354,2,0,P|21:146|67:110,1,104,10|8,3:2|0:0,0:0:0:0:
137,178,51044,2,0,L|261:168,1,104,10|8,3:2|0:0,0:0:0:0:
276,129,51561,2,0,L|400:119,1,104,8|8,0:0|0:0,0:0:0:0:
413,82,52079,1,8,0:0:0:0:
467,170,52423,6,0,P|479:198|477:233,1,52,2|0,1:2|3:0,0:0:0:0:
489,271,52768,2,0,P|466:291|432:300,1,52,2|0,1:2|3:0,0:0:0:0:
400,322,53113,2,0,P|373:306|354:276,1,52,2|0,1:2|3:0,0:0:0:0:
323,253,53458,2,0,P|329:222|351:195,2,52,2|0|2,1:2|0:0|1:2,0:0:0:0:
60,366,54665,2,0,L|5:357,2,52,0|0|0,3:0|3:0|3:0,0:0:0:0:
114,349,55182,5,4,3:2:0:0:
114,349,55354,2,0,B|140:300|111:268|106:272|80:224|107:176,1,171.600005236817,2|0,0:0|1:0,0:0:0:0:
99,70,56216,1,2,0:0:0:0:
213,67,56561,1,0,3:0:0:0:
213,67,56734,2,0,P|217:44|213:9,2,57.2000017456055,2|2|2,0:0|0:0|0:0,0:0:0:0:
213,124,57251,2,0,P|229:140|315:133,1,114.400003491211,0|2,1:0|0:0,0:0:0:0:
329,83,57768,5,2,0:0:0:0:
329,83,57941,2,0,L|390:76,2,57.2000017456055,0|0|2,3:0|0:0|0:0,0:0:0:0:
397,174,58630,2,0,L|457:183,2,57.2000017456055,0|0|2,1:0|0:0|0:0,0:0:0:0:
418,286,59320,2,0,P|393:338|332:364,1,114.400003491211,0|0,3:0|0:0,0:0:0:0:
292,352,59837,1,2,0:0:0:0:
292,352,60010,2,0,P|259:304|267:238,1,114.400003491211,0|2,1:0|0:0,0:0:0:0:
259,134,60699,6,0,P|255:81|244:20,1,114.400003491211,4|2,3:2|0:0,0:0:0:0:
187,29,61216,1,2,0:0:0:0:
77,21,61561,1,2,0:0:0:0:
77,21,61734,2,0,L|74:79,1,57.2000017456055,2|2,0:0|0:0,0:0:0:0:
73,134,62079,1,0,3:0:0:0:
73,134,62251,2,0,L|15:131,2,57.2000017456055,2|2|2,0:0|0:0|0:0,0:0:0:0:
186,138,62941,1,2,0:0:0:0:
186,138,63113,1,2,0:0:0:0:
138,242,63458,6,0,P|137:269|149:301,2,57.2000017456055,0|0|2,3:0|0:0|0:0,0:0:0:0:
251,225,64147,2,0,P|260:251|259:280,2,57.2000017456055,0|0|2,1:0|0:0|0:0,0:0:0:0:
306,124,64837,2,0,B|336:128|356:146|355:149|373:171|415:165,1,114.400003491211,0|2,3:0|0:0,0:0:0:0:
402,225,65354,1,0,0:0:0:0:
402,225,65527,2,0,B|432:221|452:203|451:200|469:178|505:183,1,114.400003491211,0|2,1:0|0:0,0:0:0:0:
494,69,66216,5,4,3:2:0:0:
387,28,66561,2,0,L|325:36,1,57.2000017456055,2|2,0:0|0:0,0:0:0:0:
274,46,66906,1,0,1:0:0:0:
160,59,67251,2,0,L|168:121,1,57.2000017456055,2|2,3:2|0:0,0:0:0:0:
182,176,67596,1,2,0:0:0:0:
182,176,67768,2,0,P|155:159|130:153,2,57.2000017456055,0|2|0,3:0|3:2|0:0,0:0:0:0:
275,242,68458,6,0,P|292:215|298:190,2,57.2000017456055,2|2|0,0:0|0:0|0:0,0:0:0:0:
209,335,69147,2,0,P|236:352|261:358,2,57.2000017456055,2|2|2,0:0|0:0|0:0,0:0:0:0:
116,269,69837,1,2,0:0:0:0:
116,269,70010,2,0,P|89:252|64:246,2,57.2000017456055,0|0|2,3:0|3:0|0:0,0:0:0:0:
221,223,70699,1,0,3:0:0:0:
221,223,70872,2,0,L|212:101,1,114.400003491211,2|2,0:0|0:0,0:0:0:0:
208,51,71389,1,0,3:0:0:0:
313,7,71734,6,0,B|338:8|370:24|365:28|395:49|439:40,1,114.400003491211,0|2,3:0|0:0,0:0:0:0:
477,69,72251,1,2,0:0:0:0:
477,69,72423,2,0,B|463:90|433:109|432:103|399:119|385:161,1,114.400003491211,0|2,1:0|0:0,0:0:0:0:
340,179,72941,2,0,B|334:167|333:149|336:151|337:132|323:116,2,57.2000017456055,0|2|0,3:0|0:0|3:0,0:0:0:0:
352,239,73458,1,2,0:0:0:0:
352,239,73630,1,2,0:0:0:0:
421,329,73975,6,0,B|433:329|449:338|446:339|462:350|483:345,2,57.2000017456055,2|2|0,0:0|0:0|0:0,0:0:0:0:
308,343,74665,2,0,B|301:353|286:363|285:359|269:368|262:388,2,57.2000017456055,2|2|0,0:0|0:0|0:0,0:0:0:0:
276,302,75182,1,0,1:0:0:0:
276,302,75354,2,0,B|250:300|219:283|224:280|193:259|150:268,1,114.400003491211,0|0,3:0|0:0,0:0:0:0:
113,281,75872,1,6,3:2:0:0:
113,281,76906,2,0,B|118:292|119:310|116:308|115:327|129:343,2,57.2000017456055,2|2|2,3:2|0:0|3:2,0:0:0:0:
167,360,99320,5,0,3:0:0:0:
270,349,99665,1,0,3:0:0:0:
311,254,100010,2,0,P|319:213|309:164,1,83.2,10|0,0:0|0:0,0:0:0:0:
209,190,100699,2,0,P|205:210|210:235,1,41.6,2|0,0:0|3:0,0:0:0:0:
178,273,101044,2,0,P|138:265|88:275,2,83.2,2|8|0,3:2|0:0|0:0,0:0:0:0:
256,340,102079,5,2,0:0:0:0:
423,362,102596,1,2,0:0:0:0:
423,362,102768,2,0,P|458:320|453:250,1,124.8,10|0,0:0|0:0,0:0:0:0:
465,201,103458,2,0,P|423:166|353:171,1,124.8,2|0,0:0|0:0,0:0:0:0:
304,159,104147,2,0,P|269:201|274:271,1,124.8,10|0,0:0|0:0,0:0:0:0:
262,320,104837,5,2,3:2:0:0:
163,353,105182,1,0,3:0:0:0:
84,283,105527,1,10,0:0:0:0:
194,106,106216,2,0,L|188:56,1,41.6,2|0,0:0|3:0,0:0:0:0:
214,19,106561,2,0,L|314:7,1,83.2,2|8,3:2|0:0,0:0:0:0:
392,51,107251,5,2,0:0:0:0:
494,34,107596,2,0,P|489:76|476:120,1,83.2,2|0,0:0|3:0,0:0:0:0:
416,199,108285,5,10,0:0:0:0:
433,301,108630,2,0,P|391:296|347:283,1,83.2,2|0,0:0|0:0,0:0:0:0:
304,279,109147,1,0,3:0:0:0:
304,279,109320,1,2,3:2:0:0:
202,296,109665,2,0,P|207:254|220:210,1,83.2,10|0,0:0|0:0,0:0:0:0:
299,149,110354,5,0,3:0:0:0:
263,52,110699,1,0,3:0:0:0:
159,56,111044,2,0,P|132:80|121:130,1,83.2,10|0,0:0|0:0,0:0:0:0:
111,228,111734,2,0,L|70:235,1,41.6,2|0,0:0|3:0,0:0:0:0:
59,285,112079,2,0,P|83:312|133:323,2,83.2,2|8|0,3:2|0:0|0:0,0:0:0:0:
5,374,113113,5,2,0:0:0:0:
10,205,113630,1,2,0:0:0:0:
10,205,113803,2,0,P|2:141|16:63,1,124.8,10|0,0:0|0:0,0:0:0:0:
50,49,114492,2,0,P|114:41|192:55,1,124.8,2|0,0:0|0:0,0:0:0:0:
206,89,115182,2,0,P|214:153|200:231,1,124.8,10|0,0:0|0:0,0:0:0:0:
166,245,115872,5,2,3:2:0:0:
216,335,116216,1,2,3:2:0:0:
317,315,116561,1,8,0:0:0:0:
445,151,117251,2,0,L|500:142,2,41.6,2|0|0,0:0|3:0|3:0,0:0:0:0:
393,160,117768,5,2,0:0:0:0:
393,160,117941,2,0,P|374:101|326:60,1,124.8,10|0,0:0|0:0,0:0:0:0:
287,27,118630,2,0,P|245:72|233:135,1,124.8,2|0,0:0|0:0,0:0:0:0:
225,186,119320,2,0,P|285:199|345:177,1,124.8,10|0,0:0|0:0,0:0:0:0:
384,211,120010,1,2,0:0:0:0:
385,314,120354,2,0,B|328:280|281:325|289:336|242:381|196:335,1,208,2|0,3:2|0:0,0:0:0:0:
141,320,121389,5,0,3:0:0:0:
38,314,121734,1,0,3:0:0:0:
44,211,122079,2,0,L|46:157,2,46.7999985717774,2|0|0,0:0|3:0|3:0,0:0:0:0:
147,217,122768,2,0,P|188:219|243:191,1,93.5999971435548,2|0,3:2|3:0,0:0:0:0:
273,163,123285,2,0,P|254:125|201:91,1,93.5999971435548,2|0,0:0|3:0,0:0:0:0:
164,82,123803,2,0,P|151:98|150:130,2,46.7999985717774,2|0|0,3:2|0:0|3:0,0:0:0:0:
238,10,124492,5,2,3:2:0:0:
339,26,124837,2,0,L|390:34,2,46.7999985717774,2|0|0,0:0|3:0|3:0,0:0:0:0:
323,127,125527,2,0,P|307:170|333:221,1,93.5999971435548,2|0,3:2|3:0,0:0:0:0:
349,257,126044,2,0,P|392:273|443:247,1,93.5999971435548,2|0,0:0|3:0,0:0:0:0:
479,231,126561,2,0,P|503:166|464:89,1,140.399995715332,2|2,3:2|0:0,0:0:0:0:
452,58,127251,1,0,3:0:0:0:
352,84,127596,6,0,L|346:146,2,46.7999985717774,2|0|0,0:0|3:0|3:0,0:0:0:0:
260,35,128285,2,0,L|168:56,1,93.5999971435548,2|0,3:2|3:0,0:0:0:0:
109,71,128803,2,0,L|173:140,1,93.5999971435548,2|0,0:0|3:0,0:0:0:0:
216,184,129320,2,0,P|239:265|226:327,1,140.399995715332,2|2,3:2|0:0,0:0:0:0:
213,368,130010,1,0,3:0:0:0:
111,349,130354,2,0,L|64:357,2,46.7999985717774,2|0|0,0:0|3:0|3:0,0:0:0:0:
118,249,131044,5,2,3:2:0:0:
118,249,131216,2,0,L|79:221,1,46.7999985717774,2|0,0:0|3:0,0:0:0:0:
76,118,131734,2,0,L|37:90,2,46.7999985717774,2|0|2,0:0|3:0|3:2,0:0:0:0:
173,58,132423,6,0,P|220:55|266:18,1,104,2|8,3:2|0:0,0:0:0:0:
310,55,132941,2,0,P|289:97|298:155,1,104,2|0,0:0|3:0,0:0:0:0:
244,175,133458,1,8,0:0:0:0:
182,271,133803,2,0,L|225:370,1,104,2|8,3:2|0:0,0:0:0:0:
288,366,134320,2,0,L|330:271,1,104,2|0,0:0|3:0,0:0:0:0:
350,217,134837,1,8,0:0:0:0:
462,198,135182,6,0,P|481:159|453:101,1,104,2|8,3:2|0:0,0:0:0:0:
404,89,135699,1,2,0:0:0:0:
404,89,135872,2,0,P|392:66|402:42,2,52,2|0|8,0:0|3:0|0:0,0:0:0:0:
294,121,136561,2,0,L|183:103,1,104,2|8,3:2|0:0,0:0:0:0:
156,149,137079,2,0,L|100:140,2,52,2|0|0,0:0|0:0|3:0,0:0:0:0:
176,203,137596,1,8,0:0:0:0:
230,291,137941,6,0,P|160:308|99:362,1,156,10|8,3:2|0:0,0:0:0:0:
54,334,138630,2,0,P|67:287|56:234,1,104,10|8,3:2|0:0,0:0:0:0:
32,132,139320,2,0,L|57:26,1,104,10|8,3:2|0:0,0:0:0:0:
107,20,139837,2,0,L|186:94,1,104,8|8,0:0|0:0,0:0:0:0:
217,130,140354,1,8,1:2:0:0:
293,200,140699,6,0,P|327:200|356:190,1,52,2|0,1:2|3:0,0:0:0:0:
395,206,141044,2,0,P|412:176|417:146,1,52,2|0,1:2|3:0,0:0:0:0:
451,120,141389,2,0,P|434:90|410:70,1,52,2|0,1:2|3:0,0:0:0:0:
404,29,141734,2,0,P|370:29|341:38,2,52,2|0|0,1:2|0:0|3:0,0:0:0:0:
452,311,142941,2,0,L|461:367,2,52,0|0|0,3:0|3:0|3:0,0:0:0:0:
395,299,143458,6,0,B|399:271|384:242|380:245|363:221|366:190,1,114.400003491211,6|0,3:2|1:0,0:0:0:0:
371,133,143975,1,2,0:0:0:0:
371,133,144147,2,0,B|369:119|376:104|378:106|387:94|385:78,2,57.2000017456055,2|0|0,0:0|3:0|1:0,0:0:0:0:
272,73,144837,2,0,P|239:32|161:36,1,114.400003491211,2|0,3:2|1:0,0:0:0:0:
123,20,145354,2,0,P|82:53|86:131,1,114.400003491211,2|0,0:0|3:0,0:0:0:0:
70,169,145872,1,0,1:0:0:0:
183,162,146216,5,0,3:0:0:0:
183,162,146389,2,0,L|246:169,2,57.2000017456055,2|0|0,0:0|1:0|0:0,0:0:0:0:
178,219,146906,1,2,0:2:0:0:
227,321,147251,2,0,L|353:335,1,114.400003491211,0|2,1:0|3:2,0:0:0:0:
411,243,147941,2,0,P|452:242|486:216,2,85.8000026184083,0|0|0,1:0|3:0|3:0,0:0:0:0:
354,237,148630,1,0,1:0:0:0:
413,139,148975,6,0,P|410:81|398:27,1,114.400003491211,6|0,3:2|1:0,0:0:0:0:
344,28,149492,1,2,0:0:0:0:
344,28,149665,2,0,P|315:29|288:35,2,57.2000017456055,2|0|0,0:0|3:0|1:0,0:0:0:0:
307,136,150354,2,0,P|261:176|200:191,1,114.400003491211,0|0,3:2|1:0,0:0:0:0:
104,233,151044,2,0,P|75:223|53:200,1,57.2000017456055,2|0,0:0|3:0,0:0:0:0:
23,158,151389,1,0,1:0:0:0:
27,43,151734,6,0,L|96:32,1,57.2000017456055,0|2,3:0|0:0,0:0:0:0:
135,58,152079,2,0,L|144:114,2,57.2000017456055,0|0|2,1:0|0:0|0:2,0:0:0:0:
185,28,152596,1,0,3:0:0:0:
185,28,152768,1,0,1:0:0:0:
271,111,153113,1,0,3:0:0:0:
271,111,153285,2,0,P|248:163|245:219,1,114.400003491211,2|2,0:0|0:0,0:0:0:0:
363,215,153975,1,0,1:0:0:0:
363,215,154147,2,0,P|374:189|376:161,1,57.2000017456055,0|2,1:0|0:0,0:0:0:0:
388,104,154492,6,0,B|417:109|436:136|429:139|453:165|494:173,1,114.400003491211,6|0,3:2|1:0,0:0:0:0:
494,229,155010,1,2,0:0:0:0:
494,229,155182,2,0,B|488:257|461:277|459:269|432:294|425:335,1,114.400003491211,2|0,0:0|1:0,0:0:0:0:
319,355,155872,2,0,L|201:324,1,114.400003491211,0|0,3:0|1:0,0:0:0:0:
189,271,156389,2,0,L|307:240,1,114.400003491211,2|0,0:0|3:0,0:0:0:0:
319,188,156906,1,0,1:0:0:0:
299,75,157251,6,0,P|250:45|185:56,1,114.400003491211,2|0,3:2|1:0,0:0:0:0:
139,73,157768,1,2,0:0:0:0:
139,73,157941,2,0,P|125:47|94:36,2,57.2000017456055,2|0|0,0:0|3:0|1:0,0:0:0:0:
100,180,158630,1,2,3:2:0:0:
61,287,158975,1,0,1:0:0:0:
61,287,159147,2,0,P|74:312|105:323,2,57.2000017456055,2|2|0,0:0|0:0|3:0,0:0:0:0:
16,251,159665,1,0,1:0:0:0:
100,180,160010,6,0,L|216:171,1,114.400003491211,6|0,3:2|1:0,0:0:0:0:
275,169,160527,1,2,0:0:0:0:
275,169,160699,2,0,L|266:53,1,114.400003491211,2|0,0:0|1:0,0:0:0:0:
374,18,161389,2,0,P|428:28|478:87,1,114.400003491211,2|0,3:2|1:0,0:0:0:0:
454,123,161906,2,0,P|414:163|403:218,1,114.400003491211,2|0,0:0|3:0,0:0:0:0:
439,263,162423,1,0,1:0:0:0:
364,349,162768,6,0,L|296:258,1,114.400003491211,2|0,3:2|1:0,0:0:0:0:
243,281,163285,2,0,L|234:337,2,57.2000017456055,2|2|0,0:0|0:0|3:0,0:0:0:0:
198,244,163803,1,0,1:0:0:0:
115,323,164147,1,2,3:2:0:0:
67,225,164492,1,0,1:0:0:0:
67,225,164665,2,0,L|10:216,2,57.2000017456055,2|2|0,0:0|0:0|3:0,0:0:0:0:
77,168,165182,1,0,1:0:0:0:
193,157,165527,6,0,P|230:118|233:55,1,114.400003491211,6|0,3:2|1:0,0:0:0:0:
195,26,166044,1,2,0:0:0:0:
195,26,166216,2,0,P|168:19|140:34,2,57.2000017456055,2|0|0,0:0|3:0|1:0,0:0:0:0:
308,12,166906,2,0,L|423:23,1,114.400003491211,2|0,3:2|1:0,0:0:0:0:
479,27,167423,2,0,L|411:121,1,114.400003491211,2|0,0:0|3:0,0:0:0:0:
380,167,167941,1,0,1:0:0:0:
421,278,168285,5,0,3:0:0:0:
421,278,168458,2,0,L|444:330,2,57.2000017456055,2|0|0,0:0|1:0|0:0,0:0:0:0:
369,302,168975,1,2,0:0:0:0:
267,354,169320,2,0,P|227:306|175:285,1,114.400003491211,0|2,1:0|3:2,0:0:0:0:
101,369,170010,1,0,1:0:0:0:
101,369,170182,2,0,P|49:345|14:300,1,114.400003491211,2|0,0:0|3:0,0:0:0:0:
11,243,170699,1,0,1:0:0:0:
115,195,171044,6,0,P|118:158|122:132,1,57.2000017456055,2|0,3:2|0:0,0:0:0:0:
128,81,171389,2,0,P|202:87|254:95,1,114.400003491211,0|2,1:0|0:0,0:0:0:0:
298,99,171906,1,0,3:0:0:0:
298,99,172079,1,0,1:0:0:0:
260,207,172423,2,0,P|277:260|330:291,1,114.400003491211,0|0,3:0|1:0,0:0:0:0:
368,327,172941,2,0,P|421:310|452:257,1,114.400003491211,2|0,0:0|3:0,0:0:0:0:
488,219,173458,2,0,P|462:139|383:92,1,171.600005236817,0|0,1:0|0:0,0:0:0:0:
347,57,174147,1,0,1:0:0:0:
256,127,174492,6,0,L|259:187,2,57.2000017456055,2|0|0,0:0|3:0|1:0,0:0:0:0:
149,83,175182,1,2,3:2:0:0:
149,83,175354,1,0,0:0:0:0:
5,205,175872,2,0,P|0:236|11:262,1,57.2000017456055,2|2,0:0|3:2,0:0:0:0:
46,302,176216,2,0,P|77:307|103:296,1,57.2000017456055,2|2,1:2|0:0,0:0:0:0:
143,259,176561,6,0,P|151:207|198:174,1,104,6|0,3:2|1:0,0:0:0:0:
293,182,177251,2,0,P|312:165|316:140,2,52,2|0|0,0:0|3:0|1:0,0:0:0:0:
248,276,177941,2,0,P|262:325|283:379,1,104,2|0,3:2|1:0,0:0:0:0:
332,380,178458,2,0,P|367:343|403:298,1,104,2|0,0:0|3:0,0:0:0:0:
381,256,178975,1,0,1:0:0:0:
465,196,179320,5,2,3:2:0:0:
370,155,179665,1,0,1:0:0:0:
286,215,180010,2,0,P|261:219|229:211,1,46.7999985717774,2|0,0:0|3:0,0:0:0:0:
190,228,180354,2,0,P|182:183|197:125,1,93.5999971435548,0|2,1:0|3:2,0:0:0:0:
287,95,181044,2,0,P|294:60|288:26,2,70.1999978576661,0|0|0,1:0|3:0|3:0,0:0:0:0:
331,120,181734,1,0,1:0:0:0:
432,132,182079,6,0,L|484:138,2,46.7999985717774,2|0|0,3:2|0:0|1:0,0:0:0:0:
420,233,182768,2,0,L|414:285,1,46.7999985717774,0|0,0:0|3:0,0:0:0:0:
410,330,183113,2,0,B|381:327|367:342|370:347|350:368|310:358,1,93.5999971435548,0|2,1:0|3:2,0:0:0:0:
225,356,183803,1,0,1:0:0:0:
225,356,183975,2,0,B|213:329|193:325|190:330|162:323|151:283,1,93.5999971435548,2|0,0:0|3:0,0:0:0:0:
160,246,184492,1,0,1:0:0:0:
237,178,184837,5,2,1:2:0:0:
237,178,185010,1,0,3:0:0:0:
228,75,185354,2,0,L|174:77,1,46.7999985717774,10|0,0:0|3:0,0:0:0:0:
78,85,185872,2,0,L|82:193,1,93.5999971435548,2|0,3:2|3:0,0:0:0:0:
83,230,186389,1,0,3:0:0:0:
4,298,186734,1,0,3:0:0:0:
107,337,187079,1,0,3:0:0:0:
107,337,187251,2,0,P|147:321|172:282,1,83.2,0|0,3:0|3:0,0:0:0:0:
